#TITLE:Slow Dance;
#SUBTITLE:(DDR UNIVERSE -Side A-);
#ARTIST:Nightime;
#TITLETRANSLIT:;
#SUBTITLETRANSLIT:;
#ARTISTTRANSLIT:;
#CREDIT:;
#BANNER:UNIVERSE-A.png;
#BACKGROUND:;
#LYRICSPATH:;
#CDTITLE:./CDTITLES/Dance Dance Revolution UNIVERSE.png;
#MUSIC:UNIVERSE-A.mp3;
#OFFSET:-1.604;
#SAMPLESTART:262.390;
#SAMPLELENGTH:13.140;
#SELECTABLE:YES;
#BPMS:0.000=112.500,96.000=55.120,105.000=110.000,111.000=91.180,112.000=112.500,159.500=100.000,287.500=105.000,295.500=110.000,304.000=115.000,466.000=110.000,481.753=105.000,626.000=100.000,634.000=95.000,642.000=180.000;
#STOPS:481.750=0.136
;
#BGCHANGES:;

//---------------dance-single - ----------------
#NOTES:
     dance-single:
     :
     Hard:
     9:
     0.629,1.000,0.402,0.374,0.339: // measure 1
0000
0000
0000
0000
,  // measure 2
0000
0000
0000
0000
0000
0000
0000
0000
0001
0000
0000
1000
0000
0000
0001
0000
,  // measure 3
0000
1000
0000
0000
0001
0000
0000
1000
0000
0000
0100
0000
0100
0010
0000
0000
,  // measure 4
0001
0100
0010
1000
0000
1000
0100
0000
0100
0010
0100
1000
0001
0100
0010
0100
,  // measure 5
0000
0100
0001
0000
0001
1000
0000
0000
0010
1000
0100
1000
0000
1000
0100
0000
,  // measure 6
0100
0010
0000
0010
0001
0000
0001
0100
0000
0100
0010
1000
0100
0010
0001
0010
,  // measure 7
0200
0000
0000
0000
0000
0000
0300
0000
1000
0000
0010
0000
0100
0000
0010
1000
,  // measure 8
0010
0000
0100
0000
0001
0000
1000
0000
0100
0000
0010
0001
0010
0000
0001
0000
,  // measure 9
1000
0010
1000
0000
0010
0000
0100
0001
0100
0000
0010
0000
0010
0000
0100
0000
,  // measure 10
0010
0000
1000
0100
0010
0000
0001
0000
0100
0000
0010
0000
1000
0000
0001
0100
,  // measure 11
0001
0000
1000
0000
0010
0000
0100
0000
0001
0000
1000
0010
1000
0000
0200
0000
,  // measure 12
0000
0300
0010
0000
0200
0000
0000
0300
0010
0001
1000
0000
0100
0000
0100
0000
,  // measure 13
1100
0000
0001
0010
0100
0000
1000
0000
0010
0000
1000
0000
1001
0000
0001
1000
,  // measure 14
0100
0000
0100
0000
0010
0000
0001
0000
0011
0000
0001
1000
0001
0000
1010
0000
,  // measure 15
1000
0001
1000
0000
1001
0000
0001
0100
0010
0000
0100
0000
0010
0000
0010
0000
,  // measure 16
0110
0000
0010
0100
0001
0000
1000
0000
0100
0000
0010
0000
0110
0000
0010
0100
,  // measure 17
1000
0000
0001
0000
0100
0000
0010
0000
0110
0000
0100
0001
0100
0000
0020
0000
,  // measure 18
0000
0030
0100
0000
0020
0000
1000
0000
0100
0000
0100
0000
0000
0000
0000
0030
,  // measure 19
0110
0000
0000
0000
0010
1000
0100
0000
1000
0000
0001
0000
1001
0000
0010
1000
,  // measure 20
0100
0010
0001
0000
0100
0000
0010
0000
1000
0000
0001
0100
0020
0000
0000
0000
,  // measure 21
0130
0001
0020
0000
0000
0000
0130
1000
0020
0000
0000
0000
0130
0001
1000
0000
,  // measure 22
1001
0000
0000
0000
0001
0100
0010
0000
0100
0000
0010
0000
1010
0000
0010
1000
,  // measure 23
0100
1000
0010
0000
0100
0000
0001
0000
1000
0000
0001
0100
0020
0000
0100
0000
,  // measure 24
0130
0001
1000
0000
0100
0000
0000
0010
0000
0001
2000
0000
0000
0000
3000
0000
,  // measure 25
1100
0000
1000
0001
0100
0000
0000
0000
0110
0000
0010
1000
0010
0000
1000
0100
0001
0100
1000
0010
0200
0000
0301
0000
0101
0000
0001
0100
0010
0000
0000
0000
,  // measure 26
1010
0000
1000
0001
0010
0000
0001
0010
1000
0010
0001
0100
0020
0000
1030
0000
1001
0000
0000
0000
0101
0000
0000
0000
1001
0000
0000
0000
1100
0000
1000
0100
,  // measure 27
1000
0000
0001
0100
0010
0000
0000
0000
1000
0000
0100
0000
0010
0000
0100
0000
1000
0000
0000
0000
0001
0000
0100
0000
0010
0000
0100
0000
0001
0000
0000
0000
,  // measure 28
0100
0000
0010
0000
1000
0000
0010
0000
0100
0000
0000
0000
0001
0000
0010
0000
0100
0000
1000
0000
0001
0000
0000
0000
2002
0000
0000
0000
0000
0000
0000
3003
,  // measure 29
0000
1000
0000
0001
0010
0001
0000
0100
0000
0010
0000
1000
0000
0010
0000
1000
,  // measure 30
0010
1000
0000
0100
0000
0010
0000
0001
0000
1000
0000
0001
0010
0001
0000
0100
,  // measure 31
0000
0001
1000
0001
0000
0100
0000
0010
1000
0010
0000
0100
0000
0010
0000
1000
,  // measure 32
0000
0001
0000
1000
0010
1000
0000
0100
0000
0010
0000
0001
0000
0010
0000
0100
,  // measure 33
1000
0100
0000
1000
0000
0100
0000
0001
0000
0100
0000
0010
0001
0100
0000
0020
,  // measure 34
0000
0000
0030
0100
0000
0020
0000
0000
0030
1000
0001
0100
0000
0010
0000
1000
,  // measure 35
0000
2020
0000
0000
0000
0000
0000
3030
0000
0011
0000
0110
0000
2002
0000
0000
,  // measure 36
0000
0000
0000
3003
0000
1100
0000
0101
0000
0220
0000
0000
0000
0330
0000
2002
,  // measure 37
0000
0000
0000
3003
0000
0110
0000
0000
0000
1000
0100
0010
0000
0001
0000
0001
,  // measure 38
0000
0100
0000
0010
0100
0010
0000
1000
0000
0010
0000
0001
0000
0010
0000
0100
,  // measure 39
0001
0100
0000
0100
0000
0010
0000
1000
0000
0100
0000
0010
0001
0010
0000
0100
,  // measure 40
0000
1000
0100
1000
0000
2002
0000
0000
0000
0000
0000
0000
0000
0000
3003
0000
,  // measure 41
0000
0000
0010
0000
0100
0001
0000
0000
0100
0000
0010
0000
1000
0000
0002
0000
,  // measure 42
0000
0000
0013
0000
0100
1000
0000
0000
0100
0000
0010
0000
0001
0000
1000
0001
,  // measure 43
1000
0000
0001
0000
0100
0000
0010
0000
0100
0000
0001
1000
0001
0000
1000
0000
,  // measure 44
0100
0000
0010
0100
1000
0000
0001
0000
0010
0000
0100
0000
1000
0000
1002
0000
,  // measure 45
0000
0000
0103
0000
0010
1000
0000
0000
0010
0000
0100
0000
0001
0000
2001
0000
,  // measure 46
0000
0000
3100
0000
0010
0001
0000
0000
0010
0000
0100
0000
1000
0010
1000
0000
,  // measure 47
0001
0100
0001
0000
0100
0000
0010
0000
1000
0000
0001
0100
0010
0000
1000
0000
,  // measure 48
0001
0000
0010
0100
0010
0000
0002
0000
0000
0000
1003
0000
0001
0000
0100
0010
,  // measure 49
0000
1010
0000
1000
0000
0001
0000
0012
0000
0000
0103
0000
0000
0000
0010
0100
,  // measure 50
0000
0101
0000
0001
0000
1000
0000
2100
0000
0000
3010
0000
0000
0000
1000
0100
,  // measure 51
0000
1100
0000
1000
0000
0001
0000
0021
0000
0000
0130
0000
0000
1000
0001
0000
,  // measure 52
0100
0000
0100
0000
0010
0000
0010
0000
1000
0001
1000
0000
0100
1000
0100
0000
,  // measure 53
0000
0000
1001
0000
0100
0001
0100
0000
0000
0000
1001
0000
0010
0001
0010
0000
,  // measure 54
0000
0000
1001
0000
0010
1000
0020
0000
0000
0000
0130
0000
0001
0010
0100
0000
,  // measure 55
1000
0000
0001
0000
0110
0000
1000
0000
0110
0000
0001
0000
1000
0010
0100
0000
,  // measure 56
0001
0000
1000
0000
0110
0000
0001
0000
0110
0000
1000
0000
0001
0010
0100
0000
,  // measure 57
1000
0000
0010
0000
0200
0000
0000
0000
0320
0000
0000
0000
1030
0001
0010
0000
,  // measure 58
0001
0000
0100
0000
0020
0000
0000
0000
0230
0000
0000
0000
0301
1000
0100
0000
,  // measure 59
1000
1000
0001
0001
0020
0000
2030
0000
,  // measure 60
3010
0001
0100
0010
1000
0101
1100
0000
,  // measure 61
0010
1000
0001
0000
0100
0001
1000
0000
0100
0000
0001
0000
0100
0000
1000
0000
,  // measure 62
2000
0000
0001
0000
3002
0000
0000
0000
0103
0000
0010
0000
1000
0001
0010
0000
,  // measure 63
0100
0010
0001
1000
0100
0010
0100
1000
,  // measure 64
1000
0001
0001
1010
0000
0101
0000
1001
,  // measure 65
0000
0000
1000
0000
0100
1000
0020
0000
0000
0000
0031
0000
0010
1000
0200
0000
,  // measure 66
0000
0000
0301
0000
0100
1000
0002
0000
0000
0000
0013
0000
0001
0100
0010
0000
,  // measure 67
1000
0000
0001
0000
1100
0000
1000
0000
0101
0000
0001
0000
0010
0001
0100
0000
,  // measure 68
0010
0000
1000
0000
0011
0000
0001
0000
1010
0000
1000
0000
0100
0010
0100
0000
,  // measure 69
1000
0000
0001
0000
0100
0010
0100
0000
0001
0000
1000
0000
0001
0100
1000
0000
,  // measure 70
0100
0000
0001
0000
1000
0100
0001
0000
0100
0000
1000
0000
0001
1000
0010
0000
,  // measure 71
0100
0000
0010
0000
1001
0000
0100
0000
1001
0000
0010
0000
0100
1000
0001
0000
,  // measure 72
0010
0100
1001
0100
1001
0010
0100
1002
,  // measure 73
0000
0000
0103
0000
0001
0020
0000
0000
0230
0000
0000
0000
0010
0000
2300
0000
,  // measure 74
0000
0000
3010
0000
1000
0002
0000
0000
0203
0000
0000
0000
0010
0000
0302
0000
,  // measure 75
0000
0000
0013
0000
0001
0200
0000
0000
0320
0000
0000
0000
0001
0000
2030
0000
,  // measure 76
0000
0000
3100
0000
0010
0200
0000
0000
2300
0000
0000
0000
3001
0000
1001
0000
,  // measure 77
0000
0000
0000
0000
2000
0000
0000
3001
,  // measure 78
0100
1000
1100
0000
0010
0000
1000
0001
,  // measure 79
0000
0001
1000
0010
0200
0000
0000
0301
,  // measure 80
0010
0100
0110
0000
0001
0000
1000
0100
,  // measure 81
0000
1000
0001
0000
0010
0100
1000
0010
,  // measure 82
0100
1000
0001
0010
0100
0001
0010
0100
,  // measure 83
1000
0010
0100
1000
0100
0001
0010
0100
,  // measure 84
0001
0100
1000
0001
0010
0100
1000
0010
,  // measure 85
0100
0000
0001
0000
0010
0000
0100
0000
1000
0001
0000
0100
0000
0010
0000
0100
,  // measure 86
0000
0001
0000
0010
0000
0100
0000
1000
0100
1000
0000
0010
0000
0100
0000
0010
,  // measure 87
0000
1000
0000
0100
0000
0010
0000
0001
0100
0001
0000
1000
0000
0010
0000
0100
,  // measure 88
0000
0001
0000
0010
0000
0100
0000
1000
0001
1000
0001
1000
0100
1000
0100
1000
,  // measure 89
0001
1000
0001
1000
0001
0100
0001
0100
2002
0000
0000
0000
0000
0000
0000
0000
,  // measure 90
3003
0000
0110
0000
0010
0010
0100
1000
,  // measure 91
0000
0100
0010
0000
1001
0000
0000
0101
,  // measure 92
0000
0000
1010
0000
0100
0100
1000
0010
,  // measure 93
0000
1000
0100
0010
1001
0000
0000
0011
,  // measure 94
0000
0000
1100
0000
0010
0010
0100
0001
,  // measure 95
0000
0100
0010
0000
1001
0000
0000
1100
,  // measure 96
0000
0000
0011
0000
0100
0100
0001
1000
,  // measure 97
0000
1000
0100
0010
0002
0000
0000
0000
,  // measure 98
0000
0000
2003
0000
,  // measure 99
0000
0000
0000
0000
3010
0010
0010
0010
,  // measure 100
0100
0100
0100
0100
0010
0010
1000
1000
,  // measure 101
0100
0100
0010
0010
0001
1000
0001
1000
,  // measure 102
0010
0001
0010
0001
0010
1000
0100
1000
,  // measure 103
0010
0001
0010
1000
0001
1000
0001
1000
,  // measure 104
0100
0001
0100
0001
0100
1000
0010
1000
,  // measure 105
0100
0001
0100
1000
0010
0100
0100
0001
,  // measure 106
0001
0100
0010
1000
0100
0010
0010
0001
,  // measure 107
0001
0010
0100
1000
0010
0001
0001
0010
,  // measure 108
0010
1000
0100
0001
0100
1000
1000
0010
,  // measure 109
0010
0001
0010
1000
0001
0100
0001
0100
,  // measure 110
0010
0001
0010
0001
0010
0100
0001
0100
,  // measure 111
0010
0001
0010
0100
1000
0010
1000
0010
,  // measure 112
0100
1000
0100
1000
0100
0010
1000
0010
,  // measure 113
0100
1000
0100
0010
0001
1000
0001
1000
,  // measure 114
0000
0010
0100
0000
0010
0010
1000
0100
,  // measure 115
0000
0100
1000
0000
0010
0010
0100
0001
,  // measure 116
0000
0001
0100
0000
0010
0010
1000
0001
,  // measure 117
0000
0000
0010
0000
0100
0000
0000
0000
1000
0001
0000
0100
0000
0010
0000
0100
,  // measure 118
0000
0001
0000
0010
0000
0100
0000
1000
0100
1000
0000
0010
0000
0100
0000
0010
,  // measure 119
0000
1000
0000
0100
0000
0010
0000
0001
0100
0001
0000
1000
0000
0010
0000
0100
,  // measure 120
0000
0001
0000
0010
0000
0100
0000
1000
0001
1000
0001
1000
0010
1000
0010
1000
,  // measure 121
0001
1000
0001
1000
0001
0010
0001
0000
1002
0000
0103
0000
0001
0000
0010
0000
,  // measure 122
0100
0010
1001
0000
0110
0001
0010
0100
,  // measure 123
1000
0010
1002
0103
2001
3100
1000
0010
,  // measure 124
0100
0010
1001
0000
0110
1000
0010
0100
,  // measure 125
0001
0010
2001
3100
1002
0103
0010
1000
,  // measure 126
1010
0000
0101
0000
0010
0001
1000
0001
,  // measure 127
0010
0100
1200
0310
0201
0310
0001
0100
,  // measure 128
0101
0000
0000
0000
1010
0000
0000
0000
0001
0000
1000
0000
0100
1000
0010
0000
,  // measure 129
1010
1001
1100
0010
1001
0000
0110
0001
,  // measure 130
1000
0000
0010
0000
0100
0000
0001
0000
1000
0000
0001
1000
0001
0000
0010
0000
,  // measure 131
0100
0000
0010
0100
0010
0000
0100
0000
1001
0000
0000
0000
0110
0000
0000
0000
,  // measure 132
0100
0000
1000
0010
1000
0000
0001
0000
0100
0000
0001
0000
0010
0000
0100
0000
,  // measure 133
1000
0010
2002
3003
1001
0001
1000
0001
,  // measure 134
0010
0100
1001
0000
1001
0100
0010
0001
,  // measure 135
1000
0000
0001
0000
2002
0000
3003
0000
0110
0000
0001
0000
0100
0000
0001
0010
,  // measure 136
0002
0000
0023
0000
0130
0000
1000
0010
2000
0000
3020
0000
0030
0000
0100
0001
,  // measure 137
0010
0000
1100
0000
0202
0000
0303
0000
1001
0000
1000
0000
0001
0000
1000
0100
,  // measure 138
0020
0000
2030
0000
3010
0000
0001
0100
0020
0000
0032
0000
0013
0000
1000
0000
,  // measure 139
0001
0000
1000
0000
2002
0000
3003
0000
0110
0000
1000
0000
0100
0000
1000
0010
,  // measure 140
2000
0000
3020
0000
0130
0000
0001
0010
0002
0000
0023
0000
0030
0000
0100
1000
,  // measure 141
0010
0101
2200
3300
0110
0000
1001
0000
,  // measure 142
0120
0000
1030
0000
1002
0000
0013
0000
0110
0000
0100
0000
0010
0100
0010
0000
,  // measure 143
0001
1000
0220
0330
1001
0000
0110
0000
,  // measure 144
1002
0000
0013
0000
0210
0000
1300
0000
1001
0000
0100
0000
1000
0010
1000
0000
,  // measure 145
0001
0010
2002
3003
0110
0000
1001
0000
,  // measure 146
1002
0103
1200
0301
2001
3100
0201
1300
,  // measure 147
1001
0110
1001
2000
0000
3000
1001
0002
,  // measure 148
0000
0003
1001
0100
0020
0030
0110
0010
,  // measure 149
0001
1000
1001
0000
1001
0000
0110
0001
,  // measure 150
1000
0000
0010
0000
0100
0000
0001
0010
0001
0000
1000
0010
1000
0000
0100
0000
,  // measure 151
0010
0000
0001
1000
0001
0000
0100
0000
1001
0000
0000
0000
0110
0000
0000
0000
,  // measure 152
1000
0000
0001
0010
0000
0000
1000
0000
0010
0000
0001
0000
0100
0000
1000
0000
,  // measure 153
0100
0010
2002
3003
1001
1000
0001
1000
,  // measure 154
0100
0010
1001
0000
1001
0010
0100
1000
,  // measure 155
0001
0000
1000
0000
2002
0000
3003
0000
0110
0000
1000
0000
0010
0000
1000
0100
,  // measure 156
2000
0000
3200
0000
0310
0000
0001
0100
0002
0000
0203
0000
0300
0000
0010
1000
,  // measure 157
0100
0000
0101
0000
2200
0000
3300
0000
1001
0000
0001
0000
1000
0000
0001
0010
,  // measure 158
0200
0000
0302
0000
0103
0000
1000
0010
0200
0000
2300
0000
3100
0000
0001
0000
,  // measure 159
1000
0000
0001
0000
2002
0000
3003
0000
0110
0000
0001
0000
0010
0000
0001
0100
,  // measure 160
0002
0000
0203
0000
0310
0000
1000
0100
2000
0000
3200
0000
0300
0000
0010
0001
,  // measure 161
0100
1100
0202
0303
2000
0000
0100
0000
,  // measure 162
0100
3100
0002
0100
,  // measure 163
0100
0103
2000
0010
,  // measure 164
0010
3010
0001
0011
,  // measure 165
1001
0000
0101
0000
0010
0100
0001
1000
,  // measure 166
0001
0100
0001
0010
0100
1000
0001
1000
,  // measure 167
0100
1000
0001
0010
0100
1000
0010
0001
,  // measure 168
0010
1000
0100
0001
0100
1000
0010
0200
,  // measure 169
0001
0302
1000
1003
2001
0000
3100
0000
,  // measure 170
1000
0010
1000
0001
0020
0000
0130
2000
,  // measure 171
0000
3100
0010
0001
0011
0000
1100
0000
,  // measure 172
1000
0010
0100
0001
1000
0001
0100
0001
,  // measure 173
0011
1010
1002
0103
,  // measure 174
0001
0010
0001
1000
0020
0000
0130
0002
,  // measure 175
0000
0103
0010
2000
0000
0000
3100
0000
,  // measure 176
1000
0001
1000
0100
0010
0001
0010
1000
,  // measure 177
0010
0001
1000
0100
0010
0000
1100
0000
,  // measure 178
0010
0100
1000
0001
0000
1000
0100
0000
,  // measure 179
0001
0100
1000
0010
1000
0000
0110
0000
,  // measure 180
0001
0010
0001
0100
0000
1000
0100
0000
,  // measure 181
0001
0010
0001
0100
0010
0000
0101
0000
,  // measure 182
0010
0100
0001
1000
0000
0001
0010
0000
,  // measure 183
1000
0010
0001
1000
0100
0001
0100
1000
,  // measure 184
0010
1000
0100
0010
0001
0100
1000
0100
,  // measure 185
0101
1010
1001
0100
,  // measure 186
0010
1000
0001
0200
0000
0320
0000
1030
,  // measure 187
0001
0100
0010
0000
1000
0000
0001
0000
,  // measure 188
0100
0010
0100
0002
0000
2003
0000
3010
,  // measure 189
0100
0010
1000
0000
0001
0000
0010
0000
,  // measure 190
0100
1000
0001
0020
0000
0230
0000
1300
,  // measure 191
0001
0010
0100
0000
1000
0000
0001
0000
,  // measure 192
0010
0100
0010
0002
0000
2003
0000
3100
,  // measure 193
0010
0100
1000
0000
0020
0000
0031
0000
,  // measure 194
0010
2000
0000
3001
0200
0000
1300
0000
,  // measure 195
0100
0002
0000
0000
1003
0000
1100
0000
,  // measure 196
1000
0000
0101
0010
0000
1000
0001
0000
,  // measure 197
0100
0001
0010
0100
1000
0001
0000
1000
,  // measure 198
0001
0000
0100
0000
0020
0001
0000
1000
,  // measure 199
0000
0031
0010
0000
1000
0001
0000
1000
,  // measure 200
0001
0000
0010
0000
0200
0001
0000
1000
,  // measure 201
0000
0301
0100
0000
1000
0001
1000
0010
,  // measure 202
0100
0001
1000
0001
0100
0010
1000
0010
,  // measure 203
0100
0001
0020
0000
0031
0100
0010
1000
,  // measure 204
0001
1000
0010
0100
0002
0000
2003
0000
,  // measure 205
3020
0000
0230
0000
0301
1000
0000
0001
,  // measure 206
1000
0000
0100
0000
0010
1000
0001
1000
,  // measure 207
0010
0000
0001
0000
1000
0001
0000
1000
,  // measure 208
0001
0000
0100
0000
0010
0001
1000
0001
,  // measure 209
0101
1100
2001
3010
,  // measure 210
1000
0100
1000
0001
0200
0000
0310
2000
,  // measure 211
0000
3010
0100
0001
0101
0000
1010
0000
,  // measure 212
1000
0100
0010
0001
1000
0001
0010
0001
,  // measure 213
0101
1100
1002
0013
,  // measure 214
0001
0100
0001
1000
0200
0000
0310
0002
,  // measure 215
0000
0013
0100
2000
0000
0000
3100
0000
,  // measure 216
1000
0001
1000
0100
0010
0001
0010
1000
,  // measure 217
0010
0001
1000
0001
0010
0000
1100
0000
,  // measure 218
0010
0100
1000
0001
0000
0010
0001
0000
,  // measure 219
0100
0001
0010
0100
1000
0000
0101
0000
,  // measure 220
0010
0100
0001
1000
0000
0010
1000
0000
,  // measure 221
0100
1000
0010
0100
0001
0000
0110
0000
,  // measure 222
1000
0001
1000
0010
0000
0100
0001
0000
,  // measure 223
1000
0010
0100
1000
0100
0001
0010
0100
,  // measure 224
0001
0100
0010
0001
1000
0010
0100
0001
,  // measure 225
0011
1100
2002
0000
,  // measure 226
0000
0000
0000
0000
,  // measure 227
0000
0000
3003
0000
;

//---------------dance-single - ----------------
#NOTES:
     dance-single:
     :
     Easy:
     3:
     0.193,0.273,0.066,0.099,0.029:
0000
0000
0000
0000
,
0000
0000
0000
0000
1000
0000
0000
0010
,
0000
0000
0000
0000
0100
0000
0000
0100
0000
0000
0010
0000
0000
0010
0000
0000
,
0010
0000
0000
0100
0000
0000
0001
0000
,
0000
1000
0000
0000
0010
0000
0000
0100
,
0000
0000
0010
0000
0000
0100
0000
0000
,
0001
0000
0000
1000
,
0000
0000
0000
0000
0010
0000
0000
0100
,
0000
0010
0000
0000
,
1000
0000
0000
0001
,
0000
0000
0000
0000
1000
0000
0000
0010
,
0000
1000
0000
0000
,
0010
0000
0000
0010
0000
0000
1000
0000
,
0000
1000
0000
0000
0010
0000
0000
0100
,
0000
0001
0000
0000
,
1000
0000
0000
0001
,
0000
0000
0000
0000
0010
0000
0000
0100
,
0000
1000
0000
0000
,
1001
0000
0000
1001
,
0000
0000
0000
0000
1000
0000
0000
0010
,
0000
0000
0100
0000
0000
0010
0000
0000
,
1001
0000
0000
1001
,
0000
0000
0000
0000
0010
0000
0000
0100
,
0000
0010
0000
0000
,
1000
0000
0001
0000
0100
0100
0010
0000
,
1000
0000
0001
0001
1000
0000
0100
0000
,
0000
0000
0010
0000
0000
0001
0000
0000
,
1000
0000
0000
0001
0000
0000
0100
0000
,
0000
0010
0000
0000
0000
0000
0000
0000
0000
0000
0000
0000
0000
1000
0000
0000
,
0000
0000
0000
0000
0000
0000
0000
0000
0000
0001
0000
0000
0000
0000
0000
1000
,
0000
0000
0000
0000
0000
0100
0000
0000
0000
0000
0000
0000
0000
0000
0000
0000
,
0000
0100
0000
0000
0000
0000
0000
0000
0000
0000
0000
0000
0000
0010
0000
0000
,
0000
0000
0000
0000
0000
0000
0000
0000
0000
0001
0000
0000
0000
0000
0000
0010
,
0000
0000
0000
0000
0000
0001
0000
0000
0000
0000
0000
0000
0000
0000
0000
0000
,
0000
0010
0000
0000
0000
0000
0000
0010
0000
0000
0000
0000
0000
0001
0000
0000
,
0000
0000
0000
0001
0000
0000
0000
0000
0000
0010
0000
0000
0000
0000
0000
0100
,
0000
0000
0000
0000
0000
1000
0000
0000
0000
0000
0000
0000
0000
0000
0000
0000
,
0000
1000
0000
0000
0000
0000
0000
1000
0000
0000
0000
0000
0000
0010
0000
0000
,
0000
0000
0000
0010
0000
0000
0000
0000
0000
1000
0000
0000
0000
0000
0000
0001
,
0000
0000
0000
0000
0000
1000
0000
0000
0000
0000
0000
0000
0000
0000
0000
0000
,
0110
0010
0000
0000
,
1000
1000
0000
0000
,
0100
0100
0000
0000
,
0110
0000
0000
0000
,
0010
0100
0000
0000
,
0100
0010
0000
0000
,
1000
0001
1000
0000
,
0001
1000
0001
0000
,
0002
0000
0000
0003
,
2000
0000
0000
3000
,
0002
0000
0000
0003
,
0100
0100
0010
0010
,
0001
0000
0100
0000
,
0001
0000
1000
0000
,
1000
0200
0000
0300
,
0001
0200
0000
0300
,
0002
0000
0003
0000
,
2000
0000
3000
0000
,
0200
0000
0300
0000
,
0020
0000
0030
0000
,
2000
3000
0200
0300
,
0020
0030
0002
0003
,
0002
0003
0200
0300
,
0020
0030
2000
3000
,
1001
0000
0010
0000
,
1001
0000
0100
0000
,
0001
0020
0000
0030
,
1000
0020
0000
0030
,
1001
0000
0010
0000
,
1001
0000
0100
0000
,
1000
0200
0000
0300
,
0001
0200
0000
0300
,
1000
0000
0001
0000
,
0100
0000
0010
0000
,
0100
0000
0010
0000
,
1000
0000
0001
0000
,
1001
0000
0010
0000
,
1000
0001
0100
0000
,
0010
0010
1000
0000
,
0100
0100
0010
0000
,
0001
0001
1000
0010
,
0100
0001
1000
0000
,
0010
0010
0200
0000
,
0000
0300
0200
0000
,
0000
0300
0010
0010
,
1000
0001
0100
0001
,
0010
0001
2000
0000
,
0000
3000
2000
0000
,
0000
3000
1001
0000
,
0000
0000
1000
0100
,
1000
0010
0100
0001
,
0010
0001
0100
0000
,
1000
0000
0010
0000
,
0001
0000
0100
0100
,
0010
1000
0001
0100
,
1000
0100
0001
0000
,
0010
0000
0100
0000
,
1000
1000
2000
0000
,
0000
3000
0002
0000
,
0000
0003
2000
0000
,
0000
3000
0010
0010
,
0010
0010
0100
0010
,
1000
0010
0100
0010
,
0001
0010
0100
0001
,
0010
0100
1000
0001
,
1000
0000
0010
0100
,
0001
0100
0010
0100
,
1000
0100
0010
1000
,
0100
0010
0001
1000
,
0001
0000
1000
0010
,
0100
0100
0020
0000
,
0000
0030
0200
0000
,
0000
0300
0001
1000
,
0001
1000
0001
0010
,
0100
0100
0020
0000
,
0000
0030
0200
0000
,
0000
0300
1000
0001
,
1000
0001
0200
0000
,
0300
0010
2000
0000
,
3000
0010
0200
0000
,
0300
0001
2000
0000
,
0000
3000
1000
0000
,
1000
0000
0001
0000
,
0001
1000
1001
0000
,
0010
0000
0100
0000
,
0010
0000
1001
0000
,
0100
0000
0010
0000
,
0100
0000
0110
0000
,
0001
0000
1000
0000
,
0001
0000
0110
0000
,
1000
0000
0001
0000
,
1000
0000
0001
0001
,
0100
0000
1000
1000
,
0100
0000
0001
0001
,
0010
0000
0001
1000
,
0001
1000
1001
0000
,
0100
0000
0001
0000
,
0010
0000
0100
0010
,
0100
0010
0001
1000
,
1001
1001
1000
0000
,
0100
0000
1000
0000
,
0010
0000
0100
0010
,
0100
0010
1000
0001
,
1001
1001
0200
0000
,
0310
0000
0001
0100
,
0001
1001
0000
1000
,
0000
0001
0000
0100
,
0010
0110
0000
1000
,
0000
0001
0000
0010
,
0100
0010
0110
0000
,
1001
0000
1000
0001
,
1000
0001
0001
0001
,
0100
0000
1000
1000
,
0100
0000
0001
0001
,
0010
0000
0001
1000
,
0001
1000
1001
0000
,
0100
0000
0001
0000
,
0010
0000
0100
0010
,
0100
0010
0001
1000
,
1001
1001
1000
0000
,
0100
0000
1001
0000
,
0100
0000
1000
0000
,
0100
0000
0010
0010
,
0010
0000
0001
0000
,
1000
0000
0001
0001
,
0001
0000
1000
0000
,
0010
0000
0100
0000
,
0010
0000
0100
0000
,
0001
1000
0001
0000
,
0010
0100
0010
0000
,
0001
0100
0010
1000
,
0000
1000
0000
0001
,
0010
0100
1000
0000
,
0001
1000
0001
0000
,
0100
0001
0100
0010
,
0000
0010
0000
1000
,
0000
1000
0000
0100
,
0000
0100
0000
0100
,
0000
0100
0000
0010
,
0000
0010
0000
0010
,
0000
0010
0000
0001
,
0000
0001
0000
0001
,
0000
0001
2000
3000
,
0002
0003
1000
0001
,
0100
0010
0100
0000
,
0001
0000
0010
0000
,
0001
0001
0100
0000
,
0010
0000
1000
0000
,
0100
0100
1000
0000
,
0001
0000
0100
0000
,
0010
0010
1000
0000
,
0001
0000
0010
0000
,
0100
0000
1000
1000
,
1000
0000
0001
0001
,
0001
0000
0100
0000
,
0100
0000
0010
0000
,
0010
0000
1000
0000
,
1000
0000
0001
0000
,
0001
0000
0010
0000
,
0010
0000
0100
0000
,
0100
0000
2000
0000
,
3000
0000
2000
0000
,
3000
0000
0002
0000
,
0003
0000
0002
0000
,
0003
0000
0100
0000
,
0100
0000
0010
0000
,
0010
0000
0100
0000
,
0100
0000
0010
0000
,
0010
1000
0001
0000
,
0010
0100
0010
0000
,
0001
1000
0001
0100
,
0000
0100
0000
0010
,
0100
0010
1000
0000
,
0001
0100
0001
0000
,
1000
0010
1000
0100
,
0000
0100
0000
0010
,
0000
0010
0001
0000
,
0001
0000
0001
0000
,
0001
0000
1000
0000
,
1000
0000
1000
0000
,
1000
0000
0100
0000
,
0100
0000
0100
0000
,
0100
0000
0020
0030
,
0002
0003
1000
0010
,
0100
0001
1001
0000
;

//---------------dance-single - ----------------
#NOTES:
     dance-single:
     :
     Medium:
     7:
     0.337,0.925,0.210,0.190,0.113:
0000
0000
0000
0000
,
0000
0000
0000
0000
0000
0000
0000
0000
1000
0000
0000
0100
0000
0000
0010
0000
,
0000
1001
0000
0000
0001
0000
0000
0100
0000
0000
0010
0000
0000
0000
0000
0000
,
0010
0000
0000
1000
0000
0000
0100
0000
0000
1001
0000
0000
0100
0000
0000
0010
,
0000
0000
0100
0000
0010
1000
0000
0000
1010
0000
0000
1100
0000
0000
0011
0000
,
0000
1100
0000
0000
1000
0000
0000
0010
0000
0000
1000
0000
0000
0100
0000
0000
,
0012
0000
0010
0000
0100
0000
0010
0003
0000
0000
0000
0000
0120
0000
0100
0000
,
1000
0000
0100
0030
0000
0000
0000
0000
2010
0000
0010
0000
0001
0000
0100
0000
,
0000
0100
3010
0000
0000
0000
0000
0000
,
0210
0010
1000
0310
0000
0000
1020
1000
,
0001
0000
1000
0030
0000
0000
0000
0000
1010
0000
0000
0000
0000
0000
1001
0000
,
0000
0000
0011
0000
0000
1001
0000
0000
,
0011
0000
0000
0001
0100
0000
0020
0000
0000
0000
0000
0000
1030
0000
0000
1000
,
0001
0200
0000
0000
0301
0010
0100
1000
,
0000
0000
0100
0000
0010
0000
0001
1000
0010
0000
0100
0000
0001
0000
0100
0000
,
1000
0000
0000
1000
0100
0000
0010
0000
1000
0000
0100
0000
0020
0000
0000
0000
,
0000
0000
0130
0000
0000
0100
0010
0000
0001
1000
0100
0000
0010
0000
0200
0000
,
0000
0000
0310
0000
0200
0000
0000
0000
0000
0000
0000
0000
0000
0300
0000
0000
,
1001
0000
0000
0000
0001
0010
0100
0000
0000
0000
0000
0000
1001
0000
0000
0000
,
0010
0100
1000
0000
0000
0000
0000
0000
0010
0000
1000
0000
0001
0000
0010
0000
,
0001
1000
0100
0010
0001
0000
1001
0000
1000
0000
1100
0000
0100
0000
0110
0000
,
1001
0000
0000
0000
0010
1000
0010
0000
0000
0000
0000
0000
1001
0000
0000
0000
,
0010
0001
0010
0000
0000
0000
0000
0000
0010
0000
1000
0000
0001
0000
0010
0000
,
0000
0010
0100
0000
0010
0000
0000
0001
0000
1000
0100
0000
0000
0000
0000
0000
,
2000
0000
0010
0010
3001
0000
0000
0000
0002
0000
0100
0100
1003
0000
0000
0000
0110
0000
1001
0000
0110
0000
0000
0000
0020
0000
1000
1000
0130
0000
0000
0000
,
0200
0000
0010
0010
0301
0000
0000
0000
0101
0000
1100
0000
0101
0000
0000
0000
1001
0000
1000
0001
0010
0000
0000
0000
1001
0000
0001
1000
0010
0000
0000
0000
,
1100
0011
0001
0100
1000
0001
0100
1000
,
0100
0010
1000
0100
0010
1000
1010
0000
,
0000
0102
0000
0100
0000
1000
0000
0100
0003
0000
0000
0000
0000
0120
0000
0100
,
0000
1000
0000
0100
0030
0000
0000
0000
0000
0002
0000
0100
0000
0100
0000
0010
,
0000
0000
0000
0100
0000
0013
0000
0000
0000
0000
0000
0000
0000
0000
0000
0000
,
0000
0210
0000
0010
0000
0001
0000
0310
0000
0000
0000
0000
0000
1020
0000
1000
,
0000
0100
0000
1000
0030
0000
0000
0000
0000
0110
0000
0100
0000
0000
0000
1010
,
0000
1000
0000
0000
0000
1100
0000
0100
0000
0000
0000
0011
0000
0001
0000
0000
,
0000
2001
0000
0000
3001
0100
0000
0020
0000
0000
0000
0030
0000
1002
0000
0000
,
1003
0001
0000
0200
0000
0000
0000
0300
0000
0001
0000
1000
0000
0010
0000
0100
,
0000
0000
0000
0001
0000
0100
0000
0010
1000
0001
0000
1000
0000
0100
0000
0010
,
0000
0100
0000
0000
0100
1000
0000
0100
0000
0010
0000
0001
0000
2000
0000
0000
,
0000
0000
0000
3100
0000
0000
0001
0010
0000
0001
0100
0010
0000
0100
0000
0020
,
0000
0000
0000
1030
0000
0200
0000
0000
0000
0000
0000
0000
0000
0000
0300
0000
,
1001
0100
1000
0100
,
0001
0100
0010
0000
,
0001
0000
0100
0000
0010
0100
0010
0000
,
2000
3002
0203
0310
,
0110
0000
1000
0000
0100
0010
0100
0000
,
0001
0100
0001
0000
,
1000
0000
0010
0000
1000
0010
1000
0000
,
0001
0000
0010
0000
0001
0010
0001
0000
,
1000
0001
0100
1001
,
0001
1000
0010
1001
,
0100
0010
1000
0110
,
0001
0100
1000
0010
,
0110
0001
0010
0110
,
1000
0110
0001
0000
,
0100
0000
0001
1000
0001
1000
0001
0000
,
1000
0000
0010
0100
0010
0100
0010
0000
,
2000
3100
2000
3100
,
0020
0031
0020
0031
,
0200
0301
0200
0301
,
0020
1030
0020
1030
,
0002
0000
0103
0000
0001
0100
0001
0000
,
2000
0000
3100
0000
1000
0100
1000
0000
,
0010
0001
0010
0000
0010
0001
0010
0000
,
1000
0100
1000
0000
1000
0100
1000
0000
,
1001
0010
0001
1001
,
0100
1001
0010
0000
,
1000
0000
0100
1000
0100
1000
0100
0000
,
0001
0000
0100
0001
0100
0001
0100
0000
,
0110
0001
0010
0110
,
1000
0110
0001
0000
,
0100
0000
0001
1000
0001
1000
0001
0000
,
1000
0000
0010
0100
0010
0100
0010
0000
,
0001
0000
0100
0000
0001
0001
0100
0000
,
0010
1000
0010
1000
,
0001
0000
0100
0000
0001
0001
0100
0000
,
0010
0000
1000
0000
0001
0001
1000
0000
,
1001
0000
0000
0000
1000
0000
0100
2000
,
0000
0000
3100
0000
0001
0001
1000
0020
,
0000
0000
1030
0000
0001
0000
0100
0002
,
0000
0000
0103
0000
1000
1000
0001
0020
,
0000
0000
0031
0000
1001
0000
0000
0010
,
0000
0010
0000
0001
0000
1000
0000
0100
,
0000
0100
0000
0010
0100
0000
0100
0010
,
0000
0001
0000
0001
0000
0100
0000
0010
,
0000
0010
1000
0000
1000
0100
1000
0000
,
1100
0000
1100
0000
0100
0010
0100
0000
,
0110
0000
0110
0000
0001
0010
0001
0000
,
0011
0000
0011
0000
0100
0001
0100
0000
,
0101
0000
0101
0000
1001
0000
0001
0100
,
0000
0000
0110
0000
1000
1000
0100
1000
,
0000
0000
0110
0000
1001
0000
1000
0100
,
0000
0000
0110
0000
0001
0001
0100
0001
,
0000
0000
0110
0000
1001
0000
1000
0001
,
0000
0000
1001
0000
0100
0100
0010
0100
,
0000
0000
0110
0000
1001
0000
0001
1000
,
0000
0000
1001
0000
0100
0100
0010
0100
,
0000
0110
0020
0000
,
0000
0000
0000
2030
0000
0000
0000
0000
,
0000
0000
0000
3200
0000
0000
0000
0000
,
0000
0000
0320
0000
,
0000
0030
0001
0100
,
0001
0010
0001
0000
1000
0000
0100
0000
,
1000
0010
1000
0000
0100
0000
1000
0000
,
0010
0100
0010
0000
0100
0000
0001
0000
,
0010
0100
0010
0000
0001
0010
0001
0100
,
0000
0100
0000
1000
0010
0000
1000
0100
,
0001
0100
1000
0010
,
0100
0000
0001
0000
0001
0100
0010
0000
,
1000
0010
0100
0000
0001
0000
0010
0000
,
0110
0000
1000
0100
0010
0000
0001
0100
,
1000
0000
1000
0100
0010
0000
1000
0100
,
0010
0000
0001
0010
0100
0000
1000
0100
,
0010
0100
1001
0100
,
0010
0000
1000
0001
0010
0000
0100
0000
,
0010
0000
0001
1000
0100
0000
0100
0000
,
0001
0000
0100
0010
1000
0000
0001
0000
,
1000
0100
1001
2000
,
3100
0002
0103
2000
,
3010
0002
0013
2000
,
3001
0002
1003
0200
,
0310
0000
0000
0000
0020
0000
0000
0030
1001
0000
0001
0000
0010
0000
0100
0000
,
1000
0000
1000
0000
0100
0010
0001
0010
,
0100
0000
2000
0000
3002
0000
0003
1000
,
0001
0000
0200
0000
0320
0000
0030
0100
,
0010
0000
0000
0000
0100
0000
0001
1000
0001
0000
0000
0000
0001
0000
0000
0000
,
1000
1000
0001
0001
,
1000
0000
0000
0100
0010
0000
0010
0000
,
0100
0100
0010
0020
,
0032
2003
3020
0230
,
0010
0001
0010
1000
,
0010
0301
2002
0000
,
0000
0000
3003
1000
,
0001
1000
0001
1000
0002
0000
0100
0000
,
1003
0010
2000
0100
,
3001
0000
0010
0001
0100
0000
0010
0000
,
1000
0010
0001
0010
,
1000
0000
0020
0100
,
0031
1000
0200
0010
,
1300
0000
0001
0200
0000
0000
0310
0000
,
1000
0100
0001
0100
,
1000
0000
0100
0001
,
0100
0000
0001
0010
0000
0010
0001
0000
,
0100
0100
0010
1000
,
0010
0000
1000
0100
0000
0100
1000
0000
,
0010
0010
1000
0001
,
1000
0000
0001
0010
0000
0010
0001
0000
,
1000
0001
0200
0310
,
2000
3001
0020
0130
,
0110
1001
0110
1000
,
0001
0100
0000
0001
0000
1000
0000
0001
,
0100
0010
1000
0001
,
0010
0001
0000
1000
0000
0001
0000
0010
,
0001
1000
0010
0100
,
0001
1000
0000
0010
0000
0100
0000
0001
,
1000
0010
1000
0100
,
0010
0001
0000
1000
0000
0100
0000
0010
,
0001
1000
0100
0000
2002
0000
0000
0000
,
0000
0000
0000
0000
,
0000
3003
0010
0011
,
0001
0000
1000
0001
0000
0001
0100
0000
,
0010
0000
1000
0000
0001
0100
0000
0001
,
0100
0000
0010
0000
1000
0100
0000
0100
,
0000
0000
1000
0000
0010
0100
0000
0010
,
0100
0000
0001
0000
0010
0100
0000
0100
,
0000
0000
0010
0000
0001
0100
0000
0100
,
0001
0010
0000
0010
0001
0100
0000
0100
,
0001
0010
0100
0000
1000
0010
0000
0010
,
1000
0100
0000
0100
1000
0000
0010
0000
,
0100
0000
0001
0000
1000
0100
0000
1000
,
0100
0000
0010
0000
0001
0100
0000
0100
,
0000
0000
0001
0000
0010
0100
0000
0010
,
0100
1000
0001
0100
,
1100
0101
2000
0010
,
3001
0100
0002
0010
,
1003
0000
0100
1000
0010
0000
0100
0000
,
0001
0100
1000
0100
,
0001
0000
0200
0010
,
1300
0001
0020
0100
,
0031
0000
1000
0020
0000
0000
0130
0000
,
0001
0010
1000
0010
,
0001
0000
0010
1000
,
0010
0000
1000
0100
0000
0100
1000
0000
,
0010
0010
0100
0001
,
0100
0000
0001
0010
0000
0010
0001
0000
,
0100
0100
0001
1000
,
0001
0000
1000
0100
0000
0100
1000
0000
,
0001
1000
0020
0130
,
0002
1003
0200
0310
,
0110
1001
0220
0000
,
0000
0000
0000
0000
,
0000
0330
0000
0000
;
