#TITLE:Stellar Mix;
#SUBTITLE:(DDR SuperNOVA -Online-);
#ARTIST:baconman;
#TITLETRANSLIT:;
#SUBTITLETRANSLIT:;
#ARTISTTRANSLIT:;
#CREDIT:;
#BANNER:SuperNOVAplus.png;
#BACKGROUND:SuperNOVAplus-bg.png;
#LYRICSPATH:;
#CDTITLE:./CDTITLES/Dancing Stage SuperNOVA.png;
#MUSIC:SuperNOVAplus.ogg;
#OFFSET:-0.050;
#SAMPLESTART:215.000;
#SAMPLELENGTH:24.000;
#SELECTABLE:YES;
#BPMS:0.000=174.800,388.000=165.000,396.000=160.000,412.000=155.000,416.000=150.000,420.000=140.000,448.000=139.800,536.000=140.000,633.000=139.000,729.000=140.000;
#STOPS:388.000=0.360
,396.000=0.360
;
#BGCHANGES:;

//---------------dance-single - ----------------
#NOTES:
     dance-single:
     :
     Easy:
     4:
     0.308,0.441,0.146,0.146,0.000:
0000
0000
0000
0000
,
0000
0000
0000
0000
,
0000
0000
0000
0000
,
0000
0000
0000
0000
,
1000
0000
0010
0000
,
0100
0000
0001
0000
,
1000
0000
0100
0000
,
0001
0000
1000
0000
,
0001
0000
0010
0000
,
1000
0000
0100
0000
,
0001
0000
1000
0000
,
0010
0000
0100
0000
,
0001
0000
0010
0000
,
0001
0000
1000
0000
,
0100
0000
1000
0000
,
0001
0000
0010
0000
,
0000
0001
0001
0000
,
0010
0010
0010
0000
,
0000
1000
1000
0000
,
0010
0010
0010
0000
,
0000
0100
0100
0000
,
0001
0001
0001
0000
,
0010
0000
1000
0000
,
0010
0000
0100
0000
,
1001
0000
0100
0000
,
1001
0000
0010
0000
,
0001
0000
0100
0000
,
0001
0000
0010
0000
,
1000
1000
1000
0000
,
0001
0001
0001
0000
,
0010
0000
1000
0000
,
0001
0000
0100
0000
,
1001
0000
0100
0000
,
1001
0000
0010
0000
,
0001
0000
1000
0000
,
0100
0000
0010
0000
,
0001
0001
0001
0000
,
1000
1000
1000
0000
,
0010
0000
1000
0000
,
0001
1000
0001
0000
,
2000
0000
0000
3000
,
0020
0000
0000
0030
,
0200
0000
0000
0300
,
0002
0000
0000
0003
,
1000
0000
0100
0000
,
0001
0000
0100
0000
,
0010
0000
1000
0000
,
0001
0000
1001
0000
,
2000
3000
0002
0003
,
1000
1000
0100
0000
,
0010
0000
1000
0000
,
0001
0001
0010
0000
,
1000
0000
0010
0000
,
0001
0001
0100
0000
,
1000
0000
0100
0000
,
0001
1000
0001
0000
,
0001
0000
1000
0000
,
0010
0100
0001
0000
,
1000
0000
0010
0000
,
0001
0100
1000
0000
,
0001
0000
0100
0000
,
0010
0000
0100
0000
,
1000
0001
0010
0000
,
0100
0000
2002
3003
,
0100
1000
0001
0000
,
0010
1000
0100
0000
,
1000
0010
0001
0000
,
0010
0100
1000
0000
,
0010
1000
0010
0000
,
0001
1000
0100
0000
,
0001
0010
1000
0010
,
0100
0001
1000
0000
,
0001
1000
1001
0000
,
0100
0001
0101
0000
,
0010
1000
1010
0000
,
0001
1000
0001
1000
,
0001
0100
0010
0000
,
0100
1000
0001
0000
,
0010
1000
0001
0000
,
0001
0100
1000
0000
,
2002
0000
0000
3003
,
0001
1000
0100
0001
,
1000
0001
0100
0010
,
0100
1000
0100
0010
,
0001
0010
0100
0000
,
0100
0010
0001
0000
,
0100
0010
1000
0000
,
1000
0010
1000
0000
,
0001
1000
0001
1000
,
0010
0001
0100
1000
,
0001
1000
0100
0010
,
0001
1000
0100
0001
,
0010
1000
0001
0000
,
1000
0001
0100
0000
,
0010
0001
1000
0000
,
0100
0010
1000
0001
,
0010
0001
1000
0000
,
0020
0000
0200
0330
,
0010
0001
1000
0000
,
0002
0000
0200
0303
,
0010
1000
0001
0000
,
1000
0100
0020
0030
,
0001
0100
0020
0030
,
1000
0001
0100
0010
,
1000
0100
0001
0000
,
2002
0000
0000
3003
,
1000
0001
1000
0001
,
0010
0100
0010
0000
,
2000
0100
3100
1000
,
0002
0100
0103
0001
,
0100
0010
0100
0010
,
1000
0001
1000
0001
,
0002
0010
0010
0013
,
2000
0100
0100
3100
,
0010
0000
0010
0000
,
1000
1000
0001
0001
,
0200
0010
0310
0000
,
0020
0100
0130
0000
,
0010
0000
0010
0000
,
1000
1000
0001
0001
,
0020
0000
0130
0000
,
0100
0001
1000
0000
,
0002
0103
2000
3100
,
0002
0103
2000
3100
,
0010
0001
0100
1000
,
1001
0010
1001
0100
,
2000
3010
0002
0013
,
2000
3010
0002
0013
,
0010
1000
0100
0001
,
1001
0110
1001
0110
,
1001
0000
0000
0000
,
0001
0000
0010
0010
,
0110
0000
0000
0000
,
1000
0000
0000
0010
,
1002
0000
0000
0003
,
0120
0100
0100
0130
,
2000
0000
0000
3000
,
0200
0000
0000
0310
,
0100
0000
0100
0000
,
0001
1000
0001
1000
,
0100
0000
0100
0000
,
0010
0100
0010
0100
,
1000
0000
0001
0000
,
1000
0001
1000
0001
,
0010
0000
0100
0000
,
1001
0001
0001
0000
,
2000
0000
0000
3000
,
0200
0000
0000
0300
,
0002
0000
0000
0003
,
0020
0000
0000
0030
,
0002
0103
2000
3100
,
0002
0103
2000
3100
,
0010
0001
0100
1000
,
1001
0010
1001
0100
,
2000
3010
0002
0013
,
2000
3010
0002
0013
,
0010
1000
0100
0001
,
1001
0110
1001
0110
,
0100
0000
0010
0000
,
1000
0001
1000
0000
,
0001
0000
0010
0000
,
0100
0001
0100
0000
,
0010
0000
0001
0000
,
1000
0001
1000
0000
,
1000
0000
0001
0000
,
0100
0010
0100
0000
,
0010
0000
0100
0000
,
0001
1000
0001
0100
,
0001
0100
1000
0000
,
0100
0010
0100
0000
,
1000
0000
0001
0000
,
1000
0100
0001
0000
,
1000
0100
0001
0000
,
0100
0010
0100
0000
,
0001
0000
1000
0000
,
0001
0100
1000
0100
,
1000
1000
0001
0000
,
0010
0100
0001
0000
,
1000
1000
0010
0000
,
0001
0100
1000
0001
,
0001
0001
1000
0000
,
0010
0100
1000
0000
,
0001
0001
0010
0000
,
1000
0100
0001
1000
,
0220
0000
0000
0000
,
0000
0000
0000
0330
,
0001
0000
1000
0000
,
0010
1000
0001
0100
,
0010
0100
0001
0000
,
0010
0100
1000
0000
,
0001
0010
0100
0000
,
1000
1000
0001
0001
,
0100
0010
1000
0000
,
0100
0010
0001
0000
,
1000
0100
0010
0000
,
0001
0001
1000
1000
,
1000
0100
0001
0000
,
0010
1000
0100
0000
,
1000
0100
0001
0000
,
1000
1000
0001
0001
,
0100
0010
1000
0000
,
0010
0001
0100
0001
,
0010
0100
0001
0000
,
0100
1000
0010
1000
,
0200
0000
0000
0310
,
0020
0000
0000
0030
,
0100
0010
0001
0100
,
1000
0100
1000
0010
,
0001
0010
0001
0100
,
0001
1000
0010
1000
,
0110
0001
1000
0001
,
0110
1000
0001
1000
,
0011
0100
1010
0001
,
1000
0100
0010
1001
,
0010
0100
1000
0010
,
0001
0010
1000
0100
,
0001
0100
1000
0010
,
1000
0001
0100
0001
,
0110
1000
0100
1000
,
0110
1000
0100
0010
,
1001
0100
1001
0010
,
0001
0010
1000
0101
,
2100
0100
0100
3100
,
0012
0010
0010
0013
,
0201
0001
0001
0301
,
1020
1000
0130
1001
,
0010
0000
0100
0000
0000
0001
0001
0000
,
0010
0000
1000
0000
0000
0100
0100
0000
,
1000
0000
0100
0000
0000
0001
0001
0000
,
0100
0000
1000
0000
0000
0010
0010
0000
,
0100
0000
0001
0000
0000
0010
0010
0000
,
1000
0000
0001
0000
0000
0010
0010
0000
,
0001
0000
0100
0000
0000
0010
0010
0000
,
1000
0000
0001
0000
0000
0100
0100
0000
,
1010
0000
0100
0000
0000
1000
1000
0000
,
0011
0000
0100
0000
0000
0001
0001
0000
,
1001
0010
1001
0100
,
0010
1000
0100
1001
,
0100
1000
0001
0100
,
0001
0010
1000
0010
,
0001
0010
0100
0001
,
0100
0001
0010
0001
,
0110
1000
0100
0001
,
0110
1000
0001
0100
,
1010
0100
0011
0100
,
0010
1000
0100
1001
,
0010
0001
0010
0100
,
1000
0001
1000
0010
,
0001
1000
0001
0100
,
1000
0001
1000
0010
,
1001
0010
0100
0010
,
1001
0010
0100
0010
,
1001
0100
1001
0010
,
0100
1000
0010
0100
,
2002
0000
0000
3003
;

//---------------dance-single - ----------------
#NOTES:
     dance-single:
     :
     Medium:
     6:
     0.435,0.472,0.262,0.158,0.004:
0000
0000
0000
0000
,
0000
0000
0000
0000
,
0000
0000
0000
0000
,
0000
0000
0000
0000
,
0010
1000
0100
0001
,
0110
1001
0110
1001
,
0100
0001
0010
1000
,
0001
0101
1000
1100
,
0001
0100
0010
0001
,
1000
0010
0100
1000
,
0001
0010
1000
0001
,
0100
0010
0100
1001
,
0010
1000
0001
0100
,
0010
0001
1000
0010
,
0001
0100
1000
0100
,
0001
0100
0010
1001
,
0010
0001
1000
0000
,
0010
0100
0001
1000
,
0010
1000
0001
0000
,
1000
0100
0010
1001
,
0100
0001
0010
0000
,
1000
0100
0010
1000
,
0010
0001
1000
0001
,
0010
0100
1001
0000
,
0110
1000
0001
0010
,
1001
0100
1000
0010
,
0001
1000
0100
0010
,
0001
0010
1000
0001
,
0100
1000
0001
0100
,
0010
0100
1000
0100
,
0010
1100
0010
0101
,
0010
1000
0001
0110
,
1001
0010
0100
1000
,
0110
0001
0100
1000
,
0001
0010
1000
0001
,
0100
0010
0100
1000
,
0001
1000
0100
0010
,
0100
0001
0010
1000
,
0001
0101
1000
1100
,
0001
1000
0110
0000
,
2000
0000
3200
0000
,
0320
0000
0032
0000
,
0203
0000
0320
0000
,
2030
0000
3002
0000
,
1003
0100
0022
0033
,
0100
0001
2020
3030
,
0100
0010
0001
0100
,
1000
0100
0010
1001
,
2200
3300
0202
0303
,
1000
0100
0010
0001
,
0010
0100
0010
1000
,
0001
0100
0010
1001
,
0010
1000
0001
0100
,
0010
0100
0001
1000
,
0100
0010
1000
0010
,
0001
1000
0010
0110
,
0001
0010
1000
0000
,
0100
0010
0001
0000
,
1000
0001
0100
0000
,
0001
0010
1000
0100
,
0001
1000
0010
0000
,
0100
0001
0010
0000
,
0010
0001
0100
1000
,
0100
0010
2002
3003
,
0010
1000
0001
0010
,
0100
1000
0010
0001
,
1000
0100
0001
1000
,
0100
0010
1000
0001
,
0100
1000
0100
0010
,
0001
1000
0010
0100
,
0001
0100
1000
0100
,
0010
0001
1000
0110
,
0001
0000
0000
1000
0000
0000
1100
0000
,
0010
0000
0000
0001
0000
0000
1010
0000
,
0100
0000
0000
0001
0000
0000
1001
0000
,
0010
0100
0001
1000
,
0001
0010
0100
0001
,
0010
1000
0001
0010
,
0100
1000
0001
0100
,
0001
0010
1000
0001
,
0100
0010
0100
1001
,
0001
1000
0010
0101
,
1000
0001
0010
1100
,
0010
1000
0010
0100
,
0001
0000
0000
0100
0010
0000
1001
0000
,
0010
0000
0000
0100
0000
0000
1001
0000
,
0100
0000
0000
0001
0000
0000
0110
0000
,
1000
0100
1000
0001
,
0110
0000
0000
1001
0000
0000
0110
0000
,
1000
0001
0010
1100
,
0001
1000
0010
0101
,
0100
1000
0010
0001
,
0100
0000
0000
1000
0001
0000
0110
0000
,
1000
0000
0000
0001
0000
0000
0011
0000
,
0100
0000
0000
0001
0000
0000
1100
0000
,
0010
0000
0000
0100
0000
0000
1001
0000
,
0010
0100
1000
0001
,
0200
0000
0020
0300
,
0230
0302
2003
3000
,
0002
0000
0020
0003
,
0230
2300
3002
0003
,
1000
0010
0200
0300
,
1000
0010
0200
0300
,
1000
0001
0010
0100
,
1000
0010
0001
1000
,
0220
0000
0000
0330
,
1000
0101
1000
0010
,
0001
0100
0001
0010
,
1100
0101
1100
0101
,
0010
0100
0010
0100
,
0001
1100
0001
0010
,
1000
0100
1000
0010
,
0101
1100
0101
1100
,
0010
0100
0010
0100
,
0001
0010
0100
0100
,
1000
0010
0100
0100
,
0102
1000
0013
0001
,
2100
0001
3010
1000
,
0010
0100
0001
1000
,
0010
0001
0100
0010
,
1020
0100
0031
0010
,
1200
0010
0301
0000
,
0001
0000
1100
0000
0010
0000
0001
0100
,
0010
0000
0101
0000
0100
0000
0001
0010
,
0100
0000
1000
0001
2000
0000
0001
0000
,
3001
0010
0100
1000
,
1000
0000
0101
0000
0010
0000
1000
0100
,
0010
0000
1100
0000
0100
0000
1000
0010
,
0100
0000
0100
0000
0100
0100
0100
0000
,
0010
0010
0010
0010
0000
0010
0010
0000
,
1001
0000
0000
0000
,
0001
0000
0000
1000
0100
1000
0100
0000
,
0002
0000
0000
0003
,
2000
0000
0000
3001
,
0001
0000
0100
0000
0001
0000
0100
0010
,
1000
0000
0010
0000
1000
0000
0010
1000
,
0001
0000
1000
0000
0100
0000
1000
0100
,
0010
0000
0001
0000
0001
0000
1000
1000
,
1000
0001
0100
0100
,
0010
0010
1000
0100
,
0102
1000
0013
0001
,
2100
0001
3010
1000
,
0100
0001
0100
0100
,
1000
1000
0010
0100
,
1020
0100
0031
0010
,
1200
0010
0301
0100
,
2000
0001
0000
0000
0001
0000
3001
0000
,
0200
1000
0000
0000
1000
0000
1300
0000
,
0020
0001
0000
0000
0001
0000
0031
0000
,
0002
0100
0000
0000
0100
0000
0103
0000
,
0001
0000
1100
0000
0010
0000
0001
0100
,
0010
0000
0101
0000
0100
0000
0001
0010
,
0100
0000
1000
0001
2000
0000
0001
0000
,
3001
0010
0100
1000
,
1000
0000
0101
0000
0010
0000
1000
0100
,
0010
0000
1100
0000
0100
0000
1000
0010
,
0100
0000
0100
0000
0100
0100
0100
0000
,
0010
0010
0010
0010
0000
0010
0010
0000
,
0010
0010
2000
3001
,
0100
0001
0010
1000
,
0010
0010
0002
1003
,
0100
1000
0100
1000
0000
0000
0000
0000
,
0100
0100
0001
0010
,
0010
1000
0100
0001
,
0100
0100
1000
0100
,
0100
0001
0100
0001
0000
0000
0000
0000
,
0010
1000
0001
1100
,
0010
1000
0001
0010
,
0100
0001
1000
1001
,
0100
1000
0100
1000
0000
0000
0000
0000
,
1000
0100
0001
1100
,
0001
0100
1000
0100
,
0010
0010
0001
0100
,
0010
0000
0100
0000
0001
0000
0000
0000
0020
0000
0000
0200
0330
0000
0000
0000
,
1000
0001
0010
0100
,
1000
0001
1000
0000
0010
0000
0101
0000
,
0001
1000
0010
0100
,
0001
1000
0001
0000
0010
0000
1100
0000
,
0010
0000
0000
0001
0000
0000
1000
0000
0000
0100
0000
0000
0010
0000
0000
0000
,
0001
0010
1000
0000
0001
0000
0001
0000
,
0100
1000
0001
0010
,
1000
0100
1000
0000
0001
0000
1000
0000
,
0220
0000
0000
0000
,
0000
0000
0000
0330
,
0001
0000
1000
0000
,
0001
1000
0001
1000
0110
0000
1001
0000
,
1000
1100
0010
0101
,
1000
0100
1000
0000
0010
0000
1000
0000
,
0001
1000
0001
0000
0010
0000
0100
0000
,
1000
0010
0100
0000
0010
0000
0101
0000
,
1001
0010
1001
0100
,
0010
0100
1000
0000
0010
0000
0010
0000
,
0002
0010
0100
1003
,
0100
0010
0001
0000
1000
0001
1000
0000
,
0001
0101
0010
1100
,
0001
0100
0001
0000
0010
0000
0001
0000
,
1000
0001
1000
0000
0010
0000
0100
0000
,
0001
0010
0100
0000
0010
0000
1100
0000
,
1001
0010
1001
0100
,
0010
0100
0001
0000
0010
0000
0010
0000
,
2000
0010
0100
3001
,
0100
0010
1000
0000
0001
1000
0001
1000
,
0002
0000
0000
0013
,
0020
0000
0001
0031
,
1000
0001
1000
0001
0010
0100
0010
0200
,
0000
0000
0010
0310
,
0100
0001
0010
0000
1000
0010
0100
0000
,
0001
1000
0100
0000
0010
0100
1000
0000
,
0001
1000
0010
0000
1000
0010
0100
0000
,
1000
0100
0001
0000
0010
0000
1001
0000
,
0100
1000
0100
0000
0001
0100
1000
0000
,
0010
1000
0001
0000
0010
0100
0001
0000
,
0010
0100
1000
0000
0010
0001
1000
0000
,
0001
0000
0100
0010
0100
0000
1001
0000
,
0010
1000
0100
0000
0001
0100
0010
0000
,
1000
0001
0010
0000
1000
0010
0100
0000
,
0001
1000
0100
0000
0010
0100
1000
0000
,
0001
0010
1000
0000
0100
0000
1001
0000
,
0010
0001
0010
0000
0100
0010
0001
0000
,
0100
0001
1000
0000
0100
0010
1000
0000
,
0100
0010
0001
0000
0100
1000
0001
0000
,
1000
0000
0010
0100
0001
0000
1100
0000
,
0001
0000
0100
0000
1000
0100
2000
0000
,
3010
0000
0100
0000
0010
0001
0200
0000
,
0301
0000
1000
0000
0001
0100
0002
0000
,
0013
1000
0001
0110
,
1000
0001
0100
0000
0000
1000
0100
0000
,
0010
1000
0001
0000
0000
0010
0100
0000
,
0001
0010
0100
0000
0000
1000
0010
0000
,
1000
0001
0100
0000
0000
0010
1000
0000
,
0100
0000
1000
0001
0100
0001
0010
0000
,
0001
0000
0010
0100
1000
0001
0100
0000
,
1000
0000
0010
0001
0100
0001
0010
0000
,
0001
0000
1000
0100
0001
0100
1000
0000
,
0011
0000
0100
0001
1000
0001
0100
0000
,
1010
0000
0100
1000
0001
1000
0100
0000
,
0100
1000
0100
0000
0010
0001
1000
0000
,
0010
0000
0001
0010
0100
0010
0001
0000
,
0100
0001
0000
0001
1000
0100
0000
0100
,
1000
0010
0000
0100
0001
0010
0000
0001
,
1000
0100
0000
0010
0100
1000
0000
0001
,
0100
1000
0000
0001
0010
0100
1000
0000
,
0110
0000
0001
0010
0100
1000
0001
0000
,
0110
0000
0010
0100
1000
0001
0100
0000
,
0010
1000
0100
0000
0010
0001
0100
0000
,
0010
0000
0001
0010
0100
0000
1001
0000
,
0010
0000
1000
0001
0010
0001
0100
0000
,
0001
0000
0100
0010
1000
0100
0001
0000
,
0010
0000
0001
1000
0010
0001
0100
0000
,
0001
0000
1000
0010
0100
1000
0010
0000
,
0101
0000
0010
0001
0100
0001
0010
0000
,
1100
0000
0010
1000
0100
1000
0010
0000
,
0001
1000
0010
0000
0100
0001
1000
0000
,
0100
0000
0001
0100
0010
0100
0001
0000
,
2002
0000
0000
3003
;

//---------------dance-single - ----------------
#NOTES:
     dance-single:
     :
     Hard:
     8:
     0.585,0.693,0.265,0.188,0.169: // measure 1
0000
0000
0000
0000
,  // measure 2
0000
0000
0000
0000
,  // measure 3
0000
0000
0000
0000
,  // measure 4
0000
0000
0000
0000
,  // measure 5
0010
1000
0100
0000
0010
0001
0100
0000
,  // measure 6
1010
0101
0011
1100
,  // measure 7
0001
1000
0010
0000
0100
0001
0010
0001
,  // measure 8
0000
1000
0010
1000
0000
0100
0010
0100
,  // measure 9
1000
0000
0010
0000
0100
0001
0010
0000
,  // measure 10
0001
0000
0100
0000
0010
0100
0001
0000
,  // measure 11
1000
0100
1000
0000
0001
0100
0001
0000
,  // measure 12
0010
0100
0010
0000
0001
0000
1100
0000
,  // measure 13
0010
0000
0001
0000
1000
0001
0010
0000
,  // measure 14
0100
0000
1000
0000
0010
1000
0100
0000
,  // measure 15
1000
0010
1000
0000
0001
0010
0001
0000
,  // measure 16
0100
0010
0100
0000
0010
0000
1001
0000
,  // measure 17
0100
0000
1010
0000
0011
0000
0000
0100
,  // measure 18
0000
1000
0010
0000
1000
0000
0001
0010
,  // measure 19
0100
0000
0101
0000
1100
0000
0000
0010
,  // measure 20
0000
0001
0100
0000
1010
0000
0101
0000
,  // measure 21
0010
0000
1001
0000
0110
0000
0000
0001
,  // measure 22
0000
0100
0010
0000
0100
0000
0001
1000
,  // measure 23
0100
0000
0010
0000
0001
0100
1000
0000
,  // measure 24
0100
0001
0010
0100
0000
1000
0100
0000
,  // measure 25
1001
0000
0010
1000
0000
0001
0100
0000
,  // measure 26
1100
0000
0010
0100
0000
1000
0010
0000
,  // measure 27
1000
0000
0100
0000
0010
0001
0100
0000
,  // measure 28
0010
0000
0100
0001
0000
1000
0100
0000
,  // measure 29
0010
0000
0001
1000
0000
0010
1000
0000
,  // measure 30
0100
0000
0010
0001
0000
0100
0001
0000
,  // measure 31
1100
0011
1010
0101
,  // measure 32
1000
0100
0010
0100
1000
0000
0110
0000
,  // measure 33
1001
0000
0100
0001
0000
0010
0001
0000
,  // measure 34
0110
0000
1000
0010
0000
0100
0001
0000
,  // measure 35
1000
0000
0100
0000
0001
0100
1000
0000
,  // measure 36
0010
0000
0100
0001
0000
0010
0001
0000
,  // measure 37
1000
0000
0010
0100
0000
0010
1000
0000
,  // measure 38
0100
0000
0010
0100
0000
1000
0001
0000
,  // measure 39
0110
1001
0011
1100
,  // measure 40
0010
0001
0100
0010
0100
0000
1001
0000
,  // measure 41
0100
1000
0200
0000
1300
0010
2000
0000
,  // measure 42
3001
0010
0002
0000
0103
0010
0200
0000
,  // measure 43
0310
1000
0020
0000
0130
0001
0200
0000
,  // measure 44
0301
0010
0002
0000
1003
0100
2000
0000
,  // measure 45
3010
0100
0010
0000
2200
0000
3300
0000
,  // measure 46
0100
0010
0100
0000
0202
0000
0303
0000
,  // measure 47
0010
1000
0100
0000
0010
0001
0100
0000
,  // measure 48
0001
1000
0010
1000
0001
0000
0110
0000
,  // measure 49
1001
0000
0000
0010
1000
0000
0000
0011
,  // measure 50
0000
1010
0000
1100
0000
1000
0010
0000
,  // measure 51
0100
0001
0010
0000
0100
1000
0001
1000
,  // measure 52
0000
0110
0000
0101
0000
0001
0010
0000
,  // measure 53
0100
1000
0001
0000
0010
0001
0100
0001
,  // measure 54
0000
1100
0000
0011
0000
0100
0001
0000
,  // measure 55
0010
0001
0100
0000
0001
1000
0100
1000
,  // measure 56
0000
0001
0100
0010
0000
0100
0101
0000
,  // measure 57
1000
0000
0010
1000
0001
0000
0000
0000
,  // measure 58
0100
0000
0010
0100
1000
0000
0000
0000
,  // measure 59
0001
0000
1000
0010
0000
0100
0010
0000
,  // measure 60
1000
0000
0010
0000
0001
0000
0100
0001
,  // measure 61
1000
0000
0000
0001
0010
0000
0000
0001
,  // measure 62
0100
0000
1000
0000
0010
0000
0001
1000
,  // measure 63
0010
0000
1000
0000
0100
0000
1000
0001
,  // measure 64
1000
0010
0202
0303
,  // measure 65
0010
0000
0001
0000
1000
0001
0010
0000
,  // measure 66
0100
0000
0001
0100
0010
0100
1000
0000
,  // measure 67
0001
0000
0010
0000
1000
0010
0001
0000
,  // measure 68
0100
0000
0010
0000
1001
0000
1000
0001
,  // measure 69
0100
0000
1000
0000
0100
0001
0010
0000
,  // measure 70
1000
0000
0001
1000
0010
1000
0100
0000
,  // measure 71
0001
0000
0100
0000
0001
0010
0100
0000
,  // measure 72
0010
0000
1000
0000
0101
0000
0010
0001
,  // measure 73
1000
0000
0100
0001
1000
0000
0100
0000
,  // measure 74
0010
0000
0001
0100
1000
0000
0010
0000
,  // measure 75
0100
0000
0001
1000
0100
0000
1000
0000
,  // measure 76
0010
0000
0100
1000
0010
0000
0001
0010
,  // measure 77
1000
0000
0010
0100
0000
0001
1000
0000
,  // measure 78
0010
0000
0001
0010
0000
1000
0010
0000
,  // measure 79
0100
0000
0001
1000
0000
0100
0010
0100
,  // measure 80
1000
0000
0010
0000
0001
0000
1000
0001
,  // measure 81
0100
0000
0000
0001
0000
0000
1000
0000
0010
0000
1000
0000
0100
0000
0000
0000
,  // measure 82
1010
0000
0101
0000
0010
0000
0100
1000
,  // measure 83
0010
0000
0100
0000
1000
0000
0001
1000
,  // measure 84
0010
0000
0001
0000
0010
0001
0100
0000
,  // measure 85
1000
0000
0001
0100
0010
0000
1001
0000
,  // measure 86
0010
0000
0001
0100
0000
0001
1000
0000
,  // measure 87
0100
0000
0010
0100
0000
1000
0010
0000
,  // measure 88
0001
0000
0100
0010
0000
0100
1000
0000
,  // measure 89
0010
0000
0001
0100
0000
0010
0001
1000
,  // measure 90
0100
0000
0010
0000
0001
0000
1000
0001
,  // measure 91
0010
0000
0100
0000
1000
0000
0010
1000
,  // measure 92
0100
0000
0001
0000
1000
0010
0100
0000
,  // measure 93
0001
0000
0010
0001
1000
0000
0110
0000
,  // measure 94
0001
0000
0010
1000
0000
0001
0010
0000
,  // measure 95
0100
0000
1000
0100
0000
0001
0100
0000
,  // measure 96
0010
0000
0100
1000
0000
0010
0100
0001
,  // measure 97
0010
0000
0000
0000
0100
0000
0010
0000
0001
0000
0000
1000
0000
0000
0010
0000
,  // measure 98
0100
0000
0001
0010
0100
1000
0010
1000
,  // measure 99
0200
2300
3002
0003
,  // measure 100
0010
0000
1000
0001
0100
1000
0100
0001
,  // measure 101
0020
0230
0302
0003
,  // measure 102
1000
0000
0010
0100
0020
0000
0030
0000
,  // measure 103
0001
0000
0010
0100
0020
0000
0030
0000
,  // measure 104
0100
1000
0010
0001
,  // measure 105
0100
0010
0001
1000
0010
0100
0001
1000
,  // measure 106
0200
0000
0000
0300
,  // measure 107
1001
0002
0023
0230
,  // measure 108
2300
3020
0230
0301
,  // measure 109
1000
0000
1100
0000
0010
1000
0010
1000
,  // measure 110
0001
0000
0100
0001
1000
0001
0100
0010
,  // measure 111
1001
2000
3020
0230
,  // measure 112
0302
0023
0230
1300
,  // measure 113
0010
1000
0000
0010
1000
0000
0000
0000
0010
0000
1000
0000
0100
0000
0000
0000
,  // measure 114
0010
0001
0000
0010
0001
0000
0000
0000
1000
0000
0010
0000
0100
0000
0001
0000
,  // measure 115
0100
0000
0000
1000
0100
0000
1000
0000
0100
0000
0000
0001
0100
0000
0001
0000
,  // measure 116
0100
0000
0000
1000
0100
0000
0010
0000
0001
0000
0100
0000
0001
0000
0000
0000
,  // measure 117
0200
0000
0000
0010
0000
0000
0320
0000
1000
0000
0000
2030
0000
0000
3100
0000
,  // measure 118
0000
0000
0001
0000
0000
0020
0000
0000
0001
0000
0000
0032
0000
0000
1003
0000
,  // measure 119
0100
0000
0000
0010
0001
0000
0010
0000
0001
0000
0000
0010
1000
0000
0010
0000
,  // measure 120
1000
0000
0000
0010
0001
0000
0100
0000
0010
0000
1000
0000
0010
0000
0000
0000
,  // measure 121
0001
0000
0000
0100
0001
0000
0100
0000
0001
0000
0000
0100
1000
0000
0100
0000
,  // measure 122
1000
0000
0000
0010
0100
0000
0001
0000
1000
0000
0000
0000
0000
0000
0000
0000
,  // measure 123
0110
0000
1000
0001
0100
0000
0001
1000
,  // measure 124
0100
0000
0010
0001
0100
0000
0010
1000
,  // measure 125
0100
0000
0010
0001
0200
0000
1000
0000
,  // measure 126
0302
0000
0010
0000
0103
0000
0010
1000
,  // measure 127
0100
0000
0010
0001
0100
0000
0001
1000
,  // measure 128
0100
0000
1000
0001
0100
0000
0010
1000
,  // measure 129
0001
0000
0010
0001
1000
0010
0100
0000
,  // measure 130
0001
0010
0100
1000
0000
0001
1000
0000
,  // measure 131
1001
0000
0000
0100
0000
0000
1000
0000
0010
0000
0000
0001
0000
0000
1000
0000
,  // measure 132
0000
0000
0000
1000
0010
0100
0001
0000
,  // measure 133
0110
0000
0000
0100
0000
0000
1000
0000
0010
0000
0000
0001
0000
0000
1000
0000
,  // measure 134
0000
0000
0000
1100
,  // measure 135
0001
0000
0011
0000
0100
0001
0100
0001
,  // measure 136
0011
0001
1001
1000
1100
0100
0110
0000
,  // measure 137
0001
0000
0101
0000
0010
1000
0010
1000
,  // measure 138
0001
0000
1000
0010
1000
0010
0100
0001
,  // measure 139
0010
0000
0000
0100
1000
0000
0100
0000
1000
0000
0000
0100
0001
0000
0100
0000
,  // measure 140
0001
0000
0000
0100
1000
0000
0010
0000
0100
0000
0001
0000
0100
0000
0000
0000
,  // measure 141
1000
0000
0000
0010
1000
0000
0010
0000
1000
0000
0000
0010
0001
0000
0010
0000
,  // measure 142
0001
0000
0000
0100
0010
0000
1000
0000
0100
0000
1000
0000
0010
0000
0000
0000
,  // measure 143
0010
0000
0000
0100
1000
0000
0010
0000
0100
0000
0000
0100
0001
0000
0010
0000
,  // measure 144
0100
0000
0000
0100
1000
0000
0010
0000
0100
0000
0001
0000
1000
0000
0000
0000
,  // measure 145
0001
0000
0000
0010
0001
0000
1000
0000
0100
0000
0000
0010
1000
0000
0001
0000
,  // measure 146
0100
0000
0000
0010
0001
0000
0100
0000
0010
0000
1000
0000
0100
0000
0000
0000
,  // measure 147
1000
0000
0001
0100
0000
0001
0100
0000
0010
0000
0000
1000
0000
0000
0100
0000
,  // measure 148
0000
0000
0010
0000
0000
0001
0000
0000
0010
0000
0000
0100
0000
0000
1000
0000
,  // measure 149
0001
0000
1000
0100
0000
1000
0100
0000
0010
0000
0000
0001
0000
0000
0100
0000
,  // measure 150
0000
0000
0010
0000
0000
1000
0000
0000
0010
0000
0000
0100
0000
0000
0001
0000
,  // measure 151
0110
0000
0001
1000
0010
0000
1000
0001
,  // measure 152
0010
0000
0100
1000
0010
0000
0100
0001
,  // measure 153
0010
0000
0100
1000
0020
0000
0001
0000
,  // measure 154
2030
0000
0100
0000
3010
0000
0100
0001
,  // measure 155
0010
0000
0100
1000
0010
0000
1000
0001
,  // measure 156
0010
0000
0001
1000
0010
0000
0100
0001
,  // measure 157
1000
0000
0100
1000
0001
0100
0010
0000
,  // measure 158
1000
0100
0010
0001
0000
1000
0001
0000
,  // measure 159
0010
0000
0010
0000
1000
0001
1000
0000
,  // measure 160
0100
0001
0010
1000
,  // measure 161
0010
0000
0001
0000
0010
0100
1000
0000
,  // measure 162
0100
0000
0010
0000
0001
0100
1000
0100
0000
0001
0000
0010
0000
0000
0100
0000
,  // measure 163
0010
0000
0010
0000
0001
1000
0001
0000
,  // measure 164
0001
0020
0000
0032
0000
2003
0000
3100
,  // measure 165
0010
0001
1000
0100
,  // measure 166
1000
0000
0000
0000
0010
0100
0001
1000
0100
0000
0000
0010
0000
0000
0001
0000
,  // measure 167
1000
0010
1000
0000
0001
0010
1000
0000
,  // measure 168
0010
0001
1000
0000
0001
0000
1100
0000
,  // measure 169
0001
0100
0001
0000
0010
0100
1000
0001
,  // measure 170
0010
0000
0000
0000
0001
0100
1000
0100
0000
0001
0000
0010
0000
0000
1000
0000
,  // measure 171
0010
0100
1000
0000
0010
0100
1000
0000
,  // measure 172
0100
0010
1000
0000
0010
0000
0101
0000
,  // measure 173
0010
1000
0100
0000
0010
0100
1000
1000
,  // measure 174
1000
0000
0010
0000
0001
0000
0000
0000
0020
0000
0000
0200
0330
0000
0000
0000
,  // measure 175
0001
0000
0000
0000
0010
0000
0100
0000
0000
1000
0000
0000
0001
0000
1000
0000
,  // measure 176
0001
0000
0000
1000
0000
0000
0010
0000
0000
0100
0000
0000
0001
0000
2000
0000
,  // measure 177
0000
0000
3000
0000
0010
0000
0100
0000
0000
0001
0000
0000
1000
0000
0001
0000
,  // measure 178
1000
0000
0000
0001
0000
0000
0010
0000
0000
0100
0000
0000
1000
0000
0000
0000
,  // measure 179
0001
0000
0000
0100
0000
0000
0010
0000
0000
1000
0000
0000
0001
0000
1000
0000
,  // measure 180
0001
0000
0000
0000
1000
0000
0001
0000
0000
1000
0000
0000
0001
0000
0000
0000
,  // measure 181
1000
0000
0000
0000
0100
0000
0010
0000
0000
0001
0000
0000
1000
0000
0001
0000
,  // measure 182
1000
0000
0000
0001
0000
0000
1000
0000
0000
0001
0000
0000
1000
0000
0000
0000
,  // measure 183
0020
0000
0000
0001
,  // measure 184
0000
0000
0000
1030
,  // measure 185
2002
0000
0000
0000
0000
0000
0000
0000
3000
0000
0000
0000
1003
0000
0010
0100
,  // measure 186
0001
0000
0010
0100
1000
0000
0010
0100
0001
0000
0010
0100
1000
0000
0001
0000
,  // measure 187
1000
0001
1000
0000
0010
0100
0001
0000
,  // measure 188
1000
0010
0100
0001
0010
0000
1100
0000
,  // measure 189
0001
1000
0001
0000
0010
0100
1000
0000
,  // measure 190
0001
0010
0100
1000
0010
0000
0101
0000
,  // measure 191
0010
0100
1000
0000
0010
0100
0001
0010
,  // measure 192
0001
0100
0010
1000
0010
0000
0101
0000
,  // measure 193
0010
0100
0001
0000
0010
0100
1000
0010
,  // measure 194
1000
0010
0100
0001
0010
0000
1100
0000
,  // measure 195
0010
0001
0000
0000
0000
0000
0000
0000
1000
0100
0000
0000
0000
0000
0020
0000
,  // measure 196
0000
0031
2000
0000
3001
0100
0001
0020
,  // measure 197
0030
0100
1000
0010
0200
0000
0301
2000
,  // measure 198
0000
0000
3000
0000
0010
1000
0010
0000
,  // measure 199
0010
1000
0000
0000
0000
0000
0000
0000
0001
0100
0000
0000
0000
0000
0020
0000
,  // measure 200
0000
1030
0002
0000
1003
0100
1000
0020
,  // measure 201
0030
0100
0001
0010
0200
0000
1300
0002
,  // measure 202
0000
0000
0000
0000
0003
0000
0000
0000
0001
0010
0100
1000
0001
0010
0100
1000
,  // measure 203
0020
0000
0000
0000
0000
0100
0130
0000
,  // measure 204
1000
0100
0010
0001
0100
1000
0100
0010
,  // measure 205
1000
0000
0001
0020
0000
0130
0010
1001
,  // measure 206
2002
0000
0000
3003
,  // measure 207
0100
0000
1000
0000
0000
0010
0000
1000
0001
0000
0010
0000
0100
0000
1000
0000
,  // measure 208
0001
0000
1000
0000
0000
0100
0000
0001
0100
0000
1000
0000
0010
0000
0100
0000
,  // measure 209
0001
0000
1000
0000
0000
0100
0000
0010
0100
0000
1000
0000
0100
0000
0010
0000
,  // measure 210
0001
0000
0100
0000
0000
1000
0000
0100
0001
0000
0010
0000
0001
0000
1000
0000
,  // measure 211
1100
0000
0001
0000
0000
0100
0000
1000
0010
0000
0100
0000
0001
0000
1000
0000
,  // measure 212
1010
0000
0001
0000
0000
1000
0000
0100
0010
0000
0100
0000
1000
0000
0100
0000
,  // measure 213
0011
0000
1000
0000
0000
0001
0000
1000
0010
0000
1000
0000
0001
0000
0100
0000
,  // measure 214
0001
1000
0100
0001
0100
1000
1001
0000
,  // measure 215
0010
0000
0001
0000
0000
0100
0000
0001
1000
0000
0100
0000
0010
0000
0010
0000
,  // measure 216
0001
0000
1000
0000
0000
0010
0000
0001
0010
0000
1000
0000
0100
0000
0100
0000
,  // measure 217
1000
0000
0001
0000
0000
0100
0000
0010
1000
0000
0001
0000
0010
0000
0010
0000
,  // measure 218
1000
0000
0010
0000
0000
0001
0000
0100
0001
0000
1000
0000
0100
0000
0100
0000
,  // measure 219
0011
0000
1000
0000
0000
0010
0000
0001
0100
0000
0010
0000
1000
0000
0001
0000
,  // measure 220
0101
0000
1000
0000
0000
0001
0000
0010
0100
0000
0010
0000
0001
0000
0100
0000
,  // measure 221
1100
0000
0010
0000
0000
1000
0000
0001
0100
0000
0001
0000
1000
0000
0010
0000
,  // measure 222
1000
0001
0010
1000
0010
0001
1100
0000
,  // measure 223
1000
0100
2000
0000
3001
0100
0002
0000
,  // measure 224
0013
0001
0200
0000
0310
1000
0200
0000
,  // measure 225
0301
0100
2000
0000
3001
0100
2000
0000
,  // measure 226
3100
0010
2000
0000
3001
1000
0110
0000
,  // measure 227
1001
1000
1100
0000
0000
0001
0101
0000
,  // measure 228
0011
0001
1001
0000
0000
1000
1100
0000
,  // measure 229
1010
0010
0110
0000
0000
0001
0011
0000
,  // measure 230
0110
0100
1001
0000
0000
0010
1001
0000
,  // measure 231
0100
0000
1000
0000
0001
0000
1000
0100
0000
0100
1000
0000
0010
0000
0010
0000
,  // measure 232
1000
0000
0001
0000
0010
0000
0100
1000
0000
1000
0010
0000
1000
0000
1000
0000
,  // measure 233
0001
0000
1000
0000
0010
0000
0100
0001
0000
0001
1000
0000
0010
0000
0010
0000
,  // measure 234
1000
0000
0100
0000
0001
0000
0100
1000
0000
1000
0001
0000
0100
0000
0001
0000
,  // measure 235
1010
0000
1000
0000
0100
0000
1000
0010
0000
0010
1000
0000
0100
0000
1000
0000
,  // measure 236
0011
0000
0001
0000
0100
0000
0001
0010
0000
0010
0001
0000
0100
0000
0001
0000
,  // measure 237
1100
0010
0100
0001
0110
1000
0001
0100
,  // measure 238
0010
0000
1000
0000
0001
0000
0010
0100
0000
0100
0010
0000
0001
0000
0000
0000
,  // measure 239
0100
1000
0001
1000
0100
1000
0010
1000
,  // measure 240
0001
0100
1000
0100
0010
0100
0001
0100
,  // measure 241
0010
1000
0100
0010
0100
1000
0001
1000
,  // measure 242
0100
0001
0100
1000
0010
0100
0001
0000
,  // measure 243
0110
0001
1000
0010
0100
0001
1000
0000
,  // measure 244
0110
1000
0010
0100
0001
1000
0100
0000
,  // measure 245
0011
0001
0101
0000
1010
1000
1100
0000
,  // measure 246
0010
0100
1000
0010
0100
0010
1001
0000
,  // measure 247
0010
0000
1000
0000
0001
0000
1000
0010
0000
0010
1000
0000
0100
0000
0010
0000
,  // measure 248
0001
0000
1000
0000
0010
0000
0100
0010
0000
0010
0100
0000
0001
0000
0010
0000
,  // measure 249
0100
0000
1000
0000
0100
0000
0010
0001
0000
0001
1000
0000
0100
0000
0001
0000
,  // measure 250
0100
0000
0010
0000
0001
0000
0100
1000
0000
1000
0100
0000
0010
0000
0001
0000
,  // measure 251
1100
0000
1000
0000
0010
0000
1000
0100
0000
0100
1000
0000
0010
0000
1000
0000
,  // measure 252
0101
0000
0001
0000
0010
0000
0001
0100
0000
0100
0001
0000
0010
0000
0100
0000
,  // measure 253
1001
0001
1000
0010
0110
1000
0001
0010
,  // measure 254
0100
0000
1000
0000
0001
0000
0010
0100
0000
0100
0010
0000
0001
0000
0000
0000
,  // measure 255
2002
0000
0000
3003
;
