#TITLE:SPEED LIMIT;
#SUBTITLE:(Dancing W1p3ouT style);
#ARTIST:Tony the TGR;
#TITLETRANSLIT:;
#SUBTITLETRANSLIT:;
#ARTISTTRANSLIT:;
#CREDIT:;
#BANNER:WipE-SPD.png;
#BACKGROUND:WipE-SPD-bg.PNG;
#LYRICSPATH:;
#CDTITLE:;
#MUSIC:WipE-SPD.ogg;
#OFFSET:-10.760;
#SAMPLESTART:84.209;
#SAMPLELENGTH:25.000;
#SELECTABLE:YES;
#BPMS:0.000=179.700,288.000=179.600,484.000=174.500,684.000=171.700;
#STOPS:;
#BGCHANGES:;

//---------------dance-single - ----------------
#NOTES:
     dance-single:
     :
     Hard:
     8:
     0.683,0.639,0.399,0.261,0.033: // measure 1
1001
0000
0010
1000
0000
0000
0100
0001
,  // measure 2
0000
0000
1000
0100
0000
0000
0001
0100
,  // measure 3
0110
0000
0001
0100
0000
0000
1000
0100
,  // measure 4
0000
0000
0100
0010
0000
0000
1000
0010
,  // measure 5
1010
0000
1000
0100
0000
0000
0010
0100
,  // measure 6
0000
0000
0001
0010
0000
0000
0100
0010
,  // measure 7
0110
0000
0010
0100
0000
0000
1000
0010
,  // measure 8
0000
0000
0100
0002
0000
0000
0003
0000
,  // measure 9
0100
0010
0100
0010
0000
0000
0001
0100
,  // measure 10
0001
0100
0000
0000
1100
0000
0110
0000
,  // measure 11
0011
0000
1000
0100
1000
0010
0000
0000
,  // measure 12
0001
0010
0001
0100
0000
0000
0100
0010
,  // measure 13
0100
0001
0000
0000
0010
0100
0010
0001
,  // measure 14
0000
0000
0110
0000
1001
0000
1000
0100
,  // measure 15
0110
0000
0110
0000
0001
0100
0101
0000
,  // measure 16
0101
0000
0010
2002
0000
0000
0000
3003
,  // measure 17
2000
0000
3100
0010
0001
1000
0010
0100
,  // measure 18
0001
0100
0001
0010
0000
0001
1000
0001
,  // measure 19
0000
1000
0010
0100
0000
0001
0010
0100
,  // measure 20
0000
1000
0100
0010
0000
0001
1000
0010
,  // measure 21
0200
0000
0301
0010
0100
1000
0010
0100
,  // measure 22
0001
1000
0100
0001
0000
1000
0100
0001
,  // measure 23
0000
0001
0100
1000
0000
0001
0100
1000
,  // measure 24
0100
0010
0001
1000
0100
1000
0001
0020
,  // measure 25
0000
1030
0001
1000
0200
0000
0300
0010
,  // measure 26
0000
0100
1000
0001
0020
0000
0030
1000
,  // measure 27
0000
1000
0001
0100
0010
0000
1000
0001
,  // measure 28
0000
2000
0000
0000
0000
0000
0000
3001
,  // measure 29
0000
0010
0100
1000
0010
0000
0000
1010
,  // measure 30
0000
0100
1000
0010
0100
0000
0000
1100
,  // measure 31
0000
0010
0100
0001
2000
0000
3200
0000
,  // measure 32
0320
0000
0001
0000
0100
0000
0030
1000
,  // measure 33
0000
0010
1000
0010
0100
0000
0101
1000
,  // measure 34
0000
0100
1000
0100
0010
0000
0110
1000
,  // measure 35
0000
0001
1000
0010
0100
0000
0001
1000
,  // measure 36
0000
0200
0000
0301
0000
0010
0000
0100
,  // measure 37
0000
1000
0100
1000
0002
0000
0013
0001
,  // measure 38
0000
0100
0001
0010
0100
0000
1000
0100
,  // measure 39
0000
1000
0001
0100
0002
0000
2003
0000
,  // measure 40
3020
0000
0030
0000
0000
1000
0100
1000
,  // measure 41
0010
0100
0001
0010
0001
1000
0100
1000
,  // measure 42
0000
2020
0000
0000
3030
0000
0001
0100
,  // measure 43
0001
1000
0100
1000
0001
1000
0010
0200
,  // measure 44
0000
0000
0000
0300
0000
0000
1000
0001
,  // measure 45
0010
0100
0010
0001
1000
0010
0100
0020
,  // measure 46
0000
2030
0000
3002
0000
1003
0100
0010
,  // measure 47
0022
0033
2200
3300
,  // measure 48
0202
0000
0303
0000
1000
0010
0100
0001
,  // measure 49
1000
0000
0100
1000
0010
0000
1100
0000
,  // measure 50
0011
0000
0001
0010
0100
0000
0110
0000
,  // measure 51
1001
0000
1000
0100
0001
0000
0101
0000
,  // measure 52
2020
0000
3030
0000
0000
0001
0100
0001
,  // measure 53
0010
0000
0100
0001
0100
0000
1100
0000
,  // measure 54
0011
0000
0100
0001
0000
0010
1000
0001
,  // measure 55
0010
0100
1000
0010
0100
0000
0010
0202
,  // measure 56
0000
0000
0000
0303
0000
1000
0100
0001
,  // measure 57
0200
0000
0301
0100
0010
0000
1010
0000
,  // measure 58
1100
0000
0010
0100
0001
0000
0011
0000
,  // measure 59
1010
0000
1000
0100
0010
0000
0001
0000
,  // measure 60
2200
0000
0000
3300
0000
0001
0010
1000
,  // measure 61
0020
0000
1030
0001
0100
0000
0011
0000
,  // measure 62
0101
0000
0010
1000
0000
0100
0001
0100
,  // measure 63
0010
1000
0100
0010
0100
0000
1000
0022
,  // measure 64
0000
0000
0000
0033
,  // measure 65
2000
0000
3100
0010
0001
1000
0010
0100
,  // measure 66
0001
1000
0010
0001
0000
0001
0100
1000
,  // measure 67
0000
1000
0010
0001
0000
0100
0001
0010
,  // measure 68
0000
0100
1000
0010
0000
0001
1000
0010
,  // measure 69
0200
0000
0301
0010
0100
1000
0010
0100
,  // measure 70
0001
0010
1000
0100
0000
0010
0001
0100
,  // measure 71
0000
1000
0100
0001
0000
0001
0100
0010
,  // measure 72
1000
0001
0100
0001
0100
0001
1000
0000
,  // measure 73
0100
0001
0010
0100
1000
0010
0100
0001
,  // measure 74
0010
0100
2000
0000
3020
0000
2030
0000
,  // measure 75
3010
1000
0100
0010
0001
0100
0010
1000
,  // measure 76
0200
0320
0032
0023
,  // measure 77
0031
0001
0100
0010
1000
1000
0100
0010
,  // measure 78
0001
0100
0020
0000
2030
0000
3020
0000
,  // measure 79
1030
1000
0100
0010
0001
0001
0100
0010
,  // measure 80
1010
1100
0011
0101
,  // measure 81
1001
0000
0010
1000
0200
0000
0320
0000
,  // measure 82
0230
2300
3020
0100
,  // measure 83
1030
0000
0010
1000
0200
0000
0320
0000
,  // measure 84
0032
0203
0320
0000
,  // measure 85
1030
0000
0100
0001
0020
0000
0032
0000
,  // measure 86
0203
0320
2030
3200
,  // measure 87
2300
0000
3001
0100
0001
0010
0001
0100
,  // measure 88
0101
1001
1100
1001
,  // measure 89
0220
0000
0000
0330
,  // measure 90
1001
0000
1000
0100
0001
0000
0100
0000
,  // measure 91
1100
1001
2010
3100
,  // measure 92
1001
0000
1000
0010
0001
0000
0010
0000
,  // measure 93
1010
0000
1001
0000
1100
0000
0001
1000
,  // measure 94
0001
0000
1000
0100
0001
0000
0100
0000
,  // measure 95
1000
1010
0110
0101
,  // measure 96
0001
0000
0010
0100
1000
0010
0100
0001
,  // measure 97
2000
0010
0100
3100
,  // measure 98
1001
0000
0001
0100
1000
0000
0100
0000
,  // measure 99
0101
1001
0012
0103
,  // measure 100
1001
0000
0001
0010
1000
0000
0010
0000
,  // measure 101
0011
0000
1001
0000
0101
0000
1000
0001
,  // measure 102
1000
0000
0001
0100
1000
0000
0100
0000
,  // measure 103
0001
0011
0110
1100
,  // measure 104
1000
0000
0100
0010
0001
0100
0010
1000
,  // measure 105
0002
0010
0200
0303
,  // measure 106
1001
0000
1000
0100
0001
0100
1000
0000
,  // measure 107
0001
0001
0100
0000
1020
0000
0130
0000
,  // measure 108
1020
0000
0130
0001
1000
0000
0101
0000
,  // measure 109
1001
0000
1100
0000
1000
0001
0100
0001
,  // measure 110
1000
0000
0001
0100
1000
0000
0100
0000
,  // measure 111
0101
0011
0101
1001
,  // measure 112
1100
0000
1000
0010
0100
0001
0010
0100
,  // measure 113
2000
0000
0010
0000
0100
0000
3100
1000
,  // measure 114
1001
0000
0001
0100
1000
0100
0001
0000
,  // measure 115
1000
1000
0100
0000
0021
0000
0130
0000
,  // measure 116
0021
0000
0130
1000
0001
0000
1100
0000
,  // measure 117
1001
0000
0101
0000
0001
1000
0100
1000
,  // measure 118
0001
0000
1000
0100
0001
0100
1100
0000
,  // measure 119
1010
0101
0011
1001
,  // measure 120
1100
0000
0001
0100
0010
1000
0100
0010
,  // measure 121
0012
0103
2010
3100
,  // measure 122
1000
0000
1100
0000
0001
0100
0000
0101
,  // measure 123
0000
0100
0000
0100
0010
0100
0010
0100
,  // measure 124
0001
0000
0001
0000
1000
0100
0000
0001
,  // measure 125
0000
0100
0000
1000
0001
1000
0100
1000
,  // measure 126
0001
0000
0101
0000
1000
0100
0000
1100
,  // measure 127
0000
0100
0000
0100
0010
0100
0010
0100
,  // measure 128
1000
0000
1000
0000
0001
0100
0000
1000
,  // measure 129
0000
0100
0000
0001
1000
0001
0100
0001
,  // measure 130
0100
0000
0100
0000
0100
0001
0100
0010
,  // measure 131
1000
0100
0000
0010
0000
0100
1000
0001
,  // measure 132
0100
0000
0010
0000
0100
0001
0010
0100
,  // measure 133
1000
1000
0001
0001
,  // measure 134
0100
0000
0100
0000
0100
0001
0010
0100
,  // measure 135
0010
0001
1000
0001
0000
0001
0100
0001
,  // measure 136
1000
0000
0101
0000
1000
0100
0001
0100
,  // measure 137
1000
0000
1000
0000
0001
0000
0001
1000
,  // measure 138
0001
0100
0000
0001
0000
0100
1000
0100
,  // measure 139
0010
1000
0000
0100
0000
0010
0100
1000
,  // measure 140
0010
0000
0101
0000
1000
0000
0001
0200
,  // measure 141
0000
0301
0001
1000
,  // measure 142
1000
0100
0000
1000
0000
0010
0001
0010
,  // measure 143
0100
0001
0000
0010
0000
0100
0010
0001
,  // measure 144
0100
0000
1010
0000
0001
0000
1000
0200
,  // measure 145
0000
0000
1300
0000
0000
0000
0001
0100
,  // measure 146
1000
0000
0001
0100
1000
0000
0001
0100
,  // measure 147
0010
1000
0100
0010
0001
0000
0001
0100
,  // measure 148
0010
0000
0001
0100
0010
0000
0001
0100
,  // measure 149
0010
1000
0010
0100
0001
0000
1000
0100
,  // measure 150
0001
0000
1000
0100
0001
0000
1000
0010
,  // measure 151
0100
0001
0010
0100
1000
0000
1000
0010
,  // measure 152
0100
0000
1000
0010
0100
0000
1000
0010
,  // measure 153
0100
0001
1000
0100
0001
0000
1100
0000
,  // measure 154
0001
0100
1000
0100
0001
0000
0001
0100
,  // measure 155
0000
0100
0001
0100
0010
0100
0001
0000
,  // measure 156
0001
0010
1000
0010
0001
0000
0001
0010
,  // measure 157
0000
0010
0001
0010
0100
0010
0001
0000
,  // measure 158
1000
0100
0001
0100
1000
0000
1000
0100
,  // measure 159
0000
0100
1000
0100
0010
0100
1000
0000
,  // measure 160
1000
0010
0001
0010
1000
0000
1000
0010
,  // measure 161
0000
0010
1000
0010
0100
0010
1000
0000
,  // measure 162
1000
0000
1100
0000
0001
0100
0000
0101
,  // measure 163
0000
0100
0000
0100
0010
0100
0010
0100
,  // measure 164
0001
0000
0001
0000
1000
0100
0000
0001
,  // measure 165
0000
0100
0000
1000
0001
1000
0100
1000
,  // measure 166
0001
0000
0101
0000
1000
0100
0000
1100
,  // measure 167
0000
0100
0000
0100
0010
0100
0010
0100
,  // measure 168
1000
0000
1000
0000
0001
0100
0000
1000
,  // measure 169
0000
0100
0000
0001
1000
0001
0100
0001
,  // measure 170
0010
0001
0100
0000
0010
1000
0100
0000
,  // measure 171
0010
0001
0100
0010
1000
0001
0100
0000
,  // measure 172
1001
0000
0100
1000
0010
0000
0100
0001
,  // measure 173
0010
0000
0000
0000
0001
0000
1000
0001
1000
0001
1000
0000
0100
0000
0010
0000
,  // measure 174
0002
0000
0203
0000
0310
0000
1000
0100
,  // measure 175
1100
0110
0011
1001
,  // measure 176
0001
0000
1000
0001
0100
0000
1000
0100
,  // measure 177
0010
0000
0000
0000
0010
0000
0001
0010
0001
0010
0001
0000
1000
0000
0100
0000
,  // measure 178
0020
0000
0230
0000
0301
0000
0001
1000
,  // measure 179
1001
0110
0101
1100
,  // measure 180
1001
0000
0010
0000
0100
0000
1000
0000
0010
0000
0000
0100
0000
0000
0001
0000
,  // measure 181
1000
0000
0100
0000
0010
0000
0001
0000
0100
0000
0000
0010
0000
0000
1000
0000
,  // measure 182
0010
0000
1000
0000
0001
0000
0100
0000
0010
0000
0000
1000
0000
0000
0010
0000
,  // measure 183
0100
0000
0001
0000
1000
0000
0010
0000
1000
0000
0000
0001
0000
0000
0100
0000
,  // measure 184
0100
0000
0001
0000
1000
0000
0100
0000
0010
0000
0001
0100
0000
0000
0100
0000
,  // measure 185
0010
0000
1000
0000
0001
0000
0100
0000
0010
0000
1000
0001
0000
0000
0010
0000
,  // measure 186
0001
0000
0010
0000
0100
0000
1000
0000
0001
0000
0010
0100
0000
0000
0001
0000
,  // measure 187
1000
0000
0010
0000
0100
0000
0001
0000
0010
0000
0100
1000
0000
0000
0001
0000
,  // measure 188
0010
0100
0010
0100
0001
0100
1000
0100
,  // measure 189
0001
0010
0100
1000
0010
0100
0001
0100
,  // measure 190
0101
0000
1010
0000
0100
1000
0010
0100
,  // measure 191
0001
1000
0001
0010
1000
0010
0001
1000
,  // measure 192
1001
0000
0110
0000
1001
0000
0100
0010
,  // measure 193
0001
0010
0100
1000
0100
0010
0001
0010
,  // measure 194
0100
0010
0100
1000
0001
0100
0001
1000
,  // measure 195
0001
1000
0010
0001
0010
1000
0100
0000
,  // measure 196
0220
0000
0000
0330
,  // measure 197
0100
0000
0001
0100
1000
0000
0001
0010
,  // measure 198
1000
0000
0000
0000
0010
0000
0100
0010
0100
0010
0100
0000
1000
0000
0001
0000
,  // measure 199
0020
0000
0032
0000
1003
0000
0100
0001
,  // measure 200
0101
1001
1100
0110
,  // measure 201
0100
0000
0010
0100
1000
0000
0010
1000
,  // measure 202
0001
0000
0000
0000
0001
0000
0100
0001
0100
0001
0100
0000
0010
0000
1000
0000
,  // measure 203
0002
0000
2003
0000
3100
0000
0100
0010
,  // measure 204
0110
0011
1010
1100
,  // measure 205
1001
0100
1000
0010
,  // measure 206
0001
0100
2000
0000
3200
0000
0302
0000
,  // measure 207
0013
0000
0010
0100
0010
0000
0001
1000
,  // measure 208
0002
0000
2003
0000
3020
0000
0130
0001
,  // measure 209
0010
0000
2002
0000
3003
0000
1000
0100
,  // measure 210
2000
0000
0100
0000
0010
0000
3001
0100
,  // measure 211
0002
0000
0010
0000
0100
0000
1003
0001
,  // measure 212
0110
1001
1100
0101
,  // measure 213
1001
0000
0100
0000
0010
0000
0001
0000
0100
0000
0010
0100
0000
0000
1000
0000
,  // measure 214
0001
0000
0010
0000
0100
0000
1000
0000
0010
0000
1000
0100
0000
0000
0001
0000
,  // measure 215
0100
0000
0001
0000
1000
0000
0010
0000
0100
0000
0001
0010
0000
0000
0100
0000
,  // measure 216
0010
0000
0001
0000
1000
0000
0100
0000
0001
0000
0001
1000
0000
0000
0010
0000
,  // measure 217
0010
0000
1000
0000
0001
0000
0010
0000
0100
0000
1000
0010
0000
0000
0010
0000
,  // measure 218
0100
0000
0001
0000
1000
0000
0010
0000
0100
0000
0001
1000
0000
0000
0100
0000
,  // measure 219
1000
0000
0100
0000
0010
0000
0001
0000
1000
0000
0100
0010
0000
0000
1000
0000
,  // measure 220
0001
0000
0100
0000
0010
0000
1000
0000
0100
0000
0010
0001
0000
0000
1000
0000
,  // measure 221
1001
0000
0100
0000
0010
0000
1000
0100
,  // measure 222
0001
0000
1000
0000
0010
0000
0100
0001
,  // measure 223
0100
0000
1000
0000
0001
0000
0010
1000
,  // measure 224
0100
0010
0001
1000
,  // measure 225
0001
0010
0100
1000
0000
0000
0000
0000
,  // measure 226
1000
0010
0100
0001
0000
0000
0000
0000
,  // measure 227
0001
0100
0010
1000
0000
0000
0000
0000
,  // measure 228
1000
0100
0010
0001
0000
0000
0000
0000
,  // measure 229
1001
0000
0010
0000
0100
0000
1000
0000
0010
0000
0000
0100
0000
0000
0001
0000
,  // measure 230
1000
0000
0100
0000
0010
0000
0001
0000
0100
0000
0000
0010
0000
0000
1000
0000
,  // measure 231
0010
0000
1000
0000
0001
0000
0100
0000
0010
0000
0000
1000
0000
0000
0010
0000
,  // measure 232
0100
0000
0001
0000
1000
0000
0010
0000
1000
0000
0000
0001
0000
0000
0000
0000
,  // measure 233
1000
0001
0100
0000
0001
1000
0100
0000
,  // measure 234
1000
0001
0100
0000
0001
1000
0100
0000
,  // measure 235
1000
0001
1000
0001
1000
0001
1000
0001
,  // measure 236
1000
1000
0001
0001
0010
0010
0100
0100
,  // measure 237
1000
0100
1000
0100
1000
0010
0100
0001
,  // measure 238
1000
0001
0100
0000
0001
1000
0100
0000
,  // measure 239
1000
0100
1000
0100
1000
0010
0100
0001
,  // measure 240
1000
0001
0100
0000
0001
1000
0100
0000
,  // measure 241
1000
0100
0010
0001
0010
0001
0010
0100
,  // measure 242
1000
0001
0100
0000
0001
1000
0100
0000
,  // measure 243
1000
0100
0010
0001
1000
0001
0010
0100
,  // measure 244
1100
0000
1100
0000
0010
0001
0101
0000
,  // measure 245
0001
1000
0100
1000
0001
1000
0010
1000
,  // measure 246
0001
0100
1000
0000
1000
0100
0001
0000
,  // measure 247
0001
1000
0010
1000
0001
1000
0100
1000
,  // measure 248
0001
0100
0001
0000
1000
0100
1000
0000
,  // measure 249
0010
1000
0100
0000
0010
0001
0100
0010
,  // measure 250
0000
1000
0001
0000
0100
0010
0000
1000
,  // measure 251
1001
0000
0010
0100
0000
0010
0100
0000
,  // measure 252
0101
0101
1100
1100
,  // measure 253
1000
0010
1000
0100
1000
0001
1000
0000
,  // measure 254
0001
0100
0001
1000
0001
0010
0001
0000
,  // measure 255
1000
0100
0010
0001
0010
0100
1000
0000
,  // measure 256
0001
0010
0100
1000
0100
0010
0001
0000
,  // measure 257
0100
1000
0100
0001
0010
0100
1000
0000
,  // measure 258
0100
0001
0100
1000
0010
0100
0001
0000
,  // measure 259
1000
0001
0100
0010
1000
0001
0100
0000
,  // measure 260
0001
1000
0001
1000
0001
0000
1001
0000
,  // measure 261
0010
0100
0010
0000
0010
1000
0100
0010
,  // measure 262
0001
1000
0001
0100
0010
0100
0001
1000
,  // measure 263
0100
0001
0100
0000
0100
1000
0100
0000
,  // measure 264
0100
0001
0100
1000
0010
0100
0001
0000
,  // measure 265
0100
0010
0100
0000
0100
0001
0010
0100
,  // measure 266
0000
0100
1000
0010
0100
0010
1000
0001
,  // measure 267
0010
1000
0010
0000
0010
0001
0010
0000
,  // measure 268
0010
1000
0010
0001
0100
0010
1000
0001
,  // measure 269
0101
0000
1100
0000
1000
0001
0100
0000
,  // measure 270
1100
0000
0101
0000
1000
0001
0100
0001
,  // measure 271
1000
0000
0101
0000
0001
1000
0100
0000
,  // measure 272
0101
0000
0001
0100
0010
0100
0001
1000
,  // measure 273
0000
1100
0000
0100
0010
0100
0010
0000
,  // measure 274
0100
1000
0010
0000
0100
0001
0010
0000
,  // measure 275
0011
0000
1100
0000
0010
0001
0100
0000
,  // measure 276
1010
0000
0101
0000
0010
1000
0100
0000
,  // measure 277
1000
1000
0000
0001
1000
0001
1000
0001
,  // measure 278
1000
0100
0010
0000
0010
0100
1000
0000
,  // measure 279
0101
0000
1010
0000
0100
0001
0010
0000
,  // measure 280
1100
0000
0011
0000
0100
1000
0010
0000
,  // measure 281
2002
0000
0000
3003
,  // measure 282
0220
0000
0330
0000
1000
0001
1000
1000
,  // measure 283
0001
0100
0001
0100
0001
0010
0100
1000
,  // measure 284
0001
0100
1000
0100
0001
1000
0100
0000
,  // measure 285
1000
0100
1000
0100
1000
0010
0100
0001
,  // measure 286
1000
0100
0001
0100
1000
0001
0100
0000
,  // measure 287
0001
0001
0010
0010
0100
0100
1000
1000
,  // measure 288
0001
0100
0010
1000
0100
0001
0100
1000
,  // measure 289
0001
0001
0100
0100
0010
0010
1000
1000
,  // measure 290
0001
0100
0010
1000
0001
0100
0010
1000
,  // measure 291
0100
0100
1000
1000
0001
0100
1000
0100
,  // measure 292
0001
0010
0001
0010
0100
1000
0100
1000
,  // measure 293
0001
0001
1000
1000
0100
0001
0100
1000
,  // measure 294
0010
0100
0001
0000
0001
1000
0100
0000
,  // measure 295
1000
0001
0100
0000
1000
0001
0100
0001
,  // measure 296
0000
1000
1000
0000
0100
0100
0000
0001
,  // measure 297
0001
0000
0010
0010
0000
1000
1000
0001
,  // measure 298
1000
0100
0010
0001
1000
0100
0010
0001
,  // measure 299
0100
0010
1000
0001
2002
0000
0000
0000
,  // measure 300
0000
3003
0000
0000
;

//---------------dance-single - ----------------
#NOTES:
     dance-single:
     :
     Easy:
     5:
     0.449,0.532,0.399,0.342,0.000:
1100
0100
1000
0010
,
0100
0010
0001
0100
,
0101
1001
0100
0001
,
0010
1000
0100
0010
,
0110
1001
0001
1000
,
0001
1000
0010
0100
,
0110
0011
0001
1000
,
0100
0001
1000
0000
,
0101
0011
0000
1100
,
1010
0000
1001
1001
,
0000
0101
0110
0000
,
1010
0110
0000
1010
,
0101
0000
0011
1010
,
0000
0110
1001
0000
,
1001
0110
0000
1100
,
0011
0000
0000
0220
0000
0000
0330
0000
,
2200
3300
0100
0010
,
0001
2000
3010
0002
,
0103
2000
3001
0020
,
0130
0002
0013
1000
,
2200
3300
0010
0001
,
0200
0310
0002
1003
,
0200
0301
0020
1030
,
0001
0010
1000
0100
,
1001
1000
0100
1100
,
0010
0001
0011
1000
,
0100
0001
0100
1000
,
2020
3030
0001
0010
,
0100
1000
0010
0110
,
0001
1000
0100
0101
,
0001
1000
0010
0100
,
2000
0000
0000
3000
,
0001
0001
1000
1001
,
0100
0100
0010
0110
,
0001
0010
0010
0100
,
1000
0010
1100
1010
,
1000
0010
0010
0100
,
0001
0010
0101
0011
,
1000
0001
1000
0001
,
2002
0000
3003
0100
,
1000
0010
0001
0100
,
1000
0110
0001
0010
,
1000
0100
0001
1000
,
0002
0000
0003
1000
,
0101
0010
0100
1000
,
0001
0100
0010
1000
,
0200
0000
0320
0000
,
0032
0000
0003
0000
,
1001
0100
0001
0011
,
0100
1000
1010
0001
,
0010
1010
0001
0200
,
2000
0000
3300
0001
,
0110
1000
0100
0010
,
0001
0100
0010
1000
,
0001
1000
0010
0100
,
0020
0000
0030
0001
,
0110
0001
0010
1001
,
1000
0010
0110
0100
,
0010
1001
0010
2000
,
0200
0000
3300
0010
,
0101
1000
1000
0100
,
0010
0100
0001
1000
,
0001
0010
1000
0010
,
0200
0000
0300
0000
,
2020
3030
0100
0001
,
0100
2000
3010
0002
,
1003
0200
0310
0020
,
0031
0002
1003
0010
,
0202
0303
1000
0001
,
2000
3100
0002
0013
,
2000
3010
0200
0301
,
1001
1001
0110
0110
,
1000
1000
1000
1000
,
2000
3100
2000
3100
,
0100
0100
0100
0100
,
0200
1300
1000
1000
,
0001
0001
0001
0001
,
0002
0013
0002
0013
,
0010
0010
0010
0010
,
0220
0330
2002
3003
,
1000
0100
1000
0100
,
1000
1000
2000
3000
,
0001
0100
0001
0100
,
0002
0203
0302
0023
,
0031
0010
0001
0010
,
0001
0001
0002
0003
,
1000
0010
1000
0010
,
2000
3020
2030
3010
,
2020
3000
0200
0030
,
0002
0003
0020
0300
,
2000
3000
0200
0030
,
0002
0003
0020
0330
,
0202
0003
0020
0300
,
2000
3000
0200
0030
,
0002
0003
0020
0300
,
2000
3000
0200
0330
,
0220
0000
0000
0330
,
0110
0010
1000
0100
,
2000
0001
0002
3003
,
0001
0100
1000
0100
,
0002
0023
0230
0000
,
1300
0100
1000
0010
,
0100
0100
0001
0001
,
0020
0030
0200
0300
,
1000
1000
0002
0003
,
0010
0010
0001
0100
,
0002
1000
2000
3003
,
1000
0100
0001
0100
,
2000
3020
0230
0000
,
0301
0100
0001
0010
,
0100
0100
1000
1000
,
0020
0030
0200
0300
,
0001
0001
2000
3000
,
1001
1000
0100
1000
,
0100
0100
2000
3000
,
1000
0100
1000
0010
,
0020
0230
0302
0000
,
0103
0100
0001
0001
,
0010
0100
1000
0100
,
0010
0001
0100
1000
,
0100
0001
0002
1003
,
1000
0001
1000
0001
,
0100
0100
0001
0000
,
1000
0000
0100
0000
,
1000
1000
0010
0100
,
0002
0000
0003
0000
,
0010
0010
0001
0000
,
1000
0000
0001
0000
,
1000
0100
0010
0001
,
0200
0000
0300
0000
,
0001
0100
0010
0000
,
0100
0000
0010
0100
,
0002
0003
2000
3000
,
0200
0000
0300
0000
,
1000
0010
0100
0000
,
0010
0000
0100
0010
,
2000
3000
0002
0003
,
0200
0000
0300
0000
,
1001
1001
1001
1001
,
1001
2002
3003
1000
,
0000
0001
0000
1000
,
0001
0100
0001
1000
,
1001
1001
1001
1001
,
1001
2002
3003
0001
,
0000
1000
0000
0001
,
1000
0100
1000
0001
,
1000
0001
2000
3000
,
0000
0001
0100
0001
,
1000
0001
2000
3000
,
0000
1000
0100
1000
,
0001
1000
0002
0003
,
0000
1000
0010
1000
,
0001
1000
0002
0003
,
0000
0001
0100
0001
,
2000
3000
0200
0300
,
1000
0100
1000
0100
,
2000
3000
0002
0003
,
0001
1000
0001
1000
,
0002
0003
0020
0030
,
0001
0010
0001
0010
,
0002
0003
2000
3000
,
1000
0001
1000
0001
,
0200
0300
0200
0300
,
0100
0100
0200
0300
,
0110
0100
0000
0100
,
0000
0001
0000
0001
,
0000
0010
0000
0010
,
0000
1000
0000
1000
,
0000
0100
0000
0100
,
0000
0001
0000
0001
,
0000
0010
0000
0010
,
1100
0001
0100
0001
,
0101
0010
1000
0010
,
1100
0100
0001
1000
,
0110
0110
1100
1100
,
1010
1000
0010
0100
,
0011
1000
0010
1000
,
1001
0100
0001
0010
,
1010
1100
0101
0011
,
0001
0100
1000
1000
,
0010
0010
1000
0100
,
0001
0010
1001
1000
,
0100
0101
0001
0110
,
0100
0100
0001
0001
,
0010
0010
1000
1000
,
0100
0100
1001
0001
,
0010
0110
1000
1001
,
0100
0100
0010
0100
,
0001
0001
1000
0001
,
1001
1001
0100
0010
,
0001
1000
0100
0010
,
0110
1001
0110
1000
,
0100
0010
0001
0100
,
1000
0100
0001
0010
,
0110
0110
1001
1001
,
0110
0000
0000
0000
,
0011
1000
0010
1000
,
1010
0100
0001
0100
,
0011
0010
1000
0001
,
0110
0110
0011
0011
,
0101
0001
0100
0010
,
1100
0001
0100
0001
,
1001
0010
1000
0100
,
0101
0011
1010
1100
,
1001
0000
0100
0000
,
0010
0001
0100
1000
,
0010
0000
1000
0000
,
0100
0001
0100
1000
,
0010
0001
0010
1000
,
1100
0000
0011
0000
,
1010
0000
0101
0000
,
1001
1001
1001
1001
,
0100
1000
0010
0010
,
0001
0001
0010
1000
,
0100
0001
0110
0010
,
1000
1100
0100
1001
,
1000
1000
0100
0100
,
0001
0001
0010
0010
,
1000
1000
0110
0100
,
0001
1001
0010
0110
,
1000
0000
0001
0000
,
1000
0000
0001
0000
,
0010
0000
0100
0000
,
0010
0000
0100
0000
,
1000
1000
0001
0001
,
0010
0010
0100
0100
,
0001
0010
0001
0010
,
1000
0100
1000
0100
,
1000
0100
0001
0100
,
1000
0100
0001
0100
,
1000
0010
0001
0010
,
1000
0010
0001
0010
,
1000
0100
0010
0001
,
1000
0100
0010
0001
,
0001
0010
0100
1000
,
1001
0010
0110
1000
,
1001
0100
1000
0100
,
0010
0001
0100
0001
,
1001
0100
0001
0100
,
0010
1000
0100
1000
,
1001
0100
0010
1000
,
0100
0001
1000
0001
,
1001
0100
0010
0001
,
1001
1001
0110
1001
,
0110
1000
0001
1000
,
0100
0001
0100
1000
,
0110
0001
1000
0001
,
0100
1000
0100
0001
,
1001
1000
0001
1000
,
0100
0100
0100
0100
,
0100
0100
0100
0100
,
1001
1001
1001
1001
,
2000
0000
3000
0000
,
0200
0000
0300
0000
,
0002
0000
0003
0000
,
0020
0000
0030
0000
,
2000
0000
3100
0000
,
0200
0000
0310
0000
,
0020
0000
0031
0000
,
2002
0000
0000
3003
,
1001
1000
0001
0001
,
1000
0100
0010
0100
,
1000
1000
0001
0100
,
0001
0001
1000
0100
,
1000
1000
0001
0001
,
1000
0100
0001
0100
,
1000
1000
0001
0100
,
0001
0001
1000
0100
,
0110
0010
0100
0100
,
1000
0001
0100
1000
,
0001
0001
1000
1000
,
0100
0001
0100
0010
,
0001
0001
0001
0001
,
0100
0001
0100
0001
,
1000
0100
0010
0001
,
1000
0100
0010
0001
,
1000
1000
1000
1000
,
0010
1000
0010
1000
,
0001
0010
0100
1000
,
1001
1001
1001
0110
,
2002
0000
0000
3003
,
2002
0000
0000
3003
,
1000
0100
0001
0010
,
1000
0100
0001
0100
,
1000
0010
0001
0100
,
1000
0010
0001
0010
,
1000
0100
1000
0100
,
0010
0001
0010
0001
,
0100
0001
0100
0001
,
1000
0010
1000
0010
,
1001
0100
0010
0100
,
1000
0010
0001
0100
,
1000
0001
1000
0100
,
0001
1000
0010
0001
,
1000
0100
0010
0001
,
0100
0100
0100
0100
,
0100
0100
0100
0100
,
0100
0100
0100
0100
,
0100
0100
2002
0000
,
0000
3003
0000
0000
;

//---------------dance-single - ----------------
#NOTES:
     dance-single:
     :
     Medium:
     7:
     0.533,0.532,0.240,0.304,0.000:
1000
1000
0010
0010
,
0100
0100
0001
0001
,
1100
1100
0001
0001
,
0100
0000
0010
0000
1000
0000
1000
0001
,
0101
0101
0100
0100
,
1000
1000
0010
0010
,
1001
1001
0100
1000
,
0010
0000
0001
0000
0100
0000
0100
0010
,
0110
0110
1000
1100
,
1100
0001
0011
0011
,
0100
1001
1001
0010
,
0110
0110
1000
1100
,
1010
0100
0101
0011
,
0001
0101
1100
1000
,
1010
0011
0001
0110
,
1100
0000
1000
2020
0000
0000
3030
0000
,
0002
0013
1000
0100
,
1000
0001
1000
0100
0000
0000
0100
0000
,
0001
0000
0100
0010
1000
0000
0100
0000
,
1000
0000
0010
0100
0010
0000
0001
0000
,
0202
0303
1000
0100
,
0001
1000
0001
0010
0000
0000
0100
0000
,
0010
0000
0001
1000
0010
0000
0001
0000
,
0100
0000
1000
0001
0100
0000
1000
0000
,
1001
0100
0010
0001
,
0100
0000
1000
0000
0010
0000
1000
0100
,
1000
0100
0001
0010
,
0001
0000
0100
0000
0001
0000
1000
0001
,
1000
1000
0100
0010
,
0100
0000
1000
0000
0001
0010
0001
0000
,
0100
0000
1000
0000
0001
0100
1000
0000
,
1000
0100
0001
0000
0010
0000
1000
0001
,
1000
0001
0010
0110
,
1000
0001
0010
0101
,
1000
0000
0010
0000
0100
0000
1000
0001
,
0100
0020
0000
0100
0000
0130
0000
0000
,
1000
0100
0010
0101
,
0010
0000
0100
0000
1000
0000
0100
0010
,
0001
1000
0010
0100
,
0001
0000
1000
0100
0000
1000
0010
0100
,
0110
0000
1000
0000
0001
0000
0010
0100
,
0000
0002
0000
0000
0003
0000
1000
0100
,
1000
0100
0010
0001
,
0010
0001
0010
0000
1000
0000
0001
0100
,
0010
1000
0001
0010
,
0100
0000
1000
0000
0010
0100
0001
0010
,
0002
0000
0203
0000
,
0320
0000
0030
0000
,
1000
0000
0100
0000
0001
0000
0010
0100
,
1000
0000
0010
0000
0100
0000
1000
0001
,
0100
0000
0010
0000
0100
0000
0001
1000
,
0020
0000
0000
0000
0030
0000
0100
0001
,
0100
0000
1000
0000
0100
0010
0001
0000
,
0010
0000
0100
0000
1000
0010
1000
0000
,
0001
0000
1000
0000
0010
0000
0100
0002
,
0000
0000
0003
0000
,
0100
0000
0001
0000
0100
0000
1000
0001
,
0010
0000
1000
0000
0010
0000
0001
0100
,
0010
0000
1000
0000
0010
0000
0100
0001
,
2000
0000
0000
0000
3000
0000
0010
0100
,
0010
0000
0001
0000
0010
0000
0100
1000
,
0001
0000
0010
0000
0001
1000
0001
0000
,
0100
0000
0001
0000
1000
0000
0010
0200
,
0000
0000
0000
0300
,
2000
3100
0001
0010
,
1000
0010
1000
0100
0000
0000
0010
0000
,
0100
0000
1000
0010
0100
0000
0010
0000
,
0001
0000
1000
0010
1000
0000
0100
0000
,
0220
0330
0001
0010
,
0100
0001
1000
0010
0000
0000
0010
0000
,
1000
0000
0100
1000
0001
0000
0010
0000
,
0100
0010
0100
0010
1000
0001
1000
0000
,
1001
0000
0010
0001
0100
0000
0010
0100
,
0010
2000
3020
0230
,
0301
0100
0010
0000
0010
0100
0001
0000
,
2000
3200
0320
0032
,
0013
0000
0100
1000
0010
0000
0100
0010
,
0100
0002
0203
0320
,
1030
0010
0100
0000
0100
0010
1000
0000
,
0002
0023
0230
1300
,
2002
3000
0200
0003
,
0020
0300
2000
0030
,
3001
0000
0010
0100
0010
0000
0001
0000
,
2000
3002
2003
3000
,
2002
0003
0020
3000
,
0200
0030
0002
0300
,
1003
0000
0100
0010
0100
0000
1000
0000
,
0002
2003
3020
0030
,
2002
0000
0000
3003
,
1001
0000
1000
0100
0001
0000
0100
0000
,
2000
3020
0230
0000
,
0301
0000
0010
0100
1000
0000
0001
0000
,
0020
0230
2300
0000
,
3001
0000
0100
1000
0100
0000
0001
0000
,
0010
0100
0010
0100
,
1000
0000
0001
0100
0001
0010
0001
0000
,
0200
0320
0230
0300
,
1001
0000
0001
0100
1000
0000
0100
0000
,
0002
0023
0230
0000
,
1300
0000
0010
0100
0001
0000
1000
0000
,
0020
0230
0302
0000
,
1003
0000
0100
0001
0100
0000
1000
0000
,
0010
0100
0010
0100
,
0001
0000
1000
0100
1000
0010
1000
0000
,
0200
0320
0230
0300
,
1001
0000
0001
0100
1000
0000
1000
0100
,
0002
0023
0230
0000
,
1300
0000
0001
0100
0001
0000
1000
0000
,
2010
0001
0200
3300
,
1000
0000
0010
0100
0001
0000
1000
0000
,
0200
0010
1000
0310
,
1000
0000
0010
1000
0100
1000
0010
0000
,
0100
0101
2002
3003
,
1001
0000
1000
0100
0001
0000
0001
0100
,
2000
3020
0230
0000
,
0301
0000
1000
0100
1000
0000
0001
0000
,
0012
1000
0200
0303
,
0001
0000
0010
0100
1000
0000
0001
0000
,
0200
0010
0001
0310
,
0001
0000
0010
0001
0100
0001
0010
0000
,
0100
1100
2002
3003
,
1001
0000
0001
0000
0001
0100
0000
0010
,
0000
0100
0000
0010
1000
0000
0100
0000
,
1000
0000
0001
0000
0100
1000
0000
0100
,
0000
0001
0000
0010
0000
0100
1000
0000
,
0001
0000
1000
0000
1000
0010
0000
0100
,
0000
0010
0000
0100
0001
0000
0010
0000
,
0001
0000
1000
0000
0010
0001
0000
0010
,
0000
1000
0000
0100
0000
0010
0001
0000
,
0101
0100
0010
0100
,
0001
1000
0100
1000
,
0020
0000
1030
0000
2000
0000
3100
1000
,
0002
0100
0000
1003
,
1000
0010
0100
0010
,
1000
0001
0100
0001
,
0200
0000
0301
0000
0002
0000
0103
0001
,
2000
0100
0000
3001
,
1001
0100
0010
0100
,
0001
0100
0001
0000
0010
0000
0100
0000
,
1000
0000
0101
0000
1000
0000
1000
0200
,
0000
0000
0000
0000
0300
0000
0100
1000
,
1001
0010
0100
0010
,
1000
0010
1000
0000
0100
0000
0010
0000
,
0001
0000
1100
0000
0001
0000
0001
0200
,
0000
0000
0000
0000
0000
0300
0100
0001
,
0010
0000
0010
0001
0100
0000
0001
0000
,
1000
0000
0100
0000
1000
0000
0001
0100
,
0001
0000
0001
0100
0001
0000
0001
0000
,
1000
0000
0010
0100
0010
0000
0010
1000
,
0100
0000
0100
1000
0010
0000
1000
0000
,
0001
0000
0010
0000
0001
0000
1000
0100
,
1000
0000
1000
0100
1000
0000
1000
0000
,
0001
0000
0100
0010
0200
0000
0300
0000
,
0010
1000
0100
0000
2200
0000
3300
0000
,
0000
1000
0001
1000
,
0010
1000
0100
0000
2200
0000
3300
0000
,
0000
0100
1000
0001
,
0010
0001
0100
0000
0202
0000
0303
0000
,
0000
0001
1000
0001
,
0010
0001
0100
0000
0202
0000
0303
0000
,
0000
0100
0001
1000
,
0002
0000
0103
0000
0100
0001
0000
0100
,
0000
0100
0001
0000
0001
0100
0001
0000
,
0001
0000
1000
0000
1000
0001
0000
0001
,
0000
1000
0000
1000
0001
0000
0001
0000
,
2000
0000
3100
0000
0100
1000
0000
0100
,
0000
0100
1000
0000
1000
0100
1000
0000
,
1000
0000
0001
0000
0001
1000
0000
1000
,
0000
0001
0000
0001
1000
0000
1000
0000
,
1000
0100
0001
0000
0001
0100
1000
0000
,
1000
0100
1000
0000
0001
0100
0001
0000
,
0100
0000
0100
0001
0010
0000
0100
1000
,
0010
0000
0001
1000
0001
0000
0010
0001
,
1000
0000
1010
0000
0011
0000
0001
0010
,
0001
0010
0100
1000
,
1001
0000
0100
0010
0001
0000
0010
0100
,
1000
0000
1000
0000
0100
0001
0010
0000
,
1000
1100
1000
0001
,
0010
0100
1000
0010
,
0001
0010
0100
0000
0001
0010
0100
0000
,
1000
0100
0010
0000
1000
0100
0010
0000
,
0001
1000
0001
0000
1000
0001
1000
0000
,
0010
0100
0010
0000
0100
0010
0100
0000
,
0100
0001
1000
0000
0100
0001
1000
0000
,
0010
1000
0001
0000
0010
1000
0001
0000
,
0100
0010
0100
0000
0010
0100
0010
0000
,
0001
1000
0001
0000
1000
0001
1000
0000
,
0110
0000
0110
0000
0001
1000
0010
0000
,
1000
0000
0100
0000
0001
1000
0100
0000
,
1001
0000
1001
0000
0010
0100
0010
0000
,
1000
0100
0001
0000
0001
0100
1000
0000
,
1100
0000
1100
0000
1100
0000
0001
0100
,
0001
0000
0100
0000
0010
1000
0010
0000
,
1000
0001
0010
0100
,
1100
0110
0101
0110
,
2002
0000
0000
3003
,
0100
0000
0100
0001
0010
0000
0100
1000
,
0010
0000
0001
1000
0001
0000
0010
0001
,
1000
0000
1010
0000
0011
0000
0001
0010
,
0001
0010
0100
1000
,
1001
0000
0010
0100
1000
0000
0100
0010
,
0001
0000
0001
0000
0010
1000
0100
0000
,
0001
0011
0001
1000
,
0100
0010
0001
0100
,
1100
1000
0100
0010
,
0001
0010
0100
1000
0010
0000
0100
0000
,
0001
0100
1000
0100
,
0020
0000
2030
0000
3020
0000
1030
0010
,
0100
2002
0000
3003
,
2200
0000
3300
0110
,
0022
0000
0000
0033
,
1000
0001
1000
0000
0010
0100
0010
0000
,
0010
1000
0001
0000
0010
1000
0001
0000
,
0100
0001
1000
0000
0100
0001
1000
0000
,
0010
0100
0010
0000
0100
0010
0100
0000
,
1000
0001
1000
0000
0001
1000
0001
0000
,
1000
0100
0100
0000
1000
0100
0010
0000
,
0001
0010
0001
0000
0001
1000
0010
0000
,
0010
0100
0010
0000
1000
0100
1000
0000
,
0001
0010
0001
0000
0100
0010
0100
0000
,
2000
0100
0100
0100
,
3002
1000
2003
0001
,
3200
0010
0010
0320
,
0100
0100
0230
0010
,
1300
1000
0100
0001
,
0010
1000
0100
0001
,
0010
0100
0010
0000
1000
0001
1000
0000
,
0100
0010
0100
0000
0001
0010
0001
0000
,
1001
0000
1000
0001
0000
0000
0000
0000
,
1001
0000
0001
1000
0000
0000
0000
0000
,
0110
0000
0100
0010
0000
0000
0000
0000
,
0110
0000
0010
0100
0000
0000
0000
0000
,
1000
1000
0001
0001
,
1000
1000
0001
0001
,
1000
0001
1000
0001
,
1000
0001
1000
0001
1000
0001
1000
0001
,
1000
0000
1000
0000
1000
0001
0100
0000
,
1000
1000
1000
1000
,
0001
0000
0001
0000
0001
1000
0100
0000
,
0001
0000
0001
0000
0001
0000
0001
1000
,
0001
0000
0001
0000
0001
1000
0100
0000
,
0001
0001
0001
0001
,
1000
0000
1000
0000
1000
0001
0100
0000
,
0100
0001
1000
0000
1000
0000
1000
0000
,
0001
0000
0001
0000
0001
0100
1000
0000
,
0001
0001
0001
0001
,
1000
0000
1000
0000
1000
0100
0001
0000
,
0001
0100
1000
0000
1000
0000
1000
0000
,
1000
0001
0100
0000
0001
1000
0001
1000
,
0000
0001
1000
0000
0001
1000
0000
0001
,
1000
0000
0001
1000
0000
0001
1000
0000
,
1001
1001
1001
1001
,
0001
0010
0100
1000
0000
0000
0000
0000
,
1000
0010
0100
0001
0000
0000
0000
0000
,
0001
0100
0010
1000
0000
0000
0000
0000
,
1000
0100
0010
0001
0000
0000
0000
0000
,
0001
0100
0010
1000
0000
0000
0000
0000
,
1000
0100
0010
0001
0000
0000
0000
0000
,
0001
0100
0010
1000
0000
0000
0000
0000
,
2002
0000
0000
3003
,
1000
1000
1000
1000
,
0001
0001
0001
0001
,
1000
1100
0001
0101
,
1000
0001
0100
0000
0001
1000
0100
0000
,
1000
0000
1000
0000
1000
0000
1000
0001
,
0000
1000
0001
0000
0001
0000
0001
0000
,
1000
1100
0001
0101
,
1000
0001
0100
0000
0001
1000
0100
0000
,
1001
0100
0001
0100
,
1000
0010
0100
0000
0100
0010
1000
0000
,
0001
0100
1000
0100
,
0001
0010
0100
0000
0100
0010
0001
0000
,
1000
0100
0000
1000
0100
1000
0100
0000
,
1000
0001
1000
0001
,
1000
0100
0010
0000
0010
0100
1000
0000
,
0001
0010
0100
0000
0100
0010
0001
0000
,
0001
0100
0000
0001
0100
0001
0100
0000
,
0001
1000
0001
1000
,
0001
0100
0010
0000
0010
0100
0001
0000
,
1000
0010
0100
0000
0100
0010
1000
0000
,
2002
0000
0000
3003
,
0220
0330
2002
3003
,
1000
0000
1000
0000
1000
0001
0100
0000
,
1000
1000
1000
1000
,
0001
0000
0001
0000
0001
1000
0100
0000
,
0001
0001
0001
0001
,
1000
0000
1000
0000
1000
0100
0001
0000
,
1000
1000
1000
1000
,
0001
0000
0001
0000
0001
0100
1000
0000
,
0001
0000
0001
0000
0001
0000
0001
1000
,
0001
0100
0001
0000
1000
0100
1000
0000
,
0010
0010
0100
0100
,
1000
0100
1000
0000
0001
0100
0001
0000
,
0100
0100
0010
0010
,
1000
0001
0100
0000
0001
1000
0100
1000
,
0000
0001
1000
0000
0001
1000
0000
0001
,
1000
0000
0001
1000
0000
0001
1000
0100
,
1000
0100
1000
0100
1000
0100
1000
0100
,
0010
0100
0010
0000
0220
0000
0000
0000
,
0000
0330
0000
0000
;
