#TITLE:Rainy Day Mix;
#SUBTITLE:(Dancing WipEouT 3);
#ARTIST:Nightime;
#TITLETRANSLIT:;
#SUBTITLETRANSLIT:;
#ARTISTTRANSLIT:;
#CREDIT:;
#BANNER:WipEouT3.PNG;
#BACKGROUND:WipEouT3-bg.PNG;
#LYRICSPATH:;
#CDTITLE:;
#MUSIC:WipEouT3.mp3;
#OFFSET:0.000;
#SAMPLESTART:62.909;
#SAMPLELENGTH:20.000;
#SELECTABLE:YES;
#BPMS:0.000=190.000,474.000=95.000,778.000=195.000;
#STOPS:100.000=0.480
,100.500=0.460
,101.000=0.460
,101.500=0.460
,102.000=0.460
,102.500=0.500
,215.000=0.480
,215.500=0.460
,216.000=0.460
,216.500=0.460
,217.000=0.460
,217.500=0.520
,778.000=0.960
;
#BGCHANGES:;

//---------------dance-single - ----------------
#NOTES:
     dance-single:
     :
     Challenge:
     8:
     0.569,0.993,0.278,0.238,0.115:
0000
0000
0000
0000
,
0000
0000
0000
0000
,
0000
0000
0000
0000
,
0000
0000
0000
0000
,
0000
0000
0000
0000
,
0000
0010
1000
0100
2000
0000
3000
0000
,
0000
1000
0100
0010
0001
0200
0000
0300
,
0000
0100
0001
1000
0002
0000
0003
0000
,
0000
0000
0010
0100
1000
0010
0100
0000
,
0000
0100
0001
0010
0002
0000
0003
0000
,
0000
0000
0001
0010
0100
1000
0010
0100
,
0000
0100
0001
1000
0200
0000
0300
0000
,
0000
1000
0100
0010
0001
0100
0010
1000
,
2001
0000
0100
0000
,
0001
0001
0100
0000
,
0001
0000
0100
0000
,
0001
0000
0001
0000
0100
0000
0000
3000
,
0001
0100
0001
0100
0001
0010
0100
1000
,
0100
1000
0010
1000
0100
0000
0000
0000
,
0000
0001
1000
0100
0010
0100
1000
0100
,
0010
0000
0001
0100
0000
0000
0000
0000
,
0000
0001
0010
0100
1000
0000
1000
0001
,
0100
0010
1000
0001
0100
0000
0000
0000
,
0000
0001
0010
0100
1000
0000
1000
0100
,
0010
0001
0100
0001
0100
0000
0000
0000
,
1001
0100
0001
0010
1000
0100
2001
0000
,
0000
0000
0000
3020
0000
0000
0230
0000
,
0000
0000
0000
0302
,
0000
2003
0000
3020
,
0000
0230
0000
0302
,
0000
0000
0000
0023
0000
0000
0230
0000
,
0000
0000
0000
2300
,
0000
3002
0000
0023
,
0000
0230
0000
2300
,
0010
0000
0000
3020
0000
0000
0230
0000
,
0000
0001
0000
0302
,
1000
2003
0010
3020
,
0100
0230
0001
0302
,
0010
0000
0000
0023
0000
0000
0230
0000
,
0000
1000
0000
2300
,
0001
3002
0010
0023
,
0100
0000
0230
0000
1000
0000
1300
0001
,
0100
0010
0200
0000
0301
0000
0000
0100
,
0010
0100
0001
0100
0010
0000
0000
1000
,
0100
1000
0200
0000
0310
0000
0000
0100
,
1000
0010
0100
0010
1000
0000
0100
1000
,
0010
0100
0020
0000
1030
0000
0000
0010
,
0100
0010
1000
0010
0100
0000
0000
0001
,
0010
0001
0020
0000
0130
0000
0000
0010
,
0001
0100
0010
0100
0001
0010
0100
0000
,
0100
0000
0100
0000
0100
1000
0100
0000
,
0100
0000
0100
0001
0010
0001
0100
0000
,
0100
0000
0100
0000
0100
0001
0100
0000
,
0100
0000
0100
0001
0010
0001
1001
0010
,
1000
0100
0001
0010
1001
0000
0010
1000
,
0000
1000
0200
0000
0010
0000
1000
0000
,
0010
0300
1000
0100
0100
0000
1000
0010
,
0100
0000
0100
0001
0010
0000
0010
0001
,
0100
0010
1000
1000
0001
0000
0100
0001
,
0000
0001
0020
0000
0100
0000
0001
0000
,
0100
0030
0001
0010
0010
0000
0001
0100
,
0010
0000
0010
1000
0100
0000
0100
1000
,
0010
0100
0001
0001
1000
0100
1000
0100
,
0010
0100
0010
0001
0010
0001
0100
0001
,
0200
0000
0320
0000
1030
0001
1000
0100
,
1000
0001
0100
0001
1000
0010
1000
0001
,
0010
0001
0200
0000
0301
0010
0001
0010
,
0100
0010
0100
1000
0100
1000
0010
1000
,
0020
0000
0230
0000
0301
1000
0001
0010
,
0001
1000
0010
1000
0001
0100
0001
1000
,
0100
1000
0001
0000
0020
0000
1000
0000
,
0130
0000
0001
0010
0001
0000
1000
0100
,
0000
0100
2000
0000
0010
0000
0001
0000
,
3100
0000
1000
0001
0000
0001
1000
0000
,
1000
0001
0000
0000
0200
0000
0010
0000
,
0001
1000
0010
0001
,
1000
0000
0301
0000
1000
0100
0000
0001
,
0100
0000
1000
0100
0000
0001
0100
0000
,
1000
0001
1002
0010
,
0100
1003
0020
1000
,
0000
0230
0000
0000
0302
0000
0000
0023
,
0000
0001
0001
0100
,
0100
0031
2000
0010
,
0100
3001
0020
0001
,
0000
0230
0000
0000
2300
0000
0000
3020
,
0000
1000
1000
0100
,
0100
0000
1030
0000
1001
0000
0000
0101
,
0000
0000
1000
0000
1001
0000
0000
1100
,
0000
0000
0001
0000
1001
0000
0000
0110
,
0000
0000
0000
2002
0000
0000
0000
0000
,
3003
0100
0120
1000
,
0000
0001
0030
1000
,
0100
0000
0010
0000
0001
0000
0001
0010
,
0100
1000
0001
0001
,
1000
0010
0100
0000
0001
0100
0001
0000
,
1000
0000
1000
0100
1000
0000
1000
0000
,
0001
0000
0001
1000
0010
1000
0010
0100
,
0000
0000
0000
0000
0000
0000
0001
0000
0000
1000
0000
0000
0100
0000
0000
0000
1000
0000
0000
0000
0001
0000
0000
0000
,
0100
0000
0001
0000
1000
0000
0020
0000
0000
1000
0000
0000
,
0000
0130
0001
0010
0001
0100
0001
1000
,
0000
1000
0001
1000
0001
0010
0100
1000
,
0001
0010
0100
1000
0010
0100
0001
1000
,
0010
0100
0001
1000
0000
0001
0100
0000
,
1000
0100
0000
0001
0100
0000
1000
0100
,
0000
0001
0100
0000
1000
0100
0001
0100
,
1000
0100
0001
0100
1000
0100
0001
0100
,
1000
0100
0001
0000
2001
0000
3010
1000
,
0100
0000
0100
0010
0002
0000
0003
1000
,
0000
0001
0000
1000
0100
0000
1000
0001
,
1000
0000
0010
1000
0020
0000
0100
0000
,
0001
0000
1030
0000
0000
1000
0010
0000
,
0001
0010
0000
0010
1000
0020
0100
0000
,
0000
0031
1000
0100
,
0001
0000
0100
0000
0100
1000
0000
0001
,
0000
1000
0010
0000
1000
0000
1000
1100
,
0000
0001
0100
0000
0001
0000
0001
0101
,
0000
1000
0100
0000
0000
1100
0000
1010
,
0000
0011
0000
0101
0000
0011
0000
1010
,
0000
2200
0000
3300
0001
0010
0100
2000
,
0010
0000
0100
0100
3000
0001
0100
0001
,
0000
0001
1000
1000
0010
1000
0100
0010
,
0000
0001
0001
0100
0000
1000
0100
0000
,
0010
1000
0100
0100
1000
0001
0100
1000
,
0000
0001
0001
0010
0000
1000
0100
0000
,
1000
0010
0100
0001
1000
0100
0001
1000
,
0000
0001
0001
0010
0200
0000
0302
0000
,
0203
0000
1300
1000
0010
0100
1000
0100
,
0000
0001
0001
0000
0010
0100
0001
0100
,
0000
1000
1000
0000
0010
1000
0100
0100
,
0000
1000
0001
0000
0010
0001
0100
0100
,
0000
0001
1000
1000
0001
0100
0001
0200
,
0000
0000
1300
0000
1000
0100
1000
0200
,
0000
0000
0302
0000
0013
0001
0100
1000
,
0000
0100
0001
0000
1000
0100
0001
0100
,
1000
1000
0010
0000
2010
0000
3100
0000
,
0010
1000
0100
0000
0010
0100
1000
0100
,
0000
0010
0010
0000
1001
0000
1000
0100
,
0000
0100
0001
0000
1000
1000
0100
0100
,
0010
0001
0010
0010
0012
0000
0103
0000
,
0010
0001
0100
0000
0010
0100
0001
0100
,
0000
0010
0010
0000
1001
0000
0001
0100
,
0000
0100
1000
0000
0001
0001
0100
0100
,
0010
1000
0010
0010
2000
0000
3001
0000
,
2000
3010
0002
1003
,
0002
0000
0103
0000
1001
1000
1100
0001
,
1000
0100
1000
0000
1100
0000
0001
0000
0010
0000
0100
0000
1100
0000
0010
0000
,
0100
0001
0100
0000
1001
0000
0001
1000
0100
0000
0010
0000
1100
0000
0001
0100
,
0001
1000
0001
0000
0101
0000
1000
0010
0100
0000
0001
0000
0011
0000
0100
0000
,
0001
0001
1000
0000
0100
0000
1000
0001
0101
0000
0010
0000
1100
0000
0010
0000
,
0100
0001
0100
0000
0101
0000
1000
0000
0010
0100
0001
0000
0011
0000
0100
0000
,
1000
0010
1000
0000
1010
0000
0001
0100
0010
0000
1000
0000
1100
0000
0001
0010
,
0100
0010
0001
0000
0101
0000
0010
0100
1000
0000
0001
0000
0101
0000
1001
0000
,
1000
0100
1000
0000
1010
0000
0100
0000
0011
0001
0100
0000
0010
1000
0100
0000
,
0010
0001
0100
0000
0010
1000
0100
0000
1000
0001
0100
0000
0001
1000
0100
0000
,
1000
0001
0100
0000
0001
1000
0100
0000
1000
0010
1000
0010
1000
0001
1000
0001
,
1000
0010
1000
0010
0100
0000
0010
0000
0100
0001
0100
0001
1000
0100
1000
0100
,
1000
0001
1000
0001
1000
0010
0100
0001
1000
0100
1000
0100
1000
0100
1000
0100
,
0010
0001
0010
0001
0010
0001
0010
0001
0100
0001
0100
0001
0100
0001
0100
0001
,
1000
0010
1000
0010
1000
0010
1000
0010
1010
0000
1000
0000
0100
0000
0010
0000
,
0001
0100
0010
1000
1100
0000
0010
0001
,
1000
0000
0001
0000
1000
0100
0001
0100
,
1000
0010
0001
0010
1000
0100
0010
0001
,
0100
0000
0010
0000
1000
0000
0001
0000
0101
0000
0000
0000
0010
0100
0000
0000
,
1000
0000
0000
0010
0000
0000
0100
0000
0100
0000
0000
0001
0010
0000
0100
0000
,
1000
0000
0000
0000
0010
0000
0100
0000
0100
0000
0001
0000
0010
0100
0000
0000
,
1000
0000
0000
0010
0000
0000
0100
0000
0100
0000
0001
0000
0010
0000
0100
0000
,
1000
0001
0010
0100
1100
1000
1010
0000
,
0001
0100
0101
0000
0010
1000
1010
0000
,
0001
0000
0010
0000
0011
0000
0000
0000
1000
0000
0000
0100
0010
0000
0010
0000
,
0001
0000
0101
0000
0001
0100
1000
0100
,
0001
0000
0010
0000
0100
0000
1000
0000
1000
0000
0001
0000
0001
0100
0000
0100
,
0010
0000
0010
1000
0000
1000
0001
0000
0001
0000
1000
0000
1000
0010
0000
0010
,
0100
0000
0100
0001
0000
0001
1000
0000
1000
0000
0100
0000
0010
0001
0000
0001
,
0100
0000
0100
0010
0000
0010
1000
0000
1000
0000
0100
0000
0010
0000
0000
0001
,
0100
0010
1000
0010
1010
0000
1000
0100
,
0100
0000
0010
0000
0001
0010
0100
1000
,
0001
0010
0100
0010
0011
0000
1000
0100
,
0100
0000
0010
0000
0001
0010
0100
1000
,
0001
0010
0100
0010
0011
0000
0000
0100
,
0100
0000
0010
0000
0001
0100
1000
0100
,
0001
0010
0100
0010
0011
0000
1000
0100
,
0100
0000
0010
0000
0001
0100
1000
0100
,
0001
0010
0100
0010
0011
0001
0100
0001
,
1000
0010
1000
0100
1000
0010
0100
0010
,
0100
0001
0011
0010
0100
1000
0100
1000
,
0001
0100
0001
0100
0010
1000
0100
0100
,
0010
0001
0100
0100
0101
0000
1000
0000
,
0100
0000
0001
0010
0100
0000
1000
0000
,
0010
0000
0001
0000
0100
0001
0010
0000
,
0100
0001
0010
0000
0100
1000
0010
0000
,
0100
0000
1000
0000
0010
0000
0010
0000
1000
0000
0100
1000
0000
1000
0100
0000
,
1000
0100
0000
0010
0001
0000
0010
0001
0000
0100
0010
0000
0100
0010
0000
1000
,
0010
0000
1000
0100
0000
0010
0001
0000
0101
0000
0001
0100
0000
0100
0001
0000
,
0001
1000
0000
1000
0010
0000
0010
0100
0000
0100
0001
0000
0001
0010
0000
0010
,
0100
0000
0100
1000
0000
1000
0001
0000
2002
0000
0000
0000
0000
0000
0000
0000
,
0000
3003
0110
1001
,
1010
0011
1100
0101
,
1000
0001
0000
0000
0110
0000
1001
0000
,
0011
1010
0101
1100
,
0001
1000
0000
0000
0110
0000
1001
0000
,
1100
1010
0101
0011
,
0100
1000
0000
0000
0110
0000
1001
0000
,
0101
0011
1100
1010
,
0100
0001
0000
0000
0010
1000
0010
0100
,
0001
0100
0010
0000
0100
0001
0010
0100
,
1000
0001
0000
0000
0010
0001
0010
0100
,
1000
0100
0010
0000
0100
1000
0010
0100
,
0001
1000
0000
0000
0100
1000
0100
1000
,
0010
1000
0001
0000
0100
0001
0100
0001
,
0010
0001
1000
0000
0010
1000
0010
1000
,
0100
0010
0100
0010
0001
0100
0001
0100
,
0010
1000
0001
0100
0020
0000
0000
0000
,
0000
0000
0030
0000
1000
0010
1000
0010
,
0100
1000
0100
1000
0001
0010
0001
0010
,
0100
0001
0100
0001
1000
0100
1000
0100
,
0010
1000
0010
1000
0001
0100
0001
0100
,
0010
0001
0010
0001
1000
0010
0001
0010
,
0100
1000
0100
0001
1000
0100
0001
0100
,
0010
1000
0010
0001
1000
0010
0100
0010
,
0100
0001
1000
0100
0020
0000
0000
0000
,
0000
0000
0030
0000
1000
0100
0010
0100
,
0001
0100
0001
0100
1000
0010
0100
0010
,
0001
0010
0001
0010
0100
1000
0100
1000
,
0100
0010
0100
0001
0010
1000
0010
1000
,
0010
0100
0010
0001
1000
0100
0001
1000
,
0010
0100
0010
0001
1000
0100
0010
0100
,
0001
1000
0010
0002
2000
0000
0000
0000
,
0000
0000
3003
0000
1000
0100
1000
0100
,
1000
0100
1000
0100
0010
1000
0010
1000
,
0010
1000
0010
1000
0001
0010
0001
0010
,
0001
0010
0001
0010
0100
0001
0100
0001
,
0100
0001
0100
0001
1000
0010
1000
0010
,
0100
0001
0100
0001
1000
0100
1000
0100
,
0010
0001
0010
0001
1000
0100
0001
0100
,
0010
1000
0010
0001
1000
0010
0001
0010
,
0100
1000
0100
0001
1000
0010
0100
0001
,
0010
0100
1000
0000
0110
0000
1001
0000
,
1010
0011
1100
0101
,
1000
0001
0000
0000
0110
0000
1001
0000
,
0011
1010
0101
1100
,
0001
1000
0000
0000
0110
0000
1001
0000
,
1100
1010
0101
0011
,
0100
1000
0000
0000
0110
0000
1001
0000
,
0101
0011
1100
1010
,
0100
0001
0000
0000
2100
0000
0000
0010
,
0020
0030
0100
0001
,
0010
3010
0000
0000
0102
0000
0000
0010
,
0020
0030
0100
1000
,
0010
0013
0000
0000
0002
0000
0003
0100
,
0020
0000
0030
0000
2000
0000
3000
0100
,
0020
0030
0022
0033
,
2200
0000
3300
0000
0001
0100
0010
0001
,
1000
0010
0100
1000
0020
0000
0000
0000
,
0000
0030
0000
0000
;

//---------------dance-single - ----------------
#NOTES:
     dance-single:
     :
     Hard:
     7:
     0.488,0.662,0.154,0.245,0.015:
0000
0000
0000
0000
,
0000
0000
0000
0000
,
0000
0000
0000
0000
,
0000
0000
0000
0000
,
0000
0000
0000
0000
,
0000
0010
1000
0100
2000
0000
3000
0000
,
0000
1000
0100
0010
0001
0200
0000
0300
,
0000
0100
0001
1000
0002
0000
0003
0000
,
0000
0000
0010
0100
1000
0010
0100
0000
,
0000
0100
0001
0010
0002
0000
0003
0000
,
0000
0000
0001
0010
0100
1000
0010
0100
,
0000
0100
0001
1000
0200
0000
0300
0000
,
0000
1000
0100
0010
0001
0100
0010
1000
,
2001
0000
0100
0000
,
0001
0001
0100
0000
,
0001
0000
0100
0000
,
0001
0000
0001
0000
0100
0000
0000
3000
,
0001
0100
0001
0100
0001
0010
0100
1000
,
0100
1000
0010
1000
0100
0000
0000
0000
,
0000
0001
1000
0100
0010
0100
1000
0100
,
0010
0000
0001
0100
0000
0000
0000
0000
,
0000
0001
0010
0100
1000
0000
1000
0001
,
0100
0010
1000
0001
0100
0000
0000
0000
,
0000
0001
0010
0100
1000
0000
1000
0100
,
0010
0001
0100
0001
0100
0000
0000
0000
,
1001
0100
0001
0010
1000
0100
2001
0000
,
0000
0000
0000
3020
0000
0000
0230
0000
,
0000
0000
0000
0302
,
0000
2003
0000
3020
,
0000
0230
0000
0302
,
0000
0000
0000
0023
0000
0000
0230
0000
,
0000
0000
0000
2300
,
0000
3002
0000
0023
,
0000
0230
0000
2300
,
0010
0000
0000
3020
0000
0000
0230
0000
,
0000
0001
0000
0302
,
1000
2003
0010
3020
,
0100
0230
0001
0302
,
0010
0000
0000
0023
0000
0000
0230
0000
,
0000
1000
0000
2300
,
0001
3002
0010
0023
,
0100
0000
0230
0000
1000
0000
1300
0001
,
0100
0010
0200
0000
0301
0000
0000
0100
,
0010
0100
0001
0100
0010
0000
0000
1000
,
0100
1000
0200
0000
0310
0000
0000
0100
,
1000
0010
0100
0010
1000
0000
0100
1000
,
0010
0100
0020
0000
1030
0000
0000
0010
,
0100
0010
1000
0010
0100
0000
0000
0001
,
0010
0001
0020
0000
0130
0000
0000
0010
,
0001
0100
0010
0100
0001
0010
0100
0000
,
0100
0000
0100
0000
0100
1000
0100
0000
,
0100
0000
0100
0001
0010
0001
0100
0000
,
0100
0000
0100
0000
0100
0001
0100
0000
,
0100
0000
0100
0001
0010
0001
1001
0010
,
1000
0100
0001
0010
1001
0000
0010
1000
,
0000
1000
0200
0000
0010
0000
1000
0000
,
0010
0300
1000
0100
0100
0000
1000
0010
,
0100
0000
0100
0001
0010
0000
0010
0001
,
0100
0010
1000
1000
0001
0000
0100
0001
,
0000
0001
0020
0000
0100
0000
0001
0000
,
0100
0030
0001
0010
0010
0000
0001
0100
,
0010
0000
0010
1000
0100
0000
0100
1000
,
0010
0100
0001
0001
0002
0000
0010
0000
,
0100
1003
0020
1000
,
0000
0230
0000
0000
0302
0000
0000
0023
,
0000
0001
0000
0100
,
0000
0031
2000
0010
,
0100
3001
0020
0001
,
0000
0230
0000
0000
2300
0000
0000
3020
,
0000
1000
0000
0100
,
0000
1030
0020
1000
,
0130
0000
0001
0010
0001
0000
1000
0100
,
0000
0100
2000
0000
0010
0000
0001
0000
,
3100
0000
1000
0001
0000
0001
1000
0000
,
1000
0001
0000
0000
0200
0000
0010
0000
,
0001
1000
0010
0001
,
1000
0000
0301
0000
1000
0100
0000
0001
,
0100
0000
1000
0100
0000
0001
0100
0000
,
1000
0001
1002
0010
,
0100
1003
0020
1000
,
0000
0230
0000
0000
0302
0000
0000
0023
,
0000
0001
0001
0100
,
0100
0031
2000
0010
,
0100
3001
0020
0001
,
0000
0230
0000
0000
2300
0000
0000
3020
,
0000
1000
1000
0100
,
0100
0000
1030
0000
1001
0000
0000
0101
,
0000
0000
1000
0000
1001
0000
0000
1100
,
0000
0000
0001
0000
1001
0000
0000
0110
,
0000
0000
0000
2002
0000
0000
0000
0000
,
3003
0100
0120
1000
,
0000
0001
0030
1000
,
0100
0000
0010
0000
0001
0000
0001
0010
,
0100
1000
0001
0001
,
1000
0010
0100
0000
0001
0100
0001
0000
,
1000
0000
1000
0100
1000
0000
1000
0000
,
0001
0000
0001
1000
0010
1000
0010
0100
,
0000
0000
0000
0000
0000
0000
0001
0000
0000
1000
0000
0000
0100
0000
0000
0000
1000
0000
0000
0000
0001
0000
0000
0000
,
0100
0000
0001
0000
1000
0000
0020
0000
0000
1000
0000
0000
,
0000
0130
0001
0010
0001
0100
0001
1000
,
0000
1000
0001
1000
0001
0010
0100
1000
,
0001
0010
0100
1000
0010
0100
0001
1000
,
0010
0100
0001
1000
0000
0001
0100
0000
,
1000
0100
0000
0001
0100
0000
1000
0100
,
0000
0001
0100
0000
1000
0100
0001
0100
,
1000
0100
0001
0100
1000
0100
0001
0100
,
1000
0100
0001
0000
2001
0000
3010
1000
,
0100
0000
0100
0010
0002
0000
0003
1000
,
0000
0001
0000
1000
0100
0000
1000
0001
,
1000
0000
0010
1000
0020
0000
0100
0000
,
0001
0000
1030
0000
0000
1000
0010
0000
,
0001
0010
0000
0010
1000
0020
0100
0000
,
0000
0031
1000
0100
,
0001
0000
0100
0000
0100
1000
0000
0001
,
0000
1000
0010
0000
1000
0000
1000
1100
,
0000
0001
0100
0000
0001
0000
0001
0101
,
0000
1000
0100
0000
0000
1100
0000
1010
,
0000
0011
0000
0101
0000
0011
0000
1010
,
0000
2200
0000
3300
0001
0010
0100
2000
,
0000
0001
3001
0000
1000
1000
0010
0100
,
0000
0100
0001
0000
0001
0001
0010
0100
,
0000
0100
1000
2000
0010
0000
3010
2000
,
0000
3100
0100
1000
0001
0100
0100
0002
,
0000
0000
0013
0100
0000
1000
1000
0000
,
0010
0000
1000
0100
0020
0001
0031
0010
,
0000
0001
0100
0001
0200
0000
0320
0000
,
2030
0000
3100
1000
0001
0100
0010
1000
,
0000
1000
1100
0000
0001
1000
0100
0100
,
0000
0001
0100
0000
0010
1000
0100
0100
,
0000
0010
1000
0000
0010
0010
1000
0100
,
0000
0010
0001
0001
1000
0100
1000
0002
,
0000
0000
0103
0000
1000
0001
1000
0100
,
0000
1000
0200
0000
2300
0000
3020
0000
,
0130
0001
0100
0000
0001
0001
1000
0000
,
1000
1000
0001
0000
1002
0000
0000
0100
,
0000
0010
0013
0000
0010
0001
0100
0200
,
0000
0000
0301
0000
1000
0000
0100
1000
,
0000
0010
0100
0000
0001
0001
0100
0000
,
1000
1000
0100
1000
2001
0000
0000
0100
,
0000
0010
3010
0000
0020
0000
1000
2030
,
0000
0100
3100
0000
0001
0000
0010
0100
,
0000
1000
0020
0000
0100
0000
0100
0000
,
0100
0100
0130
0100
0001
0000
0001
0000
,
1000
1000
0001
0001
,
1000
0000
1001
0100
1001
0001
0100
0001
,
1001
1000
0100
1000
0010
0100
0001
1000
,
0100
1000
0001
0100
1001
1000
0100
1000
,
1001
0001
0100
0001
1000
0100
0010
0100
,
0010
0001
1000
0001
0101
1000
1100
1000
,
0001
0100
1001
0001
0010
0001
1000
0100
,
1000
1000
0001
0100
0110
0001
1001
0100
,
1000
0010
0110
0100
0001
1000
0100
1200
,
0000
0000
1300
0001
1001
0100
0100
0000
,
0010
1000
0100
0000
0001
0001
1000
0100
,
0100
1000
0001
0100
1001
0010
0100
0000
,
0001
0100
0002
0000
1003
0010
0100
0001
,
1000
1100
2002
3003
1001
0100
0010
0000
,
1000
0010
1000
0001
0101
0100
0001
1000
,
1100
0100
1000
0001
1000
0100
0010
0001
,
0100
0000
0001
0100
1000
0000
0100
0000
,
0001
0000
0010
0000
0010
0100
1000
0100
,
0010
0001
0100
0010
1000
0100
1000
0100
,
0010
0000
0001
0000
0010
0000
0001
0000
0101
0000
0000
0000
0000
0010
0000
0000
,
0100
0000
0000
1000
0000
0000
0010
0000
0010
0000
0000
0000
0101
0000
0000
0000
,
1000
0000
0000
0001
0100
0000
1000
0100
,
0001
0000
0001
0100
1000
0000
0010
0100
,
0001
1000
0100
0010
0011
0000
0100
0000
,
1000
0000
0010
0000
0001
0010
0000
1000
,
0010
0100
0001
0100
,
0010
0000
1000
0000
1000
0001
0100
0001
,
1000
0000
0010
0000
1000
0000
0001
0000
0100
0000
0100
0000
0000
0010
0000
0000
,
1000
0000
0000
0001
0000
0000
0100
0000
0100
0000
0010
0000
0000
0100
0000
0000
,
0001
0000
0000
1000
0000
0000
0010
0000
0010
0000
1000
0000
0000
0100
0000
0000
,
0001
0000
0000
0100
0000
0000
1000
0000
1000
0000
0001
0000
0100
0000
0000
0000
,
1000
0001
0100
0000
1010
0000
0000
0001
,
0100
0000
1000
0000
0001
0010
0100
1000
,
0001
0010
0001
0100
0010
0000
0000
1000
,
1000
0000
1100
0000
0001
0010
0100
1000
,
0001
0100
0001
0010
0110
0000
0000
1000
,
0100
0000
1000
0000
0001
0100
0010
1000
,
0001
0100
0001
0100
0100
0000
0000
0010
,
1000
0000
1100
0000
0001
0100
0010
1000
,
0001
0010
0001
0010
0110
0000
1000
0000
,
0100
0001
0010
1000
,
0100
0000
1001
0000
1000
0100
1100
0000
,
0001
0000
0100
0000
0101
0000
0000
0000
1000
0000
0010
0000
1010
0000
0000
0001
,
0010
0001
0011
0000
1001
0000
0100
0000
,
0010
0000
0100
0010
0010
0000
1000
0000
,
0100
0000
1000
0000
0010
1000
0010
0100
,
0001
0100
0010
1000
0100
0000
0010
0001
,
0100
0000
0001
0010
0001
0000
1000
0000
,
0001
0000
0100
0010
0010
0000
1000
0000
,
1100
0000
0001
0100
0100
0000
1000
0100
,
0001
0000
0001
0100
1000
0000
1000
0010
,
0001
0000
0001
0010
1001
0000
0000
0000
,
0000
0000
0000
0000
1000
1000
0010
0000
,
0100
0001
0000
0000
0010
0010
0100
0000
,
1000
0001
0000
0000
0100
0100
0001
0000
,
1000
0001
0000
0000
0010
0010
1000
0000
,
0001
1000
0000
0000
0010
1000
0010
0000
,
0100
0001
0000
0000
0010
0001
0010
0000
,
0100
1000
0000
0000
1000
0000
0010
0000
,
0100
0001
0000
0000
0100
0000
0001
0000
,
0010
0100
0000
0000
1000
0100
1000
0000
,
0100
0010
0100
0000
1000
0010
1000
0000
,
0010
0100
0010
0000
0100
0001
0100
0000
,
0001
0010
0001
0000
0010
0100
0010
0000
,
0001
1000
0001
0000
0100
0001
0100
0000
,
0010
1000
0010
0000
0100
1000
0100
0000
,
0010
0001
0010
0000
0001
1000
0001
0000
,
0100
0010
0100
0000
0010
0000
1000
0000
,
0001
0010
2002
0000
,
0000
0000
3003
0000
0001
0100
0010
1000
,
0100
0010
0100
0000
1000
0010
0100
0001
,
1000
0100
0010
0000
0001
0100
0001
0100
,
0010
1000
0100
0000
0010
0001
0010
0100
,
1000
0010
0100
0000
0001
0010
0001
0010
,
0100
1000
0001
0000
0100
0001
0100
0001
,
0010
0100
1000
0000
0010
1000
0010
0100
,
0001
0100
0001
0010
0200
0000
0000
0000
,
0000
0000
0000
0000
1300
0100
1000
0100
,
0010
0001
0010
0000
0001
0010
0001
0010
,
0100
1000
0010
0000
1000
0010
1000
0010
,
0100
0001
0010
0000
0001
0010
0001
0010
,
0100
1000
0001
0000
0100
0001
0010
0100
,
1000
0010
0100
0001
1000
0100
0010
0100
,
1000
0010
0100
0001
2000
0000
0000
0100
,
0100
0000
0000
0000
3100
1000
0100
0010
,
0001
0010
0100
1000
0001
0000
0100
0000
,
1000
0100
0001
0010
,
0100
0000
1000
0000
0010
1000
0010
0000
,
0100
0001
0100
0000
0010
0001
0010
0000
,
0100
1000
0100
0000
0010
0001
0100
0010
,
1000
0100
0010
0001
0100
1000
0100
0001
,
0010
1000
0010
0001
0100
1000
0100
0001
,
0010
0100
1000
0001
0100
0010
1000
0100
,
0001
0100
1000
0010
0100
0000
0001
0000
,
1000
0100
0010
1000
,
0100
0010
0000
0000
0100
0000
1000
0000
,
0001
0100
0010
0001
,
0100
0010
0000
0000
1000
0000
0100
0000
,
0001
0100
1000
0001
,
0100
1000
0000
0000
0001
0000
0100
0000
,
1000
0100
0001
1000
,
0100
0001
0000
0000
1100
0000
0000
0100
,
0010
0000
0001
0100
,
0010
1000
0000
0000
0001
0000
0000
0100
,
0001
0000
1000
0100
,
0010
1000
0000
0000
0001
0000
0000
0100
,
0010
0000
0000
0000
1000
0000
0000
0100
,
0010
0000
0002
0003
,
2000
3000
0001
1000
,
0100
0010
0001
0100
2002
0000
0000
0000
,
0000
3003
0000
0000
;

//---------------dance-single - ----------------
#NOTES:
     dance-single:
     :
     Easy:
     3:
     0.208,0.391,0.071,0.057,0.000: // measure 1
0000
0000
0000
0000
,  // measure 2
0000
0000
0000
0000
,  // measure 3
0000
0000
0000
0000
,  // measure 4
0000
0000
0000
0000
,  // measure 5
0000
0000
0000
0000
,  // measure 6
0000
1000
0100
0000
,  // measure 7
0000
0100
0010
0100
,  // measure 8
0000
0010
0001
0000
,  // measure 9
0000
0001
0100
0001
,  // measure 10
0000
0001
0100
0000
,  // measure 11
0000
0100
0010
0100
,  // measure 12
0000
0010
1000
0000
,  // measure 13
0000
1000
0001
0100
,  // measure 14
2002
0000
0000
0000
,  // measure 15
0000
0000
0000
0000
,  // measure 16
0000
0000
0000
0000
,  // measure 17
0000
0000
0000
0000
0000
0000
0000
3003
,  // measure 18
0001
0100
0001
0000
,  // measure 19
0001
1000
0100
0000
,  // measure 20
1000
0100
1000
0000
,  // measure 21
1000
0001
0100
0000
,  // measure 22
1000
0010
1000
0000
,  // measure 23
1000
0001
0010
0000
,  // measure 24
0001
0010
0001
0000
,  // measure 25
0001
1000
0010
0000
,  // measure 26
1001
1000
0001
1000
0001
1000
1001
0000
,  // measure 27
1000
0000
0010
0000
,  // measure 28
0100
0000
0000
0001
,  // measure 29
0000
0010
0000
0100
,  // measure 30
0000
1000
0000
0001
,  // measure 31
0000
0000
0100
0010
,  // measure 32
0000
0000
0000
1000
,  // measure 33
0000
0100
0000
0010
,  // measure 34
0000
0001
0000
0010
,  // measure 35
0000
0000
0001
1000
,  // measure 36
0000
0000
0000
0100
,  // measure 37
0000
0001
0000
0100
,  // measure 38
0000
1000
0000
0010
,  // measure 39
0000
0000
1000
0001
,  // measure 40
0000
0000
0000
0100
,  // measure 41
0000
1000
0000
0001
,  // measure 42
0000
0100
0000
0000
,  // measure 43
0001
0100
0000
0000
,  // measure 44
0100
0000
0010
0000
,  // measure 45
0010
1000
0000
0000
,  // measure 46
1000
0100
0000
0000
,  // measure 47
0100
0010
0000
0000
,  // measure 48
0001
0000
0100
0000
,  // measure 49
0001
0100
0000
0000
,  // measure 50
1000
0001
0100
0001
,  // measure 51
1000
0001
0000
0100
,  // measure 52
0010
0100
0000
0001
,  // measure 53
1000
0001
0000
0010
,  // measure 54
0100
0000
0010
0000
0000
0000
1001
0001
,  // measure 55
1000
0001
1000
0001
1001
0000
0000
0000
,  // measure 56
0100
0000
0001
0000
,  // measure 57
0010
0100
0100
0000
,  // measure 58
1000
0000
0010
0000
,  // measure 59
0100
0000
0010
0000
,  // measure 60
1000
1000
0100
0000
,  // measure 61
0001
0010
0010
0000
,  // measure 62
0001
0000
0100
0000
,  // measure 63
0010
0010
1000
0100
,  // measure 64
1000
0000
0010
0100
,  // measure 65
0010
0000
0010
1000
,  // measure 66
0100
0100
0010
0001
,  // measure 67
0100
0000
0001
0010
,  // measure 68
0001
0000
0100
0010
,  // measure 69
0100
0000
0100
0001
,  // measure 70
0010
0010
0100
1000
,  // measure 71
0010
0010
2000
0000
,  // measure 72
0000
3000
0001
0000
,  // measure 73
0010
0000
0001
0000
,  // measure 74
0100
0000
1000
0000
,  // measure 75
0100
0000
0001
0001
,  // measure 76
1000
1000
0001
0001
,  // measure 77
1000
1000
0001
0000
,  // measure 78
0100
0000
1000
0000
,  // measure 79
0100
0000
0020
0000
,  // measure 80
0000
0030
2000
0000
,  // measure 81
0000
3000
0002
0003
,  // measure 82
0200
0000
0000
0000
,  // measure 83
0000
0300
0020
0000
,  // measure 84
0000
0030
2000
0000
,  // measure 85
0000
3000
0002
0003
,  // measure 86
0020
0000
0000
0000
,  // measure 87
0000
0000
0030
0000
0100
0000
0000
0100
,  // measure 88
0000
0000
0000
0000
0010
0000
0000
0010
,  // measure 89
0000
0000
0000
0000
0100
0000
0000
0100
,  // measure 90
0000
0000
0000
2002
0000
0000
0000
0000
,  // measure 91
3003
0000
0120
0000
,  // measure 92
0100
0000
0130
0000
,  // measure 93
0001
0000
1000
0000
,  // measure 94
0001
0000
1000
0000
,  // measure 95
0001
0000
1000
0000
,  // measure 96
0100
0000
1000
0000
,  // measure 97
0100
0000
0010
0000
,  // measure 98
0001
0000
0010
0000
,  // measure 99
0001
0000
0200
0000
,  // measure 100
0000
0300
0001
0000
,  // measure 101
1000
0000
0010
0000
,  // measure 102
0100
0000
0001
0000
,  // measure 103
0100
0000
0000
0001
,  // measure 104
0000
0100
0000
0000
1000
0000
0000
0100
,  // measure 105
0000
0001
0100
1000
,  // measure 106
0100
0001
0100
1000
,  // measure 107
0100
0001
1000
0000
,  // measure 108
0001
0000
0100
0000
,  // measure 109
0001
0000
1000
0000
,  // measure 110
0010
0000
1000
0000
,  // measure 111
0010
0000
0200
0000
,  // measure 112
0000
0300
0002
0000
,  // measure 113
0000
0003
1000
0000
,  // measure 114
0100
0000
1000
0000
,  // measure 115
0010
0000
0000
0000
0100
0000
0000
0110
,  // measure 116
0000
0000
0000
0000
0010
0000
0000
0110
,  // measure 117
0000
0000
0000
0000
0000
0100
0000
0100
,  // measure 118
0000
0100
0000
0100
0000
0100
0000
0100
,  // measure 119
0000
0100
0000
0000
1000
0000
1000
0000
,  // measure 120
1000
0000
0100
0000
,  // measure 121
1000
0000
0001
0001
,  // measure 122
0001
0000
0010
0000
,  // measure 123
0001
0000
1000
0000
,  // measure 124
0100
0100
0000
0100
,  // measure 125
0000
1000
0001
0000
,  // measure 126
0010
0010
0000
0010
,  // measure 127
0000
0001
1000
1000
,  // measure 128
1000
0000
0100
0000
,  // measure 129
0001
0000
0001
0001
,  // measure 130
0001
0000
0100
0000
,  // measure 131
1000
0000
0010
0010
,  // measure 132
1000
0000
1000
0000
,  // measure 133
1000
0000
0001
0001
,  // measure 134
0000
0001
0000
0100
,  // measure 135
0000
0001
1001
0000
,  // measure 136
0100
0000
0010
0010
,  // measure 137
0000
0100
0000
0001
,  // measure 138
0010
0100
0000
1000
,  // measure 139
0000
1000
1001
0000
,  // measure 140
0010
0000
0100
0100
,  // measure 141
0000
0010
0000
1000
,  // measure 142
0100
0010
0000
0001
,  // measure 143
0000
0001
0000
0000
,  // measure 144
0000
0000
0000
0000
,  // measure 145
0000
0100
1001
0000
,  // measure 146
0100
0000
0001
0100
,  // measure 147
0001
0000
1000
1000
,  // measure 148
0000
0100
0100
1000
,  // measure 149
1000
0000
1001
0000
,  // measure 150
0010
0000
1000
0010
,  // measure 151
1000
0000
0001
0001
,  // measure 152
0000
0010
0010
0001
,  // measure 153
0001
0100
1001
1000
,  // measure 154
0000
0100
0000
1000
,  // measure 155
1000
1000
1001
0001
,  // measure 156
0100
0001
0000
1000
,  // measure 157
0000
1001
1001
1000
,  // measure 158
0010
1000
1001
0001
,  // measure 159
1000
1001
0100
0000
,  // measure 160
0000
0000
0100
0000
,  // measure 161
0000
0001
1000
0000
,  // measure 162
0000
0010
1000
0000
,  // measure 163
0001
0001
0100
0000
,  // measure 164
0000
0000
0010
0000
,  // measure 165
1000
0000
0100
0000
,  // measure 166
0100
0000
0001
0100
,  // measure 167
1000
0100
1001
0000
,  // measure 168
0010
0000
1000
0000
,  // measure 169
0001
0000
0100
0000
,  // measure 170
0100
0000
0010
0000
,  // measure 171
0010
0000
1000
0000
,  // measure 172
0001
0000
0100
0000
,  // measure 173
0001
0000
1000
0000
,  // measure 174
0010
0000
1000
0000
,  // measure 175
0010
0000
1001
0000
,  // measure 176
0100
0000
0001
0000
,  // measure 177
0100
0000
1000
0000
,  // measure 178
0100
0000
0001
0000
,  // measure 179
0100
0000
0101
0000
,  // measure 180
0000
0000
0100
0000
,  // measure 181
0010
0000
1000
0000
,  // measure 182
1000
0000
0001
0000
,  // measure 183
0100
0000
0101
0000
,  // measure 184
0000
0000
1000
0000
,  // measure 185
0000
1001
0001
0100
,  // measure 186
0000
0001
0100
1000
,  // measure 187
0100
0001
1001
0000
,  // measure 188
0000
0000
0010
0000
,  // measure 189
0010
0000
1000
0000
,  // measure 190
0001
0000
1000
0000
,  // measure 191
0001
0000
0100
0000
,  // measure 192
0000
0000
0010
0000
,  // measure 193
1000
0000
1000
0000
,  // measure 194
0001
0000
0100
0000
,  // measure 195
0100
0000
1001
0000
,  // measure 196
0000
0000
1000
0000
,  // measure 197
1000
0000
0100
0000
,  // measure 198
0100
0000
0010
0000
,  // measure 199
0010
0000
0001
0000
,  // measure 200
0001
0000
0100
0000
,  // measure 201
0100
0000
0010
0000
,  // measure 202
0010
0000
1000
0000
,  // measure 203
1000
0000
0001
0000
,  // measure 204
0001
0000
1000
0000
,  // measure 205
1000
0000
0100
0000
,  // measure 206
0100
0000
0001
0000
,  // measure 207
0001
0000
0100
0000
,  // measure 208
0100
0000
1000
0000
,  // measure 209
0001
0000
1000
0000
,  // measure 210
0100
0000
1000
0000
,  // measure 211
0001
0000
0100
0000
,  // measure 212
0001
0000
2002
0000
,  // measure 213
0000
3003
1000
0100
,  // measure 214
1000
0000
0001
0100
,  // measure 215
0001
0000
1000
0010
,  // measure 216
1000
0000
0001
0010
,  // measure 217
0001
0000
1000
0100
,  // measure 218
0010
0000
0001
0100
,  // measure 219
0010
0000
1000
0100
,  // measure 220
0010
0000
0002
0000
,  // measure 221
0000
0003
0100
0000
,  // measure 222
0100
0000
0001
0000
,  // measure 223
0001
0000
0010
0000
,  // measure 224
0010
0000
0100
0000
,  // measure 225
0100
0000
1000
0001
,  // measure 226
1000
0000
0001
1000
,  // measure 227
0001
0000
0200
0000
,  // measure 228
0000
0300
0001
0000
,  // measure 229
1000
0000
0001
0001
,  // measure 230
0001
0000
1000
1000
,  // measure 231
1000
0000
0010
0010
,  // measure 232
0010
0000
0100
0100
,  // measure 233
0100
0000
0001
0010
,  // measure 234
0001
0000
0100
1000
,  // measure 235
0100
0000
1000
0010
,  // measure 236
1000
0000
0100
0001
,  // measure 237
0100
0000
1001
0000
,  // measure 238
1000
0000
0001
0000
,  // measure 239
0001
0000
1000
0000
,  // measure 240
0001
0000
1000
0000
,  // measure 241
0001
0000
0100
0000
,  // measure 242
0001
0000
1000
0000
,  // measure 243
0100
0000
1000
0000
,  // measure 244
0010
0000
0100
0000
,  // measure 245
0001
0000
1001
0000
,  // measure 246
1000
0000
1000
0000
,  // measure 247
0000
0000
0001
0000
,  // measure 248
0001
0000
0001
0000
,  // measure 249
0000
0000
0100
0000
,  // measure 250
0100
0000
0100
0000
,  // measure 251
0100
0000
0100
0000
,  // measure 252
0100
0000
0200
0000
,  // measure 253
0000
0300
2002
0000
,  // measure 254
0000
3003
0000
0000
;

//---------------dance-single - ----------------
#NOTES:
     dance-single:
     :
     Medium:
     5:
     0.335,0.412,0.067,0.119,0.005:
0000
0000
0000
0000
,
0000
0000
0000
0000
,
0000
0000
0000
0000
,
0000
0000
0000
0000
,
0000
0000
0000
0000
,
0000
1000
0000
0100
2000
0000
3000
0000
,
1000
0000
0000
0000
0001
0200
0000
0300
,
0000
0001
0000
1000
0200
0000
0300
0000
,
1000
0000
0000
0000
0010
0100
0001
0000
,
0000
0001
0000
0010
0002
0000
0003
0000
,
0001
0000
0000
0000
1000
0020
0000
0030
,
0000
1000
0000
0001
0020
0000
0030
0000
,
0001
0000
0000
0000
0100
0010
1000
0000
,
1002
0000
0010
0000
,
0100
0100
0100
0000
,
1000
0000
0100
0000
,
1000
0000
0000
0000
1000
0000
0000
0003
,
0001
0100
0001
0100
,
0010
0100
0010
0100
,
0010
1000
0010
1000
,
0100
1000
0100
1000
,
0100
0010
0100
0010
,
0001
0010
0001
0010
,
0001
0100
0010
1000
,
0100
0010
0001
0100
,
1001
0010
1000
0100
0001
0010
1001
0000
,
1000
0000
0010
0100
0000
0000
0002
0000
,
0000
0100
0000
1003
,
0000
0010
0000
1000
,
0000
0100
0000
1000
,
0000
0000
0010
0100
0000
0000
0002
0000
,
0000
0010
0000
0103
,
0001
0010
0100
1000
,
0010
1000
0100
1000
,
0001
0000
0100
0010
0000
0000
2000
0000
,
0000
0010
0000
3001
,
0000
0100
0000
0001
,
0000
0010
0000
0001
,
0000
0000
0100
0010
0000
0000
2000
0000
,
0000
0100
0000
3010
,
1000
0100
0010
0001
,
0100
0000
0001
0000
0010
0000
0001
0100
,
0000
0100
0002
0000
0003
0000
1000
0000
,
0100
0000
0010
0001
0010
0000
0000
0001
,
0100
0001
0200
0000
0300
0000
0100
0000
,
0001
0000
0010
0000
0100
0000
1000
0010
,
0000
0010
2000
0000
3000
0000
0001
0000
,
0010
0000
0100
1000
0100
0000
0000
1000
,
0010
1000
0020
0000
0030
0000
0010
0000
,
1000
0100
0010
0001
,
0100
0000
0001
0000
0100
0001
0100
0000
,
0010
0000
0010
1000
0010
1000
0100
0000
,
1000
0000
0100
0000
1000
0010
0100
0000
,
0001
0000
0100
0001
1000
0000
1001
0100
,
0001
0010
1000
0100
1001
0000
1000
0000
,
0010
0100
0000
0010
0100
0000
0001
0000
,
1000
0000
0001
1000
0001
0000
0100
0000
,
0010
0000
1000
0000
0100
0000
0010
0001
,
0000
0001
1000
0000
1000
0000
0001
0000
,
0100
0010
0000
0100
0010
0000
1000
0000
,
0001
0000
1000
0001
1000
0000
0010
0000
,
0100
0000
0001
0000
0010
0000
0100
1000
,
0000
1000
0001
0000
0020
0000
0000
0000
,
1000
0030
0200
0000
,
0001
0300
0001
1000
,
0200
0000
1000
0000
,
1000
0300
0020
0000
,
1000
0030
0200
0000
,
0001
0300
0001
1000
,
0020
0000
1000
0000
,
1000
0030
2000
0000
,
0100
3000
0001
0010
,
0001
0000
0100
0001
,
0100
0000
1000
0100
,
1000
0000
0001
0100
,
1000
0100
0001
0100
,
1000
0000
0100
0000
0001
0000
0000
1000
,
0000
0000
0001
0000
0000
1000
0000
0000
,
0001
0100
0020
0000
,
1000
0030
0200
0000
,
0001
0300
0001
1000
,
0200
0000
1000
1000
,
1000
0300
0020
0000
,
1000
0030
0200
0000
,
0001
0300
0001
1000
,
0020
0000
1000
1000
,
1000
0000
0030
0000
0100
0000
0000
1001
,
0000
0000
0000
0000
0010
0000
0000
1001
,
0000
0000
0000
0000
0100
0000
0000
1001
,
0000
0000
0000
2002
0000
0000
0000
0000
,
3003
0000
0020
0100
,
0000
0100
0000
0130
,
0001
1000
0001
0010
,
0100
1000
1000
0010
,
0100
0001
1000
0000
,
1000
0000
0001
0000
,
0001
0000
0100
0000
,
0010
0000
0000
0000
0000
0000
1000
0000
0100
0000
1000
0000
,
0001
0000
0100
0000
0001
0000
0020
0000
0000
0000
0000
0000
,
0100
0030
1000
0010
,
1000
0000
0001
0100
,
0001
0000
0010
0100
,
0010
0100
0000
1000
,
0000
0001
0000
0000
1000
0000
0000
0001
,
0000
1000
0100
0001
,
0100
1000
0100
0001
,
0100
1000
0002
0000
,
0103
0000
2000
0000
,
3100
0000
0002
0100
,
0013
0000
2000
0100
,
3020
0000
0030
2000
,
0100
0000
0001
0000
,
3010
0000
1000
0001
,
1000
0000
0001
0000
0100
0001
0000
1000
,
0000
0001
0010
0000
0001
0000
0001
0100
,
0000
0000
0010
0000
1000
0000
1000
0100
,
0000
0000
0010
0000
0000
0001
0000
1000
,
0000
0001
0000
1000
0000
0001
0000
1000
,
0000
0001
0000
0000
1000
0001
0100
0000
,
0001
0000
0100
0000
0001
1000
0100
0000
,
1000
0000
0010
0000
0010
0100
0000
0000
,
0001
0000
1000
0000
0001
0100
0001
0000
,
0010
0000
0001
0000
0001
1000
0010
0000
,
1000
0000
0010
0000
1000
0001
0010
0000
,
0001
0100
0010
0000
0100
0000
0010
0000
,
1000
0001
0001
0000
1000
0010
1000
0000
,
0100
0000
1000
1000
0001
0100
0001
0100
,
0000
0000
0001
0000
1000
0100
1000
0100
,
0000
0000
1000
0000
0010
0100
0001
0000
,
0000
0000
0001
0000
0010
0100
1000
0000
,
0000
0000
1000
0000
0001
0001
0100
0001
,
0000
0000
1000
0000
1000
0100
0100
1000
,
0000
0000
0001
0000
0001
0100
1000
0000
,
0000
0000
0001
0000
1000
0100
0001
0000
,
0000
0000
1000
0000
1001
0000
0000
0010
,
0000
0000
0100
0000
0001
0000
0000
1000
,
0000
0000
0100
0000
0010
0000
0001
0100
,
0000
1000
0100
0000
0000
0000
0001
0000
,
1000
1000
0001
0000
1001
0000
0000
0100
,
0000
0000
0010
0000
1000
0000
0000
0001
,
0000
0000
0010
0000
0100
0000
1000
0010
,
0000
0001
0010
0000
0000
0000
1000
0000
,
0001
0001
1000
0100
0200
0000
0300
0000
,
2000
3000
0002
0003
,
0200
0000
0300
0100
1001
0001
0100
0000
,
1000
1000
0100
0000
0001
0000
0100
0000
,
0001
1000
0100
0000
0100
1000
0010
0000
,
0010
0100
0001
0000
1000
0000
0001
0000
,
1000
0100
1000
0001
1001
1000
0010
0000
,
0001
0001
0010
0000
1000
0000
0010
0000
,
1000
0001
0010
0000
0010
0001
0100
0000
,
0100
0010
1000
0000
0001
0000
1000
0001
,
0001
0010
0001
1000
1001
0000
0100
0000
,
0010
0100
1000
0000
0001
0000
0010
0000
,
0100
0001
1000
0000
0001
1000
0100
0000
,
1000
0100
1000
0000
0010
0000
0100
0000
,
1000
0100
0001
0000
0100
0001
0100
0000
,
0001
0100
0001
0000
1000
0010
0100
0001
,
0001
1000
1000
0001
1001
0000
0000
0000
,
0000
0000
0000
0001
0100
0000
0000
0000
,
0010
1000
0100
0000
,
1000
0100
1000
0100
,
0001
0100
0001
0100
,
1000
0000
0000
0010
0010
0000
0000
0000
,
0100
0000
0000
0001
0100
0000
1000
0000
,
0010
0001
1000
0100
,
0001
0100
1100
0001
,
0100
0001
1000
0100
,
1000
0000
1000
0000
0001
0000
0000
0010
,
0100
0000
1000
0100
1000
0000
0010
0000
,
0100
0001
1000
1000
,
0001
0001
0100
0100
,
0010
0010
1000
0100
,
0010
0000
0001
0000
1000
0001
0100
0000
,
0001
1000
0100
0000
1001
0000
0000
1000
,
0100
0000
0010
0000
0001
0010
0100
0000
,
0010
0100
1000
0000
1001
0000
0000
1000
,
0100
0000
0010
0000
0001
0010
0100
0000
,
0010
0100
1000
0000
1001
0000
0000
0000
,
0000
0000
0100
0000
1000
0100
0010
0000
,
1000
0100
0001
0000
1001
0000
0000
0001
,
0100
0000
0010
0000
1000
0100
0001
0000
,
1000
0100
0010
0000
1001
0000
0000
0000
,
0010
0000
0100
0000
,
0001
0101
1000
0100
,
1000
0100
0001
0100
,
0001
0100
1100
0000
,
0000
0000
0010
0001
0001
0000
0000
0000
,
0100
0000
1000
0100
,
0001
0000
1000
0010
,
0001
1000
1100
0000
,
0000
0000
1000
1000
0100
0000
0000
0000
,
0001
0000
1000
0010
,
0001
0000
1000
0100
,
0001
0000
1001
0000
,
0000
0000
1000
1000
,
0010
0010
0100
0100
,
0001
0001
1000
1000
,
0100
0100
0010
0010
,
0001
0001
0100
0100
,
0010
0010
1000
1000
,
0001
0001
1000
1000
,
0010
0010
0001
0001
,
1000
1000
0100
0100
,
0001
0001
0100
0100
,
0100
0010
0100
0000
2002
0000
0000
0000
,
0000
3003
1000
0100
,
0001
1000
0100
0010
,
1000
0100
1000
0100
,
0010
0001
0100
0010
,
1000
0001
0010
1000
,
0010
0001
0100
0010
,
1000
0001
0010
0100
,
1000
0001
0200
0000
,
0000
0000
0301
0010
,
0100
1000
0100
0000
1000
0000
0010
0000
,
0100
0001
0100
0000
0010
0000
1000
0000
,
0001
0010
0100
0000
0010
0000
0001
0000
,
1000
0010
0100
0000
0001
0000
1000
0000
,
0100
0010
0100
0000
1000
0000
0001
0000
,
0100
0010
0100
0000
0002
0000
0000
0100
,
0100
0000
1003
0100
,
0001
0100
1000
0000
0001
0000
0001
0000
,
0100
0100
1000
1000
,
0100
0100
0001
0001
,
0010
0010
1000
1000
,
0010
0010
0001
0100
,
1000
0100
0001
0010
,
1000
0010
0001
0100
,
1000
0100
0001
0010
,
1000
0010
0001
0100
,
0001
0100
0001
0000
1000
0000
0100
0000
,
1000
0100
1000
0000
0001
0000
0010
0000
,
0001
0010
0001
0000
1000
0000
0010
0000
,
1000
0010
1000
0000
0100
0000
0001
0000
,
0100
1000
0010
1000
,
0010
0100
0001
0100
,
0001
1000
0100
0001
,
0010
0000
1000
0000
1100
0000
0000
0001
,
0100
0000
0001
0000
,
1000
0000
0000
0000
0100
0000
0000
0001
,
0100
0000
1000
0000
,
0001
0000
0000
0000
0100
0000
0000
1000
,
0100
0000
0000
0000
0001
0000
0000
0100
,
1000
0000
0002
0003
,
2000
3000
0001
0100
,
0010
1000
0100
0000
2002
0000
0000
0000
,
0000
0000
3003
0000
;
