#TITLE:Pumped-Up Mix;
#SUBTITLE:(DDR 3rd Mix -Korea v.2-);
#ARTIST:baconman;
#TITLETRANSLIT:;
#SUBTITLETRANSLIT:;
#ARTISTTRANSLIT:;
#CREDIT:;
#BANNER:KOREA.png;
#BACKGROUND:KOREA-bg.png;
#LYRICSPATH:;
#CDTITLE:./CDTITLES/KOREAN DANCE MUSIC.PNG;
#MUSIC:KOREA.mp3;
#OFFSET:-1.100;
#SAMPLESTART:166.240;
#SAMPLELENGTH:15.000;
#SELECTABLE:YES;
#BPMS:0.000=110.000,160.000=115.000,176.000=120.000,192.000=125.000,320.000=130.000,513.000=135.000,529.000=140.000,545.000=145.000,677.000=140.000,708.000=135.000;
#STOPS:;
#BGCHANGES:;

//---------------dance-single - ----------------
#NOTES:
     dance-single:
     :
     Easy:
     4:
     0.326,0.479,0.350,0.000,0.000:
0000
0000
0000
0000
,
0000
0000
0000
0000
,
0010
1000
0100
0001
,
0010
1000
0100
0001
,
1000
0000
0001
0100
,
1000
0000
0001
0100
,
0001
0001
1000
1000
,
0001
1000
0010
0100
,
1001
0100
0001
0100
,
1001
0100
1000
0100
,
1000
1000
1000
1100
,
0001
0001
0001
0101
,
1000
1100
0001
0101
,
1000
0110
0001
0110
,
1000
1000
0001
1000
,
0001
1000
0100
0100
,
1000
0100
0010
0001
,
0001
0100
0010
1000
,
1000
0100
0010
0001
,
0001
0100
0010
1000
,
1000
0110
0001
0110
,
0010
1001
0100
0100
,
0001
0011
1000
1010
,
1000
0000
0000
0000
,
1000
0001
1100
1100
,
0010
0100
0101
0101
,
1000
0001
1000
0001
,
0100
0010
0100
0010
,
0100
0001
1000
1001
,
0100
1000
0001
1001
,
1000
0110
0001
0110
,
1000
0001
1000
0101
,
0001
1000
0001
0100
,
1000
0001
1000
0100
,
0001
0001
1000
1000
,
0001
0110
1000
0110
,
0100
0001
0010
1000
,
0100
0001
0010
1000
,
0010
0100
0010
0100
,
1000
1000
0001
1001
,
1000
0110
0001
0110
,
1000
0100
0001
0100
,
1000
0010
0100
0001
,
0001
1001
0100
1001
,
1000
0100
0001
0001
,
0010
1000
0100
1001
,
0010
1000
1000
0100
,
0001
0100
0100
0001
,
0010
1000
1000
0100
,
1000
1000
1000
1000
,
0010
0001
0001
0100
,
1000
0100
0100
1000
,
0010
0001
0001
0100
,
0001
0001
0001
0001
,
1000
0100
1001
0001
,
0001
0100
1001
1000
,
1001
0100
1001
0100
,
0010
0010
0010
0010
,
0001
0100
1001
1000
,
1000
0100
1001
0001
,
1001
0100
1001
0100
,
0010
0010
0010
0010
,
0010
0000
0000
0000
,
1000
0000
1000
0000
,
0100
0000
0100
0000
,
0001
0000
0001
0000
,
0100
0000
0100
0000
,
1000
0000
1000
0000
,
0100
0000
0001
0000
,
0100
0000
1000
0000
,
0100
0000
0001
0000
,
0100
0000
1000
0000
,
0100
0000
0001
0100
,
0110
0001
0010
1000
,
0110
0001
0010
1000
,
0110
1000
0100
0001
,
0110
1000
0100
0001
,
0001
0000
0000
0000
,
0110
0001
1000
1000
,
0100
0001
0100
0100
,
0110
1000
0001
0001
,
0100
1000
0100
0100
,
1001
1000
0100
0100
,
1001
0001
0100
0100
,
0010
1000
0001
0010
,
0100
1000
0001
0100
,
1001
1000
1000
0001
,
0001
1000
0000
1000
,
0010
0100
0010
0100
,
1000
0100
0010
0001
,
0010
0100
0010
1001
,
0001
0000
0001
0000
,
1000
0001
1000
0001
,
1000
0100
0010
0001
,
1000
0010
0100
0001
,
0100
0010
0100
1000
,
0100
1000
1000
1000
,
1000
0001
0001
0001
,
0001
0010
1000
0100
,
0100
0010
0001
0100
,
0100
1000
1000
0001
,
0001
1000
0100
0010
,
0001
0010
0010
0100
,
0100
0010
0010
0100
,
0100
1000
1000
0001
,
0001
1000
1000
0001
,
0001
0010
0100
0001
,
0100
0010
0100
1000
,
0100
1000
1000
1000
,
1000
0001
0001
0001
,
0001
0010
1000
0100
,
0100
0010
0001
0100
,
0110
1000
1000
0001
,
0001
1000
0100
0010
,
0001
0010
0010
0100
,
0100
0010
0010
0100
,
0100
1000
1000
0001
,
0001
1000
1000
0001
,
0001
1000
1000
0001
,
0001
1000
0000
1000
,
0000
0010
0100
0010
,
0100
1000
0100
0010
,
0001
0010
0100
0010
,
1001
0001
0000
0001
,
0000
1000
0001
1000
,
0001
1000
0100
0010
,
0001
0010
0100
0010
,
1001
1000
0000
1000
,
0000
1000
1000
0001
,
0001
1000
0100
0010
,
0001
0010
0100
0010
,
1001
0001
0000
0001
,
0000
0010
0001
0010
,
0001
1000
0100
1000
,
0100
0010
0001
0010
,
0001
1000
0100
1000
,
0100
0010
0001
0010
,
0001
0010
0010
0010
,
0100
0010
0010
0010
,
0100
1001
0001
0001
,
1001
0010
0010
1000
,
0100
0010
0010
0001
,
0100
0001
0001
1000
,
0100
1000
1000
0001
,
0100
0010
0010
0100
,
0010
0100
0100
0010
,
0100
1001
0110
1001
,
0110
1001
0000
0001
,
0001
0100
0100
0001
,
0010
0100
0100
1000
,
0010
1000
1000
0001
,
0010
0001
0001
1000
,
0010
0100
0100
0010
,
0010
1000
1000
0001
,
0001
0010
0001
1000
,
0100
0010
0100
0100
,
0001
1000
1000
0001
,
0100
0001
0001
1000
,
0100
1000
1000
0001
,
0100
0001
0001
1000
,
0100
0001
0001
1000
,
0100
1000
1000
0001
,
0010
1000
1000
0001
,
0100
0010
0010
0010
,
1001
0110
0110
0110
,
0010
1001
1001
1001
,
1000
0110
0110
0110
,
0100
1001
1001
1001
,
0001
0010
0010
0100
,
0100
0010
0100
0010
,
0010
0100
0001
0100
,
1000
1000
0100
0001
,
0001
1010
1010
1010
,
0110
0011
0011
0011
,
0110
1100
1100
1100
,
0110
0101
0101
0101
,
0110
0010
0010
0100
,
0100
1001
1001
0000
,
0000
0110
0110
0000
,
0000
0001
0001
1000
,
1000
0010
1001
0000
,
0000
1001
1001
0000
,
0000
0110
0110
0000
,
0000
0001
0001
1000
,
1000
0010
1001
0000
,
0000
0001
0100
1000
,
0100
0001
0100
1001
,
1100
1000
0100
0001
,
0100
1000
0100
1001
,
0101
0001
0101
1000
,
1100
0001
0101
1000
,
1100
0010
0010
0100
,
0100
0001
0110
0110
,
1001
1001
0100
1001
,
0100
1001
0100
1001
,
0100
1001
0100
0010
,
0010
0100
0100
0010
,
0100
0010
1001
0001
,
0101
1000
1100
0001
,
0101
1000
1100
0001
,
0001
1000
1000
1001
,
0000
0000
0000
0010
,
1001
0000
0000
0100
,
1001
0000
0000
0001
,
0101
1000
1100
0010
,
1001
0000
0000
1001
,
1001
0000
0000
0110
,
0110
0000
0000
0100
,
1001
0100
1001
0101
,
0101
0000
0000
1000
,
1000
0001
0001
0010
,
1000
0100
0001
0010
,
1000
0100
0001
1001
,
0000
0000
0000
0101
,
0101
0000
0000
1100
,
1100
0000
0000
0010
,
0010
0001
0001
1000
,
1100
0001
0100
0101
,
0101
1000
0100
1100
,
1100
0001
0001
0101
,
1000
1100
0001
0001
,
0100
1000
0010
1001
;

//---------------dance-single - ----------------
#NOTES:
     dance-single:
     :
     Medium:
     5:
     0.408,0.451,0.530,0.000,0.005:
0000
0000
0000
0000
,
0000
0000
0000
0000
,
1001
0100
1001
0100
,
1001
1000
1001
0001
,
0110
0000
1001
1001
,
0110
0000
1001
1001
,
0110
1001
0000
1001
,
0110
0000
0110
1001
,
0001
0000
1000
0000
0001
1000
0001
0000
,
1000
0000
0001
0000
1000
0001
1000
0000
,
0100
1001
0100
1001
,
0010
0100
0001
0000
1000
0010
0100
0000
,
0010
0000
0100
0000
0010
0100
0010
0000
,
0100
0000
0010
0000
0100
0010
0100
0000
,
1001
0100
1001
0100
,
1000
0001
0100
0000
0010
1000
0001
0000
,
0010
0000
0100
0000
1001
0110
1001
0000
,
1000
0000
0001
0000
0110
1001
0110
0000
,
0100
0100
0010
0010
,
1000
0001
1000
0000
1001
1001
1001
0000
,
0010
0010
0010
0000
0100
0100
0100
0000
,
0001
0001
0001
0000
1000
1000
1000
0000
,
0110
0110
1001
1001
,
0100
0000
0000
0000
0000
0000
0000
0000
0000
0100
0000
0100
0100
0000
0000
0000
,
0001
0000
1000
0000
0010
0100
0001
0000
,
0100
0000
0010
0000
0100
0001
1000
0000
,
0100
1100
1000
0000
0010
0011
0001
0000
,
0010
1000
0001
0000
1000
0001
0100
0000
,
0010
0000
0100
0000
0001
0100
1000
0000
,
0010
0000
1000
0000
0001
0100
1000
0000
,
1010
0100
0101
0010
,
1000
0001
1000
0000
0001
1000
0001
0000
,
0110
1001
1001
0110
,
1001
1001
0110
1001
,
0100
0001
1000
0000
0010
0100
0001
0000
,
1000
0001
1000
0001
1000
0001
1000
0001
,
1000
1000
1010
0000
0001
0001
0101
0000
,
0010
0010
1010
0000
0100
0100
0101
0000
,
1000
0010
0110
0000
0001
0100
0110
0000
,
1000
0001
1000
0001
1000
0001
1001
0000
,
0001
0000
1000
0000
0001
1000
0001
0000
,
1000
0000
0001
0000
1000
0001
1000
0000
,
0100
1001
0100
1001
,
0010
0100
0001
0000
1000
0010
0100
0000
,
0100
0001
1000
0000
0010
0000
0010
0000
,
0010
1000
0001
0000
0100
0000
0100
0000
,
1010
0100
0001
0010
,
1001
0100
1001
0100
,
1000
1100
0001
0101
,
1010
0101
1000
1000
,
0011
0100
1000
0010
,
1001
0100
1001
0100
,
0110
0001
0100
1000
,
0011
0101
1000
0001
,
1001
0000
0100
0000
0010
1000
0100
0000
,
1001
0000
0100
0000
0010
0001
0100
0000
,
1000
0101
1000
1100
,
0001
0000
0100
0000
1000
0001
0100
0000
,
1001
0000
0100
0000
0010
0001
0100
0000
,
1001
0000
0100
0000
0010
1000
0100
0000
,
0001
1100
0001
0101
,
1000
0000
0100
0000
0001
1000
0100
0000
,
0100
0000
0000
0000
,
1000
0000
0100
0000
,
0001
0000
0010
0000
,
1000
0000
0010
0000
,
0001
0000
0100
0000
,
1000
0000
0100
0000
,
0001
0100
0010
0000
,
1000
0100
0010
0000
,
0001
0100
0010
0000
,
1000
0100
0010
0000
,
0001
0100
0010
1000
,
0010
0100
0011
1000
,
0010
0100
1010
0001
,
1100
0001
0010
1000
,
0101
1000
0010
0001
,
0100
0000
0000
0000
,
0010
0100
0001
0000
1010
0000
0001
0000
,
1000
0001
0100
0000
1001
0000
1100
0000
,
0001
1000
0100
0000
1001
0000
0101
0000
,
0010
0100
1000
0000
0011
0000
1000
0000
,
0010
1000
0001
0000
0100
0000
0100
0000
,
0010
0001
1000
0000
0100
0000
0100
0000
,
0110
0000
1001
0000
0010
1000
0001
0000
,
0110
0000
1001
0000
0010
0001
1000
0100
,
0010
0010
0100
0010
,
0101
0010
0100
0010
,
1100
0000
1000
0000
0001
1000
0001
0000
,
1000
0000
0001
0000
1000
0001
1000
0000
,
0010
0100
0010
0101
,
0010
0100
0010
1100
,
0001
0000
1000
0000
0001
1000
0001
0000
,
0010
0000
0100
0000
0001
0100
1000
0000
,
0001
0000
1000
0000
1000
0000
0010
0100
,
0010
0000
0001
0000
0001
0000
0010
0100
,
0010
0001
1100
1000
,
0101
0010
0100
0010
,
1001
0000
0001
0000
0001
0000
0010
0100
,
0010
0000
1000
0000
1000
0000
0010
0100
,
0010
1000
0101
0001
,
1100
0010
0100
0010
,
1001
0000
0001
0000
0010
0000
0100
1000
,
0010
0010
1001
0100
,
0110
0000
1000
0000
0010
0000
0100
0001
,
0010
0100
1001
0010
,
0110
0010
0001
1000
,
0101
0010
1000
0001
,
1100
1000
0100
0001
,
0100
0000
0001
1000
0001
1000
0000
0000
,
0000
0000
0001
0000
1000
0000
0010
0100
,
0001
0000
1000
0000
0001
0000
0010
0100
,
1000
0001
0100
1000
,
0100
1000
0100
0010
,
0001
0000
1001
0000
0010
0000
0001
0100
,
1000
0000
1001
0000
0010
0000
1000
0100
,
0001
0001
0010
1000
,
0100
0001
0010
0100
,
1001
0001
0001
0010
,
1100
0010
0010
1000
,
0101
0000
1000
0000
0001
0000
1000
0001
,
1000
0000
0001
0000
1000
0000
0001
1000
,
0001
1000
1000
0010
,
0101
0010
0010
0001
,
1100
0000
0001
0000
1000
0000
0001
1000
,
0001
0000
1000
0000
0001
0000
1000
0001
,
1000
0010
0100
0010
,
1100
0010
0100
0010
,
0101
0000
1000
0000
0001
0000
1000
0001
,
1000
0000
0001
0000
1000
0000
0001
1000
,
0001
0010
0100
0010
,
0101
0010
0100
0010
,
1100
0001
0001
0100
,
0100
1000
1000
0100
,
0100
0001
0100
0001
,
0100
1000
0100
1000
,
0100
1001
0000
0000
,
0000
0000
1001
0000
0100
0000
0001
0010
,
0001
0000
1001
0000
0100
0000
1000
0100
,
1000
0000
1001
0000
0100
0000
0010
0001
,
0100
0000
1001
0000
0100
0000
0010
1000
,
0100
1001
0100
1001
,
0010
1001
0100
1001
,
0010
0100
0100
0100
,
0100
1001
0000
0000
,
0000
0000
0010
0000
0010
0000
1000
0100
,
1000
0000
0010
0000
0010
0000
0001
0100
,
0001
0000
0010
0000
0010
0000
1000
0100
,
1000
0000
0010
0000
0010
0000
0001
0100
,
0001
0010
0010
0100
,
0100
0010
0010
0010
,
0010
0001
0100
1000
,
0100
0001
0100
1000
,
0100
0000
0001
0000
0001
0000
0100
0001
,
0100
0000
1000
0000
1000
0000
0100
1000
,
0100
0000
0001
0000
0001
0000
0100
0001
,
0100
0000
1000
0000
1000
0000
0100
1000
,
0100
0001
0001
0100
,
0000
1000
1000
0010
,
0010
0000
1001
0000
0000
1001
0000
0000
,
1001
0000
0101
0000
1000
0000
0100
0100
,
0100
1001
1001
1001
,
1001
0000
0101
0000
1100
0000
0000
0001
,
0100
1001
1001
1001
,
1001
0000
1100
0000
0101
0000
0000
1000
,
0100
0001
0101
1000
,
1100
0000
0001
0000
0101
0000
0000
1000
,
0100
0001
0001
0100
,
0100
1000
0100
1001
,
1001
0101
0101
1010
,
1010
0000
1001
0000
1010
0000
0000
0100
,
0100
1001
0101
1001
,
0101
0000
1001
0000
0101
0000
0000
1000
,
1000
0001
0001
1000
,
0001
0100
0000
0100
,
0100
0010
0010
0001
,
1000
0000
0000
1001
0000
0000
0100
0000
0000
0100
1000
0100
,
1000
0000
1001
0000
0101
0000
0010
1000
,
0100
0000
0110
0000
1001
0000
1000
0100
,
1000
0001
0101
1000
,
1100
0010
1001
0000
,
0000
0000
1001
0000
1100
0000
0010
0001
,
0100
0000
0110
0000
1001
0000
0100
0001
,
0100
0000
1000
0100
1000
0000
0001
0100
,
0001
0010
1001
1001
,
0100
0000
0001
0000
0101
0000
0001
0100
,
0001
0000
1000
0000
1100
0000
1000
0100
,
1000
0000
1001
0000
0100
0000
0010
0001
,
0100
0000
1001
0000
0100
0000
0010
1000
,
0100
0000
0001
0100
0001
0000
1000
0100
,
1000
0000
0001
0100
0001
0000
1000
0100
,
1000
0010
0010
1001
,
0100
1001
1100
1001
,
0101
0000
0000
1001
0000
1001
0000
0110
,
0000
1001
0000
1100
0000
0101
0000
1000
,
1000
0000
0000
1001
0000
1001
0000
0110
,
0000
1001
0000
0101
0000
1100
0000
0001
,
0001
0000
0000
0001
0000
1000
0000
0001
,
0000
0100
0000
0001
0000
1000
0000
0100
,
0100
0100
0001
0000
1000
0000
0010
1000
,
0100
1001
0000
0000
,
0000
0000
0010
1000
0100
0000
1001
0000
,
1001
0000
0010
0001
0100
0000
1001
0000
,
1001
0000
0001
0100
0001
0000
1000
0000
,
1100
0000
0010
0001
0100
0000
1001
0000
,
1001
0000
0010
1000
0100
0000
0001
0000
,
0101
0000
0010
0100
0010
0000
0001
0000
,
1001
0000
0010
1000
0100
0000
0010
0001
,
0100
1100
1001
0000
,
0000
0000
1001
0000
1001
0000
0010
0010
,
0010
0000
1001
0000
1001
0000
0100
0100
,
0100
0000
0010
1000
0010
0000
0001
0100
,
0001
1001
0000
0000
,
0000
0000
0010
1000
0100
0000
1000
0000
,
0101
0000
0010
0001
0100
0000
0001
0000
,
1100
0000
0010
0010
0010
0000
0100
0100
,
0100
0000
1000
0000
1100
0000
0001
0100
,
0001
0000
0001
1000
0100
0000
0001
0000
,
1100
0000
0001
1000
0100
0000
0001
0000
,
1100
0000
0001
1000
0100
0000
0110
0000
,
1001
0001
0100
1001
,
0110
1001
0000
0000
;

//---------------dance-single - ----------------
#NOTES:
     dance-single:
     :
     Hard:
     7:
     0.505,0.584,0.574,0.000,0.052: // measure 1
0000
0000
0000
0000
,  // measure 2
0000
0000
0000
0000
,  // measure 3
1010
1100
0011
0101
,  // measure 4
1000
0110
0100
1001
,  // measure 5
0000
1000
0000
0001
1000
0100
0010
0001
,  // measure 6
0000
1000
0000
1000
0010
0100
0010
1000
,  // measure 7
0000
0001
0100
0010
1000
0001
0100
1010
,  // measure 8
0000
0100
0000
0100
0100
0000
1001
0000
,  // measure 9
0001
0000
0100
0010
0000
1000
0000
1000
0000
0000
0000
0000
0001
0000
0000
0000
,  // measure 10
0100
0000
0001
1000
0000
0010
0000
0100
0000
0000
0000
0000
0001
0000
0000
0000
,  // measure 11
0100
1001
0010
1001
,  // measure 12
1010
1100
1010
1100
,  // measure 13
0001
0000
0001
1000
0000
0100
0000
0100
0000
0000
0000
0000
0010
0000
0000
0000
,  // measure 14
1000
0000
1000
0001
0000
0010
0000
0010
0000
0000
0000
0000
1001
0000
0000
0000
,  // measure 15
0110
0110
1000
0001
,  // measure 16
1010
0011
1010
0011
,  // measure 17
0000
1001
0000
1000
0000
0110
0000
0001
,  // measure 18
0000
0101
0000
1010
0000
0001
1000
0001
,  // measure 19
0000
1000
0000
1100
0000
1000
0000
1010
,  // measure 20
0000
0010
0000
1010
0000
0010
0000
0011
,  // measure 21
0000
1100
0000
1100
0000
0011
0000
0011
,  // measure 22
0000
0100
0100
0100
0000
0010
0010
0010
,  // measure 23
0000
0001
0001
0001
0000
1001
1001
1001
,  // measure 24
0100
0000
0000
0000
0100
0000
1000
0000
0000
0010
0000
0010
0010
0000
0000
0000
,  // measure 25
0000
0001
1000
0001
1000
0000
1001
0000
,  // measure 26
1000
0010
1000
0000
0010
0100
0100
0000
,  // measure 27
0000
0100
0000
1100
0000
0010
0000
0011
,  // measure 28
0000
1010
1000
0000
0000
1010
1100
0000
,  // measure 29
0000
0000
0001
1000
0000
0000
0100
0000
0010
0000
0000
0000
1000
0000
0000
0000
,  // measure 30
0000
0000
1000
0001
0000
0000
0010
0000
0010
0000
0000
0000
1001
0000
0000
0000
,  // measure 31
0000
0110
0000
1000
1001
0001
0001
0000
,  // measure 32
0000
0010
0010
0011
0010
0010
0011
0000
,  // measure 33
0100
0000
0100
0000
0100
0001
1000
0000
,  // measure 34
0010
0000
0010
0000
0010
1000
0001
0000
,  // measure 35
0100
0100
0010
0010
1000
1000
0001
0001
,  // measure 36
0100
0100
0100
0001
1000
0010
0100
0001
,  // measure 37
1000
0010
0100
0000
0001
0100
0010
0000
,  // measure 38
1001
0100
1001
0100
,  // measure 39
0010
1000
0001
0100
0001
1000
0001
1000
,  // measure 40
1001
1001
1001
1001
1001
0000
0100
0000
,  // measure 41
0001
0000
0100
0010
0000
1000
0000
1000
0000
0000
0000
0000
0001
0000
0000
0000
,  // measure 42
0100
0000
0001
1000
0000
0010
0000
0100
0000
0000
0000
0000
0001
0000
0000
0000
,  // measure 43
0100
1001
0010
1001
,  // measure 44
1010
1100
1010
1100
,  // measure 45
0010
1000
0100
1000
0001
1000
1001
0000
,  // measure 46
0010
0001
0100
0001
1000
0001
1001
0000
,  // measure 47
0010
1000
0001
0010
0001
1000
0010
0000
,  // measure 48
0100
0001
0010
0100
1000
0010
0100
0000
,  // measure 49
0001
0100
0000
1000
0100
0000
0001
0100
0000
0000
0001
0000
1000
0000
0000
0000
,  // measure 50
1000
0100
0000
0001
0100
0000
1000
0100
0000
0000
1000
0000
0001
0000
0000
0000
,  // measure 51
0010
1000
0000
0010
0100
0000
0010
0001
0000
0000
0010
0000
0100
0000
0000
0000
,  // measure 52
0101
1000
1100
0001
,  // measure 53
1000
0100
0000
0001
0100
0000
1000
0100
0000
0000
1000
0000
0001
0000
0000
0000
,  // measure 54
0001
0100
0000
1000
0100
0000
0001
0100
0000
0000
0001
0000
1000
0000
0000
0000
,  // measure 55
0010
0001
0000
0010
0100
0000
0010
1000
0000
0000
0010
0000
0100
0000
0000
0000
,  // measure 56
0101
1100
0001
0001
,  // measure 57
1000
0100
0000
0100
0000
1000
0001
0000
,  // measure 58
0010
0100
0000
0010
0000
0100
0001
0000
,  // measure 59
1000
0001
0000
1000
0000
0100
0001
0000
,  // measure 60
0010
1000
0100
0001
,  // measure 61
1000
0100
0000
0100
0000
1000
0001
0000
,  // measure 62
0010
0100
0000
0010
0000
0100
0001
0000
,  // measure 63
1000
0001
0000
1000
0000
0100
0001
0000
,  // measure 64
0010
0001
0100
1000
,  // measure 65
0100
0000
0000
0000
,  // measure 66
1000
0010
0100
0000
,  // measure 67
1000
0100
0001
0000
,  // measure 68
0001
0010
0100
0000
,  // measure 69
0001
0100
1000
0000
,  // measure 70
0010
1000
0100
0000
,  // measure 71
1000
0001
0100
0000
,  // measure 72
0010
0001
0100
0000
,  // measure 73
0001
1000
0100
0000
,  // measure 74
0010
1000
0001
0000
,  // measure 75
0010
1000
0100
0001
,  // measure 76
1000
0100
0000
0100
0000
1000
0001
0000
,  // measure 77
0010
0100
0000
0010
0000
0100
0001
0000
,  // measure 78
1000
0001
0000
1000
0000
0100
0001
0000
,  // measure 79
0010
1000
0100
0001
,  // measure 80
1000
0000
0000
0000
,  // measure 81
1000
0100
1000
0010
0100
0001
0010
0001
,  // measure 82
0100
0001
0100
1000
0001
0010
1000
0100
,  // measure 83
0001
0100
0001
1000
0010
0001
1000
0010
,  // measure 84
0100
0001
0010
0100
0010
1000
0010
0001
,  // measure 85
1000
0001
0010
0100
0010
0001
1000
1001
,  // measure 86
0100
0010
0001
0010
0100
0001
1000
1001
,  // measure 87
0001
0100
1000
0100
0001
0010
0100
0110
,  // measure 88
0010
0001
0100
0010
1000
0100
1000
0001
,  // measure 89
1000
0100
1000
0001
1000
0100
1000
0001
,  // measure 90
0010
0100
0000
1001
0000
0000
0000
0000
,  // measure 91
1010
0000
1100
0000
0010
0100
0010
0000
,  // measure 92
0011
0000
0101
0000
0010
0100
0010
0000
,  // measure 93
0001
0100
0001
1000
0001
0100
0001
1000
,  // measure 94
0010
0100
0000
1001
0000
0000
0000
0000
,  // measure 95
0011
0000
0101
0000
0010
0100
0010
0000
,  // measure 96
1000
0001
1000
0000
0010
0100
0010
0000
,  // measure 97
1001
0000
0001
0100
1000
1000
0010
0000
,  // measure 98
1100
0000
1000
0100
0001
0001
0010
0000
,  // measure 99
0101
0000
1000
0000
1000
0000
0010
1000
,  // measure 100
0100
1100
1010
0100
,  // measure 101
1001
0000
1000
0100
0001
0001
0010
0000
,  // measure 102
0101
0000
0001
0100
1000
1000
0010
0000
,  // measure 103
1100
0000
0001
0000
0001
0000
0010
0001
,  // measure 104
0100
0101
0011
0100
,  // measure 105
1001
1000
1100
0001
,  // measure 106
0101
0000
0010
0010
0100
0000
0010
0010
,  // measure 107
0100
0000
1000
0000
1000
0000
0010
1000
,  // measure 108
0001
0000
1000
0100
1000
0010
0100
0010
,  // measure 109
0001
0000
0100
0100
0010
0000
0001
0001
,  // measure 110
0100
0000
1000
1000
0100
0000
0001
0001
,  // measure 111
0100
0000
0001
0001
0001
1000
0000
0001
,  // measure 112
0000
0001
0000
0000
0100
0000
0010
0000
0001
0000
1000
0000
0000
0000
0000
0000
,  // measure 113
0000
0000
0001
0001
1000
0000
0010
0100
,  // measure 114
0001
0000
1000
1000
0001
0000
0010
0100
,  // measure 115
1000
0000
0001
0000
0001
0000
1000
0100
,  // measure 116
0100
1000
0110
0000
,  // measure 117
0000
0000
1000
0000
0101
0000
0001
1000
,  // measure 118
0100
0000
0001
0000
1100
0000
1000
0001
,  // measure 119
0100
0000
0001
0001
0100
0000
1000
1000
,  // measure 120
0100
0100
0000
0000
1001
0000
0000
0000
,  // measure 121
0000
0000
1000
0100
1000
0001
1000
0100
,  // measure 122
1000
0001
0010
0100
0000
1001
0000
0000
,  // measure 123
0000
0000
1010
0000
1100
0000
0010
0100
,  // measure 124
0010
0000
0011
0000
0101
0000
0010
0100
,  // measure 125
0010
0000
0001
0100
0001
1000
0001
0100
,  // measure 126
0001
1000
0010
0100
0000
1001
0000
0000
,  // measure 127
0000
0000
0011
0000
0101
0000
0010
0100
,  // measure 128
0010
0000
1000
0001
1000
0000
0010
0100
,  // measure 129
0010
0000
1000
0100
1000
0001
0010
0100
,  // measure 130
1000
0001
0010
0100
0000
1001
0000
0000
,  // measure 131
0000
0000
1010
0000
1100
0000
0010
0100
,  // measure 132
0010
0000
0011
0000
0101
0000
0010
0100
,  // measure 133
0010
0000
0100
1000
0100
0010
0100
0001
,  // measure 134
0100
0010
0001
1000
0000
0110
0000
0000
,  // measure 135
0000
0000
0011
0000
0101
0000
0010
0100
,  // measure 136
0010
0000
0001
1000
0001
0000
0010
0100
,  // measure 137
0010
0000
1000
0010
1000
0100
0001
0010
,  // measure 138
1000
0100
0010
0000
1100
0000
0010
1000
,  // measure 139
0001
0100
0010
1000
0001
0100
0010
1000
,  // measure 140
0001
0000
1001
0000
0101
0000
0010
0001
,  // measure 141
1000
0100
0010
0001
1000
0100
0010
0001
,  // measure 142
1000
0000
0101
0000
1010
0000
0010
1000
,  // measure 143
0100
1000
0001
1000
0010
1000
0100
1000
,  // measure 144
0001
1001
1001
0110
,  // measure 145
0011
1001
0000
0011
,  // measure 146
1001
0000
0010
1000
0100
1000
0010
1000
,  // measure 147
0100
1000
0010
1000
0100
1000
0010
1000
,  // measure 148
0001
0000
0010
0001
0100
0001
0010
0001
,  // measure 149
0100
0001
0010
0001
0100
0001
0010
0001
,  // measure 150
1000
0000
0001
1000
0100
1000
0001
1000
,  // measure 151
0100
1000
0001
1000
0100
1000
0001
1000
,  // measure 152
0001
0000
1000
0001
0100
0001
1000
0001
,  // measure 153
0100
0001
1000
0001
0100
0001
1000
0001
,  // measure 154
1000
0000
1001
0000
0010
1000
0010
1000
,  // measure 155
0100
0000
1001
0000
0010
0001
0010
0001
,  // measure 156
0100
0000
1010
0000
0001
0100
0001
1000
,  // measure 157
0100
0000
0011
0000
1000
0100
1000
0001
,  // measure 158
0100
0000
0110
0000
0001
1000
0100
0010
,  // measure 159
0001
0000
0110
0000
1000
0001
0100
0010
,  // measure 160
1000
0000
0101
0000
0000
0011
0000
0000
,  // measure 161
1001
0000
1010
1000
0001
0100
0010
1000
,  // measure 162
0100
0000
1000
0010
0001
0010
1000
0010
,  // measure 163
0001
0010
1000
0010
0001
0010
0000
1000
,  // measure 164
0100
0010
0001
0100
1000
0100
0001
0100
,  // measure 165
1000
0100
0001
0100
1000
0100
0000
0001
,  // measure 166
0010
0100
0010
0010
0001
0001
1000
1000
,  // measure 167
0100
0100
0010
0010
0001
0001
0000
1000
,  // measure 168
0001
0100
0101
0000
0000
1001
0000
0010
,  // measure 169
1001
0000
0010
1000
0100
0000
1001
0000
,  // measure 170
0101
0000
0010
1000
0100
1000
0010
0100
,  // measure 171
0001
0010
0001
0100
0001
0010
0000
0001
,  // measure 172
1000
0100
0010
0001
0100
0001
0010
0100
,  // measure 173
1000
0010
1000
0100
1000
0010
0000
1000
,  // measure 174
0001
0100
0001
1000
0100
1000
0000
0001
,  // measure 175
0100
0001
0100
0000
0100
0000
0001
1000
,  // measure 176
0100
0010
0001
0000
0001
0000
0001
1000
,  // measure 177
0001
0000
0000
0100
0000
0000
0000
0000
0000
0000
0000
0000
0100
0000
0000
0000
0000
0000
0001
0000
1000
0000
0001
0000
,  // measure 178
0100
0000
0010
0100
0001
1000
0100
0010
,  // measure 179
1001
0000
0001
1000
0100
0010
0001
1000
,  // measure 180
0101
0000
0010
1000
0001
0100
0001
0010
,  // measure 181
1100
0000
0010
0001
0100
0010
1001
1001
,  // measure 182
1001
0000
0001
0010
0100
1000
0001
0010
,  // measure 183
1001
0000
1000
0010
0100
0001
1000
0010
,  // measure 184
1001
0000
0010
0100
0010
1000
0001
0100
,  // measure 185
0101
0000
1000
0001
0100
0010
1001
1001
,  // measure 186
1001
0000
0010
0001
0100
0001
1000
0100
,  // measure 187
0010
0001
0100
1000
0100
0001
1001
1001
,  // measure 188
1001
0000
0100
0010
0001
1000
0100
1000
,  // measure 189
0100
0010
0001
0100
0010
1000
0011
0011
,  // measure 190
0011
0000
0010
1000
0100
0001
0001
0100
,  // measure 191
0100
0100
0001
0001
0001
1000
0100
0010
,  // measure 192
0001
0100
1001
0000
1100
0000
0010
0001
,  // measure 193
0100
0010
1001
0000
0101
0000
1001
1001
,  // measure 194
1001
1001
1001
0100
1000
0010
0100
0001
,  // measure 195
1000
0100
0010
0001
0100
0010
0000
1001
,  // measure 196
1001
1001
0000
0010
1000
0100
0001
0100
,  // measure 197
0001
1000
0100
0010
0001
0001
0000
1100
,  // measure 198
1100
1100
0000
0010
0001
1000
0100
1000
,  // measure 199
0001
0100
0010
0010
1000
0100
0000
0100
,  // measure 200
0001
0100
1001
0000
1100
0000
0010
0001
,  // measure 201
0100
0010
1001
0000
0000
0000
0000
0000
,  // measure 202
0000
0101
0101
1100
,  // measure 203
1100
0011
0011
1001
,  // measure 204
1001
1010
1010
1001
,  // measure 205
1001
0110
1001
0110
,  // measure 206
0110
1001
1001
0110
,  // measure 207
1001
0110
0110
0101
,  // measure 208
0101
1100
1100
1001
,  // measure 209
1001
0000
0110
0110
0110
0000
0000
0000
,  // measure 210
0000
0000
0010
1000
0100
0010
0001
0100
,  // measure 211
0010
1000
0001
0100
0010
1000
0001
0100
,  // measure 212
0100
0100
0001
1000
0100
0010
0001
0100
,  // measure 213
0010
1000
0101
0000
0000
0000
0000
0000
,  // measure 214
0000
0101
1001
1100
,  // measure 215
1001
0011
1001
1100
,  // measure 216
1001
1010
1001
0101
,  // measure 217
1001
0110
1001
0110
,  // measure 218
1100
1001
0110
0101
,  // measure 219
1001
0110
1010
0101
,  // measure 220
1001
1100
1001
0011
,  // measure 221
1001
0000
0110
0110
0110
0000
0110
0000
,  // measure 222
0110
1001
0000
0000
;
