#TITLE:ORBITAL Mix;
#SUBTITLE:(DDR SuperNOVA);
#ARTIST:Nightime;
#TITLETRANSLIT:;
#SUBTITLETRANSLIT:;
#ARTISTTRANSLIT:;
#CREDIT:;
#BANNER:SuperNOVA.png;
#BACKGROUND:;
#LYRICSPATH:;
#CDTITLE:./CDTITLES/Dancing Stage SuperNOVA.png;
#MUSIC:SuperNOVA.ogg;
#OFFSET:-0.064;
#SAMPLESTART:149.160;
#SAMPLELENGTH:15.000;
#SELECTABLE:YES;
#BPMS:0.000=145.000,208.000=140.000,212.000=145.000,260.000=140.000,264.000=72.500,296.000=90.000,306.000=105.000,318.000=140.000,350.000=135.000,382.000=130.000,479.000=132.000,487.000=134.000,494.000=136.000,502.000=139.000,510.000=140.000,610.000=70.000,614.000=140.000,678.000=280.000,742.000=140.000,790.000=280.000,854.000=139.999;
#STOPS:613.500=7.100
;
#BGCHANGES:;

//---------------dance-single - ----------------
#NOTES:
     dance-single:
     :
     Hard:
     8:
     0.530,0.614,0.213,0.050,0.436: // measure 1
0000
0000
0000
0000
,  // measure 2
0000
0000
0000
0000
,  // measure 3
0000
0000
0000
0000
,  // measure 4
0000
0000
0000
0000
,  // measure 5
0010
0000
0000
1000
0000
0000
0100
0000
0010
0000
0000
0001
0000
0000
0100
0000
,  // measure 6
1000
0000
0000
0100
0000
0000
0001
0000
1000
0000
0000
0001
0000
0000
0010
0000
,  // measure 7
0100
0000
0000
1000
0000
0000
0001
0000
0100
0000
0000
0010
0000
0000
0100
0000
,  // measure 8
0001
0000
0000
0010
0000
0000
0001
0000
1000
0000
0000
0010
0000
0000
0100
0000
,  // measure 9
0001
0000
0000
0010
0000
0000
1000
0000
0010
0000
0000
0001
0000
0000
0100
0000
,  // measure 10
0010
0000
0000
1000
0000
0000
0100
0000
0001
0000
0000
0100
0000
0000
1000
0000
,  // measure 11
0001
0000
0000
0010
0000
0000
0100
0000
1000
0000
0000
0010
0000
0000
0100
0000
,  // measure 12
0001
0000
0000
1000
0000
0000
0100
0000
1000
0000
0000
0001
0000
0000
0100
0000
,  // measure 13
0010
0000
0000
0100
0000
0000
0001
0000
0010
0000
0000
1000
0000
0000
0001
0000
,  // measure 14
0100
0000
0000
1000
0000
0000
0010
0000
0100
0000
0000
0001
0000
0000
1000
0000
,  // measure 15
0100
0000
0000
0010
0000
0000
0100
0000
1000
0000
0000
0010
0000
0000
0100
0000
,  // measure 16
0001
0000
0000
0010
0000
0000
0100
0000
1000
0000
0000
0010
0000
0000
0001
0000
,  // measure 17
1000
0000
0000
0100
0000
0000
0001
0000
0010
0000
0000
0100
0000
0000
0010
0000
,  // measure 18
0001
0000
0000
0100
0000
0000
0001
0000
1000
0000
0000
0100
0000
0000
1000
0000
,  // measure 19
0001
0000
0000
0100
0000
0000
0010
0000
1000
0000
0000
0001
0000
0000
0010
0000
,  // measure 20
0100
0000
0000
0001
0000
0000
0100
0000
1000
0000
0000
0010
0000
0000
0100
0000
,  // measure 21
0001
0000
1000
0000
0001
0010
0100
0000
,  // measure 22
0010
0000
0001
0000
1000
0100
0010
0000
,  // measure 23
0001
0100
0010
0000
1000
0001
0100
0000
,  // measure 24
0010
1000
0100
0000
0010
0001
0100
0000
,  // measure 25
0001
0000
0010
0000
0100
1000
0001
0000
,  // measure 26
0100
0000
1000
0000
0100
0001
0010
0000
,  // measure 27
0001
1000
0010
0000
1000
0001
0100
0000
,  // measure 28
0010
0100
0001
0000
0010
0100
1000
0000
,  // measure 29
0001
0000
0000
0100
0020
0000
0000
0000
1000
0000
1000
0000
1030
0000
0000
0000
,  // measure 30
0100
0000
0000
0010
0200
0000
0000
0000
0001
0000
0001
0000
0301
0000
0000
0000
,  // measure 31
0100
1000
0100
0000
1000
0010
1000
0000
,  // measure 32
0001
0100
0001
0000
0010
0001
0010
0000
,  // measure 33
0100
0000
0000
0010
0002
0000
0000
0000
0100
0000
0100
0000
0103
0000
0000
0000
,  // measure 34
0001
0000
0000
1000
0020
0000
0000
0000
0100
0000
0100
0000
0130
0000
0000
0000
,  // measure 35
0001
0100
0001
0000
1000
0001
1000
0000
,  // measure 36
0001
0010
0001
0000
0100
0010
0100
0000
,  // measure 37
0010
0000
0000
1000
0000
0000
0100
0000
0010
0000
0000
0000
0000
0000
0100
0000
,  // measure 38
0001
0000
0000
0100
0000
0000
1000
0000
0001
0000
0000
1000
0000
0000
0010
0000
,  // measure 39
0100
0000
0000
0001
0000
0000
1000
0000
0100
0000
0000
0000
0000
0000
0001
0000
,  // measure 40
1000
0000
0000
0010
0000
0000
1000
0000
0001
0000
0000
0010
0000
0000
0100
0000
,  // measure 41
1000
0000
0000
0010
0000
0000
0001
0000
0010
0000
0000
0000
0000
0000
0100
0000
,  // measure 42
0010
0000
0000
0001
0000
0000
0100
0000
1000
0000
0000
0100
0000
0000
0001
0000
,  // measure 43
1000
0000
0000
0010
0000
0000
0100
0000
0001
0000
0000
0000
0000
0000
0010
0000
,  // measure 44
0001
0000
0000
1000
0000
0000
0100
0000
1000
0000
0000
0001
0000
0000
0100
0000
,  // measure 45
0010
0000
0000
1000
0100
0000
0010
0000
0100
0000
0000
0000
0000
0000
1000
0000
,  // measure 46
0010
0000
0000
0100
0000
0000
0001
0000
0010
0000
0000
0001
0000
0000
0100
0000
,  // measure 47
0001
0000
0000
1000
0010
0000
0100
0000
0001
0000
0000
0000
0000
0000
1000
0000
,  // measure 48
0100
0000
0000
0001
0000
0000
0100
0000
1000
0000
0000
0010
0000
0000
0001
0000
,  // measure 49
0010
0000
0000
0100
0001
0000
1000
0000
0100
0000
0000
0000
0000
0000
0010
0000
,  // measure 50
0001
0000
0000
1000
0000
0000
0010
0000
0100
0000
0000
0010
0000
0000
1000
0000
,  // measure 51
0100
0000
0000
0001
0100
0000
0010
0000
0001
0000
0000
0000
0000
0000
1000
0000
,  // measure 52
0100
0000
0000
1000
0000
0000
0010
0000
1000
0000
0000
0001
0000
0000
0100
0000
,  // measure 53
2002
0000
0000
3003
,  // measure 54
0010
0000
0100
0000
1000
0100
0000
0010
0000
0001
0000
0100
0000
0010
1000
0000
,  // measure 55
0010
0000
0100
0000
0001
0100
0000
0010
0000
1000
0000
0100
0000
0010
0001
0000
,  // measure 56
0010
0000
0100
0000
1000
0100
0000
0010
0000
0001
0000
0100
0000
0010
1000
0000
,  // measure 57
0100
0000
0010
0000
0001
0010
0000
0100
0000
1000
0000
0010
0000
0100
0001
0000
,  // measure 58
0100
0000
0010
0000
1000
0010
0000
0100
0000
0001
0000
0010
0000
0100
1000
0000
,  // measure 59
0010
0000
0100
0000
0001
0100
0000
0010
0000
1000
0000
0100
0000
0000
0000
0000
,  // measure 60
0010
0000
0100
0000
1000
0100
0000
0010
0000
0001
0000
0100
0000
0000
0000
0000
,  // measure 61
0010
0000
0100
0000
0001
0000
0000
0010
0000
0100
0000
1000
0000
0000
0000
0000
,  // measure 62
0100
0000
0010
0000
0001
0000
0000
0100
0000
0010
0000
1000
0000
0000
0000
0000
,  // measure 63
0010
0000
0100
0000
0001
0000
0000
2000
0000
0000
0000
0000
3000
0000
0000
0000
,  // measure 64
0010
0000
0100
0000
1000
0000
0000
0002
0000
0000
0000
0000
0003
0000
0000
0000
,  // measure 65
0020
0000
0000
0030
,  // measure 66
0200
0000
0000
0300
,  // measure 67
1000
0000
0010
0100
0000
0000
0001
0000
0000
0000
0010
0100
0000
0010
0100
1000
,  // measure 68
0000
0001
0010
0100
0000
0000
1000
0000
0000
0000
0010
0100
0000
0001
0010
0100
,  // measure 69
0000
1000
0001
0100
0000
0000
0010
0000
0000
0100
0010
1000
0000
0100
0010
0001
,  // measure 70
0000
1000
0001
0100
0000
0000
0010
0000
0000
0100
0010
1000
0000
0100
0010
0001
,  // measure 71
1000
0000
0010
0100
0000
0000
0001
0000
0000
0000
0010
0100
0000
0010
0100
1000
,  // measure 72
0000
0001
0010
0100
0000
0000
1000
0000
0000
0000
0010
0100
0000
0001
0010
0100
,  // measure 73
0000
1000
0001
0100
0000
0000
0010
0000
0000
0100
0010
1000
0000
0100
0010
0001
,  // measure 74
0000
1000
0001
0100
0000
0000
0010
0000
0000
0100
0010
1000
0000
0100
0010
0001
,  // measure 75
0200
0000
0000
0000
,  // measure 76
0300
0020
0000
0000
,  // measure 77
0000
0030
2000
0000
,  // measure 78
0000
0002
0000
3003
,  // measure 79
0100
0000
0000
0000
0000
0000
0100
0000
0000
0000
0000
0000
0010
0000
0000
0010
,  // measure 80
0000
0000
1000
0000
0000
0001
0000
0000
0100
0000
0010
1000
0000
0000
1000
0100
,  // measure 81
0000
0000
0100
0010
0000
0000
0010
0001
0000
0000
0001
0100
0000
0000
0100
0010
,  // measure 82
0000
0000
0010
1000
0000
1000
0001
1000
0000
0000
0100
1000
0000
0000
1000
0010
,  // measure 83
0000
0000
0010
0100
0000
0000
0100
0001
0000
0000
0001
0010
0000
0000
0010
0100
,  // measure 84
0000
0000
0100
1000
0000
1000
0001
1000
0000
0000
0010
0100
0000
0000
0100
0001
,  // measure 85
0000
0000
0001
0100
0000
0000
0100
1000
0000
0000
1000
0100
0000
0000
0100
0010
,  // measure 86
0000
0000
0010
1000
0000
1000
0001
1000
0000
0000
0100
0010
0000
0000
0010
0001
,  // measure 87
0000
0000
0001
0010
0000
0000
0010
1000
0000
0000
1000
0010
0000
0000
0010
0100
,  // measure 88
0000
0000
0100
1000
0000
1000
0001
1000
0000
0000
0010
1000
0000
0000
0010
0100
,  // measure 89
0000
0000
0001
0100
0000
0000
0001
1000
0000
0000
0010
1000
0000
0000
0001
0100
,  // measure 90
0000
0000
0001
0010
0000
0100
1000
0100
0000
0000
0010
0001
0000
0000
0010
0100
,  // measure 91
0000
0000
1000
0100
0000
0000
1000
0001
0000
0000
0010
0001
0000
0000
1000
0100
,  // measure 92
0000
0000
1000
0010
0000
0100
0001
0100
0000
0000
0010
1000
0000
0000
0010
0100
,  // measure 93
0000
0000
0010
0001
0000
0000
0010
0100
0000
0000
0010
1000
0000
0000
0010
0100
,  // measure 94
0000
0000
0010
0001
0000
0010
0100
0010
0000
0000
0100
0001
0000
0000
0100
0010
,  // measure 95
0000
0000
0100
1000
0000
0000
0100
0010
0000
0000
0100
0001
0000
0000
0100
0010
,  // measure 96
0000
0000
0100
1000
0000
0100
0010
0100
0010
0000
0000
0100
0000
0000
0010
0000
,  // measure 97
1000
0000
0000
0001
0000
0000
0100
0000
0001
0000
0000
1000
0000
0000
0100
0000
,  // measure 98
0000
0000
0000
0000
0000
0000
0000
0000
0010
0000
0000
0100
0000
0000
0010
0000
,  // measure 99
0001
0000
0000
1000
0000
0000
0100
0000
1000
0000
0000
0001
0000
0000
0100
0000
,  // measure 100
0000
0000
0000
0000
0000
0000
0000
0000
0010
0000
0000
1000
0000
0000
0001
0000
,  // measure 101
0100
0000
0000
0010
0000
0000
0100
0000
0001
0000
0000
1000
0000
0000
0100
0000
,  // measure 102
0000
0000
0000
0000
0010
0001
0100
0010
,  // measure 103
0100
0010
0100
0001
0010
0100
0010
0100
,  // measure 104
0010
0000
0001
0000
0100
0000
0010
0000
1000
0000
0000
0000
0001
0010
0000
0100
,  // measure 105
0000
0000
0000
0000
0001
0100
0000
0010
0000
0000
0000
0000
1000
0100
0000
0010
,  // measure 106
0000
0000
0000
0000
0001
0100
0001
0100
0000
0000
0000
0000
1000
0010
0000
0100
,  // measure 107
0000
0000
0000
0000
1000
0100
0000
0010
0000
0000
0000
0000
0001
0100
0000
0010
,  // measure 108
0000
0000
0000
0000
1000
0100
1000
0100
0000
0000
0000
0000
0001
0010
0000
0100
,  // measure 109
0000
0000
0000
0000
0001
0100
0000
0010
0000
0000
0000
0000
1000
0100
0000
0010
,  // measure 110
0000
0000
0000
0000
0001
0100
0001
0100
0000
0000
0000
0000
1000
0010
0000
0100
,  // measure 111
0000
0000
0000
0000
1000
0100
0000
0010
0000
0000
0000
0000
0001
0100
0000
0010
,  // measure 112
0000
0000
1000
0000
0000
0000
0000
0000
0100
0000
0000
0010
0000
0000
0100
0000
,  // measure 113
1000
0000
0000
0001
0000
0000
0010
0000
0001
0000
0000
1000
0000
0000
0010
0000
,  // measure 114
0000
0000
0000
0000
0000
0000
0000
0000
0100
0000
0000
0010
0000
0000
0100
0000
,  // measure 115
0001
0000
0000
1000
0000
0000
0010
0000
1000
0000
0000
0001
0000
0000
0010
0000
,  // measure 116
0000
0000
0000
0000
0000
0000
0000
0000
0100
0000
0000
1000
0000
0000
0001
0000
,  // measure 117
0010
0000
0000
0100
0000
0000
0010
0000
0001
0000
0000
1000
0000
0000
0010
0000
,  // measure 118
0000
0000
0000
0000
0010
1000
0100
0010
,  // measure 119
0100
0010
0100
1000
0010
0100
0010
0100
,  // measure 120
0010
0000
1000
0000
0100
0000
0010
0000
0001
0000
0000
0000
1000
0010
0000
0100
,  // measure 121
0000
0000
0000
0000
1000
0100
0000
0010
0000
0000
0000
0000
0001
0100
0000
0010
,  // measure 122
0000
0000
0000
0000
1000
0100
1000
0100
0000
0000
0000
0000
0001
0010
0000
0100
,  // measure 123
0000
0000
0000
0000
0001
0100
0000
0010
0000
0000
0000
0000
1000
0100
0000
0010
,  // measure 124
0000
0000
0000
0000
0000
0000
0000
0000
0001
0000
1000
0000
0001
0000
0100
0010
,  // measure 125
0100
0010
0100
0000
1001
0000
0000
0000
1000
0000
0001
0000
1000
0000
0010
0100
,  // measure 126
0010
0100
0010
0000
1001
0000
0000
0000
0001
0000
1000
0000
0001
0000
0100
0010
,  // measure 127
0100
0010
0100
0000
1001
0000
0000
0000
1000
0000
0001
0000
1000
0000
0010
0100
,  // measure 128
0010
0100
0010
0000
1001
0000
0000
0000
0010
0000
0100
0000
0010
0000
1000
0000
,  // measure 129
0000
0000
0000
0001
0010
0000
0001
0000
0010
0000
0100
0000
0010
0000
0001
0000
,  // measure 130
0000
0000
0000
1000
0010
0000
1000
0000
0010
0000
0100
0001
0000
0100
0000
0010
,  // measure 131
1000
0000
0100
1000
0000
0100
0000
0010
0001
0000
0100
0000
0010
1000
0000
0001
,  // measure 132
0000
0000
0000
0000
0010
0000
0100
0000
1000
0000
0001
0000
0100
0010
0000
0010
,  // measure 133
1000
0000
1000
0001
0000
0000
0000
0000
0001
0000
1000
0000
0100
0010
0000
0010
,  // measure 134
0001
0000
0001
1000
0000
0000
0000
0000
0010
0000
0100
0000
0001
0000
0000
0000
,  // measure 135
0010
0100
1100
0000
0010
0100
1000
0000
,  // measure 136
0010
0100
0101
0000
1010
1000
1001
0000
,  // measure 137
1100
1000
1001
0000
0101
0001
1001
0000
,  // measure 138
0011
0001
1001
0000
0200
0000
0010
0000
,  // measure 139
0000
0010
0000
0010
,  // measure 140
0000
0310
1000
0100
,  // measure 141
1000
0000
0000
0001
0100
0000
0010
0000
1000
0000
0000
0000
0001
0000
0000
0000
,  // measure 142
1000
0000
0000
0001
1000
0000
0010
0000
1000
0000
0000
0000
0010
0000
0000
0000
,  // measure 143
1000
0000
0000
0001
0010
0000
0100
0000
1000
0000
0000
0000
0001
0000
0000
0000
,  // measure 144
1000
0000
0000
0001
1000
0000
0100
0000
0010
0000
0001
0000
0010
0000
0100
0000
,  // measure 145
0000
0000
0000
0100
0010
0000
0001
0000
0100
0000
0010
0000
0100
0000
0001
0000
,  // measure 146
1000
0000
0000
1000
0001
0000
0010
0000
0100
0000
0010
0000
0100
1000
0000
0000
,  // measure 147
0001
0000
1000
0000
0001
0000
0000
0000
0100
0000
0010
0000
0100
0001
0000
1000
,  // measure 148
0000
0000
0001
0000
0000
1000
0010
0000
1010
0000
1000
0000
1001
0000
0000
0000
,  // measure 149
1100
1000
1001
0000
0101
0001
1001
0000
,  // measure 150
0011
0000
0001
0000
1001
0000
0000
0000
0010
0000
1000
0000
0001
0100
0000
0100
,  // measure 151
0001
0000
1000
0100
0000
0010
0000
0000
0100
0000
0001
0000
1000
0010
0000
0010
,  // measure 152
1000
0000
0001
0010
0000
0100
0000
0000
0020
0000
0000
0000
0000
0000
0000
0000
,  // measure 153
0000
0000
1000
0100
,  // measure 154
0002
0000
0000
0000
0000
0000
0033
0000
0100
0001
0100
0000
1100
0000
0000
0000
,  // measure 155
0001
0100
0001
1000
0100
1000
0001
0010
,  // measure 156
0001
0100
0101
0000
0100
0000
1010
0000
,  // measure 157
0001
0100
0001
1000
0100
0010
0001
1000
,  // measure 158
0010
0000
0100
0000
0101
0000
0000
0000
0010
0100
0010
0000
1100
0000
0000
0000
,  // measure 159
0001
0010
0001
1000
0010
0100
0001
1000
,  // measure 160
0100
0010
1001
0000
0010
0000
1100
0000
,  // measure 161
0001
0010
0001
1000
0100
0000
0010
1000
,  // measure 162
0001
0000
0100
0000
1001
0000
0000
0000
0100
0010
1000
0000
0101
0000
0000
0000
,  // measure 163
0001
0100
0001
1000
0100
1000
0001
0010
,  // measure 164
0001
0100
0101
0000
0100
0000
1010
0000
,  // measure 165
0001
0100
0001
1000
0100
0010
0001
1000
,  // measure 166
0010
0000
0100
0000
0101
0000
0000
0000
0010
0100
0010
0000
1100
0000
0000
0000
,  // measure 167
0001
0010
0001
1000
0010
0100
0001
1000
,  // measure 168
0100
0010
1001
0000
0100
1010
0000
1001
,  // measure 169
0000
1010
0000
1001
0000
1100
0000
1001
,  // measure 170
0000
0101
0000
1001
0010
0000
1000
0000
,  // measure 171
0100
1000
0100
1000
,  // measure 172
0001
0010
0100
1000
,  // measure 173
0001
0010
0001
1000
,  // measure 174
0100
1000
0001
1000
,  // measure 175
0001
0100
0001
1000
,  // measure 176
0001
0100
0001
1000
,  // measure 177
0001
1000
0001
0010
,  // measure 178
0100
1000
0100
1000
,  // measure 179
0001
0010
0001
0100
,  // measure 180
0010
1000
0100
0010
,  // measure 181
0001
1000
0001
0100
,  // measure 182
1000
0100
0001
1000
,  // measure 183
0001
0100
0001
1000
,  // measure 184
0001
0100
0001
1000
,  // measure 185
0001
1000
0001
0010
,  // measure 186
0100
1000
0010
1001
,  // measure 187
0001
0100
1100
0000
0100
1000
0011
0000
,  // measure 188
1000
0100
1000
0000
0010
0000
1001
0000
,  // measure 189
1000
0100
0101
0000
0100
0001
1010
0000
,  // measure 190
0001
0000
0100
0000
0001
0000
0000
0000
0100
0010
1000
0000
1100
0000
0000
0000
,  // measure 191
0001
0100
0001
1000
0100
1000
0001
0010
,  // measure 192
0001
0100
0101
0000
0000
1100
0000
0101
,  // measure 193
0000
0011
0000
1010
0000
0011
0000
0101
,  // measure 194
0000
0000
1100
0000
0000
0000
1010
0000
0010
0100
0001
0000
1100
0000
0000
0000
,  // measure 195
0001
0010
0001
1000
0010
0100
0001
1000
,  // measure 196
0100
0010
1001
0000
0100
1010
0000
1001
,  // measure 197
0000
1010
0000
1001
0000
1100
0000
1001
,  // measure 198
0000
0101
0000
1001
0010
1000
0010
1000
,  // measure 199
0001
0100
0000
0000
0100
0000
0010
0000
,  // measure 200
0000
1000
0000
0001
1000
0100
0010
0100
,  // measure 201
1000
0001
0000
0000
0010
0000
0100
0000
,  // measure 202
1000
0000
0000
0001
0010
0000
0000
0100
,  // measure 203
1000
0001
0000
0000
1100
0000
0000
0000
,  // measure 204
1001
0000
0000
0000
1010
0000
0000
1000
,  // measure 205
0100
0000
1000
0000
0001
0010
0100
0000
,  // measure 206
0010
0100
0000
0000
1000
0000
0000
0100
,  // measure 207
1000
0000
0000
0010
0001
0000
0000
0010
,  // measure 208
0100
0000
0001
0000
0010
0001
0000
0000
,  // measure 209
0010
0001
0000
0001
0100
0000
0010
0000
,  // measure 210
0100
0001
0000
0000
1000
0100
0000
0000
,  // measure 211
0100
1000
0000
0000
1000
0010
0000
0001
,  // measure 212
0100
0000
0010
0000
1000
0001
0000
0010
,  // measure 213
0100
0010
0000
0000
1000
0100
0010
0001
,  // measure 214
0010
0000
0100
1000
0010
0000
1001
0000
,  // measure 215
0001
0100
1100
0000
0100
1000
0011
0000
,  // measure 216
1000
0100
1000
0000
0010
0000
1001
0000
,  // measure 217
1000
0100
0101
0000
0100
0001
1010
0000
,  // measure 218
0001
0000
0100
0000
0001
0000
0000
0000
0001
0000
0000
0010
1000
0000
0010
0000
,  // measure 219
0001
0000
1000
0000
0100
0000
0000
0000
1000
0000
0000
0010
0001
0000
0010
0000
,  // measure 220
1000
0000
0001
0000
0100
0000
0000
0000
1000
0000
0000
0010
0001
0000
0010
0000
,  // measure 221
1000
0000
0001
0000
1000
0000
0000
0000
0001
0000
0000
0010
1000
0000
0100
0000
,  // measure 222
0001
1000
0100
0000
2002
0000
0000
0000
,  // measure 223
3003
0000
0000
0000
;

//---------------dance-single - ----------------
#NOTES:
     dance-single:
     :
     Easy:
     3:
     0.258,0.351,0.163,0.074,0.003:
0000
0000
0000
0000
,
0000
0000
0000
0000
,
0000
0000
0000
0000
,
0000
0000
0000
0000
,
1000
0000
0100
0000
,
0001
0000
0010
0000
,
0001
0000
1000
0000
,
0100
0000
0001
0000
,
1000
0000
0010
0000
,
0100
0000
0001
0000
,
1000
0000
0001
0000
,
0100
0000
0010
0000
,
0100
0000
0001
0000
,
0010
0000
1000
0000
,
0010
0000
0001
0000
,
1000
0000
0100
0000
,
0001
0000
0100
0000
,
1000
0000
0010
0000
,
0100
0000
1000
0000
,
0001
0000
1001
0000
,
0010
0000
1000
0000
,
0100
0100
0001
0000
,
1000
0000
0001
0000
,
0100
0100
0010
0000
,
1000
0000
0010
0000
,
0010
0010
0001
0000
,
1000
0000
0001
0000
,
0100
0100
1000
0000
,
0100
0100
0001
0000
,
0010
0000
1000
0000
,
0010
0010
0100
0000
,
1000
0000
0001
0000
,
1000
1000
0010
0000
,
0001
0000
0010
0000
,
0001
0001
0100
0000
,
1000
0000
0001
0000
,
0100
0010
0100
0000
,
1000
0000
0001
0000
,
0010
0001
0010
0000
,
0001
0000
1000
0000
,
0001
1000
0001
0000
,
0100
0000
0001
0000
,
1000
0010
1000
0000
,
0100
0000
0001
0000
,
0100
0010
0100
0000
,
0001
0001
0100
0000
,
0010
1000
0010
0000
,
0100
0100
0001
0000
,
1000
0001
1000
0000
,
0001
0001
0010
0000
,
0001
0100
0001
0000
,
1000
1000
0001
0000
,
2002
0000
0000
3003
,
0010
0000
0010
0000
,
0010
0001
0010
1000
,
0010
0001
0010
1000
,
0100
0001
0100
1000
,
0100
0001
0100
1000
,
0010
0001
0010
0000
,
0010
1000
0010
0000
,
0100
0001
0010
0000
,
0100
1000
0010
0000
,
0010
0001
1000
0000
,
0010
1000
0001
0000
,
0020
0000
0000
0030
,
0200
0000
0000
0300
,
0010
0000
0001
0000
0100
0010
1000
0000
,
0010
0000
1000
0000
0100
0010
0001
0000
,
1000
0000
0100
0000
0010
0100
1000
0000
,
0001
0000
0100
0000
0010
0100
0001
0000
,
0010
0000
0001
0000
0100
0010
1000
0000
,
0010
0000
1000
0000
0100
0010
0001
0000
,
1000
0000
0100
0000
0010
0100
1000
0000
,
0001
0000
0100
0000
0010
0100
0001
0000
,
0200
0000
0000
0000
,
0300
0020
0000
0000
,
0000
0030
2000
0000
,
0000
0002
0000
3003
,
0100
0000
0000
0000
0000
0000
0010
0000
0000
0000
0000
0000
1000
0000
0000
1000
,
0000
0000
0001
0000
0000
0001
0000
0000
0010
0000
0000
0000
1000
0000
0000
0000
,
0010
1000
0010
0001
,
0010
0001
0100
1000
,
0100
1000
0100
0001
,
0100
0001
0010
1000
,
0010
0001
0100
1000
,
0100
0001
0010
1000
,
0100
0001
0010
1000
,
0100
0001
0010
1000
,
0010
1000
0010
0001
,
0010
0001
0100
1000
,
0100
1000
0100
0001
,
0100
0001
0010
1000
,
0010
0001
0100
1000
,
0100
0001
0010
1000
,
0100
0001
0010
1000
,
0100
0001
0100
0000
,
0010
0001
0000
1000
,
0000
0100
0010
0000
,
0010
0001
0000
1000
,
0000
0100
0010
0000
,
0010
0001
0000
1000
,
0000
0100
0010
0000
,
0100
0000
0010
0000
,
0100
0000
0000
1000
,
0000
0001
0000
1000
,
0000
0100
0000
1000
,
0000
0001
0000
1000
,
0000
0100
0000
1000
,
0000
0001
0000
1000
,
0000
0100
0000
1000
,
0000
0001
0000
1000
,
0000
0100
0010
0000
,
0010
0001
0000
1000
,
0000
0100
0010
0000
,
0010
0001
0000
1000
,
0000
0100
0010
0000
,
0010
0001
0000
1000
,
0000
0100
0010
0000
,
0100
0000
0010
0000
,
0100
0000
0000
1000
,
0000
0001
0000
1000
,
0000
0100
0000
1000
,
0000
0001
0000
1000
,
0000
0100
0000
0010
,
0000
1001
0000
0100
,
0000
1001
0000
0010
,
0000
1001
0000
0100
,
0000
1001
0010
1000
,
0010
1010
0100
0001
,
0100
0101
1000
1000
,
0001
0001
0100
0100
,
0010
0110
1000
0010
,
1000
1000
0001
0010
,
0001
0001
1000
0100
,
1000
1000
0001
0100
,
0001
0001
1000
1001
,
1000
1001
0001
1001
,
0001
1001
0100
0000
,
0100
0000
0010
0000
,
0010
0000
1000
0100
,
1000
1000
0001
0100
,
0001
0001
1000
0100
,
1000
1000
0001
0100
,
0001
0001
0010
1000
,
0010
1010
0100
0001
,
0100
0101
1000
1000
,
0001
0001
0100
0100
,
0010
0110
1000
1001
,
1000
1001
0001
1001
,
0001
1001
1000
0100
,
0001
0001
0001
0100
,
1000
1000
0020
0000
,
0000
0000
0100
0100
,
0200
0000
0000
0330
0100
0000
0000
0000
,
0100
0101
0010
0010
,
1000
1000
0100
0110
,
0100
1100
0010
0110
,
0100
0101
0010
0000
,
0010
0011
0100
0100
,
1000
1000
0010
0110
,
0010
1010
0100
0110
,
0010
0011
0100
0000
,
0001
0101
0010
0010
,
1000
1000
0100
0110
,
0100
1100
0010
0110
,
0100
0101
0010
0000
,
0001
0011
0100
0100
,
1000
1000
0101
0000
,
0101
0000
1010
0000
,
1010
0000
0200
0000
,
0000
0000
0010
0000
,
0000
0300
0020
0000
,
0000
0000
0100
0000
,
0000
0030
2000
0000
,
0000
0000
0001
0000
,
0000
3000
0002
0000
,
0000
0000
1000
0000
,
0000
0003
0200
0000
,
0000
0000
0001
0000
,
0000
0300
0020
0000
,
0000
0000
1000
0000
,
0000
0030
2000
0000
,
0000
0000
0100
0000
,
0000
3000
0002
0000
,
0000
0000
0010
0000
,
0000
0003
0100
0101
,
0100
0100
0010
1010
,
0010
0010
0001
0101
,
0001
0001
1000
1010
,
1000
1000
0001
0000
,
0100
0101
1000
1001
,
0100
0100
0001
0000
,
0100
0000
0010
0010
,
1000
1001
1000
0000
,
0100
1100
0001
1001
,
0100
0100
1010
0000
,
1010
0000
0101
0000
,
0101
0000
0200
0000
,
0000
0000
0010
0000
,
0000
0300
0020
0000
,
0000
0000
0100
0000
,
0000
0030
2000
0000
,
0000
0000
0001
0000
,
0000
3000
0002
0000
,
0000
0000
1000
0000
,
0000
0003
0200
0000
,
0000
0000
0001
0000
,
0000
0300
0020
0000
,
0000
0000
1000
0000
,
0000
0030
2000
0000
,
0000
0000
0100
0000
,
0000
3000
0002
0000
,
0000
0000
0010
0000
,
0000
0003
0100
0101
,
0100
0100
0010
1010
,
0010
0010
0001
0101
,
0001
0001
1000
1010
,
1000
1000
0100
1100
,
0100
0100
0010
0011
,
0010
0010
1000
1100
,
1000
1000
0001
0011
,
0001
0001
2002
0000
,
3003
0000
0000
0000
;

//---------------dance-single - ----------------
#NOTES:
     dance-single:
     :
     Medium:
     6:
     0.393,0.555,0.308,0.047,0.045:
0000
0000
0000
0000
,
0000
0000
0000
0000
,
0000
0000
0000
0000
,
0000
0000
0000
0000
,
1000
0000
0001
0000
0010
1000
0100
0000
,
0001
0000
0100
0000
0001
1000
0010
0000
,
0100
0000
0001
0000
0100
0010
0100
0000
,
1000
0000
0010
0000
0001
0010
0100
0000
,
1000
0000
0001
0000
0010
1000
0100
0000
,
0010
0000
0001
0000
1000
0100
0001
0000
,
1000
0000
0010
0000
0001
0010
0100
0000
,
1000
0000
0010
0000
0001
1000
0100
0000
,
0010
0000
0100
0000
0010
0001
1000
0000
,
0100
0000
0010
0000
0100
1000
0001
0000
,
0100
0000
0010
0000
1000
0100
0010
0000
,
1000
0000
0010
0000
0001
0010
1000
0000
,
0001
0000
0100
0000
0010
0100
0001
0000
,
1000
0000
0100
0000
0010
0100
1000
0000
,
0010
0000
0100
0000
0001
1000
0010
0000
,
0100
1000
0010
1001
,
0100
0000
0001
0000
1000
0010
0100
0000
,
0010
0000
1000
0000
0001
0100
0010
0000
,
1000
0010
0001
0100
,
0010
0000
0100
0000
0010
1000
0100
0000
,
1000
0000
0010
0000
0100
0001
1000
0000
,
0100
0000
0001
0000
0100
1000
0010
0000
,
1000
0010
0001
0100
,
0010
0000
1000
0000
0010
0100
0001
0000
,
1000
0000
0010
0000
0001
0001
0001
0000
,
0100
0000
0001
0000
1000
1000
1000
0000
,
0100
0101
1000
0011
,
1000
0110
0001
1010
,
0100
0000
1000
0000
0100
0100
0100
0000
,
0001
0000
0010
0000
0100
0100
0100
0000
,
0001
1100
0010
0101
,
1000
0110
0001
1100
,
0010
0001
0100
0000
0010
0000
0000
0000
,
1000
0100
0001
1000
,
0100
1000
0001
0000
0100
0000
0000
0000
,
0001
0010
1000
0010
,
0001
0100
1000
0000
0010
0000
0000
0000
,
0010
1000
0001
0100
,
0001
0010
0100
0000
1000
0000
0000
0000
,
0010
0100
0001
1000
,
0010
0001
0100
0000
1010
0000
0000
0000
,
0001
0100
0010
1000
,
0100
0001
0010
0000
1001
0000
0000
0000
,
0100
1000
0001
0010
,
1000
0100
1000
0000
0101
0000
0000
0000
,
0010
0001
0100
0010
,
1000
0001
0010
0000
0110
0000
0000
0000
,
1000
0010
0001
0100
,
2002
0000
0000
3003
,
0010
0100
0001
0000
0010
0100
1000
0000
,
0010
0100
0001
0000
0010
0100
1000
0000
,
0010
0100
0001
0000
0010
0100
1000
0000
,
0100
0010
0001
0000
0100
0010
1000
0000
,
0100
0010
0001
0000
0100
0010
1000
0000
,
0010
0100
0001
0000
0010
0000
0000
0000
,
0010
0100
1000
0010
0000
0000
0000
0000
,
0100
0010
0001
0010
0000
0000
0000
0000
,
0100
0010
1000
0010
0000
0000
0000
0000
,
0010
0100
0001
0000
1000
0000
0000
0000
,
0010
0100
1000
0000
0001
0000
0000
0000
,
0020
0000
0000
0030
,
0200
0000
0000
0300
,
0000
0000
0010
0100
0000
0000
0001
0000
0000
0000
0010
0100
0000
0010
0001
0000
,
0000
0000
0010
0100
0000
0000
1000
0000
0000
0000
0010
0100
0000
0010
1000
0000
,
0000
0000
0001
0100
0000
0000
0010
0000
0000
0100
0010
1000
0000
0100
0010
0001
,
0000
0000
0001
0100
0000
0000
0010
0000
0000
0100
0010
1000
0000
0100
0010
0001
,
0000
0000
0010
0100
0000
0000
0001
0000
0000
0000
0010
0100
0000
0010
0001
0000
,
0000
0000
0010
0100
0000
0000
1000
0000
0000
0000
0010
0100
0000
0010
1000
0000
,
0000
0000
0001
0100
0000
0000
0010
0000
0000
0100
0010
1000
0000
0100
0010
0001
,
0000
0000
0001
0100
0000
0000
0010
0000
0000
0100
0010
1000
0000
0100
0010
0001
,
0200
0000
0000
0000
,
0300
0020
0000
0000
,
0000
0030
2000
0000
,
0000
0002
0000
3003
,
0100
0000
0000
0000
0000
0000
0100
0000
0000
0000
0000
0000
0010
0000
0000
0010
,
0000
0000
1000
0000
0000
0001
0000
0000
0000
0000
0100
0000
0000
0000
1000
0000
,
0000
0100
0000
0010
0000
0100
0000
0001
,
0000
0100
0010
0100
0000
0010
0000
1000
,
0000
0010
0000
0100
0000
0010
0000
0001
,
0000
0010
0100
0010
0000
1000
0000
0100
,
0000
1000
0000
0010
0000
1000
0000
0001
,
0000
0100
0010
0100
0000
0001
0000
0100
,
0000
0001
0000
0010
0000
0001
0000
1000
,
0000
0010
0100
0010
0000
0100
0000
1000
,
0000
0100
0000
0010
0000
0100
0000
0001
,
0000
0100
0010
0100
0000
0010
0000
1000
,
0000
0010
0000
0100
0000
0010
0000
0001
,
0000
0010
0100
0010
0000
1000
0000
0100
,
0000
1000
0000
0010
0000
1000
0000
0001
,
0000
0100
0010
0100
0000
0001
0000
0100
,
0000
0001
0000
0010
0000
0001
0000
1000
,
0000
0010
0100
0010
1001
0000
0000
0110
,
0000
1001
0100
0000
,
0010
0100
0010
0000
1001
0000
0000
0110
,
0000
1001
0100
0000
,
0010
0100
0010
0000
1001
0000
0000
0110
,
0000
1001
0100
0000
,
0010
0100
0010
0000
1000
0000
0001
0000
,
1000
0001
1000
0001
,
1000
0001
1000
1000
,
0001
0001
1000
0001
,
1000
0001
1000
1000
,
0001
0001
1000
0001
,
1000
0001
1000
1000
,
0001
0001
1000
0001
,
1000
0001
1000
1000
,
0001
0001
1000
0001
,
1000
0000
0001
0000
1001
0000
0000
0110
,
0000
1001
0100
0000
,
0010
0100
0010
0000
1001
0000
0000
0110
,
0000
1001
0100
0000
,
0010
0100
0010
0000
1001
0000
0000
0110
,
0000
1001
0100
0000
,
0010
0100
0010
0000
1000
0000
0001
0000
,
0010
0100
0001
1000
,
0100
0010
1000
1000
,
0001
0001
0010
0100
,
0010
0100
1000
1000
,
0001
0001
0010
0100
,
0010
0100
0010
1001
,
0100
1001
0010
1001
,
0100
1001
0010
1001
,
0100
1001
0010
1001
,
0100
0000
1001
0000
0010
1000
0010
0000
,
0100
0000
1000
0100
0010
0001
0010
0000
,
0100
0000
0001
0100
0010
1000
0001
0000
,
0010
0001
1000
0000
0100
0000
0100
0000
,
0010
1001
0100
0100
,
0010
0000
0010
1000
0100
0000
0100
0000
,
0010
0000
0010
0001
1000
0000
1000
0010
,
0001
0000
0001
0000
1000
0000
1000
0100
,
0001
0000
0001
0000
0100
1000
0100
0000
,
0010
0001
0010
0000
0100
1000
0100
0000
,
0010
0001
0010
0000
1000
0000
1000
0000
,
1000
0010
0001
0001
,
0001
0010
1000
1010
,
0100
0100
0001
0011
,
0100
0100
1000
1010
,
0100
0100
0001
0011
,
0100
0000
0100
0000
0010
1000
0010
0000
,
0100
0000
1000
0100
0010
0001
0010
0000
,
0100
0000
0001
0100
0010
1000
0001
0000
,
0010
0001
1000
0000
0100
0000
0100
0000
,
0010
0000
1001
0000
0100
1000
0100
0000
,
0010
0001
0010
0000
0100
1000
0100
0000
,
0010
0001
0010
0000
0100
1000
0100
0010
,
0001
0100
0001
0010
0100
1000
0100
0010
,
0001
0100
0001
0010
0200
0000
0000
0000
,
0000
0000
0001
0010
,
2000
0000
0000
3300
0100
0000
1010
0000
,
0001
0100
0001
0000
0100
0000
1010
0000
,
0100
1001
0100
0011
,
1000
0100
1000
0000
0100
0000
0011
0000
,
0100
1001
0010
1100
,
0001
0010
0001
0000
0010
0000
1100
0000
,
0010
1001
0010
0101
,
1000
0010
1000
0000
0010
0000
0101
0000
,
0010
1001
0100
1010
,
0001
0100
0101
0000
0100
0000
1010
0000
,
0100
0001
1001
0000
0100
0000
0011
0000
,
1000
0100
1100
0000
0100
0000
0011
0000
,
0100
1000
1001
0000
0010
0000
1100
0000
,
0001
0010
0011
0000
0010
0000
1100
0000
,
0010
0100
1001
0000
0100
1100
0000
1001
,
0000
0011
0000
0110
0000
1100
0000
1001
,
0000
0101
0000
0110
2000
0000
0000
0000
,
0000
0000
0010
0000
,
0000
3000
0002
0000
,
0000
0000
0010
0000
,
0000
0003
1000
0100
,
1000
0000
0001
0100
,
0001
0000
1010
0000
,
1100
0000
0101
0000
,
0011
0000
0200
0000
,
0000
0000
1000
0000
,
0000
0300
0020
0000
,
0000
0000
0001
0000
,
0000
0030
1000
0010
,
1000
0000
0001
0010
,
0001
0000
1100
0000
,
1010
0000
0011
0000
,
0101
0000
0000
0000
0010
0100
0001
0000
,
0100
0000
1001
0000
0010
0100
1000
0000
,
0100
0000
1001
0000
0100
0010
0001
0000
,
0010
0000
1001
0000
0100
0010
1000
0000
,
0010
1001
0100
0101
,
0010
1000
0010
0000
0100
0000
0101
0000
,
0100
0000
1100
0000
0000
0100
0000
0100
,
0000
0010
0000
0010
0000
1000
0000
1000
,
0000
0001
0000
0001
0010
0000
0011
0000
,
0100
1000
0100
0000
0010
0000
0011
0000
,
0010
0000
1010
0000
0000
0010
0000
0010
,
0000
0100
0000
0100
0000
1000
0000
1000
,
0000
0001
0000
0001
1000
0000
0100
0000
,
1100
0000
0001
0000
,
1001
0000
0001
0100
,
0101
0000
0001
0000
,
1001
0000
1000
0100
,
1000
0000
0001
0100
,
0001
0000
1010
0000
,
1100
0000
0101
0000
,
0011
0000
0200
0000
,
0001
0000
1000
0000
,
0001
0300
0020
0000
,
0001
0000
1000
0000
,
0001
0030
1000
0010
,
1000
0000
0001
0010
,
0001
0000
1100
0000
,
1010
0000
0011
0000
,
0101
0000
0000
0000
0010
0100
0001
0000
,
0100
0000
1001
0000
0010
0100
1000
0000
,
0100
0000
1001
0000
0100
0010
0001
0000
,
0010
0000
1001
0000
0100
0010
1000
0000
,
0010
0000
1001
0000
0100
0010
0001
0000
,
0010
0000
1001
0000
0100
0010
1000
0000
,
0010
0000
1001
0000
0010
0100
0001
0000
,
0100
0000
1001
0000
0010
0100
1000
0000
,
0100
1001
2002
0000
,
3003
0000
0000
0000
;
