#TITLE:MIDNIGHT BLUE Mix;
#SUBTITLE:(DDR 4th Mix);
#ARTIST:baconman;
#TITLETRANSLIT:;
#SUBTITLETRANSLIT:;
#ARTISTTRANSLIT:;
#CREDIT:;
#BANNER:4thMix.png;
#BACKGROUND:4thMix-bg.png;
#LYRICSPATH:;
#CDTITLE:./CDTITLES/Dance Dance Revolution 4th Mix.png;
#MUSIC:4thMix.mp3;
#OFFSET:-0.046;
#SAMPLESTART:220.660;
#SAMPLELENGTH:12.000;
#SELECTABLE:YES;
#BPMS:0.000=130.000,168.000=135.000,184.000=140.000,200.000=145.000,512.000=150.000,520.000=155.000,528.000=160.000,536.000=170.000;
#STOPS:;
#BGCHANGES:;

//---------------dance-single - ----------------
#NOTES:
     dance-single:
     :
     Easy:
     4:
     0.303,0.381,0.146,0.015,0.000:
0000
0000
0000
0000
,
0000
0000
0000
0000
,
0000
0000
0000
0000
,
0000
0000
1001
0000
,
0010
0010
0100
0010
,
1000
1000
0001
0001
,
0010
0010
0100
0010
,
0001
0001
0001
1000
,
0010
0010
0100
0010
,
1000
1000
0001
0001
,
0010
0010
0100
0010
,
0001
0001
0001
0001
,
0010
0100
1000
0001
,
0010
0100
1000
0001
,
0010
0100
1000
0001
,
0100
0010
0100
0010
,
1000
0001
0010
0100
,
1000
0001
0010
0100
,
1000
0001
0010
0100
,
1000
0010
0100
0001
,
0010
0000
0010
0000
,
0010
0000
0010
0000
,
1001
0000
0100
0000
,
0100
0000
0100
0000
,
0010
0001
1000
1000
,
0010
0100
0001
1000
,
0100
0010
0001
0001
,
1000
0010
0100
0001
,
1000
0100
0010
0010
,
0001
1000
0010
0100
,
0001
0010
0100
0100
,
1000
0010
0100
0001
,
1000
0000
0001
0000
,
1000
0000
1001
0000
,
0010
0100
0010
0010
,
1000
0001
1000
1000
,
0010
0100
0001
1000
,
0100
0100
0100
0010
,
0001
1000
0010
0010
,
0100
0100
0100
0010
,
1000
0001
0010
0010
,
0100
1000
0001
0100
,
0010
0010
0010
1001
,
0100
0100
0100
1001
,
0010
1001
0100
1001
,
0010
0010
0010
1001
,
0100
0100
0010
0010
,
1000
0100
0001
0100
,
0010
0010
1000
0100
,
0010
0001
1000
1001
,
0001
0000
0010
0100
,
1000
1000
0000
0000
,
0001
0001
0000
0000
,
1000
0000
0001
0000
,
1000
0000
0010
0100
,
0001
0001
0000
0000
,
1000
1000
0000
0000
,
0001
0000
1000
0000
,
0100
0000
0010
0001
,
0100
0100
0000
0000
,
0010
0010
0000
0000
,
1000
0000
0100
0000
,
0010
0000
0001
0100
,
0010
0010
0000
0000
,
0100
0100
0000
0000
,
0001
1000
0001
0000
,
1001
0000
0000
0000
,
1001
0000
0000
0000
,
0010
0000
0100
0000
,
0010
0010
0100
0100
,
1001
0000
0000
0000
,
1001
0000
0000
0000
,
0010
0000
0100
0000
,
0010
0100
0010
0000
,
1000
0000
0001
0000
,
0100
0000
0010
0000
,
1000
0000
0001
0000
,
0100
0000
0010
0000
,
1000
0000
0001
0000
,
0100
0000
0010
0000
,
1000
0000
1000
0000
,
0001
0000
0001
0000
,
0100
0010
0100
0010
,
0100
0010
0100
0010
,
0100
0000
0001
1000
,
0100
0100
0000
0000
,
0010
0010
0000
0000
,
1001
0000
1001
0000
,
0010
0000
0100
0001
,
0010
0010
0000
0000
,
0100
0100
0000
0000
,
1001
0000
1001
0000
,
0010
0000
0100
1000
,
0001
0001
0000
0000
,
1000
1000
0000
0000
,
1001
0000
1001
0000
,
0100
0000
0010
0001
,
0100
0100
0000
0000
,
0010
0010
0000
0000
,
2002
3003
2002
3003
,
2002
3003
0100
0000
,
0010
0000
1000
0000
,
1000
0100
0010
0001
,
1001
0000
0000
0000
,
0010
0010
0100
0100
,
0001
0001
1000
1000
,
0010
0100
0001
1000
,
0100
0100
0100
0000
,
0010
0010
0001
0001
,
1000
1000
0100
0100
,
0010
0001
0100
0010
,
1000
1000
1000
0000
,
1001
0000
0010
0100
,
0001
0100
1000
0100
,
0001
0010
0100
0100
,
1000
1000
1000
0000
,
1001
0000
0100
0010
,
0001
1000
0100
0010
,
0001
0001
0100
0100
,
0010
1001
0100
0000
,
0010
0001
0010
0001
,
1000
0100
1000
0100
,
0010
0001
1000
0100
,
0010
0001
0001
0000
,
1000
0010
1000
0010
,
0100
0001
0100
0001
,
1000
0100
0010
0001
,
1000
0100
0100
0000
,
1001
0000
0110
0000
,
1000
0100
0100
0000
,
0010
0001
1000
1000
,
0010
0100
0100
0000
,
1001
0000
0110
0000
,
0000
0000
0000
0000
,
0000
0000
0000
0000
,
0000
0000
0000
0000
,
0001
0000
0001
0000
,
1000
0000
1000
0000
,
0010
0000
0010
0000
,
0100
0000
0100
0000
,
0001
0001
0001
0000
,
1000
1000
1000
0000
,
0010
0010
0010
0000
,
0100
0100
0100
0000
,
1001
0000
1001
1001
,
0100
0000
0100
0001
,
1000
0000
1000
0010
,
0100
0001
0100
1000
,
0100
0010
1000
0001
,
0100
0000
0001
0001
,
1000
0010
0100
0001
,
1000
1000
0010
0100
,
0001
0000
1000
1000
,
0010
0100
0001
0001
,
1000
0010
0100
0100
,
0001
0000
0001
1000
,
1000
0000
0001
0100
,
0010
0000
1000
0001
,
0100
0010
1000
0001
,
0100
0001
1000
0010
,
1000
0010
0100
0001
,
1000
0000
0000
0010
,
0100
0001
1000
0010
,
1001
0000
0000
0100
,
0100
0001
1000
0010
,
0100
0000
0100
0001
,
1000
0000
1000
0010
,
0100
1001
1001
0110
,
1001
0000
0000
0100
,
0001
0000
1000
0010
,
0100
0001
0001
1000
,
0010
0000
0010
0000
,
0100
0000
0100
1001
,
0010
0000
0000
0000
,
0100
0000
0000
1001
,
0001
0100
0010
1000
,
0010
1000
0001
0100
,
0010
1000
0001
0010
,
0100
1000
0001
1000
,
0010
0100
0010
1000
,
0001
0000
0001
0110
,
0010
0000
0010
0000
,
0100
0000
0100
1001
,
0001
0100
0010
1000
,
0001
1000
0001
0001
,
0100
0000
0000
0000
,
0010
0000
0000
0000
,
1000
0000
0000
0000
,
0001
0000
0000
0000
,
1000
1000
0000
0000
,
0010
0010
0000
0000
,
0100
0100
0000
0000
,
0001
0001
1000
0010
,
1000
0010
0010
0010
,
0001
0010
0010
0010
,
0000
1000
0100
1000
,
0000
0001
0100
0001
,
0010
1000
1000
0100
,
0010
0001
0001
0100
,
0000
0010
1000
0100
,
0000
0010
0001
0100
,
0010
0010
0010
0010
,
0100
0100
0100
0100
,
0001
0001
1000
1000
,
0010
0010
0010
0010
,
1000
0000
1000
0000
,
0001
0000
0001
0000
,
0010
0010
0100
0100
,
1000
0001
0110
0110
,
1000
0100
0001
0100
,
0010
1000
0100
0100
,
0001
0000
1000
0000
,
0001
1000
0100
0100
,
0001
0100
1000
0100
,
0010
0001
0100
0100
,
1000
0000
0001
0000
,
1000
0001
0110
0110
,
1000
0001
1000
0100
,
0001
1000
0001
0100
,
1000
0001
1000
0100
,
0001
1000
0001
0100
,
1000
0000
1000
0000
,
0001
0000
0001
0000
,
1000
1000
0010
0010
,
0001
0100
0001
0100
,
0010
1001
0010
0010
,
1000
0100
0101
0101
,
1000
0100
0001
0100
,
0010
1000
0100
0100
,
0001
1000
0001
0101
,
0010
1000
0100
1100
,
0001
0001
0100
0100
,
0010
1000
0100
0100
,
1001
0100
0000
0100
,
0000
0100
0000
0100
,
0110
1000
0000
1000
,
0000
1000
0000
1000
,
0010
1000
0100
0001
,
0010
1000
0100
0001
,
0010
1000
0010
1000
,
0001
0100
0101
0101
,
1000
0010
0010
0010
,
0001
0010
0010
0010
,
0000
1000
0100
1000
,
0000
0001
0100
0001
,
0010
1000
1000
0100
,
0010
0001
0001
0100
,
0000
0010
1000
0100
,
0000
0010
0001
0100
,
1000
1000
0001
0001
,
0010
1000
0100
0001
,
0010
0010
1000
1000
,
0101
0101
0010
0100
,
1001
0000
0000
0000
;

//---------------dance-single - ----------------
#NOTES:
     dance-single:
     :
     Medium:
     6:
     0.462,0.572,0.397,0.020,0.035:
0000
0000
0000
0000
,
0000
0000
0000
0000
,
0000
0000
0000
0000
,
0000
0000
1001
0000
,
0110
0000
1001
0000
0010
0100
0001
0000
,
1100
0000
1100
0000
0001
0100
0010
0000
,
1001
0000
0110
0000
0001
1000
0100
0000
,
0101
0000
0101
0000
1000
0100
0010
0000
,
1001
0000
0110
0000
0001
1000
0100
0000
,
0101
0000
1100
0000
0010
0001
0100
0000
,
1010
0000
0101
0000
0010
1000
0100
0000
,
0011
0000
1100
0000
0001
0100
0010
0000
,
1000
0000
0100
0000
0010
0001
0010
0000
,
0100
0000
1000
0000
0010
0100
0010
0000
,
1000
0000
0001
0000
0010
0100
0010
0000
,
0001
0000
0100
0000
0010
1000
0010
0000
,
0100
0000
0001
0000
1000
0100
1000
0000
,
0010
0000
0100
0000
0001
0010
0001
0000
,
1000
0000
0100
0000
0010
0001
0010
0000
,
0100
0000
1000
0000
0010
0100
0010
0000
,
1000
1000
0000
0100
,
0010
0010
0000
0001
,
1000
1000
0010
0000
,
0100
0100
0000
0001
,
1000
0100
0010
0000
0001
0000
0100
0000
,
0010
1000
0100
0000
0010
0000
0001
0000
,
1000
0010
0100
0000
0001
0000
0010
0000
,
0100
1000
0001
0000
0100
0000
0010
0000
,
1000
0100
0010
0000
0001
0000
1000
0000
,
0010
0100
0001
0000
1000
0000
0100
0000
,
0010
0001
0100
0000
0010
0000
1000
0000
,
0100
0010
0001
0000
1000
0000
0010
0000
,
0100
0001
0100
0000
0010
1000
0100
0000
,
0010
0001
0100
0000
0010
1000
0001
0000
,
0110
0000
1001
0000
0010
0100
0001
0000
,
1100
0000
1100
0000
0001
0100
0010
0000
,
1001
0000
0110
0000
0001
1000
0100
0000
,
0101
0000
0101
0000
1000
0100
0010
0000
,
1001
0000
0110
0000
0001
1000
0100
0000
,
0101
0000
1100
0000
0010
0001
0100
0000
,
1010
0000
0101
0000
0010
1000
0100
0000
,
0011
0000
1100
0000
0001
0100
0010
0000
,
1001
0000
1100
0000
0101
1000
0100
0000
,
1001
0000
0110
0000
1001
0100
0010
0000
,
1001
0000
1100
0000
0101
1000
0010
0000
,
0101
0000
0011
0000
1100
0001
0100
0000
,
0110
0000
1001
0000
0110
0001
1000
0000
,
1100
0000
0101
0000
1010
0100
0010
0000
,
1001
0000
0110
0000
1100
0010
0001
0000
,
0101
0000
1010
0000
0100
0010
1001
0000
,
1001
0000
0000
0000
0010
0100
0010
0000
,
1001
0000
1001
0000
0010
0100
0010
0000
,
1100
0000
0101
0000
0010
1000
0100
0000
,
0010
0001
0010
0000
0100
1000
0100
0000
,
0101
0000
0000
0000
0010
1000
0100
0000
,
0011
0000
0101
0000
0010
1000
0100
0000
,
1001
0000
0011
0000
0100
1000
0001
0000
,
0100
0010
1000
0100
0010
0000
0000
0000
,
1001
0000
0000
0000
0010
0100
0001
0000
,
1100
0000
0101
0000
1000
0100
0010
0000
,
1001
0000
0110
0000
0001
0010
0100
0000
,
1000
0100
1000
0000
0001
0100
0001
0000
,
1001
0000
0000
0000
0010
0100
0010
0000
,
1001
0000
0110
0000
1000
0100
0010
0000
,
0101
0000
1100
0000
0010
0001
0100
0000
,
0010
1000
0100
0010
0001
0000
0000
0000
,
0001
0000
0100
0000
0001
0010
0001
0000
,
1000
0000
0100
0000
0010
0001
0010
0000
,
1000
0100
1000
0000
0001
0100
0001
0000
,
1000
0100
0001
0010
,
0100
0000
0100
0000
1000
0010
1000
0000
,
0100
0000
0010
0000
0001
0100
0001
0000
,
1000
0100
0010
0000
0001
0100
0010
0000
,
1001
0110
1001
0000
,
0100
0100
0010
0010
,
0001
1000
0100
0000
1000
0001
0100
0000
,
0010
0010
0100
0100
,
0001
1000
0010
0000
0100
0001
1000
0000
,
0100
0100
0010
0010
,
0001
0100
0010
0000
1000
0100
0010
0000
,
2002
3003
2002
3003
,
2002
3003
2002
3003
,
1001
1100
1001
0101
,
1000
0100
1000
0000
0001
0100
0001
0000
,
1001
0000
0000
0000
0010
0100
0010
0000
,
1001
0000
1001
0000
0010
0100
0010
0000
,
1100
0000
0101
0000
0010
1000
0100
0000
,
0010
0001
0010
0000
0100
1000
0100
0000
,
0101
0000
0000
0000
0010
1000
0100
0000
,
0011
0000
0101
0000
0010
1000
0100
0000
,
1001
0000
0011
0000
0100
1000
0001
0000
,
0100
0010
1000
0100
0010
0000
0000
0000
,
1001
0000
0000
0000
0100
0010
0100
0000
,
1001
0000
1100
0000
0010
0001
0100
0000
,
0011
0000
1100
0000
0001
0100
0010
0000
,
1000
0100
1000
0000
0001
0100
0001
0000
,
1000
0000
1000
0000
0001
0100
0001
0000
,
1000
0000
1000
0000
0001
0010
0001
0000
,
1000
0100
1000
0000
0001
0100
0001
0000
,
1000
0010
1000
0010
0000
0000
0000
0000
,
1000
0100
0010
0001
,
1000
0010
1000
0100
,
0000
0010
0100
0010
0100
0000
1001
0000
,
0110
0000
0000
0000
,
1000
0001
0100
0010
0000
0000
0000
0000
,
1001
0000
0110
0000
,
1000
0001
0100
0010
0000
0000
0000
0000
,
1000
0001
0100
0000
,
0010
1000
0100
0010
0000
0000
0000
0000
,
1001
0000
0110
0000
,
0001
0010
0100
1000
0000
0000
0000
0000
,
1001
0000
0110
0000
,
1000
0000
0000
0000
0001
0100
0001
0000
,
1000
0000
0000
0000
0001
0100
0001
0000
,
1000
0000
0000
0000
0001
0100
0001
0000
,
1000
0000
0000
0000
0001
0100
0001
0000
,
0010
0000
0000
0000
0100
1000
0001
0000
,
0100
0000
0000
0000
0001
1000
0100
0000
,
0010
0000
0000
0000
0001
0100
0001
0000
,
1000
0000
0000
0000
0100
1000
0001
0000
,
1000
0100
1000
0000
0001
0010
0001
0000
,
1000
0010
1000
0000
0001
0100
0001
0000
,
1000
0100
1000
0000
0001
0100
0001
0000
,
0110
1001
0110
0000
,
1000
0100
1000
0000
0001
0010
0001
0000
,
1000
0010
1000
0000
0001
0100
0001
0000
,
1000
0100
1000
0000
0001
0100
0001
0000
,
0110
1001
0110
0000
,
1000
0000
1000
0000
0001
0100
0001
0000
,
1000
0000
1000
0000
0001
0010
0001
0000
,
1000
0100
1000
0000
0001
0100
0001
0000
,
1000
0010
1000
0010
0000
0000
0000
0000
,
0001
0000
0001
0000
1000
0100
1000
0000
,
0001
0000
0001
0000
1000
0010
1000
0000
,
0001
0100
0001
0000
1000
0100
1000
0000
,
0001
0010
0001
0010
0000
0000
0000
0000
,
1000
0100
0010
0001
,
1000
0010
1000
0100
,
0000
0010
0100
0010
0100
0000
1001
0000
,
0110
1000
1000
1000
,
0001
0001
0001
0001
,
1000
1000
0010
0010
,
0100
0100
0100
0001
,
1000
1000
0010
1000
,
0001
0000
1001
1001
,
0100
0010
0100
0010
,
1000
0010
1000
0010
,
0100
0001
0100
0001
,
0010
0001
0010
0001
,
1000
1000
1000
0001
,
0100
0100
0001
0100
,
0010
0010
1000
0001
,
0100
0010
1000
0001
,
0100
0100
0101
0101
,
0010
0010
1010
1010
,
0100
0101
0100
1100
,
0010
0011
0010
1010
,
0100
0000
0100
0011
,
1000
0010
0100
0001
,
1000
0000
1000
1000
,
0010
0100
0001
1000
,
0010
0000
0000
0000
0010
0100
0010
0000
,
1000
0000
1000
0000
1000
0000
0001
0100
,
0010
0000
0000
0000
,
1000
0001
0000
0000
,
0100
0000
0100
0001
,
1000
0010
0100
0001
,
1000
0000
0001
0100
0010
0000
1000
0000
,
1001
1001
0000
0100
,
0010
1000
0001
0100
,
0010
0010
0100
0001
,
1000
0000
1000
0010
0100
0000
0001
0000
,
1000
0000
0010
0000
1000
0010
1000
0010
,
0100
0000
1001
0000
,
0010
0000
0000
0000
1001
0000
0100
0010
,
1000
0000
1000
0001
,
0100
0010
1000
0001
,
0100
0001
1000
0010
,
0100
0000
0001
0000
0100
0000
1000
0010
,
0100
0010
1000
0001
,
0100
0000
0001
0000
0100
0001
0100
0001
,
1000
0000
0110
0000
,
0001
0000
0000
0000
0110
0000
1000
0001
,
0100
0000
0000
0000
0100
0010
0100
0010
,
1000
0000
1000
1000
,
0001
0000
0000
0000
,
0001
0000
1000
0001
,
0100
0000
0000
0000
,
0100
0000
0010
0100
,
0001
0000
0100
0010
,
1000
0000
0001
0100
,
0010
0000
0010
1000
,
0001
1000
0001
0001
,
1000
0000
0000
0010
0000
0000
0100
0000
0001
0000
0000
0010
0000
0000
0100
0000
,
1000
0000
0000
0010
0000
0000
0100
0000
0001
0000
0000
0000
0000
0000
0000
0000
,
0100
0000
0100
0000
0000
0010
0100
0000
,
0001
0000
0001
0000
0000
1000
0001
0000
,
0001
0000
0000
0100
0000
0000
0010
0000
1000
0000
0000
0100
0000
0000
0010
0000
,
0001
0000
0000
0100
0000
0000
0010
0000
1000
0000
0000
0000
0000
0000
0000
0000
,
0010
0000
0010
0000
0000
0100
0010
0000
,
1000
0000
1000
0000
0000
0001
1000
0000
,
0010
0000
0000
0010
1000
0000
0000
1000
,
0100
0000
0000
0100
0010
0000
0000
0010
,
0001
0000
0000
0001
0100
0000
0000
0100
,
0010
0000
0000
0010
1000
0000
0000
1000
,
0010
0000
0000
0010
0000
0000
0010
0000
1000
0000
0000
1000
0000
0000
1000
0000
,
0100
0000
0000
0100
0000
0000
0100
0000
0010
0000
0000
0010
0000
0000
0010
0000
,
0001
0000
0000
0001
0000
0000
0001
0000
0100
0000
0000
0100
0000
0000
0100
0000
,
0010
0000
0000
0010
0000
0000
0010
0000
1000
0000
0000
1000
0000
0000
1000
0000
,
1000
0000
0000
0100
0000
0000
1000
0000
0001
0000
0000
0100
0000
0000
0010
0000
,
1000
0000
0000
0100
0000
0000
0010
0000
0001
0000
0000
0000
0000
0000
0000
0000
,
0001
0000
1000
0000
0000
0001
0100
0000
,
0001
0000
1000
0000
0000
0100
0010
0000
,
0001
0000
0000
0010
0000
0000
0001
0000
1000
0000
0000
0010
0000
0000
0100
0000
,
0001
0000
0000
0010
0000
0000
0100
0000
1000
0000
0000
0000
0000
0000
0000
0000
,
1000
0001
1000
0001
,
1010
0000
1010
0000
0010
1000
0100
0000
,
0001
0000
0001
0000
0001
1000
0100
0000
,
1000
0000
1000
0000
1000
0001
0100
0000
,
0001
0000
0001
0000
0001
1000
0100
0000
,
1000
0000
1000
0000
1000
0001
0100
0000
,
0010
0000
0010
1000
0100
0010
0001
0000
,
0010
0000
0010
0001
0100
0010
1000
0000
,
0001
0000
0001
0100
0010
1000
0100
0000
,
1000
0000
1000
0100
0010
0001
0100
0000
,
0010
0000
1001
0000
0010
1000
0100
0000
,
1000
0000
0101
0000
0001
1000
0100
0000
,
0010
0000
1001
0000
0010
0001
0100
0000
,
0001
0000
1100
0000
1000
0001
0100
0000
,
0010
0000
1000
0100
0010
0001
0100
0000
,
0010
0000
0001
0100
0010
1000
0100
0000
,
1000
0000
0001
0100
0010
1000
0100
0000
,
0001
0000
1000
0100
0010
0001
0100
0000
,
0101
1000
1100
0001
,
0101
1000
1100
0001
,
0110
1000
0110
0001
,
0110
1000
0110
0001
,
0001
0010
0100
1100
,
1000
0010
0100
0101
,
0001
1000
0100
1100
,
1000
0001
0100
0101
,
1000
0000
0000
0010
0000
0000
0100
0000
0001
0000
0000
0010
0000
0000
0100
0000
,
1000
0000
0000
0010
0000
0000
0100
0000
0001
0000
0000
0000
0000
0000
0000
0000
,
0100
0000
0100
0000
0000
0010
0100
0000
,
0001
0000
0001
0000
0000
1000
0001
0000
,
0001
0000
0000
0100
0000
0000
0010
0000
1000
0000
0000
0100
0000
0000
0010
0000
,
0001
0000
0000
0100
0000
0000
0010
0000
1000
0000
0000
0000
0000
0000
0000
0000
,
0010
0000
0010
0000
0000
0100
0010
0000
,
1000
0000
1000
0000
0000
0001
1000
0000
,
0010
1000
0000
0001
0100
0000
0010
1000
,
0100
1000
0100
1000
0100
1000
0100
0000
,
0010
0000
0000
1000
0000
0000
0100
0000
0010
0000
0000
0001
0000
0000
0100
0000
,
0101
0000
0101
0000
0000
1001
0000
0000
,
1100
0000
0000
0000
;

//---------------dance-single - ----------------
#NOTES:
     dance-single:
     :
     Hard:
     8:
     0.583,0.827,0.367,0.030,0.126: // measure 1
0000
0000
0000
0000
,  // measure 2
0000
0000
0000
0000
,  // measure 3
0000
0000
0000
0000
,  // measure 4
0000
0000
0000
0000
1000
0001
1000
0000
,  // measure 5
0010
0000
0000
0010
0000
0000
0010
0000
0000
0000
0100
0000
0001
0000
0010
0000
,  // measure 6
0100
0000
0000
0100
0000
0000
0100
0000
0000
0000
1000
0000
0001
0000
0100
0000
,  // measure 7
0010
0000
0000
0010
0000
0000
0010
0000
0000
0000
1000
0000
0100
0000
0010
0000
,  // measure 8
0001
0000
0000
0001
0000
0000
0001
0000
0000
0000
1000
0000
0010
0000
0100
0000
,  // measure 9
0001
0000
0000
1000
0000
0000
0100
0000
0000
0000
0010
0000
0001
0000
0100
0000
,  // measure 10
0010
0000
0000
1000
0000
0000
0100
0000
0000
0000
0010
0000
0001
0000
1000
0000
,  // measure 11
0010
0000
0000
0100
0000
0000
0001
0000
0000
0000
1000
0000
0100
0000
0010
0000
,  // measure 12
0001
0000
0000
1000
0000
0000
0010
0000
0000
0000
0100
0000
0001
0000
0000
0000
,  // measure 13
0000
0000
1000
0000
0000
0010
0000
0000
0100
0000
0000
0100
0000
0000
0001
0000
,  // measure 14
0000
0000
0010
0000
0000
0100
0000
0000
1000
0000
0000
1000
0000
0000
0001
0000
,  // measure 15
0000
0000
0100
0000
0000
0010
0000
0000
1000
0000
0000
1000
0000
0000
0100
0000
,  // measure 16
0000
0000
0010
0000
0000
0001
0000
0000
0100
0000
0000
0100
0000
0000
0010
0000
,  // measure 17
0000
0000
1000
0000
0000
0100
0000
0000
0010
0000
0000
0010
0000
0000
0001
0000
,  // measure 18
0000
0000
0100
0000
0000
0010
0000
0000
1000
0000
0000
1000
0000
0000
0100
0000
,  // measure 19
0000
0000
0010
0000
0000
0001
0000
0000
1000
0000
0000
1000
0000
0000
0100
0000
,  // measure 20
0000
0000
0010
0000
0000
0001
0000
0000
1000
0000
0000
0000
0000
0000
0000
0000
,  // measure 21
1001
0000
1001
0000
0000
1100
0000
0000
,  // measure 22
0011
0000
0011
0000
0000
0101
0000
0000
,  // measure 23
1010
0000
1010
0000
0000
1100
0000
0000
,  // measure 24
1001
0000
1001
0000
0000
0110
0000
0000
,  // measure 25
1000
0000
0001
0000
0010
0100
0000
0000
1000
0000
0000
0001
0000
0000
0100
0000
,  // measure 26
0010
0000
1000
0000
0100
0010
0000
0000
0001
0000
0000
1000
0000
0000
0010
0000
,  // measure 27
0100
0000
0001
0000
1000
0100
0000
0000
0010
0000
0000
0001
0000
0000
0100
0000
,  // measure 28
0010
0000
1000
0000
0001
0010
0000
0000
0100
0000
0000
1000
0000
0000
0001
0000
,  // measure 29
0100
0000
0010
0000
1000
0100
0000
0000
0010
0000
0000
0001
0000
0000
0100
0000
,  // measure 30
0010
0000
1000
0000
0100
0010
0000
0000
0001
0000
0000
1000
0000
0000
0010
0000
,  // measure 31
0100
0000
0001
0000
0010
0100
0000
0000
1000
0000
0000
0010
0000
0000
0100
0000
,  // measure 32
0001
0000
1000
0000
0100
0010
0000
0000
0001
0000
0000
0100
0000
0000
0010
0000
,  // measure 33
1000
1000
1000
0100
0010
0001
1000
0010
,  // measure 34
0100
0001
1000
0100
0010
0001
0100
0000
,  // measure 35
1001
0000
0000
1001
0000
0000
1001
0000
0000
0000
0100
0000
0010
0000
0001
0000
,  // measure 36
1001
0000
0000
1001
0000
0000
1001
0000
0000
0000
0100
0000
0010
0000
0001
0000
,  // measure 37
0101
0000
0000
0101
0000
0000
0101
0000
0000
0000
0010
0000
1000
0000
0100
0000
,  // measure 38
0110
0000
0000
0110
0000
0000
0110
0000
0000
0000
0001
0000
1000
0000
0100
0000
,  // measure 39
0110
0000
0000
0110
0000
0000
0110
0000
0000
0000
0001
0000
0100
0000
0010
0000
,  // measure 40
1010
0000
0000
1010
0000
0000
1010
0000
0000
0000
0100
0000
0010
0000
0001
0000
,  // measure 41
1001
0000
0000
1001
0000
0000
1001
0000
0000
0000
0100
0000
0010
0000
0001
0000
,  // measure 42
0101
0000
0000
0101
0000
0000
0101
0000
0000
0000
0010
0000
1000
0000
0100
0000
,  // measure 43
0011
0000
0000
0101
0000
0000
1001
0000
0000
0000
1100
0000
1100
0000
1100
0000
,  // measure 44
1001
0000
0000
0101
0000
0000
1010
0000
0000
0000
1100
0000
1100
0000
1100
0000
,  // measure 45
0011
0000
0000
0101
0000
0000
1001
0000
0000
0000
1010
0000
1010
0000
1010
0000
,  // measure 46
1100
0000
0000
1001
0000
0000
0101
0000
0000
0000
0110
0000
0110
0000
0110
0000
,  // measure 47
1001
0000
0000
1100
0000
0000
0101
0000
0000
0000
1010
0000
1010
0000
1010
0000
,  // measure 48
0110
0000
0000
0101
0000
0000
1100
0000
0000
0000
0011
0000
0011
0000
0011
0000
,  // measure 49
1100
0000
0000
1001
0000
0000
0110
0000
0000
0000
1001
0000
1001
0000
1001
0000
,  // measure 50
0110
0000
0000
0101
0000
0000
0011
0000
0000
0000
1100
0000
0101
0000
0000
0000
,  // measure 51
1001
0000
0000
0000
0010
0100
1000
0001
,  // measure 52
0100
0000
0100
0000
0010
1000
0100
0010
,  // measure 53
0001
0000
0001
0000
1000
0010
0100
0001
,  // measure 54
1000
0100
0010
0001
0100
0010
1000
0100
,  // measure 55
0010
0000
0000
0000
0001
1000
0100
0010
,  // measure 56
0001
0000
0100
0000
0010
1000
0100
0010
,  // measure 57
0001
0000
1000
0000
0010
0100
0001
1000
,  // measure 58
0100
0010
0001
0100
0010
0000
1001
0000
,  // measure 59
0110
0000
0000
0000
1000
0001
0100
0010
,  // measure 60
1000
0000
0100
0000
0010
0001
0100
0010
,  // measure 61
1000
0000
0001
0000
0010
0100
1000
0001
,  // measure 62
0100
0010
1000
0001
0010
0100
1000
0001
,  // measure 63
0100
0000
0000
0000
0010
1000
0100
0010
,  // measure 64
0001
0000
0100
0000
0010
1000
0100
0010
,  // measure 65
0001
0000
1000
0000
0010
0100
0001
0010
,  // measure 66
0100
1000
0001
0100
0010
0000
1001
0000
,  // measure 67
0010
0100
0001
1000
0100
0010
0001
1000
,  // measure 68
0010
0100
0001
0010
0100
1000
0001
0000
,  // measure 69
0100
0010
1000
0000
0100
0010
0001
0000
,  // measure 70
0100
0010
0100
0010
1000
0001
1000
0001
,  // measure 71
0100
0010
1000
0100
0010
0001
1000
0010
,  // measure 72
0100
0001
1000
0100
0010
0001
0100
0000
,  // measure 73
0010
1000
0100
0000
0010
0001
0100
0000
,  // measure 74
0010
1000
0100
0010
0001
0000
0000
0000
,  // measure 75
2000
3200
0320
0032
,  // measure 76
1003
0100
0010
0001
0100
0010
1000
0000
,  // measure 77
0002
0203
0320
2030
,  // measure 78
3001
0100
0010
1000
0100
0010
0001
0000
,  // measure 79
2000
3200
0320
0032
,  // measure 80
1003
0100
0010
0001
0100
0010
1000
0001
,  // measure 81
0100
0000
0000
0001
0100
0000
0000
0001
,  // measure 82
0100
0000
0000
0001
0100
0000
0000
0001
,  // measure 83
0100
0001
0010
0001
0100
0001
0010
0001
,  // measure 84
0100
0010
1000
0100
0010
0001
0100
0010
,  // measure 85
0100
0000
0000
0000
0001
1000
0100
0010
,  // measure 86
0001
0000
0001
0000
1000
0010
0100
0001
,  // measure 87
1000
0000
0100
0000
0010
0001
0100
0010
,  // measure 88
1000
0100
0010
0001
0100
0010
1000
0100
,  // measure 89
0010
0000
0000
0000
0001
1000
0100
0010
,  // measure 90
0001
0000
1000
0000
0010
0100
0001
0010
,  // measure 91
0100
0000
1000
0000
0001
0100
0010
1000
,  // measure 92
0100
0010
0001
1000
0100
0000
0101
0000
,  // measure 93
1100
0000
0000
0000
0001
0100
0010
1000
,  // measure 94
0100
0000
0010
0000
0001
1000
0100
0010
,  // measure 95
0001
0000
0100
0000
0010
1000
0100
0010
,  // measure 96
0001
0100
0010
1000
0100
0010
0001
0100
,  // measure 97
0010
0000
0000
0000
1000
0100
0010
0001
,  // measure 98
1000
0000
0010
0000
0100
0001
0010
0100
,  // measure 99
1000
0000
0001
0000
0100
0010
1000
0100
,  // measure 100
0010
0001
0100
0010
1000
0100
0010
0001
,  // measure 101
0100
0010
1000
0010
0000
1000
1000
1000
,  // measure 102
0000
0001
1000
0001
,  // measure 103
0000
0010
0100
1000
0001
0100
0010
1000
,  // measure 104
0001
0000
0000
0000
,  // measure 105
1001
0000
1100
0000
0001
0100
0001
0000
,  // measure 106
0010
0100
0010
0000
0001
1000
0100
0000
,  // measure 107
1001
0000
0101
0000
1000
0100
1000
0000
,  // measure 108
0010
0100
0001
0010
0100
0000
0000
0000
,  // measure 109
1001
0000
1100
0000
0001
0100
0001
0000
,  // measure 110
0010
0100
0010
0000
0001
1000
0100
0000
,  // measure 111
1001
0000
0101
0000
1000
0100
1000
0000
,  // measure 112
0010
0100
0001
0010
0100
0000
0000
0000
,  // measure 113
1000
0100
1000
0100
1000
0001
1000
0000
,  // measure 114
0010
1000
0010
0000
0100
0001
0100
0000
,  // measure 115
0010
0100
0010
0100
0010
0100
0001
1000
,  // measure 116
0001
1000
0100
1000
1000
0000
0000
0000
,  // measure 117
1000
0100
1000
0100
1000
0001
1000
0000
,  // measure 118
0010
1000
0010
0000
0100
0001
0100
0000
,  // measure 119
0010
0100
0010
0100
0010
0100
0001
1000
,  // measure 120
0001
1000
0100
1000
1000
0000
0000
0000
,  // measure 121
1000
0100
1000
0001
0001
0100
0001
0000
,  // measure 122
1000
0100
0010
0000
0001
0100
0010
0000
,  // measure 123
1000
0001
0100
0010
1000
0010
1000
0010
,  // measure 124
1000
0001
1000
0001
0001
0000
0000
0000
,  // measure 125
1000
0100
1000
0001
0001
0100
0001
0000
,  // measure 126
1000
0100
0010
0000
0001
0100
0010
0000
,  // measure 127
1000
0001
0100
0010
1000
0010
1000
0010
,  // measure 128
1000
0001
1000
0001
0001
0000
0000
0000
,  // measure 129
1000
0000
0100
0000
1000
0000
0001
0010
,  // measure 130
0001
0100
0001
0100
0001
0000
0100
0001
,  // measure 131
1000
0100
1000
0100
1000
0000
0100
1000
,  // measure 132
0001
0010
0001
0010
0000
0000
0000
0000
,  // measure 133
0100
0000
0100
0000
0100
0000
1000
0001
,  // measure 134
1000
0100
1000
0010
1000
0000
0001
0010
,  // measure 135
0001
0100
0001
0100
0001
0000
1000
0100
,  // measure 136
0010
0001
0010
0001
0000
0000
0000
0000
,  // measure 137
0001
0100
0010
1000
,  // measure 138
0001
1000
0010
0100
,  // measure 139
0010
1000
0001
0100
,  // measure 140
0010
0100
0001
1000
,  // measure 141
0001
0000
0100
0010
1000
0000
0001
0000
,  // measure 142
0100
0000
0010
1000
0001
0100
0010
0000
,  // measure 143
1000
0000
0001
0100
0010
1000
0001
0100
,  // measure 144
0010
0000
1000
0000
,  // measure 145
0001
0000
0101
1100
,  // measure 146
1000
0010
1000
0010
0100
0001
0100
0001
,  // measure 147
1000
0100
1000
0100
0010
0001
0010
0001
,  // measure 148
1000
1001
0000
0100
,  // measure 149
0010
0000
1000
0000
0001
0000
0100
0010
,  // measure 150
1000
0000
0000
0000
0001
0000
0100
0010
,  // measure 151
1000
0001
1000
0010
1000
0010
1000
0001
,  // measure 152
0100
0000
0100
0010
,  // measure 153
1000
0000
0001
0000
0100
0010
1000
0000
,  // measure 154
1000
0000
0000
0000
0010
0000
0100
0001
,  // measure 155
1000
0010
0100
0001
1000
0010
0100
0000
,  // measure 156
0001
0000
1000
0001
,  // measure 157
0100
0000
0000
0000
0100
0000
0010
1000
,  // measure 158
0001
0000
0000
0000
1000
0100
1000
0010
,  // measure 159
0100
0000
0010
0000
0100
0000
0001
1000
,  // measure 160
0010
0000
0100
0001
,  // measure 161
1000
0000
0010
0000
0100
0001
1000
0010
,  // measure 162
0100
0000
0010
1000
,  // measure 163
0001
0000
0100
0000
0010
0100
0010
0100
,  // measure 164
0001
0000
0000
0001
,  // measure 165
1000
0000
1000
1001
,  // measure 166
0100
0010
1000
0001
,  // measure 167
0100
0000
0100
0000
0100
0010
1000
0001
,  // measure 168
0100
0000
1001
1000
0010
0100
0001
0000
,  // measure 169
1000
0000
0000
1001
,  // measure 170
0100
1001
0010
1001
,  // measure 171
0100
0010
0100
0010
1000
0010
1000
0010
,  // measure 172
0100
0000
0101
0000
0100
0000
1100
1000
,  // measure 173
0001
0000
0100
0010
,  // measure 174
1001
0100
0010
0100
,  // measure 175
1001
0000
0010
0000
0100
0000
0010
0100
,  // measure 176
0001
1000
0010
0100
,  // measure 177
0001
0000
0100
0000
0010
1000
0010
1000
,  // measure 178
0001
0110
1000
0110
,  // measure 179
1000
0100
1000
0100
0010
0001
0010
0001
,  // measure 180
0100
0000
0101
0000
0010
0000
1010
1000
,  // measure 181
0001
0000
0100
0010
,  // measure 182
1001
0100
0010
0100
,  // measure 183
1001
0000
0010
0000
0100
0000
0010
0100
,  // measure 184
0001
1000
0010
0100
,  // measure 185
0001
0000
0100
0000
0010
1000
0010
1000
,  // measure 186
0001
0000
0000
0000
0001
0100
0001
0100
,  // measure 187
0010
0000
0000
0000
1000
0010
1000
0010
,  // measure 188
0100
0000
0000
0000
0001
1000
0001
1000
,  // measure 189
0010
0000
0000
0000
0100
0001
0100
0001
,  // measure 190
1000
0000
0010
0000
0100
0001
1000
0010
,  // measure 191
0100
0000
0100
0000
0001
1000
0010
0100
,  // measure 192
0001
0000
1000
0000
0010
1000
0001
0100
,  // measure 193
0010
0010
1001
1001
,  // measure 194
0010
0000
0000
1000
0000
0000
1100
0000
1000
0000
0000
0001
0000
0000
0101
0000
,  // measure 195
0010
0000
0000
1000
0000
0000
0001
0000
0101
0000
0000
0000
0000
0000
0000
0000
,  // measure 196
0001
1000
0001
1000
0010
1000
0100
0000
,  // measure 197
1000
0001
1000
0001
0010
0001
0100
0000
,  // measure 198
1000
0000
0000
0100
0000
0000
0110
0000
1000
0000
0000
0001
0000
0000
0101
0000
,  // measure 199
1000
0000
0000
0001
0000
0000
0100
0000
0110
0000
0000
0000
0000
0000
0000
0000
,  // measure 200
0010
1000
0001
0010
0100
0010
0001
0000
,  // measure 201
0010
0001
1000
0010
0100
0010
1000
0000
,  // measure 202
0010
0000
0000
1000
0000
0000
0100
0000
0001
0000
0000
1000
0000
0000
0100
0000
,  // measure 203
0010
0000
0000
0001
0000
0000
0100
0000
1000
0000
0000
0001
0000
0000
0100
0000
,  // measure 204
0001
0000
0000
0100
0000
0000
0010
0000
0001
0000
0000
1000
0000
0000
0100
0000
,  // measure 205
1000
0000
0000
0010
0000
0000
0100
0000
1000
0000
0000
0100
0000
0000
0010
0000
,  // measure 206
1000
0000
0001
1000
0000
0001
1000
0000
0100
0000
0010
0100
0000
0010
0100
0000
,  // measure 207
1000
0000
0100
1000
0000
0100
1000
0000
0001
0000
0100
0001
0000
0100
0001
0000
,  // measure 208
0010
0000
0001
0010
0000
0001
0010
0000
0100
0000
1000
0100
0000
1000
0100
0000
,  // measure 209
1000
0000
0001
1000
0000
0001
1000
0000
0110
0000
0000
0000
0110
0000
0000
0000
,  // measure 210
1000
0010
1000
0100
1000
0010
1000
0100
,  // measure 211
0001
0010
0001
0100
0001
0010
0001
0100
,  // measure 212
1000
0001
1000
0100
1000
0001
1000
0100
,  // measure 213
0001
1000
0001
0100
0001
1000
0001
0100
,  // measure 214
0010
1000
0010
0001
0010
1000
0010
0001
,  // measure 215
0100
1000
0100
0001
0100
1000
0100
0001
,  // measure 216
1000
0010
1000
0001
1000
0100
1000
0010
,  // measure 217
1000
0001
1000
0000
0101
0000
1001
0000
,  // measure 218
0010
0000
0000
1000
0000
0000
0100
0000
1000
0000
0000
0000
0000
0000
0100
0000
,  // measure 219
0100
0000
1000
0000
0001
0000
0000
0000
0101
0000
0000
1001
0000
0000
0000
0000
,  // measure 220
0010
0000
0000
0001
0000
0000
0100
0000
0001
0000
0000
0000
0000
0000
0100
0000
,  // measure 221
0100
0000
0001
0000
1000
0000
0000
0100
0000
0000
0010
0000
0101
0000
0000
0000
,  // measure 222
0100
0000
0000
1000
0000
0000
0010
0000
1000
0000
0000
0000
0000
0000
0001
0000
,  // measure 223
0001
0000
1000
0000
0001
0000
0000
0000
0011
0000
0000
1001
0000
0000
0000
0000
,  // measure 224
0100
0000
0000
0001
0000
0000
0010
0000
0001
0000
0000
0000
0000
0000
1000
0000
,  // measure 225
1000
0000
0001
0000
1000
0000
0000
0000
0010
0000
0000
0100
0000
0000
1001
0000
,  // measure 226
0010
0100
0001
0100
0010
0100
0001
0100
,  // measure 227
0010
0001
1000
0001
0100
0001
1000
0001
,  // measure 228
0100
0010
1000
0010
0001
0010
1000
0010
,  // measure 229
0001
1000
0100
1000
0010
1000
0100
1000
,  // measure 230
0010
0100
0010
0100
1000
0100
0010
0100
,  // measure 231
1000
0010
1000
0010
0100
0010
1000
0010
,  // measure 232
0100
0001
1000
0001
0010
0001
1000
0001
,  // measure 233
0010
1000
0100
1000
0001
1000
0100
1000
,  // measure 234
0001
0010
1000
0010
0001
0010
1000
0010
,  // measure 235
0100
0001
1000
0001
0010
0001
1000
0001
,  // measure 236
0010
0100
0001
0100
0010
0100
0001
0100
,  // measure 237
0010
1000
0100
1000
0001
1000
0100
1000
,  // measure 238
0001
0010
0100
0010
0001
0010
0100
0010
,  // measure 239
0001
1000
0100
1000
0010
1000
0100
1000
,  // measure 240
0010
0001
1000
0001
0100
0001
1000
0001
,  // measure 241
0100
0010
0001
0010
1000
0010
1001
0000
,  // measure 242
0010
0000
0000
1000
0000
0000
1100
0000
1000
0000
0000
0001
0000
0000
0101
0000
,  // measure 243
0010
0000
0000
1000
0000
0000
0001
0000
0101
0000
0000
0000
0000
0000
0000
0000
,  // measure 244
0001
1000
0001
1000
0010
1000
0100
0000
,  // measure 245
1000
0001
1000
0001
0010
0001
0100
0000
,  // measure 246
1000
0000
0000
0100
0000
0000
0110
0000
1000
0000
0000
0001
0000
0000
0101
0000
,  // measure 247
1000
0000
0000
0001
0000
0000
0100
0000
0110
0000
0000
0000
0000
0000
0000
0000
,  // measure 248
0010
1000
0001
0010
0100
0010
0001
0000
,  // measure 249
0010
0001
1000
0010
0100
0010
1000
0000
,  // measure 250
1001
1001
0000
1100
1100
0000
0010
0001
,  // measure 251
0100
0001
1000
0100
0010
0001
0100
0000
,  // measure 252
0010
0000
0000
1000
0000
0000
1000
0000
0001
0000
0000
0100
0000
0000
0100
0000
,  // measure 253
1001
0000
0000
0000
1001
0000
0000
0000
0000
0000
0010
0000
0000
0000
1000
0001
,  // measure 254
1000
0000
0000
0000
;
