#TITLE:MAGICAL RUSH Mix;
#SUBTITLE:(DDR EXTREME);
#ARTIST:Tony the TGR;
#TITLETRANSLIT:;
#SUBTITLETRANSLIT:;
#ARTISTTRANSLIT:;
#CREDIT:;
#BANNER:DDREX1.png;
#BACKGROUND:DDREX1-bg.png;
#LYRICSPATH:;
#CDTITLE:./CDTITLES/DANCE DANCE REVOLUTION EXTREME.PNG;
#MUSIC:DDREX1.ogg;
#OFFSET:-0.349;
#SAMPLESTART:83.560;
#SAMPLELENGTH:20.000;
#SELECTABLE:YES;
#BPMS:0.000=174.800,284.000=174.500,468.000=179.600,720.000=359.998,736.000=174.599,772.000=167.899,804.000=168.599,836.000=169.800;
#STOPS:;
#BGCHANGES:;

//---------------dance-single - ----------------
#NOTES:
     dance-single:
     :
     Easy:
     4:
     0.326,0.472,0.209,0.060,0.000:
0000
0000
0000
0000
,
0000
0000
0000
0000
,
0000
1000
0000
0001
,
0001
0001
0100
0000
,
1000
1000
0100
0000
,
0001
0001
0100
0000
,
1000
1000
0100
0000
,
0010
0001
0100
1000
,
1000
0000
1000
0000
,
0010
0000
0010
0000
,
0001
0000
0001
0000
,
0100
0000
0100
0000
,
1000
0000
1000
0000
,
0010
0000
0010
0000
,
0001
0000
0001
0000
,
0100
0000
0100
0000
,
1000
0100
1000
0100
,
0001
0100
0001
0100
,
1000
0100
1000
0100
,
0001
0100
0001
0100
,
0001
0001
1000
1000
,
0001
0001
1000
1000
,
0001
0010
1000
0100
,
0001
0010
1000
0000
,
1000
0100
1001
0000
,
0010
0010
0100
0000
,
0010
0010
0100
0000
,
0001
0100
1001
0000
,
1000
0100
1001
0000
,
0010
0010
0100
0000
,
0010
0010
0100
0000
,
0001
0100
1001
0000
,
1001
0100
1001
0100
,
1000
0001
1001
0000
,
0010
0001
0100
1000
,
0010
0001
1001
0000
,
1001
0100
1001
0100
,
1000
0001
1001
0000
,
0010
0001
0100
1000
,
0010
0001
1001
0000
,
0000
1000
0000
1000
,
0000
0001
0000
0001
,
0000
1000
0000
1000
,
0001
0001
0001
0001
,
1000
0000
1000
0000
,
0001
0000
0001
0000
,
1000
0000
1000
0000
,
0001
0000
0001
0000
,
0002
0000
0000
0003
,
2000
0000
0000
3000
,
0001
0001
0100
0100
,
1000
1000
1001
0000
,
0002
0000
0000
0003
,
2000
0000
0000
3000
,
0001
0001
0100
0100
,
1000
1000
1001
0000
,
0020
0000
0000
0030
,
0200
0000
0000
0300
,
0010
0010
0001
0001
,
0100
0100
1001
0000
,
0020
0000
0000
0030
,
0200
0000
0000
0300
,
0010
0010
0001
0001
,
0100
0100
1001
0000
,
0001
0001
1000
1000
,
0001
0001
1000
1000
,
0010
1000
0100
0001
,
0010
1000
0100
0001
,
1000
1001
0001
1001
,
0010
0100
0010
1001
,
0010
0100
0010
1001
,
0010
0000
0100
0000
,
1000
1000
0001
0001
,
0100
0000
0010
0000
,
0001
0001
1000
1000
,
0001
0000
0001
0000
,
2000
0000
3000
0000
,
0002
0000
0003
0000
,
1000
0000
0001
0000
,
0010
0010
0100
0100
,
0001
0000
1000
0000
,
0100
0100
0010
0010
,
1000
0000
1000
0000
,
0200
0000
0300
0000
,
0020
0000
0030
0000
,
2000
0000
3000
0000
,
0002
0000
0003
0000
,
0000
0100
0000
0100
,
0001
1000
0100
0000
,
0000
0010
0000
0010
,
1000
0001
0010
0000
,
0000
1000
0000
1000
,
0001
0100
0001
0100
,
0000
0001
0000
0001
,
1000
0010
1000
0010
,
1001
0000
1001
0000
,
0010
0010
0100
0000
,
1000
0001
1000
0001
,
0100
0100
0010
0000
,
0001
1000
0001
1000
,
0010
0000
0010
0000
,
0002
0000
0003
0000
,
0200
0000
0300
0000
,
0001
0001
1000
0000
,
0001
0100
0001
0100
,
1000
1000
0010
0000
,
0001
0010
0001
0010
,
0100
0000
0100
0000
,
2000
0000
3000
0000
,
0020
0000
0030
0000
,
0001
0000
0001
0000
,
1000
0010
0001
0010
,
1000
0000
1000
0000
,
0001
0010
1000
0010
,
0100
0000
0010
0000
,
1000
1000
0000
0000
,
0001
0001
0000
0000
,
0010
0000
0010
0000
,
0100
1000
0010
1000
,
0100
0000
0100
0000
,
0010
0001
0100
0001
,
1000
0000
0001
0000
,
0010
0010
0000
0000
,
0100
0100
0000
0000
,
0010
0100
0010
1001
,
1000
0000
0100
0000
,
0010
0000
0001
0000
,
0010
0000
0100
0000
,
1000
0000
0001
0000
,
0001
0000
0100
0000
,
0010
0000
1000
0000
,
0100
0000
0010
0000
,
0001
0000
1000
1001
,
0001
0000
0100
0000
,
0010
0000
1000
0000
,
0010
0000
0100
0000
,
0001
0000
1000
0000
,
1000
0000
0100
0000
,
0010
0000
0001
0000
,
0100
0000
0010
0000
,
1000
0000
0001
1001
,
0100
0000
0100
1001
,
1000
0100
1000
0000
,
1000
0100
1000
0100
,
0001
0100
0001
0000
,
0001
0100
0001
0100
,
1000
0100
0001
0100
,
1000
0100
0001
0100
,
1000
0100
0001
0100
,
0010
0000
0100
0110
,
1000
0010
1000
0000
,
1000
0010
1000
0010
,
0001
0010
0001
0000
,
0001
0010
0001
0010
,
1000
0010
0001
0010
,
1000
0010
0001
0010
,
1000
0010
0001
0010
,
0100
0000
0010
0110
,
1000
0000
1000
1001
,
0001
0000
0001
1001
,
0100
0100
0010
0010
,
0100
0010
0100
0010
,
1000
0000
0001
1001
,
0001
0010
0100
1000
,
0100
0010
0001
1000
,
1000
0010
0100
0001
,
0010
0100
1000
0001
,
0010
0100
0010
0100
,
0001
1000
0001
1000
,
0010
0000
0010
0000
,
0110
0000
1001
1001
,
1000
0010
0100
0001
,
0100
0010
1000
0001
,
0001
0010
0100
1000
,
0010
0100
0001
1000
,
0010
0100
0010
0100
,
1000
0001
1000
0001
,
0010
0000
0010
0000
,
0110
0000
1001
1001
,
0010
0010
0010
0110
,
1001
0000
0000
0000
,
0000
0000
0000
0000
,
0000
0000
0000
0000
,
0000
0000
0010
0000
,
0001
0001
0100
1000
,
1000
0000
1001
0000
,
0010
0010
1000
0001
,
0100
0000
0110
0000
,
1000
1000
0001
0100
,
0010
0000
1001
0000
,
0100
0100
0010
1000
,
0001
0000
0110
0000
,
0200
0000
0300
0000
,
0001
0001
1000
0100
,
0010
1000
0001
0100
,
0001
0000
1000
0000
,
0100
0010
0110
0000
,
1000
1000
0001
0001
,
0100
0010
0100
0001
,
0100
0100
0010
0010
,
1000
0001
1001
0000
,
0010
0000
0010
0000
,
0001
1000
0100
0000
,
1000
0000
1000
0000
,
0010
0100
0001
0000
,
1001
0000
0100
0100
,
0110
0000
0001
0001
,
1001
0000
0010
0010
,
1000
0001
0100
0000
,
0010
0010
0010
0000
,
1000
0100
0010
0001
,
0100
0010
0100
0000
,
0001
0000
1000
0000
,
0010
0010
1000
0001
,
0100
0000
0100
0000
,
0020
0000
0030
0000
,
0001
1000
0001
1000
,
0010
0010
1000
0000
,
0001
0001
0100
0000
,
0010
0000
0100
0000
,
0001
0001
1000
0100
,
0010
0000
0010
0000
,
0100
0000
0100
0000
,
0001
1000
0010
1000
,
0010
0100
0110
0000
,
0010
0000
1000
0000
,
0010
0000
0001
0000
,
1000
0000
0100
0000
,
0001
0000
0100
0000
,
2000
0000
3000
0000
,
0002
0000
0003
0000
,
0020
0000
0030
0000
,
0100
0100
0100
0100
,
0001
0001
0001
0000
,
1000
0100
1000
0100
,
1000
0000
0001
0000
,
0100
0010
0110
0000
,
1000
0001
0001
0000
,
0010
0100
0001
0000
,
1001
0000
0000
0110
,
0000
0000
1001
0000
,
0200
0000
0300
0000
,
0001
0001
0001
0001
,
0110
0010
0010
0010
,
1001
1000
1000
1000
,
0110
0100
0100
0100
,
0001
0001
0001
0001
,
0110
0010
0010
0010
,
1001
0001
0001
0001
,
0110
0100
0100
0100
,
1000
1000
1000
0000
,
1001
0000
1001
0000
,
0110
0000
0110
0000
,
1001
0000
1001
0000
,
0110
0000
0110
0000
,
0010
0010
0010
0000
,
0100
0100
0100
0000
,
0001
0000
1000
0000
,
0010
0000
0100
0000
,
0110
0000
0110
0000
,
0001
0000
0001
0000
,
0110
0000
0110
0000
,
1000
0000
1000
0000
,
0010
0010
0010
0000
,
0100
0100
0100
0000
,
0001
0000
1000
0000
,
1001
1001
1001
0000
,
0001
0000
0100
0000
,
1000
0000
0100
0000
,
0001
0000
0100
0000
,
1000
0000
0100
0000
,
0010
0010
0010
0000
,
0100
0100
0100
0000
,
1000
0000
0001
0000
,
0010
0000
0100
0000
,
0001
0100
0100
0000
,
1000
0100
0100
0000
,
0001
0100
0100
0000
,
1000
0100
0100
0000
,
0010
0000
0100
0000
,
0001
0000
1000
0000
,
0010
0000
0100
0000
,
1001
1001
1001
0000
,
0001
0001
0001
0001
,
0110
0010
0010
0010
,
1001
1000
1000
1000
,
0110
0100
0100
0100
,
0001
0001
0001
0001
,
0110
0010
0010
0010
,
1001
0001
0001
0001
,
0110
0000
0100
0000
,
1000
0000
1000
0000
,
1001
0000
0000
0000
;

//---------------dance-single - ----------------
#NOTES:
     dance-single:
     :
     Medium:
     6:
     0.468,0.548,0.355,0.084,0.000:
0000
0000
0000
0000
,
0000
0000
0000
0000
,
0000
1000
0000
0001
,
1000
0100
0001
0001
,
0001
0100
1000
1000
,
1000
0100
0001
1001
,
0000
0100
0000
0100
,
2000
0100
0002
3003
,
2000
0000
0200
3300
,
0002
0000
0200
0303
,
2000
0000
0200
3300
,
0002
0000
0200
0303
,
0010
0000
0000
1000
0100
0000
0000
0000
,
0010
0001
0100
0000
,
1000
0010
1000
0100
,
0010
0001
0100
0000
,
1000
0000
1000
0100
,
0001
0000
0001
0100
,
1000
0000
1000
0100
,
0001
1000
0100
0001
,
0001
0000
0001
0100
,
1000
0000
1000
0100
,
0001
0010
1000
0100
,
0001
0010
1000
0000
,
1000
0000
1100
0000
,
0010
0000
0100
0000
,
0010
0000
0001
0000
,
0010
0001
0100
0000
,
0001
0001
0101
0100
,
0010
0000
0100
0000
,
0010
0000
1000
0000
,
0010
1000
0100
0000
,
1000
1100
0001
0101
,
1000
0100
0001
1001
,
0010
0001
0100
0001
,
1000
0100
1000
0010
,
0001
0101
1000
1100
,
0001
0100
1000
1001
,
0020
0000
0200
0330
,
1000
0100
0001
0000
,
0000
1000
0000
1000
,
0000
0100
0000
0100
,
0000
0001
0000
0001
,
0001
0100
1000
0100
,
0001
0000
0100
0000
,
1000
0000
0100
0000
,
0001
0000
0010
0000
,
1000
0100
0001
0000
,
0001
0000
0100
0000
,
1000
0100
0001
0000
,
0010
0001
1000
0010
,
0100
0001
1000
0000
,
1000
0000
0100
0000
,
0001
0000
0100
0000
,
1000
0100
0001
0010
,
1000
0100
0001
0001
,
0001
0000
0100
0000
,
1000
0100
0001
0000
,
0010
0001
1000
0010
,
0100
0001
1000
0000
,
1000
0000
0100
0000
,
0001
0000
0100
0000
,
1000
0100
0001
0010
,
1000
0100
0001
0001
,
0001
0101
1000
1100
,
0001
0010
1000
0100
,
0001
1001
0100
1001
,
0100
1000
0001
0100
,
0010
0000
1001
0000
0010
0001
0100
0000
,
0010
0100
0001
1000
0000
0100
0010
0000
,
0010
0100
1000
0001
0000
0100
0010
0000
,
0001
0010
1000
0010
,
0001
1000
1100
0000
,
0100
1001
0010
1001
,
0001
0010
0100
1000
,
0100
0010
0110
0000
,
0001
1000
0010
1000
0000
0000
0100
0000
,
1000
0001
0010
0001
0000
0000
0100
0000
,
1000
0100
0001
0100
,
1000
0001
0011
0000
,
0010
1001
0100
1001
,
1000
0100
0010
0001
,
0100
0010
0110
0000
,
0010
0100
0010
0100
0000
0000
1000
0000
,
0001
1000
0001
1000
0000
0000
0010
0000
,
0100
0010
0100
0010
0000
0000
0001
0000
,
1000
0001
1000
0001
0000
0000
0100
0000
,
0000
0001
0000
0010
0000
1000
0000
0010
,
1000
1001
0101
0000
,
0000
1000
0000
0010
0000
0001
0000
0010
,
0001
1001
1100
0000
,
0000
0100
0000
0001
0000
0010
0000
1000
,
0001
0110
1001
0000
,
0000
0100
0000
1000
0000
0010
0000
0001
,
2000
0000
0002
3003
,
0100
0010
1000
0001
,
0001
0100
1000
0100
,
0001
0000
1000
0010
1000
0000
0000
0000
,
0010
1001
0100
1001
,
0001
0100
0010
1000
,
0010
1000
1001
0000
,
0001
1000
0100
0010
0000
0000
0001
0000
,
1000
0001
0010
0100
0000
0000
1000
0000
,
1000
0010
0001
0010
,
1000
0000
0001
0100
0001
0000
0000
0000
,
0100
1001
0010
1001
,
1000
0010
0100
0001
,
0100
0001
1001
0000
,
0001
1000
0010
0100
0000
0000
0001
0000
,
1000
0001
0010
0100
0000
0000
1000
0000
,
0001
0101
1000
1100
,
0010
0100
0110
0000
,
1000
0001
0010
0001
,
0010
0100
1000
0000
0001
0000
0100
0000
,
0010
1000
0100
0000
,
1000
0100
1000
0010
0000
0000
1001
0000
,
0001
0100
0001
0010
0000
0000
1001
0000
,
1000
1010
0001
0011
,
1000
0001
1001
0000
,
0010
0100
0001
1000
,
0010
0100
0001
0000
1000
0000
0100
0000
,
0010
0001
0100
0000
,
0010
1000
0010
0100
0000
0000
0110
0000
,
0100
0001
0100
0010
0000
0000
0110
0000
,
0010
1001
0100
1001
,
0010
1000
0010
1010
,
0100
0001
0100
0101
,
0010
1000
0100
0001
,
0010
0001
0100
1001
,
0100
0001
0100
1000
,
0100
0001
0100
1001
,
1000
1100
0001
0101
,
0010
1000
0010
0000
1010
0000
1001
0000
,
0100
0001
0100
0101
,
0010
1000
0010
1010
,
0100
0001
0010
1000
,
0100
1000
0010
1001
,
0010
1000
0010
0001
,
0010
1000
0010
1001
,
0001
0011
1000
1010
,
0100
0001
0100
0000
0101
0000
1001
0000
,
0100
0100
0100
0110
,
0001
0100
0001
0000
0100
0000
0100
0000
,
0010
1000
0001
1000
,
1000
0100
1000
0000
0100
0000
0100
0000
,
0010
0001
1000
1001
,
0100
1000
0100
1000
,
0100
0001
0100
0001
,
0010
1000
0010
1000
,
0010
0001
0010
1001
,
0001
0010
0001
0000
0010
0000
0010
0000
,
0100
1000
0001
1000
,
1000
0010
1000
0000
0010
0000
0010
0000
,
0100
0001
1000
1001
,
0010
1000
0010
1000
,
0010
0001
0010
0001
,
0100
1000
0100
1000
,
0100
0001
0100
1001
,
0100
0000
0100
0010
0100
0000
1001
0000
,
0010
0000
0010
0100
0010
0000
1001
0000
,
1000
0000
1000
0001
1000
0000
0110
0000
,
0001
0000
0001
1000
0001
0000
0110
0000
,
0000
0100
0000
0100
0000
0100
0010
0000
,
0100
0001
0100
0101
,
0010
1000
0010
1010
,
0100
0001
0010
1000
,
0100
1000
0010
1001
,
0010
1000
0010
0001
,
0010
1000
0010
1001
,
0001
0011
1000
1010
,
0100
0001
0100
0000
0101
0000
1001
0000
,
0010
1000
0010
1010
,
0100
0001
0100
0101
,
0010
1000
0100
0001
,
0010
0001
0100
1001
,
0100
0001
0100
1000
,
0100
0001
0100
1001
,
1000
1100
0001
0101
,
0010
1000
0010
0000
1010
0000
1001
0000
,
0010
0010
0010
0120
,
0000
0000
0000
0000
,
0000
0000
0000
0000
,
0000
0000
0000
0000
,
0000
0030
0100
0000
,
0001
0100
1000
0100
,
0010
0000
0001
0100
0000
0000
0001
0000
,
1000
0010
1000
0100
,
0010
0000
0100
0001
0000
0000
1000
0000
,
0010
0100
0010
1000
,
0001
1000
0010
0110
,
0001
1000
0100
1000
,
0010
0000
0100
0001
0000
0000
1000
0000
,
2002
0000
0000
3003
,
0010
0000
0010
0000
1000
0100
1000
0000
,
0010
0100
0010
0000
1000
0000
0001
0000
,
0100
0100
0010
0010
,
1000
0000
0100
0000
1000
0001
0100
0000
,
0010
0010
0100
0100
,
0001
0000
0100
0000
0010
1000
0100
0000
,
0010
0100
0001
1100
,
0100
0000
0100
0000
0100
0000
0001
0100
,
0001
1000
0010
0001
,
0100
0000
0001
0000
1000
0100
1000
0000
,
0010
0100
0001
0010
,
0001
1000
0110
0001
,
1001
1000
0010
1000
,
0110
0001
1000
0100
,
0010
0100
1100
0010
,
1000
0010
1000
0002
0000
0000
0103
0000
,
0011
0011
1000
0100
,
0010
0100
0001
0100
,
1000
0001
1001
0010
,
0100
0000
1000
0000
0100
0010
0100
0000
,
1001
0100
0010
0100
,
0110
0001
0100
0001
,
1000
0001
0100
0110
,
0010
0000
0010
0000
1000
0001
1000
0000
,
0100
0000
0100
0000
0001
0010
0001
0000
,
1000
0000
1000
0000
0010
0100
0010
0000
,
0001
0000
0001
0000
1000
0100
1000
0000
,
0010
0000
0010
0000
0100
0010
0100
0010
,
1000
0000
0001
0000
0010
0100
1000
0000
,
0001
0000
1000
0000
0010
1000
0100
0000
,
0010
0000
0001
0000
1000
0001
0100
0000
,
0001
0010
0001
0000
1000
0100
1000
0000
,
0001
0100
0000
0100
0000
0100
0000
0100
,
0000
0001
0000
0001
0000
0001
0000
0001
,
1000
0010
0000
0010
0000
0010
0000
0010
,
0000
1000
0000
1000
0000
1000
0000
1000
,
0010
0100
0000
0100
0000
0100
0000
0100
,
0001
1000
0000
1000
0000
1000
0000
1000
,
0010
0100
0000
0100
0000
0010
0000
1000
,
0001
0010
0100
0000
1000
0010
0100
0000
,
0101
0101
1000
0100
,
0010
1100
0001
0010
,
1001
0001
0100
0010
,
1000
0001
0100
0000
0100
0010
1000
0000
,
1001
1000
0100
0010
,
0110
1000
0001
1000
,
0010
0000
1000
0100
0000
0000
1000
0000
,
0001
0010
0000
0000
0100
0000
0010
0002
,
0010
1000
0103
0001
,
1000
0001
1000
0001
1000
0001
1000
0000
,
0110
0000
0010
0000
0010
1000
0100
0000
,
1001
0000
1000
0000
1000
0100
0001
0000
,
0110
0000
0100
0000
0100
0001
0010
0000
,
0001
1000
0001
1000
0001
1000
0001
0000
,
0110
0000
0010
0000
0010
0001
0100
0000
,
1001
0000
0001
0000
0001
0100
1000
0000
,
0110
0000
0100
0000
0100
1000
0010
0000
,
0100
0010
0100
0010
0100
0000
0000
0000
,
1001
0000
1100
0000
0001
0001
0000
0000
,
1001
0101
1000
0000
,
1001
0000
1100
0000
0001
0001
0000
0000
,
1001
0101
1000
0000
,
0010
1000
0100
0001
,
0010
1000
0100
0100
,
0001
0001
1000
0100
,
0001
0100
0220
0330
,
0110
0000
0101
0000
1000
1000
0000
0000
,
0110
1100
0001
0000
,
0110
0000
0101
0000
1000
1000
0000
0000
,
0110
1100
0001
0000
,
0010
1000
0100
0001
,
0010
1000
0100
0001
,
0010
0000
0100
0000
0001
1000
0100
0000
,
0002
2003
3200
0300
,
1001
0000
0010
0000
0010
1000
0100
0000
,
1100
0000
0001
0000
0100
0001
0010
0000
,
0110
0000
1000
0000
0001
0010
0100
0000
,
1100
0000
0010
0000
0001
1000
0100
0000
,
0010
0001
0100
1000
,
0010
0001
0100
0100
,
1000
1000
0001
0100
,
1000
0100
0220
0330
,
0001
0100
2000
3000
,
0100
0001
0020
0030
,
0100
1000
0002
0003
,
0001
0010
0200
0300
,
0010
0001
0100
1000
,
0010
0001
0100
1000
,
0010
0000
0010
0000
0001
1000
0100
0000
,
0010
0010
2002
3003
,
0010
0100
0010
0100
0010
0100
0010
0000
,
1000
0000
0100
0000
0010
0001
0100
0000
,
0001
0000
0100
0000
0010
1000
0100
0000
,
1000
0000
0100
0000
0010
0001
0100
0000
,
1000
0100
1000
0100
1000
0100
1000
0000
,
0101
0000
0010
0000
1000
0010
0100
0000
,
1100
0000
0010
0000
0001
0010
0100
0000
,
1001
0010
1100
0010
,
1001
0010
0101
0010
,
0220
0000
0000
0000
,
0000
0000
0000
0330
;

//---------------dance-single - ----------------
#NOTES:
     dance-single:
     :
     Hard:
     8:
     0.662,0.657,0.542,0.094,0.084: // measure 1
0000
0000
0000
0000
,  // measure 2
0000
0000
0000
0000
,  // measure 3
0100
1001
0100
1001
,  // measure 4
0010
1000
0010
0000
1001
0000
0101
0000
,  // measure 5
0120
1000
0100
1030
,  // measure 6
0201
0010
0001
0310
,  // measure 7
0100
0001
0100
0000
1001
0000
1010
0000
,  // measure 8
1100
0101
2002
3003
,  // measure 9
0100
0000
0100
0000
0010
1000
0010
0000
,  // measure 10
1001
1100
1001
0011
,  // measure 11
0100
0000
0100
0000
0010
0001
0010
0000
,  // measure 12
1001
0101
1001
1010
,  // measure 13
0001
0100
0010
0100
,  // measure 14
1000
0100
0010
0100
,  // measure 15
0010
0000
0001
0100
0001
0000
1000
0000
,  // measure 16
0001
0100
0001
1000
0100
0000
1001
0000
,  // measure 17
0100
0000
0100
0000
0010
0001
0010
0000
,  // measure 18
1001
0101
1001
1010
,  // measure 19
0100
0000
0100
0000
0010
1000
0010
0000
,  // measure 20
1001
1100
1001
0011
,  // measure 21
1000
0100
0010
0100
,  // measure 22
0001
0100
0010
0100
,  // measure 23
0010
1000
0010
0000
0100
0001
0100
0001
,  // measure 24
0000
0110
1001
0010
,  // measure 25
2200
0000
3300
0001
0010
0000
0000
0000
,  // measure 26
0202
0000
0303
1000
0010
0000
0010
0000
,  // measure 27
0102
1000
0100
1003
,  // measure 28
2010
0001
0010
3001
,  // measure 29
2020
0000
3030
0001
0100
0000
0000
0000
,  // measure 30
0022
0000
0033
1000
0100
0000
0100
0000
,  // measure 31
0010
0100
0010
0100
,  // measure 32
1100
0101
1100
0101
,  // measure 33
0010
1000
0010
0100
0000
0001
0001
0000
,  // measure 34
1000
0100
1000
0000
0010
0000
1001
0000
,  // measure 35
0010
0100
0010
1000
0000
0001
0001
0000
,  // measure 36
0101
1100
1010
0011
,  // measure 37
0010
0001
0010
0100
0000
1000
1000
0000
,  // measure 38
0001
0100
0001
0000
0010
0000
1001
0000
,  // measure 39
0120
0000
0000
0000
0100
0000
0130
0100
,  // measure 40
0000
1000
0100
1000
0100
0000
1001
0000
,  // measure 41
0011
0101
1100
1010
,  // measure 42
1100
0101
0011
1001
,  // measure 43
1100
0101
1100
0101
,  // measure 44
0010
0100
0010
0100
,  // measure 45
1010
1100
0101
0011
,  // measure 46
0101
1100
1010
1001
,  // measure 47
0010
1000
0010
0000
0001
1000
0001
0100
,  // measure 48
0010
1000
0100
0000
2002
0000
3003
0000
,  // measure 49
0200
0000
0000
0010
0310
0000
0101
0000
,  // measure 50
0020
0000
0000
0100
0130
0000
1010
0000
,  // measure 51
0001
0010
0100
1000
,  // measure 52
0001
0000
0000
0001
0000
0000
0001
0000
0100
0000
0000
0000
1001
0000
0000
0000
,  // measure 53
0010
1000
0010
1000
0001
0100
0001
0000
,  // measure 54
0010
0001
0010
0001
1000
0100
1000
0000
,  // measure 55
2010
0001
0100
3001
,  // measure 56
0012
1000
0100
1003
,  // measure 57
0200
0000
0000
0010
0310
0000
1100
0000
,  // measure 58
0020
0000
0000
0100
0130
0000
0011
0000
,  // measure 59
1000
0010
0100
0001
,  // measure 60
1000
0100
0010
0001
0100
0000
1001
0000
,  // measure 61
0010
0001
0010
0001
1000
0100
1000
0000
,  // measure 62
0010
1000
0010
1000
0001
0100
0001
0000
,  // measure 63
0012
1000
0100
1003
,  // measure 64
2010
0001
0100
3001
,  // measure 65
0020
0000
0000
0100
0130
0000
0101
0000
,  // measure 66
0020
0000
0000
0100
0130
0000
1100
0000
,  // measure 67
0010
0000
0010
0001
0100
0000
0010
1000
,  // measure 68
0100
0100
0010
0010
,  // measure 69
0110
0000
1001
0000
1000
0100
1000
0000
,  // measure 70
1000
0001
0010
0100
0000
0001
1000
0000
,  // measure 71
0001
1000
0010
0100
0000
1000
0001
0000
,  // measure 72
1000
0000
0010
0000
1001
0000
0001
1000
,  // measure 73
0000
0100
0000
0010
1010
0000
1000
0000
,  // measure 74
0001
0000
0010
0000
1001
0000
1000
0001
,  // measure 75
0010
0000
0100
0000
1100
0000
1000
1000
,  // measure 76
0001
0000
1100
0000
1000
0000
0001
0100
,  // measure 77
0001
0100
0001
0101
0000
0010
1000
0100
,  // measure 78
1000
0100
1000
1100
0000
0010
0100
0100
,  // measure 79
1000
0000
0100
0000
1001
0000
0001
1000
,  // measure 80
0000
0010
0000
0100
1100
0000
1000
0000
,  // measure 81
0001
0000
0100
0000
1001
0000
1000
0001
,  // measure 82
0100
0000
0010
0000
1010
0000
1000
1000
,  // measure 83
0001
0000
1010
0000
1000
0000
0001
0010
,  // measure 84
0001
0010
0001
0011
0000
0100
0010
0010
,  // measure 85
1000
0010
1000
1010
0000
0100
0010
0010
,  // measure 86
1000
0001
0100
0101
0000
0001
1000
0010
,  // measure 87
0100
0001
1000
1001
0000
0010
1000
0100
,  // measure 88
1000
0100
0001
0100
1000
0010
0100
0000
,  // measure 89
0001
0100
0000
0000
0001
0100
0000
0000
0001
1000
0000
0000
0001
0000
0100
0000
,  // measure 90
0001
0100
1000
0100
0001
0010
0100
0000
,  // measure 91
1000
0100
0000
0000
1000
0100
0000
0000
1000
0001
0000
0000
1000
0000
0100
0000
,  // measure 92
1000
0010
0100
0001
1000
0100
0010
0001
,  // measure 93
1000
0010
0000
0000
1000
0001
0000
0000
1000
0100
0000
0000
1000
0000
0100
0000
,  // measure 94
0001
0010
0100
1000
0001
0100
0010
1000
,  // measure 95
0001
0010
0000
0000
0001
1000
0000
0000
0001
0100
0000
0000
0001
1000
0000
0000
,  // measure 96
0002
1003
2000
3001
,  // measure 97
1010
0000
0100
0000
0101
0000
0001
1000
,  // measure 98
0000
1001
0000
0100
0101
0000
1000
0000
,  // measure 99
0011
0000
0100
0000
1100
0000
1000
0001
,  // measure 100
1000
0000
0101
0000
0001
0000
1100
1000
,  // measure 101
0100
0010
1000
0010
0100
0010
0001
0100
,  // measure 102
1000
0100
0010
0100
0000
1010
0010
1000
,  // measure 103
0100
1000
0001
1000
0000
1000
1001
0000
,  // measure 104
0110
0000
1000
0000
0110
0000
0001
1000
,  // measure 105
0000
1001
0000
1010
0010
0000
1000
0000
,  // measure 106
0110
0000
0001
0000
0110
0000
1000
0001
,  // measure 107
1000
0000
0011
0000
0001
0000
1010
1000
,  // measure 108
0010
0000
1001
0000
0100
0000
1001
1000
,  // measure 109
0001
1000
0010
0100
0000
1010
0010
0010
,  // measure 110
1000
0001
0100
0010
0000
1100
0100
0100
,  // measure 111
1000
0010
0100
0001
1000
0001
1000
0001
,  // measure 112
0100
0010
1000
0001
0010
0100
0010
0100
,  // measure 113
0010
0001
1000
0010
0100
0001
0100
0001
,  // measure 114
0010
0001
1000
0100
1000
0010
1000
0000
,  // measure 115
0001
1000
0010
0100
0010
1000
0001
0100
,  // measure 116
0001
1000
0001
0100
0000
0110
0010
0010
,  // measure 117
1000
0010
1000
0001
0000
0110
0100
0100
,  // measure 118
0001
0100
0010
1000
0001
1000
0001
1000
,  // measure 119
0010
0100
0001
1000
0100
0010
0100
0010
,  // measure 120
0100
1000
0001
0100
0010
1000
0010
1000
,  // measure 121
0100
1000
0001
0010
0001
0100
0001
0000
,  // measure 122
1000
0001
0100
0010
0100
0001
1000
0010
,  // measure 123
1000
0001
1000
0010
0000
0110
0100
0100
,  // measure 124
0001
0100
0001
1000
0000
0110
0010
0010
,  // measure 125
1010
1001
0101
0110
,  // measure 126
0100
0000
0010
1000
0010
0000
1001
0000
,  // measure 127
0010
0001
0010
0001
1000
0000
1100
0000
,  // measure 128
0010
0000
0001
0100
0001
0000
1001
0000
,  // measure 129
1000
0100
1000
0100
0010
0000
0011
0000
,  // measure 130
0101
1000
0100
1000
,  // measure 131
1100
0001
0100
0001
,  // measure 132
0011
0100
0001
0100
,  // measure 133
0010
1001
0100
0110
,  // measure 134
0100
0000
0010
0001
0010
0000
1001
0000
,  // measure 135
0010
1000
0010
1000
0001
0000
0101
0000
,  // measure 136
0010
0000
1000
0100
1000
0000
1001
0000
,  // measure 137
0001
0100
0001
0100
0010
0000
1010
0000
,  // measure 138
1100
0001
0100
0001
,  // measure 139
0101
1000
0100
1000
,  // measure 140
1010
0100
1000
0100
,  // measure 141
1010
1001
0101
0110
,  // measure 142
0010
0010
0110
1001
,  // measure 143
0100
0000
0100
0000
1000
0100
1000
0000
,  // measure 144
0100
0000
0100
0000
1000
0100
1000
0001
,  // measure 145
0010
0000
0010
0000
0001
0010
0001
0000
,  // measure 146
0010
0000
0010
0000
0001
0010
0001
1000
,  // measure 147
0100
0000
0100
0010
0100
0000
1100
0000
,  // measure 148
0010
0000
0010
0100
0010
0000
0011
0000
,  // measure 149
0100
1000
0001
0010
,  // measure 150
1100
1001
0101
1001
,  // measure 151
0010
0000
0010
0000
0001
0010
0001
0000
,  // measure 152
0010
0000
0010
0000
0001
0010
0001
1000
,  // measure 153
0100
0000
0100
0000
1000
0100
1000
0000
,  // measure 154
0100
0000
0100
0000
1000
0100
1000
0001
,  // measure 155
0010
0000
0010
0100
0010
0000
0011
0000
,  // measure 156
0100
0000
0100
0010
0100
0000
1100
0000
,  // measure 157
0010
0001
1000
0100
,  // measure 158
0011
1001
1010
1001
,  // measure 159
0100
0000
0100
0010
1000
0000
0101
0000
,  // measure 160
0010
0000
0010
0100
0001
0000
1010
0000
,  // measure 161
0101
0011
1100
1010
,  // measure 162
0100
0100
0101
1100
,  // measure 163
0010
1000
0010
1000
0010
0001
0010
0001
,  // measure 164
0100
0000
0010
1000
0010
0000
1001
0000
,  // measure 165
0010
0001
0010
0001
1000
0000
1100
0000
,  // measure 166
0010
0000
0001
0100
0001
0000
1001
0000
,  // measure 167
1000
0100
1000
0100
0010
0000
0011
0000
,  // measure 168
0101
0000
1000
0001
0100
0010
1000
0000
,  // measure 169
1100
0000
0001
1000
0100
0010
0001
0000
,  // measure 170
0011
0000
0100
0010
0001
0100
0010
0000
,  // measure 171
0011
1001
1100
0110
,  // measure 172
0010
0000
0100
0001
0100
0000
1001
0000
,  // measure 173
0100
1000
0100
1000
0001
0000
0011
0000
,  // measure 174
0100
0000
1000
0010
1000
0000
1001
0000
,  // measure 175
0001
0010
0001
0010
0100
0000
1100
0000
,  // measure 176
1010
0000
0001
1000
0010
0100
0001
0000
,  // measure 177
0011
0000
1000
0001
0010
0100
1000
0000
,  // measure 178
1100
0000
0010
0100
1000
0010
0100
0000
,  // measure 179
1100
1001
0011
0110
,  // measure 180
1000
0000
0001
0000
1001
0000
0100
0010
,  // measure 181
0210
0000
0000
0000
,  // measure 182
0000
0000
0000
0000
,  // measure 183
0000
0000
0000
0000
,  // measure 184
0000
0000
1300
0000
,  // measure 185
0001
0100
0010
0000
1000
0001
0100
0000
,  // measure 186
0010
1000
0001
0100
0000
0000
0010
0000
,  // measure 187
1000
0010
0100
0000
0001
0100
0001
0000
,  // measure 188
1000
0100
0010
0001
0000
0000
0010
0000
,  // measure 189
0001
0100
1000
0000
0010
0100
0001
0000
,  // measure 190
1000
0010
0100
0010
0000
0000
0100
0000
,  // measure 191
0001
1000
0010
0000
0100
0001
0010
0000
,  // measure 192
0100
1000
0010
0100
0000
0000
0001
0000
,  // measure 193
0220
0000
0000
0330
,  // measure 194
1000
0000
1000
0000
0010
1000
0001
0000
,  // measure 195
0100
0010
0100
0001
1000
0100
1000
0000
,  // measure 196
0010
0100
0001
0000
1000
0100
0010
0000
,  // measure 197
0001
0100
0001
1000
0010
0000
1010
0000
,  // measure 198
0001
0010
0001
0000
0100
0001
0100
0000
,  // measure 199
1000
0100
1000
0000
0010
1000
0010
0000
,  // measure 200
1000
0001
0100
0010
1000
0001
0010
0000
,  // measure 201
0001
1000
0100
0010
0100
0000
1001
0000
,  // measure 202
0010
0100
0001
0100
0001
1000
0100
0010
,  // measure 203
0100
1000
0001
0100
0010
0000
0101
0000
,  // measure 204
1000
0010
0100
0001
0100
0010
1000
0100
,  // measure 205
0010
0001
1000
0010
0100
0000
0110
0000
,  // measure 206
0001
0100
0001
0100
0000
0000
1100
0000
,  // measure 207
0010
0100
0001
0100
0010
1000
0010
0100
,  // measure 208
0001
0010
0200
0000
0000
0000
1300
0000
,  // measure 209
0010
0100
0010
1000
0000
0000
1001
0000
,  // measure 210
0010
1000
0010
1000
0010
0100
0001
1000
,  // measure 211
0010
0100
0000
0000
0001
0000
0011
0000
,  // measure 212
1000
0010
1000
0100
0000
0000
1000
0000
,  // measure 213
0010
1100
1000
0101
,  // measure 214
0001
0010
0001
0010
0100
1000
0010
0000
,  // measure 215
1000
0100
0010
0001
0100
0010
1000
0000
,  // measure 216
0001
0000
2000
0200
0000
0000
3000
0000
,  // measure 217
0010
0310
0001
0100
,  // measure 218
0010
0000
0000
1000
0000
0000
0100
0000
0000
0000
0001
0000
0100
0000
1000
0000
,  // measure 219
0010
0000
0000
0100
0000
0000
0001
0000
0000
0000
1000
0000
0100
0000
0100
0000
,  // measure 220
0010
0000
0000
0001
0000
0000
0100
0000
0000
0000
0010
0000
0100
0000
0001
0000
,  // measure 221
1000
0000
0000
0001
0000
0000
1000
0000
0010
0000
0100
0000
0001
0000
0100
0000
,  // measure 222
0010
0000
0000
0010
0000
0000
1010
0000
0000
0000
0100
0000
0001
0000
0100
0000
,  // measure 223
0001
0000
0000
0001
0000
0000
0101
0000
0000
0000
0010
0000
1000
0000
0001
0000
,  // measure 224
0100
0000
0000
0100
0000
0000
0110
0000
0000
0000
0010
0000
1000
0000
0100
0000
,  // measure 225
1000
0010
0100
0010
1000
0001
1001
0000
,  // measure 226
0001
0100
0000
0010
0000
0100
0000
0001
,  // measure 227
0000
1000
0000
0100
0000
0001
0000
0100
,  // measure 228
1000
0100
0000
0010
0000
0100
0000
1000
,  // measure 229
0000
0010
0000
0001
0000
1000
0000
1000
,  // measure 230
0010
0100
0000
0100
0000
0001
0000
0010
,  // measure 231
0100
0010
0000
0010
0000
0100
0000
1000
,  // measure 232
0001
0010
0000
0001
0000
1000
0000
0100
,  // measure 233
0001
0100
0010
1000
0100
1000
0001
0010
,  // measure 234
0100
1000
0100
1000
0100
0010
0001
0100
,  // measure 235
0010
1000
0000
0000
0100
0000
1100
0000
,  // measure 236
0001
1000
0010
0100
0000
0000
0001
0000
,  // measure 237
1000
0000
0001
0010
0100
1000
0010
0100
,  // measure 238
0001
1000
0001
0010
0100
0010
0001
0000
,  // measure 239
1000
0010
0100
0010
1000
0100
0010
0001
,  // measure 240
1000
0100
0010
0100
0000
1000
0010
0100
,  // measure 241
0001
0010
0000
1000
0001
0100
0010
1000
,  // measure 242
0002
0000
2000
3003
,  // measure 243
1000
0100
0010
0001
0100
1000
0100
0001
,  // measure 244
0010
0000
0100
1000
0000
1000
0010
0100
,  // measure 245
0001
0000
0010
0100
0000
0100
0010
0001
,  // measure 246
0100
0000
1000
0000
0001
0010
0100
0000
,  // measure 247
1000
0010
0100
0001
0010
0100
1000
0010
,  // measure 248
0100
0000
0001
1000
0000
1000
0100
0010
,  // measure 249
0001
0000
0100
0010
0000
1000
0001
0010
,  // measure 250
0100
0001
1000
0100
,  // measure 251
0010
0001
1000
0100
0000
1000
0001
0010
,  // measure 252
0100
0000
0000
0000
1000
0100
0000
0000
1001
0000
1001
0000
0000
0000
0000
0000
,  // measure 253
0010
0000
0000
0000
0100
0001
0000
0000
0110
0000
0110
0000
0000
0000
0000
0000
,  // measure 254
0010
0000
0000
0000
0001
0100
0000
0000
1001
0000
1001
0000
0000
0000
0000
0000
,  // measure 255
1000
0000
0000
0000
0010
1000
0000
0000
0110
0000
0110
0000
0000
0000
0000
0000
,  // measure 256
0010
1000
0000
0000
1000
0001
0000
0000
0001
0010
0000
0000
0010
0100
0000
0000
,  // measure 257
0100
1000
0000
0000
1000
0001
0000
0000
0001
0100
0000
0000
0001
0000
0000
0000
,  // measure 258
1000
0001
0000
0000
0001
0000
0000
0000
0010
0000
0000
0000
0100
0000
1000
0000
,  // measure 259
0001
0000
0010
0001
0100
1000
0100
0001
,  // measure 260
0010
0000
0000
0000
0100
1000
0000
0000
1000
0000
0010
0000
0100
0000
0000
0000
,  // measure 261
0001
0000
0000
0000
0100
0010
0000
0000
1000
0000
0100
0000
0010
0000
0000
0000
,  // measure 262
0001
0000
0000
0000
1000
0100
0000
0000
1000
0000
0001
0000
0100
0000
0000
0000
,  // measure 263
0100
0000
0000
0000
0001
0010
0000
0000
0100
0000
1000
0000
0001
0000
0000
0000
,  // measure 264
0010
0100
0000
0000
0100
1000
0000
0000
1000
0010
0000
0000
0010
0001
0000
0000
,  // measure 265
0001
0010
0000
0000
0010
1000
0000
0000
1000
0100
0000
0000
1000
0000
0000
0000
,  // measure 266
0001
0010
0100
1000
0010
0100
0000
0001
,  // measure 267
0000
0100
0010
1000
0100
0010
0001
0100
,  // measure 268
0001
0000
0000
0000
1000
0100
0000
0000
0100
0000
0010
0000
0001
0000
0100
0000
,  // measure 269
0001
0000
0000
0000
1000
0001
0000
0000
0010
0000
0001
0000
1000
0000
0100
0000
,  // measure 270
1000
0000
0000
0000
0010
1000
0000
0000
0001
0000
0010
0000
0100
0000
1000
0000
,  // measure 271
0010
0000
0000
0000
0100
0001
0000
0000
0010
0000
0100
0000
1000
0000
0010
0000
,  // measure 272
0100
0001
0000
0000
0001
0010
0000
0000
0010
0100
0000
0000
0100
1000
0000
0000
,  // measure 273
1000
0001
0000
0000
0001
1000
0000
0000
1000
0010
0000
0000
0100
0000
0000
0000
,  // measure 274
1000
0100
0000
0000
0001
0000
0000
0000
0100
0000
0000
0000
0010
0000
1000
0000
,  // measure 275
0100
0000
1000
0010
0100
0001
0010
0100
,  // measure 276
1000
0000
0000
0000
0001
0100
0000
0000
0001
0000
0010
0000
0100
0000
1000
0000
,  // measure 277
0001
0000
0000
0000
0010
0001
0000
0000
1000
0000
0100
0000
0010
0000
0100
0000
,  // measure 278
1000
0000
0000
0000
1000
0001
0000
0000
0010
0000
0100
0000
1000
0000
0010
0000
,  // measure 279
0100
0000
0000
0000
0010
0100
0000
0000
0001
0000
0010
0000
0100
0000
0010
0000
,  // measure 280
0001
1000
0000
0000
1000
0010
0000
0000
0010
0001
0000
0000
0001
0010
0000
0000
,  // measure 281
0010
1000
0000
0000
1000
0100
0000
0000
0100
0001
0000
0000
0100
0000
1000
0000
,  // measure 282
0010
0100
0001
0010
0100
1000
0000
0010
,  // measure 283
0000
0000
0100
0000
0001
0000
0010
0000
0100
0000
0000
1000
0001
0000
1000
0000
,  // measure 284
0100
1000
0100
1000
0100
1000
0010
0100
,  // measure 285
0001
0010
0100
1000
0000
1000
0010
1000
,  // measure 286
0001
0010
0100
1000
0000
1000
0001
0010
,  // measure 287
0100
0000
1000
0000
0001
0010
0100
1000
,  // measure 288
0010
0100
0010
0100
0010
0100
0001
0010
,  // measure 289
0100
1000
0001
1000
0000
1000
0010
0100
,  // measure 290
0001
0010
0100
1000
0000
1000
0010
0100
,  // measure 291
0001
0010
0000
0001
1000
0001
0000
1000
,  // measure 292
0010
0100
0000
0001
1000
0010
0000
1000
,  // measure 293
0002
0000
0000
0000
,  // measure 294
0000
0000
0000
0003
;
