#TITLE:EURO FLASH Mix;
#SUBTITLE:(DDR 4th Mix PLUS);
#ARTIST:Tony the TGR;
#TITLETRANSLIT:;
#SUBTITLETRANSLIT:;
#ARTISTTRANSLIT:;
#CREDIT:;
#BANNER:4thMixPlus.png;
#BACKGROUND:4thMixPlus-bg.png;
#LYRICSPATH:;
#CDTITLE:./CDTITLES/DANCE DANCE REVOLUTION 5TH MIX.PNG;
#MUSIC:4thMixPlus.ogg;
#OFFSET:-0.042;
#SAMPLESTART:235.000;
#SAMPLELENGTH:24.000;
#SELECTABLE:YES;
#BPMS:0.000=150.000,196.000=155.000,260.000=159.000,428.000=155.000,620.000=160.000,636.000=164.900;
#STOPS:;
#BGCHANGES:;

//---------------dance-single - ----------------
#NOTES:
     dance-single:
     :
     Easy:
     3:
     0.318,0.491,0.198,0.000,0.000:
0000
0000
0000
0000
,
0000
0000
0000
0000
,
1000
1000
1000
1000
,
0001
0100
0001
0100
,
1000
1000
1000
1000
,
0010
0001
0100
1000
,
0010
0010
0010
1001
,
0100
0100
0100
1001
,
0010
0100
1000
0001
,
0110
0000
0000
0000
,
0001
0001
0000
0000
,
1000
1000
0000
0000
,
0001
0001
0000
0000
,
1000
1000
0000
0000
,
0001
0100
0100
0000
,
1000
0010
0010
0100
,
0001
0010
0010
0000
,
0100
1000
0001
0100
,
0010
1000
0100
0000
,
1000
1000
0000
0000
,
0001
0001
0000
0000
,
1000
1000
0000
0000
,
0001
0001
0000
0000
,
1000
0010
0010
0000
,
0001
0100
0010
1000
,
0100
0010
0010
0000
,
1001
0110
1001
0000
,
0001
0100
0000
0000
,
1000
0100
0000
0000
,
0001
0010
0000
0000
,
0100
0000
1000
0000
,
0001
0001
0000
0000
,
1000
1000
0000
0000
,
0010
0000
0100
0000
,
1001
0000
0000
0000
,
0110
0000
0000
0000
,
1000
1000
0000
0000
,
0001
0001
0000
0000
,
1000
1000
0000
0000
,
0001
0001
0000
0000
,
0100
0010
1000
0000
,
0001
0100
0010
1000
,
0001
0010
0100
0000
,
1001
0000
0000
0000
,
0010
0100
1000
0001
,
0110
0000
0000
0000
,
0001
1000
0100
0010
,
0001
0001
1000
1000
,
0100
0010
0001
0000
,
1000
0000
0000
0000
,
0000
0000
0000
0000
,
1000
0000
0000
0000
,
0000
0000
0000
0000
,
1000
0000
0000
0000
,
0100
0000
0000
0000
,
0010
0000
0000
0000
,
1001
0000
0000
0000
,
1000
1000
0100
1000
,
0001
0001
0100
0001
,
1000
0000
0100
0000
,
0010
0010
0001
0000
,
1000
1000
0100
1000
,
0001
0001
0100
0001
,
1000
0000
0010
0000
,
1001
0000
0000
0000
,
0010
0100
0010
0100
,
0000
0001
0100
0000
,
0000
1000
0100
0000
,
0000
0001
1000
0000
,
0000
0010
0100
0010
,
0000
1000
0100
0000
,
0000
0010
0001
0000
,
1000
1000
0100
0000
,
1001
0000
0000
0000
,
0010
0000
0000
0100
,
0010
0000
0000
0100
,
0010
0000
0000
1000
,
0100
0000
0000
0010
,
0001
0000
0000
1000
,
0001
0000
0000
1000
,
0001
0000
0010
0000
,
0100
0000
0000
0000
,
1001
0000
0110
0000
,
0001
1000
0100
0000
,
0010
0001
1000
0000
,
0010
0000
0100
0000
,
1001
0000
1001
0000
,
0010
0100
1000
0000
,
0001
0100
0010
0000
,
1000
0000
0001
0000
,
0010
0000
0000
0000
,
0100
0000
0000
0000
,
1001
0000
0000
0000
,
0010
0000
0100
0000
,
1000
0010
0100
0000
,
0001
0000
1000
0000
,
0100
0010
0001
0000
,
1000
0000
0100
0000
,
0001
0100
0010
0000
,
1000
0000
0001
0000
,
1001
0000
0000
0000
,
0110
0000
0000
0000
,
1001
0000
0000
0000
,
1000
1000
0100
0010
,
0001
0001
0100
0010
,
1000
0000
0001
0000
,
0100
0010
0100
0000
,
1000
0100
0010
0000
,
0001
0100
0010
0000
,
1000
1000
0001
0000
,
0010
0100
1000
0000
,
1000
0100
0001
0100
,
0010
1000
0001
0100
,
0010
0010
0010
0010
,
1001
0000
0100
0010
,
0001
0001
1000
1000
,
0100
0001
0100
0001
,
1000
1000
0100
0100
,
0010
0001
0010
0001
,
1000
0000
0001
0000
,
1000
0100
0010
0000
,
0001
0000
1000
0000
,
0100
0000
0010
0001
,
1000
0100
0000
0100
,
0000
0010
0000
0010
,
0001
0100
0000
0100
,
0000
0010
0000
0010
,
1000
0001
0100
0010
,
1000
0100
0010
0000
,
0001
0100
0010
1000
,
0001
0001
0001
0000
,
0010
0100
1001
0000
,
0100
0010
1001
0000
,
0010
0001
1000
0100
,
0010
0001
0000
1001
,
0010
0100
1001
0000
,
0100
0010
1001
0000
,
0010
0100
1000
0010
,
0100
0001
0000
1001
,
0100
0100
0100
0010
,
0100
0100
0010
0010
,
0100
0100
0100
0010
,
0100
0100
0010
0010
,
1000
0100
0010
1001
,
0100
0100
0010
1001
,
0100
0010
0001
0010
,
0100
0100
0000
1001
,
0100
0100
0001
1001
,
0100
0100
0010
1001
,
0100
0010
1000
0100
,
0010
0001
1000
1000
,
0100
0001
0100
1000
,
0100
0010
0010
0010
,
0001
0100
1000
0100
,
0010
0001
0001
0001
,
1000
1000
0100
0100
,
0010
0001
0100
0010
,
1000
1000
0001
0001
,
0100
0010
1000
1001
,
0010
0010
0010
0010
,
1000
1000
0001
0001
,
0010
0010
0010
0010
,
0001
0001
1000
1000
,
0100
0100
0100
0100
,
1000
1000
0001
0001
,
0010
0010
0001
1000
,
0100
0100
0100
0000
,
0010
0001
0001
0100
,
0010
1001
0100
0100
,
0010
0010
0100
0010
,
0001
0100
1000
1000
,
0010
1000
1000
0100
,
0010
1001
0100
0100
,
0010
0010
0100
0010
,
1000
0100
0001
0001
,
1001
0010
0001
0010
,
1000
0100
0010
0010
,
1001
0010
0100
1000
,
0100
0001
0100
0100
,
1001
0100
1000
0100
,
1001
0100
0001
0100
,
1000
0010
0001
0100
,
0010
0100
1001
0100
,
0010
1001
0100
0100
,
0001
0100
0010
0100
,
1000
0100
0010
0100
,
0001
0001
1000
0100
,
0010
1001
0100
0100
,
1000
0100
0010
0100
,
0001
0100
0010
0100
,
1000
1000
0001
0100
,
1000
1000
1000
1100
,
0010
0010
0010
0110
,
1000
1000
1000
1001
,
0001
0001
1000
1000
,
0001
0000
0000
0000
,
1000
0100
0001
0100
,
1000
1000
1000
1000
,
1000
0100
0001
0100
,
1000
0000
1001
0110
,
0001
0101
0101
0101
,
1000
1100
1100
1100
,
0001
0101
0101
0101
,
0010
0000
0000
0000
,
1000
0100
0001
0100
,
1000
0100
0101
1001
,
0010
0010
0010
0010
,
1000
0000
0001
0101
,
0001
0000
1000
1100
,
0010
0010
0010
0010
,
0100
0100
0100
0100
,
1000
0110
0001
0001
,
0010
1000
0010
0100
,
0010
0001
0010
0001
,
0010
0100
1000
0100
,
0001
0110
1000
1000
,
0010
0001
0010
0100
,
0010
1000
0010
1000
,
0010
0100
0001
0100
,
0001
1000
0001
0101
,
0001
1000
0001
0101
,
0001
1000
0001
0101
,
0001
1000
1100
1100
,
0001
1000
0001
1100
,
0001
1000
0001
1100
,
0001
1000
0001
1100
,
1000
1000
0001
0110
,
0010
0010
0010
0010
,
0010
0010
0010
0010
,
0100
0010
0100
0100
,
1000
0100
0010
0001
,
0100
0100
0100
0100
,
0001
0010
0100
1000
,
0010
0010
0010
0010
,
1000
0100
0010
0001
,
0010
0100
1000
0100
,
1000
1000
0001
0100
,
0010
0010
0010
0000
;

//---------------dance-single - ----------------
#NOTES:
     dance-single:
     :
     Medium:
     6:
     0.449,0.521,0.284,0.000,0.000:
0000
0000
0000
0000
,
0000
0000
0000
0000
,
1000
0100
1000
0000
0001
0000
0001
0000
,
0100
0010
0000
0100
0000
0100
0000
0100
,
0001
0010
0001
0000
1000
0000
1000
0000
,
0010
0100
0000
0010
0000
0010
0000
0010
,
1000
0100
0010
0000
0001
0000
0001
0000
,
1000
0010
0100
0000
0001
0000
0001
0000
,
1000
0100
0000
0010
0000
0010
0000
0001
,
0001
0000
0000
0000
,
1000
0010
0100
0001
0000
0001
0000
0001
,
1000
0100
0010
0001
0000
0001
0000
0001
,
0100
0010
1000
0100
0000
0100
0000
0100
,
0010
0001
1000
0100
0000
0010
0001
1000
,
0100
0000
1001
0000
0100
0010
1000
0100
,
0010
0000
1001
0000
0100
0010
1000
0001
,
0100
1001
0100
0010
,
0100
0100
0100
0100
,
0010
0000
0001
1000
0100
0000
0000
0000
,
0010
0001
0100
0010
0000
0010
0000
0010
,
1000
0100
0010
0001
0000
0001
0000
0001
,
1000
0010
0100
0001
0000
0001
0000
0001
,
0010
0100
1000
0001
0000
0100
0010
1000
,
0100
0000
1001
0000
0100
0010
1000
0001
,
0100
0000
1001
0000
0010
0100
0001
0010
,
0100
1001
0100
0010
,
1000
0000
0100
0010
0001
0000
0000
0000
,
1000
0000
1000
0000
1000
0000
0010
0100
,
0001
0000
0001
0000
0001
0000
1000
0100
,
0010
0000
0010
0000
0010
0000
0001
0100
,
0010
0010
0010
1001
,
0100
0010
0100
0000
0000
0000
1001
0000
,
0010
0100
0010
0000
0000
0000
1001
0000
,
0100
0010
1000
0100
,
0010
0001
0100
0000
0010
0000
1000
0001
,
0010
0000
0000
0000
,
0100
1000
0001
0000
0100
0000
0010
1000
,
0100
0000
0010
0000
0001
0000
1000
0100
,
0010
0000
0001
0000
1000
0000
0100
0010
,
1000
0000
0001
0010
0100
0000
1000
0000
,
1000
0000
0001
0000
0001
0000
0010
0100
,
1000
0000
0001
0000
0100
0000
0010
1000
,
0001
0010
0100
1000
,
1001
0000
0000
0000
,
1000
0100
0010
0000
0001
0100
0010
0000
,
1001
0000
0000
0000
,
0100
0010
0001
0000
0100
0010
1000
0000
,
0001
0100
1000
0100
,
0010
0000
0001
0100
0010
0000
0000
0000
,
1000
0000
1000
0000
0001
0100
0010
0000
,
0001
0100
0010
0000
1000
0000
1000
0000
,
0001
0000
0010
0000
0100
1000
0100
0000
,
0010
0001
0010
0000
0100
0000
0100
0000
,
0010
1000
0001
0000
0110
0000
0000
0000
,
1000
0010
0100
0000
1001
0000
0000
0000
,
0010
0000
0100
0000
1000
0100
0001
0000
,
1001
0000
0000
0000
,
1000
0000
1000
0000
0100
0010
0100
0000
,
1000
0000
1000
0000
0001
0100
0001
0000
,
0010
0010
0100
0100
,
1000
0000
0001
0100
0010
0000
0000
0000
,
1000
0000
1000
0000
0100
0010
0001
0000
,
0100
0000
0100
0000
0010
1000
0001
0000
,
0010
0100
0010
0000
0001
1000
0001
0000
,
0100
0000
0100
0000
0010
1000
0100
0000
,
0010
0000
0001
0100
0001
0000
0010
0000
,
0100
0000
1000
0001
1000
0000
0100
0000
,
0010
0000
0001
1000
0001
0000
0100
0000
,
0010
1000
0100
0000
,
0001
0000
1000
0100
0010
0000
0001
0000
,
0100
0000
0010
1000
0001
0000
0100
0000
,
1000
0000
0100
0010
0001
0000
1000
0000
,
0100
0100
0010
0000
,
1001
0110
1001
1001
,
0010
0100
0010
0100
0000
0000
1001
0000
,
0010
0100
0001
1000
0000
0000
0110
0000
,
0001
0100
0010
0000
1000
0100
0010
0000
,
0101
1001
1100
0000
,
0010
0001
0100
0010
0000
0000
1001
0000
,
0100
0010
0001
1000
0000
0000
0110
0000
,
1000
0001
0100
0000
0010
1000
0001
0000
,
0110
0000
0000
0000
,
0011
1100
0110
0000
,
1000
0000
1000
0000
0001
0100
0000
0000
,
0010
0000
0010
0000
1000
0100
0000
0000
,
0010
0001
0100
0000
0010
1000
0100
0010
,
0000
0000
0000
1001
0000
0000
0000
0000
,
0010
0000
0010
0000
0100
0001
0000
0000
,
0010
0000
0010
0000
0100
1000
0000
0000
,
0001
0100
0010
0000
1000
0100
0010
0001
,
0000
0000
0000
0000
1000
1000
0000
1001
,
0000
0000
0000
0000
,
0110
0000
0000
0000
0001
1000
0000
0000
,
0010
0000
0100
0000
0001
0010
0000
0000
,
0100
0000
1000
0000
0001
0100
0000
0000
,
0010
1000
0001
0000
0010
0100
1000
0001
,
0000
0000
0000
0110
0000
0000
0000
0000
,
0001
0100
0010
0000
1000
0100
0000
0000
,
0010
0001
1000
0000
0100
0010
0000
0000
,
0001
0100
0001
0000
1000
0100
0010
0001
,
0000
0000
0000
0000
1000
0100
0000
0101
,
0000
0000
0000
0000
,
1100
0000
0000
0000
,
1000
0100
0001
0000
0100
0000
0100
0000
,
1000
1000
0001
0001
,
1000
0010
0001
0000
0010
0000
0010
0000
,
1000
0100
0010
1001
,
0010
0000
0100
1000
0010
0000
0100
0000
,
0001
0010
1000
0001
,
1000
0000
0010
0100
0001
0000
0010
0000
,
1000
0001
1000
0010
,
0100
0001
0010
0000
0100
1000
0010
0000
,
0100
0001
0010
0100
,
1000
0001
0100
0000
1000
0001
0100
0000
,
1001
0000
0000
0100
0000
0010
0100
0000
,
1000
0000
0001
0000
0100
0010
1000
0000
,
0001
0000
0010
0100
0000
0010
0100
0000
,
1000
0001
0100
1000
,
0100
0000
0010
0001
0000
0010
0001
0000
,
1000
0100
0010
0000
0001
0000
0001
0000
,
1000
0100
0010
0000
0001
0000
0001
0000
,
1000
0010
0100
0000
0001
0010
0100
0000
,
1000
0001
0100
1000
,
0100
0100
0100
0000
0010
0000
0010
0000
,
0001
0001
0001
0000
0100
0000
0100
0000
,
0010
0010
0010
0000
1000
0000
1000
0000
,
0100
0100
0100
0000
0010
0000
0010
0000
,
0001
1000
0100
0010
,
0001
1000
0100
0000
,
0001
0100
0010
1000
,
1001
0110
1001
0000
,
0100
0000
0010
0001
0100
0000
0000
0000
,
0010
1000
0001
0000
0001
0000
0000
0000
,
0100
1000
0100
0010
,
0001
1000
0100
0000
0000
0000
1001
0000
,
0100
0000
0010
1000
0100
0000
0000
0000
,
0010
0001
1000
0000
0100
0000
0000
0000
,
0010
0001
0100
0000
0010
1000
0010
1000
,
0001
0001
0000
1001
,
0100
0000
0010
0000
,
1000
0000
0100
0000
0010
0001
1000
0000
,
0100
0000
0010
0000
,
0001
0000
0001
0000
1000
0100
1000
0100
,
0010
0000
0010
0001
0100
0000
0000
0000
,
0010
1000
0100
0000
0100
0000
0000
0000
,
0010
0000
0001
1000
0100
0000
0010
0001
,
0100
0100
0000
1001
,
0100
0000
0010
0001
1000
0000
0000
0000
,
0100
0010
0001
0000
0001
0000
0000
0000
,
1000
0000
0100
0010
0001
0000
0100
0010
,
1000
1000
0000
1001
,
0100
0000
0010
0000
,
0001
0000
1000
0100
1000
0000
0001
0000
,
0100
0000
0010
0000
,
1000
0000
0001
0000
0100
0010
1000
0000
,
0100
0000
0100
0000
0010
1000
0100
0000
,
0010
1001
0100
1001
,
0100
0000
0100
0000
0010
0001
0100
0000
,
0010
1001
0100
1001
,
0100
0000
0010
0000
1000
0100
0010
0000
,
0001
0000
1000
0000
0100
0010
0100
0000
,
0010
0010
0001
1000
,
0100
0000
0100
0000
0001
0100
0100
0000
,
0010
1000
0001
0010
,
0100
0000
1000
0000
1001
0000
0001
1000
,
0100
0010
0001
0100
,
1000
1000
1000
0000
,
0011
0011
0011
0011
,
1001
0000
0010
0000
0100
1000
0100
0000
,
1010
1010
1010
1010
,
1001
0000
0010
0000
0100
0001
0100
0000
,
1000
1100
0001
0101
,
1100
0000
0101
0000
0010
1000
0100
0000
,
0001
0100
0001
0000
1000
0100
1000
0000
,
0100
0100
0100
0100
,
0010
0000
0100
0000
0010
0100
0001
0000
,
0010
0000
0100
0000
0010
0100
1000
0000
,
0101
1100
0001
0100
,
0101
1100
0001
0100
,
0001
0000
0100
0000
0001
1000
0100
0000
,
0001
0100
1000
0000
0100
0000
0001
0000
,
0010
0001
0010
0000
0100
0000
0100
0000
,
1000
0001
0010
1001
,
0010
0000
0100
0000
0010
1000
0100
0000
,
0100
1000
0010
0000
0100
0000
0010
0000
,
0001
0000
0010
0000
0001
1000
0100
0000
,
0100
1000
0001
0000
0010
0000
0001
0000
,
0100
0000
0010
0100
0001
0000
0010
0100
,
1000
0000
0010
0100
0001
0000
1001
0000
,
0011
1100
0010
0001
,
0101
1010
0001
0100
,
0010
0010
0010
0110
,
1000
1000
1000
0000
0001
0000
0101
0000
,
0001
0000
0000
0000
1000
0100
1000
0000
,
0001
0000
0000
0000
,
0000
0010
0000
1000
0000
0001
0000
1000
,
0000
0100
0000
0100
0000
0100
0000
0100
,
0000
0010
0000
1000
0000
0001
0000
0100
,
0000
0000
0000
0000
,
1001
1001
1001
1001
,
1000
1100
1100
1100
,
0001
0000
0100
0000
0010
1000
0100
0010
,
0001
0000
0000
0000
,
1000
0100
0001
0100
,
1000
0100
1000
0000
0001
0100
0001
0000
,
0010
0000
0010
0000
0010
1000
0010
1000
,
0100
0000
0000
0000
,
0001
0000
0000
1000
,
0110
0000
1000
0000
0001
0100
0001
0000
,
1000
0000
1001
0000
0010
0001
0100
0000
,
1001
0100
0001
0100
,
1010
0100
0010
0001
,
1000
0100
0001
0000
0001
0100
1000
0000
,
0001
0000
1001
0000
0010
1000
0100
0000
,
1001
0100
1000
0100
,
0011
0100
0010
1000
,
0001
0100
1000
0000
1000
0100
0001
0000
,
1010
0001
0001
0001
,
0101
1000
0101
1000
,
0010
0000
1001
0000
0010
1000
0100
0000
,
0011
1000
0101
1000
,
0010
1000
0100
0000
0010
0000
0100
0000
,
0010
0001
0010
0000
0010
0100
1000
0000
,
0010
0000
1001
0000
0010
0001
0100
0000
,
1010
0001
1100
0001
,
0010
0001
0100
0000
0010
0000
0100
0000
,
0010
1000
0010
0000
0010
0100
0001
0000
,
0010
0000
0010
0000
1000
0100
0100
0000
,
0010
0000
0010
0000
0001
0100
0100
0000
,
1000
0100
0001
0001
,
1000
0000
0100
0000
0001
0100
1000
0000
,
0001
0100
1000
1000
,
0001
0000
0100
0000
1000
0100
0001
0000
,
0010
0100
1100
0101
,
0010
0000
1001
0000
0100
0000
0010
1000
,
0001
0100
1000
0010
,
0101
1000
1100
0000
;

//---------------dance-single - ----------------
#NOTES:
     dance-single:
     :
     Hard:
     9:
     0.645,0.623,0.165,0.000,0.305: // measure 1
0000
0000
0000
0000
,  // measure 2
0000
0000
0000
0000
,  // measure 3
1000
0100
1000
0100
1000
0000
0000
0000
0001
0000
0010
0000
0100
0000
0000
0000
,  // measure 4
1000
0010
1000
0010
1000
0000
0000
0000
0100
0000
0010
0000
0001
0000
0000
0000
,  // measure 5
0100
0010
0100
0010
0100
0000
0000
0000
0001
0000
1000
0000
0100
0000
0000
0000
,  // measure 6
0010
0001
0010
0001
0010
0000
0000
0000
0100
1000
0100
1000
0100
0000
0000
0000
,  // measure 7
0001
0100
0001
0100
0001
0000
0000
0000
0010
0000
1000
0000
0100
0000
0000
0000
,  // measure 8
0010
0001
0010
0001
0010
0000
0000
0000
0100
0000
1000
0000
0001
0000
0000
0000
,  // measure 9
0010
0100
0000
1000
0001
0000
0010
0100
0000
1000
0001
0000
0010
0000
0100
0000
,  // measure 10
1001
0000
0000
0000
,  // measure 11
1000
0100
0000
0010
0100
0000
1000
0000
0001
0000
0100
0000
0010
0000
0000
0000
,  // measure 12
1000
0100
0000
0010
0001
0000
1000
0000
0010
0000
0100
0000
0001
0000
0000
0000
,  // measure 13
0010
0100
0000
1000
0010
0000
0100
0000
0001
0000
1000
0000
0100
0000
0000
0000
,  // measure 14
0010
0001
0000
1000
0100
0000
0010
0000
0001
0000
1000
0000
0010
0000
0000
0000
,  // measure 15
0100
0001
0000
1000
0100
0000
0000
0000
0010
0000
0001
0000
1000
0000
0000
0000
,  // measure 16
0010
0100
0000
0001
1000
0000
0000
0000
0100
0000
0010
0000
0001
0000
0000
0000
,  // measure 17
1000
0010
0000
0100
0001
0000
0010
0000
0100
0000
1000
0000
0001
0000
0000
0000
,  // measure 18
0010
0100
0000
0000
1000
0010
0000
0000
0100
0000
0001
0000
0010
0000
0000
0000
,  // measure 19
0100
1000
0000
0000
0001
0100
0000
0000
0010
0000
0000
0000
0000
0000
0000
0000
,  // measure 20
1000
0000
0100
0000
0010
0001
0010
0000
0100
0000
1000
0000
0001
0000
0000
0000
,  // measure 21
0100
0000
0010
0000
1000
0100
1000
0000
0001
0000
0010
0000
0100
0000
0000
0000
,  // measure 22
1000
0000
0001
0000
0100
0010
0100
0000
0001
0000
1000
0000
0100
0000
0000
0000
,  // measure 23
0010
0000
0001
0000
1000
0100
1000
0000
0010
0000
0100
0000
0001
0000
0000
0000
,  // measure 24
1000
0000
0100
0000
0010
0001
0010
0000
0100
0000
0000
0000
1001
0000
0000
0000
,  // measure 25
0100
0000
0010
0000
1000
0100
1000
0000
0001
0000
0000
0000
0110
0000
0000
0000
,  // measure 26
1000
0000
0001
0000
0010
0100
0010
0000
0001
0000
0000
0000
0101
0000
0000
0000
,  // measure 27
1100
0000
0000
1010
0000
0000
0101
0000
0000
0000
0000
0000
0000
0000
0000
0000
,  // measure 28
1000
0100
0010
0001
0000
0001
0100
0010
,  // measure 29
1000
0100
0010
0001
0000
0001
0100
1000
,  // measure 30
0100
0001
0010
0100
0000
0100
1000
0001
,  // measure 31
0100
0010
1000
0100
0010
0001
0001
0100
,  // measure 32
0010
1000
0100
0010
0001
0100
0010
0100
,  // measure 33
0001
0010
0001
0100
0010
1000
0100
0010
,  // measure 34
0001
1000
0010
0100
0001
1000
0100
0010
,  // measure 35
0001
0100
0000
0000
0000
0000
1000
0100
0000
0000
0000
0000
0001
0100
0000
0001
,  // measure 36
0010
0000
0000
0000
,  // measure 37
1000
0000
0100
0000
0010
0001
0000
0001
0100
0000
0010
0000
1000
0000
0001
0000
,  // measure 38
0010
0000
0100
0000
1000
0010
0000
0010
0100
0000
0001
0000
1000
0000
0000
0000
,  // measure 39
0100
0000
0100
0000
0010
0001
0000
0001
1000
0000
0010
0000
0100
0000
0001
0000
,  // measure 40
0010
0000
0100
0000
1000
0001
0000
0001
0100
0000
0010
0000
1000
0000
0000
0000
,  // measure 41
0001
0000
0001
0000
0001
0100
0000
0001
0100
0000
0000
0000
0010
0000
0000
0000
,  // measure 42
1000
0000
1000
0000
0100
1000
0000
0100
1000
0000
0000
0000
0001
0000
0000
0000
,  // measure 43
0100
0010
1000
0100
0010
0001
1000
0010
,  // measure 44
0100
0000
0100
0000
0100
0001
0010
0100
,  // measure 45
1000
0001
0000
0000
0100
0000
0000
0000
1000
0001
0000
0000
0100
0000
0000
0000
,  // measure 46
0010
0000
0010
0000
0010
1000
0100
0010
,  // measure 47
0001
1000
0000
0000
0100
0000
0000
0000
0001
1000
0000
0000
0100
0000
0000
0000
,  // measure 48
0010
0000
0001
0000
0100
0010
0000
0000
1000
0000
0100
0000
0010
0001
0000
0000
,  // measure 49
1000
0010
0100
0001
1100
0000
0000
0000
,  // measure 50
0001
0000
0001
0000
0100
0010
0000
0000
1000
0000
0100
0000
0010
0000
0000
0000
,  // measure 51
0001
0000
0001
0000
1000
0100
0000
0000
0010
0000
0001
0000
0100
0000
0010
0000
,  // measure 52
1000
0000
1000
0000
0100
0010
0000
0000
0001
0000
0100
0000
0010
0000
0000
0000
,  // measure 53
1000
0000
1000
0000
0001
0100
0000
0000
0010
0000
1000
0000
0100
0000
0010
0000
,  // measure 54
0001
0000
0001
0000
1000
0100
0000
0000
1001
0000
0000
0000
0000
0000
0000
0000
,  // measure 55
0010
0000
0010
0000
0100
0001
0000
0000
0110
0000
0000
0000
0000
0000
0000
0000
,  // measure 56
1000
0100
0010
0001
1000
0100
0010
0001
,  // measure 57
1000
0100
0010
0001
0100
0010
1000
0001
,  // measure 58
1000
0100
0000
0000
1000
0100
0000
0000
0010
0000
0001
0000
0100
0000
0000
0000
,  // measure 59
0010
1000
0000
0000
0010
1000
0000
0000
0001
0000
0010
0000
0100
0000
0000
0000
,  // measure 60
1000
0001
0000
1000
0001
0000
0000
0000
0010
0100
0000
0010
0100
0000
0000
0000
,  // measure 61
1000
0010
0100
0000
1000
0001
0110
0000
,  // measure 62
0001
0010
0000
0000
0001
0010
0000
0000
0100
0000
1000
0000
0001
0000
0000
0000
,  // measure 63
0100
0010
0000
0000
0100
0010
0000
0000
1000
0000
0001
0000
0010
0000
0000
0000
,  // measure 64
0100
1000
0000
0100
0010
0000
0000
0000
0001
0100
0000
0001
0010
0000
0000
0000
,  // measure 65
0100
0000
0100
0000
0100
0000
1000
0100
0000
0010
0000
0001
0010
0000
0000
0000
,  // measure 66
0100
1000
0001
0100
0010
1000
0001
0000
,  // measure 67
0010
1000
0001
0010
0100
1000
0001
0000
,  // measure 68
0100
0010
0001
0100
0010
1000
0100
0000
,  // measure 69
0001
0100
0010
1000
0000
0001
0000
0001
,  // measure 70
0010
0100
1000
0001
0100
0010
1000
0000
,  // measure 71
0100
0001
0010
0100
1000
0001
0100
0000
,  // measure 72
1000
0100
0010
0001
0100
0010
1000
0000
,  // measure 73
0100
0001
0010
0100
0000
0000
0000
0000
,  // measure 74
0000
0000
1000
0000
0001
0100
0000
0000
1000
0000
0001
0100
0000
0000
1000
0000
,  // measure 75
0010
0000
0100
0001
0000
1000
0100
0000
,  // measure 76
0010
0001
1000
0100
0000
0010
0001
0000
,  // measure 77
1000
0010
0100
0001
0000
1000
0100
0000
,  // measure 78
0010
0001
1000
0010
0000
0100
0001
0100
,  // measure 79
0010
0000
1000
0001
0000
0010
0100
0000
,  // measure 80
1000
0010
0100
0001
0000
0010
0100
0000
,  // measure 81
1010
0000
0101
0000
,  // measure 82
0010
0100
1000
0001
0100
0010
1000
0000
,  // measure 83
0001
0000
0000
0001
0000
0000
0010
0100
1000
0000
0000
0000
0000
0000
0000
0000
,  // measure 84
0001
0000
0000
1000
0000
0000
0001
0000
0000
0000
0100
0010
1000
0000
0000
0000
,  // measure 85
0001
0000
0000
0010
0000
0000
0100
0000
0000
0000
1000
0010
0100
0000
0000
0000
,  // measure 86
0001
0000
0000
0001
0000
0000
0001
0000
1000
0000
0000
1000
0000
0000
1000
0000
,  // measure 87
0100
0010
0001
0100
0010
1001
0000
0000
,  // measure 88
0100
0000
0000
0010
0000
0000
0001
0000
0000
0000
0100
0010
1000
0000
0000
0000
,  // measure 89
0001
0000
0000
0100
0000
0000
0100
0000
0000
0000
0010
1000
0100
0000
0000
0000
,  // measure 90
0010
0000
0000
0001
0000
0000
1000
0000
0010
0000
0000
0100
0000
0000
0001
0000
,  // measure 91
1000
0100
1001
0000
0100
0100
0000
0100
,  // measure 92
0000
0000
0000
0000
,  // measure 93
0110
0000
0000
0000
,  // measure 94
0001
0000
1000
0000
0100
0010
0000
0000
0001
0000
0001
0000
0001
0000
0000
0000
,  // measure 95
0100
0000
0010
0000
1000
0100
0000
0000
0010
0000
0010
0000
0010
0000
0000
0000
,  // measure 96
0001
0000
0100
0000
0010
1000
0000
0000
0001
0000
0100
0000
0010
1000
0000
0000
,  // measure 97
0100
0010
0001
0100
1001
0000
0000
0000
,  // measure 98
1000
0000
1000
0000
1000
0000
0000
0000
0001
0100
0010
0000
0000
0000
0000
0000
,  // measure 99
1000
0000
1000
0000
0100
0000
0000
0000
0010
0001
0100
0000
0000
0000
0000
0000
,  // measure 100
0010
1000
0100
0010
0001
1000
0100
0010
,  // measure 101
0000
0010
0010
0000
1001
0110
0000
1001
,  // measure 102
0000
0000
0000
0000
0000
0000
0000
0000
0000
0000
0000
0000
0000
0000
0100
0010
,  // measure 103
0100
0000
0000
0000
,  // measure 104
1000
0000
0100
0000
0010
0000
0001
0000
1000
0100
0000
0000
0010
0000
0000
0000
,  // measure 105
0001
0000
0100
0000
0010
0000
1000
0000
0001
0100
0000
0000
0010
0000
0000
0000
,  // measure 106
1000
0000
0001
0000
0010
0000
0100
0000
1000
0010
0000
0000
0100
0000
0000
0000
,  // measure 107
0001
0000
1000
0000
0010
0000
0100
0000
0001
0010
0000
0000
0001
0100
0000
0000
,  // measure 108
0010
0000
1000
0000
0001
0010
0000
0000
0100
0000
1000
0000
0001
0000
0000
0000
,  // measure 109
0100
0000
0010
0000
1000
0100
0000
0000
0010
0000
0001
0000
1000
0000
0100
0000
,  // measure 110
0010
0000
0001
0000
0100
0010
0000
0000
1000
0000
0001
0000
0010
0000
0000
0000
,  // measure 111
0100
0000
0001
0000
0100
1000
0000
0000
0001
0000
0100
0000
0010
0000
1000
0000
,  // measure 112
0001
0000
0010
0000
0100
1000
0000
0000
0001
0000
0010
0000
0100
1000
0000
0000
,  // measure 113
0010
0000
0100
0000
0001
1000
0000
0000
0010
0000
0100
0000
0001
1000
0000
0000
,  // measure 114
0100
0010
0001
1000
0010
0100
0001
0000
,  // measure 115
1000
0100
0000
0000
0010
0000
0001
0100
0000
0000
0010
0000
1000
0000
0000
0000
,  // measure 116
0001
0000
0010
0000
0100
1000
0000
0000
0001
0000
0100
0000
0010
0000
0000
0000
,  // measure 117
1000
0000
0001
0000
0010
0100
0000
0000
1000
0000
0001
0000
0100
0000
0010
0000
,  // measure 118
1000
0000
0100
0000
0010
0001
0000
0000
1000
0000
0100
0000
0010
0000
0000
0000
,  // measure 119
0001
0000
1000
0000
0010
0100
0000
0000
0001
0000
1000
0000
0100
0000
0010
0000
,  // measure 120
0001
0000
1000
0000
0010
0100
0000
0000
0001
0000
1000
0000
0100
0010
0000
0000
,  // measure 121
0001
0000
0100
0000
0010
1000
0000
0000
0100
0000
0010
0000
0001
0100
0000
0000
,  // measure 122
0010
1000
0100
0001
0100
1000
0010
0100
,  // measure 123
0001
1000
0100
0010
0001
1000
0010
0000
,  // measure 124
0100
0001
0000
0000
1000
0000
0000
0000
0100
1000
0000
0000
0001
0000
0000
0000
,  // measure 125
0010
0001
0000
0000
1000
0000
0000
0000
0010
1000
0000
0000
0001
0000
0000
0000
,  // measure 126
0100
0010
0000
1000
0100
0000
0000
0000
0010
0001
0000
0100
0010
0000
0000
0000
,  // measure 127
1000
0100
0000
0010
0001
0000
0000
0000
0100
0010
0000
1000
0001
0000
0000
0000
,  // measure 128
0010
0100
1000
0001
0000
0001
0001
0000
,  // measure 129
0100
0010
1000
0001
0000
0000
0000
0000
,  // measure 130
0010
0100
0010
0100
0000
0000
1001
0000
,  // measure 131
0010
0100
0000
0000
1000
0001
0000
0000
0100
0010
0000
0000
1001
0000
0000
0000
,  // measure 132
0100
0010
0001
1000
0010
0100
0001
1000
,  // measure 133
0100
0001
0100
1000
0010
0100
0001
1000
,  // measure 134
0100
0010
0001
1000
0010
0100
0001
1000
,  // measure 135
0100
0010
0001
0000
0000
0000
1100
0000
,  // measure 136
0001
0100
0010
1000
0001
0010
0100
1000
,  // measure 137
0010
0001
0010
1000
0001
0010
0100
1000
,  // measure 138
0001
0100
0010
1000
0001
0010
0100
1000
,  // measure 139
0001
0100
0100
0000
0000
0000
1100
0000
,  // measure 140
0010
0001
0001
0000
1000
0010
0010
0010
,  // measure 141
0000
0100
0001
1000
0100
0010
0001
1000
,  // measure 142
0010
0100
0100
0000
0001
1000
1000
1000
,  // measure 143
0000
0100
0010
0001
0100
0010
1000
0100
,  // measure 144
0010
0001
1000
0010
0100
0001
1000
0100
,  // measure 145
0010
0001
1000
0010
0100
0001
1000
0100
,  // measure 146
0010
0001
1000
0100
0010
0001
0100
1000
,  // measure 147
0100
0001
1000
0000
0000
0000
0110
0000
,  // measure 148
0001
1000
0010
0100
0001
1000
0100
0010
,  // measure 149
0001
0100
0010
1000
0001
0010
1000
0010
,  // measure 150
0001
1000
0010
0100
0001
1000
0100
0001
,  // measure 151
0100
1000
0001
0000
0000
0000
0110
0000
,  // measure 152
0001
0100
0100
0000
0010
1000
0100
0010
,  // measure 153
0000
0010
0001
1000
0100
0010
0001
1000
,  // measure 154
0010
0100
0100
0000
0010
1000
0001
0010
,  // measure 155
0000
0100
1000
0001
0100
0010
1000
0001
,  // measure 156
0010
0100
0000
0000
1000
0000
0000
0000
0001
0000
0100
0000
0010
0000
1000
0000
,  // measure 157
0001
0100
0000
0001
0100
0000
0001
0100
0000
0001
0100
0000
0010
0000
1000
0000
,  // measure 158
0100
0010
0001
0000
1000
0100
0010
0001
,  // measure 159
1000
0000
0000
0010
0000
0000
0100
0000
0000
0000
0001
0000
1001
0000
0000
0000
,  // measure 160
0010
0001
0010
1000
0010
0100
0001
0000
,  // measure 161
1100
0000
0011
0000
1000
0001
0100
0000
,  // measure 162
0010
1000
0010
0001
0010
0100
1000
0000
,  // measure 163
0101
0000
1010
0000
0001
1000
0100
0000
,  // measure 164
0010
0001
0010
1000
0010
0100
0001
0000
,  // measure 165
1100
0000
0011
0000
1000
0100
0010
0001
,  // measure 166
1000
1100
0001
0101
,  // measure 167
0010
1000
0100
0010
1000
0000
0000
0000
,  // measure 168
0001
1000
0000
0000
1000
0100
0000
0000
0100
0010
0000
0000
0010
0001
0000
0000
,  // measure 169
0001
0100
0000
0000
0100
0010
0000
0000
0010
1000
0000
0000
1000
0001
0000
0000
,  // measure 170
0001
0010
0000
0000
0010
0001
0000
0000
0001
0100
0000
0000
0100
0001
0000
0000
,  // measure 171
0001
1000
0000
0000
1000
0100
0000
0000
0100
1000
0000
0000
1000
0010
0000
0000
,  // measure 172
0010
1000
0000
0000
1000
0001
0000
0000
0001
0010
0000
0000
0010
0100
0000
0000
,  // measure 173
0100
0001
0000
0000
0001
0100
0000
0000
0100
1000
0000
0000
1000
0100
0000
0000
,  // measure 174
0100
0010
0000
0000
0010
0001
0000
0000
0001
1000
0000
0000
1000
0001
0000
0000
,  // measure 175
0010
0000
0010
0000
0010
0000
0001
0000
0000
1000
0000
0000
0000
0000
0000
0000
,  // measure 176
0001
0100
1000
0001
0010
1000
0001
0000
,  // measure 177
1000
0010
0001
0000
1000
0100
0001
0000
,  // measure 178
0110
1000
0001
0000
0100
0000
0101
1000
,  // measure 179
0010
0000
0100
0000
1010
0001
0100
0000
,  // measure 180
0010
1000
0100
0010
0100
1000
0001
0000
,  // measure 181
1000
0100
0100
0000
0001
0100
0100
0000
,  // measure 182
0110
1000
0001
0000
1100
0000
1010
0100
,  // measure 183
0001
0000
0101
0000
1010
0100
1000
0000
,  // measure 184
0010
1000
0001
0010
0100
1000
0001
0010
,  // measure 185
1000
0001
0100
1000
0010
0100
0001
0000
,  // measure 186
0010
0100
0001
0010
1000
0001
0100
1000
,  // measure 187
0010
0100
0001
0010
0100
1000
0001
0000
,  // measure 188
1100
0001
0101
1000
,  // measure 189
1000
0010
0100
0001
0010
0100
1000
0000
,  // measure 190
1100
0000
0011
0000
0001
0100
1000
0000
,  // measure 191
0101
0000
1000
0000
0010
1000
0001
0000
,  // measure 192
1000
0100
0010
0001
0100
0010
1000
1000
,  // measure 193
0010
0100
0001
0010
0100
0100
1000
0000
,  // measure 194
0001
0000
0000
0000
1000
0010
0100
0000
,  // measure 195
0010
0000
0000
0000
0010
0010
0010
0000
,  // measure 196
1001
0000
1100
0000
0010
1000
0100
0000
,  // measure 197
1001
0000
0101
0000
0010
0001
0100
0000
,  // measure 198
0011
0000
1100
0000
0001
0001
0100
0000
,  // measure 199
1000
0000
1000
0000
0001
1000
0001
0000
,  // measure 200
0100
1000
0100
0010
0100
0001
0100
1000
,  // measure 201
0100
0001
0100
1000
0100
0001
0100
0010
,  // measure 202
0100
1000
0100
0010
0100
1000
0100
0000
,  // measure 203
0101
0000
1000
0000
,  // measure 204
0010
0001
0010
1000
0010
0001
0010
1000
,  // measure 205
0010
0100
0010
0001
0010
0100
0010
0001
,  // measure 206
0010
1000
0010
0100
0010
1000
0010
0000
,  // measure 207
1001
0000
0010
0010
,  // measure 208
1001
0000
0010
1001
,  // measure 209
0010
1000
0100
0000
0010
0001
0100
0000
,  // measure 210
0010
1000
0100
0010
0001
0100
0010
0000
,  // measure 211
0010
0100
0001
1000
0100
0010
0001
0100
,  // measure 212
0010
1000
0001
0010
0100
1000
0001
0000
,  // measure 213
0001
0100
1000
0000
1000
0100
0001
0000
,  // measure 214
0001
0100
1000
0100
0001
0100
1000
0000
,  // measure 215
0010
1000
0100
0010
0100
1000
0001
0100
,  // measure 216
0010
1000
0100
0010
0100
1000
0001
0000
,  // measure 217
0010
0100
0001
0000
0010
0100
1000
0000
,  // measure 218
0010
0100
0001
0010
0100
1000
0010
0000
,  // measure 219
1000
0010
0001
0000
0001
0010
1000
0000
,  // measure 220
1000
0010
0001
0010
1000
0010
0001
0000
,  // measure 221
0100
0001
1000
0100
0001
0100
0010
0001
,  // measure 222
1000
0010
0100
0001
0010
0100
1000
0000
,  // measure 223
0010
1000
0001
0000
0010
0001
1000
0000
,  // measure 224
0010
1000
0001
0010
0001
1000
0010
0000
,  // measure 225
1000
0010
0100
0001
0010
1000
0010
0100
,  // measure 226
0001
0100
0010
0100
1000
0001
0100
0000
,  // measure 227
1100
0000
0101
0000
0001
0100
1000
0100
,  // measure 228
0000
0001
0100
0000
0010
1000
0100
0000
,  // measure 229
0001
0100
0000
0000
0100
0010
0000
0000
0010
0001
0000
0000
0001
0010
0000
0000
,  // measure 230
0010
1000
0000
0000
1000
0100
0000
0000
0100
0010
0000
0000
0010
0100
0000
0000
,  // measure 231
0100
1000
0000
0000
1000
0100
0000
0000
0100
0001
0000
0000
0001
0100
0000
0000
,  // measure 232
0100
1000
0000
0000
1000
0010
0000
0000
0010
0001
0000
0000
0001
0010
0000
0000
,  // measure 233
0010
1000
0000
0000
1000
0001
0000
0000
0001
0100
0000
0000
0100
1000
0000
0000
,  // measure 234
1000
0100
0000
0000
0100
0010
0000
0000
0010
1000
0000
0000
1000
0001
0000
0000
,  // measure 235
0001
0010
0000
0000
0010
1000
0000
0000
1000
0010
0000
0000
0010
0001
0000
0000
,  // measure 236
1000
0000
0001
0000
0100
0000
0001
1000
0000
0001
1000
0000
0000
0000
0000
0000
,  // measure 237
0010
0000
1000
0000
0100
0000
1000
0001
0000
1000
0001
0000
0000
0000
0000
0000
,  // measure 238
0001
0000
1000
0000
0100
0000
0010
0100
0000
0010
0100
0000
0000
0000
0001
0000
,  // measure 239
1000
0000
0000
0000
;

//---------------dance-single - ----------------
#NOTES:
     dance-single:
     :
     Challenge:
     9:
     0.650,0.623,0.143,0.000,0.306:
0000
0000
0000
0000
,
0000
0000
0000
0000
,
1000
0100
1000
0100
1000
0000
0000
0000
0001
0000
0010
0000
0100
0000
0000
0000
,
1000
0010
1000
0010
1000
0000
0000
0000
0100
0000
0010
0000
0001
0000
0000
0000
,
0100
0010
0100
0010
0100
0000
0000
0000
0001
0000
1000
0000
0100
0000
0000
0000
,
0010
0001
0010
0001
0010
0000
0000
0000
0100
1000
0100
1000
0100
0000
0000
0000
,
0001
0100
0001
0100
0001
0000
0000
0000
0010
0000
1000
0000
0100
0000
0000
0000
,
0010
0001
0010
0001
0010
0000
0000
0000
0100
0000
1000
0000
0001
0000
0000
0000
,
0010
0100
0000
1000
0001
0000
0010
0100
0000
1000
0001
0000
0010
0000
0100
0000
,
1001
0000
0000
0000
,
1000
0100
0000
0010
0100
0000
1000
0000
0001
0000
0100
0000
0010
0000
0000
0000
,
1000
0100
0000
0010
0001
0000
1000
0000
0010
0000
0100
0000
0001
0000
0000
0000
,
0010
0100
0000
1000
0010
0000
0100
0000
0001
0000
1000
0000
0100
0000
0000
0000
,
0010
0001
0000
1000
0100
0000
0010
0000
0001
0000
1000
0000
0010
0000
0000
0000
,
0100
0001
0000
1000
0100
0000
0000
0000
0010
0000
0001
0000
1000
0000
0000
0000
,
0010
0100
0000
0001
1000
0000
0000
0000
0100
0000
0010
0000
0001
0000
0000
0000
,
1000
0010
0000
0100
0001
0000
0010
0000
0100
0000
1000
0000
0001
0000
0000
0000
,
0010
0100
0000
0000
1000
0010
0000
0000
0100
0000
0001
0000
0010
0000
0000
0000
,
0100
1000
0000
0000
0001
0100
0000
0000
0010
0000
0000
0000
0000
0000
0000
0000
,
1000
0000
0100
0000
0010
0001
0010
0000
0100
0000
1000
0000
0001
0000
0000
0000
,
0100
0000
0010
0000
1000
0100
1000
0000
0001
0000
0010
0000
0100
0000
0000
0000
,
1000
0000
0001
0000
0100
0010
0100
0000
0001
0000
1000
0000
0100
0000
0000
0000
,
0010
0000
0001
0000
1000
0100
1000
0000
0010
0000
0100
0000
0001
0000
0000
0000
,
1000
0000
0100
0000
0010
0001
0010
0000
0100
0000
0000
0000
1001
0000
0000
0000
,
0100
0000
0010
0000
1000
0100
1000
0000
0001
0000
0000
0000
0110
0000
0000
0000
,
1000
0000
0001
0000
0010
0100
0010
0000
0001
0000
0000
0000
0101
0000
0000
0000
,
1100
0000
0000
1010
0000
0000
0101
0000
0000
0000
0000
0000
0000
0000
0000
0000
,
1000
0100
0010
0001
0000
0001
0100
0010
,
1000
0100
0010
0001
0000
0001
0100
1000
,
0100
0001
0010
0100
0000
0100
1000
0001
,
0100
0010
1000
0100
0010
0001
0001
0100
,
0010
1000
0100
0010
0001
0100
0010
0100
,
0001
0010
0001
0100
0010
1000
0100
0010
,
0001
1000
0010
0100
0001
1000
0100
0010
,
0001
0100
0000
0000
0000
0000
1000
0100
0000
0000
0000
0000
0001
0100
0000
0001
,
0010
0000
0000
0000
,
1000
0000
0100
0000
0010
0001
0000
0001
0100
0000
0010
0000
1000
0000
0001
0000
,
0010
0000
0100
0000
1000
0010
0000
0010
0100
0000
0001
0000
1000
0000
0000
0000
,
0100
0000
0100
0000
0010
0001
0000
0001
1000
0000
0010
0000
0100
0000
0001
0000
,
0010
0000
0100
0000
1000
0001
0000
0001
0100
0000
0010
0000
1000
0000
0000
0000
,
0001
0000
0001
0000
0001
0100
0000
0001
0100
0000
0000
0000
0010
0000
0000
0000
,
1000
0000
1000
0000
0100
1000
0000
0100
1000
0000
0000
0000
0001
0000
0000
0000
,
0100
0010
1000
0100
0010
0001
1000
0010
,
0100
0000
0100
0000
0100
0001
0010
0100
,
1000
0001
0000
0000
0100
0000
0000
0000
1000
0001
0000
0000
0100
0000
0000
0000
,
0010
0000
0010
0000
0010
1000
0100
0010
,
0001
1000
0000
0000
0100
0000
0000
0000
0001
1000
0000
0000
0100
0000
0000
0000
,
0010
0000
0001
0000
0100
0010
0000
0000
1000
0000
0100
0000
0010
0001
0000
0000
,
1000
0010
0100
0001
1100
0000
0000
0000
,
0001
0000
0001
0000
0100
0010
0000
0000
1000
0000
0100
0000
0010
0000
0000
0000
,
0001
0000
0001
0000
1000
0100
0000
0000
0010
0000
0001
0000
0100
0000
0010
0000
,
1000
0000
1000
0000
0100
0010
0000
0000
0001
0000
0100
0000
0010
0000
0000
0000
,
1000
0000
1000
0000
0001
0100
0000
0000
0010
0000
1000
0000
0100
0000
0010
0000
,
0001
0000
0001
0000
1000
0100
0000
0000
1001
0000
0000
0000
0000
0000
0000
0000
,
0010
0000
0010
0000
0100
0001
0000
0000
0110
0000
0000
0000
0000
0000
0000
0000
,
1000
0100
0010
0001
1000
0100
0010
0001
,
1000
0100
0010
0001
0100
0010
1000
0001
,
1000
0100
0000
0000
1000
0100
0000
0000
0010
0000
0001
0000
0100
0000
0000
0000
,
0010
1000
0000
0000
0010
1000
0000
0000
0001
0000
0010
0000
0100
0000
0000
0000
,
1000
0001
0000
1000
0001
0000
0000
0000
0010
0100
0000
0010
0100
0000
0000
0000
,
1000
0010
0100
0000
1000
0001
0110
0000
,
0001
0010
0000
0000
0001
0010
0000
0000
0100
0000
1000
0000
0001
0000
0000
0000
,
0100
0010
0000
0000
0100
0010
0000
0000
1000
0000
0001
0000
0010
0000
0000
0000
,
0100
1000
0000
0100
0010
0000
0000
0000
0001
0100
0000
0001
0010
0000
0000
0000
,
0100
0000
0100
0000
0100
0000
1000
0100
0000
0010
0000
0001
0010
0000
0000
0000
,
0100
1000
0001
0100
0010
1000
0001
0000
,
0010
1000
0001
0010
0100
1000
0001
0000
,
0100
0010
0001
0100
0010
1000
0100
0000
,
0001
0100
0010
1000
0000
0001
0000
0001
,
0010
0100
1000
0001
0100
0010
1000
0000
,
0100
0001
0010
0100
1000
0001
0100
0000
,
1000
0100
0010
0001
0100
0010
1000
0000
,
0100
0001
0010
0100
0000
0000
0000
0000
,
0000
0000
1000
0000
0001
0100
0000
0000
1000
0000
0001
0100
0000
0000
1000
0000
,
0010
0000
0100
0001
0000
1000
0100
0000
,
0010
0001
1000
0100
0000
0010
0001
0000
,
1000
0010
0100
0001
0000
1000
0100
0000
,
0010
0001
1000
0010
0000
0100
0001
0100
,
0010
0000
1000
0001
0000
0010
0100
0000
,
1000
0010
0100
0001
0000
0010
0100
0000
,
1010
0000
0101
0000
,
0010
0100
1000
0001
0100
0010
1000
0000
,
0001
0000
0000
0001
0000
0000
0010
0100
1000
0000
0000
0000
0000
0000
0000
0000
,
0001
0000
0000
1000
0000
0000
0001
0000
0000
0000
0100
0010
1000
0000
0000
0000
,
0001
0000
0000
0010
0000
0000
0100
0000
0000
0000
1000
0010
0100
0000
0000
0000
,
0001
0000
0000
0001
0000
0000
0001
0000
1000
0000
0000
1000
0000
0000
1000
0000
,
0100
0010
0001
0100
0010
1001
0000
0000
,
0100
0000
0000
0010
0000
0000
0001
0000
0000
0000
0100
0010
1000
0000
0000
0000
,
0001
0000
0000
0100
0000
0000
0100
0000
0000
0000
0010
1000
0100
0000
0000
0000
,
0010
0000
0000
0001
0000
0000
1000
0000
0010
0000
0000
0100
0000
0000
0001
0000
,
1000
0100
1001
0000
0100
0100
0000
0100
,
0000
0000
0000
0000
,
0110
0000
0000
0000
,
0001
0000
1000
0000
0100
0010
0000
0000
0001
0000
0001
0000
0001
0000
0000
0000
,
0100
0000
0010
0000
1000
0100
0000
0000
0010
0000
0010
0000
0010
0000
0000
0000
,
0001
0000
0100
0000
0010
1000
0000
0000
0001
0000
0100
0000
0010
1000
0000
0000
,
0100
0010
0001
0100
1001
0000
0000
0000
,
1000
0000
1000
0000
1000
0000
0000
0000
0001
0100
0010
0000
0000
0000
0000
0000
,
1000
0000
1000
0000
0100
0000
0000
0000
0010
0001
0100
0000
0000
0000
0000
0000
,
0010
1000
0100
0010
0001
1000
0100
0010
,
0000
0010
0010
0000
1001
0110
0000
1001
,
0000
0000
0000
0000
0000
0000
0000
0000
0000
0000
0000
0000
0000
0000
0100
0010
,
0100
0000
0000
0000
,
1000
0000
0100
0000
0010
0000
0001
0000
1000
0100
0000
0000
0010
0000
0000
0000
,
0001
0000
0100
0000
0010
0000
1000
0000
0001
0100
0000
0000
0010
0000
0000
0000
,
1000
0000
0001
0000
0010
0000
0100
0000
1000
0010
0000
0000
0100
0000
0000
0000
,
0001
0000
1000
0000
0010
0000
0100
0000
0001
0010
0000
0000
0001
0100
0000
0000
,
0010
0000
1000
0000
0001
0010
0000
0000
0100
0000
1000
0000
0001
0000
0000
0000
,
0100
0000
0010
0000
1000
0100
0000
0000
0010
0000
0001
0000
1000
0000
0100
0000
,
0010
0000
0001
0000
0100
0010
0000
0000
1000
0000
0001
0000
0010
0000
0000
0000
,
0100
0000
0001
0000
0100
1000
0000
0000
0001
0000
0100
0000
0010
0000
1000
0000
,
0001
0000
0010
0000
0100
1000
0000
0000
0001
0000
0010
0000
0100
1000
0000
0000
,
0010
0000
0100
0000
0001
1000
0000
0000
0010
0000
0100
0000
0001
1000
0000
0000
,
0100
0010
0001
1000
0010
0100
0001
0000
,
1000
0100
0000
0000
0010
0000
0001
0100
0000
0000
0010
0000
1000
0000
0000
0000
,
0001
0000
0010
0000
0100
1000
0000
0000
0001
0000
0100
0000
0010
0000
0000
0000
,
1000
0000
0001
0000
0010
0100
0000
0000
1000
0000
0001
0000
0100
0000
0010
0000
,
1000
0000
0100
0000
0010
0001
0000
0000
1000
0000
0100
0000
0010
0000
0000
0000
,
0001
0000
1000
0000
0010
0100
0000
0000
0001
0000
1000
0000
0100
0000
0010
0000
,
0001
0000
1000
0000
0010
0100
0000
0000
0001
0000
1000
0000
0100
0010
0000
0000
,
0001
0000
0100
0000
0010
1000
0000
0000
0100
0000
0010
0000
0001
0100
0000
0000
,
0010
1000
0100
0001
0100
1000
0010
0100
,
0001
1000
0100
0010
0001
1000
0010
0000
,
0100
0001
0000
0000
1000
0000
0000
0000
0100
1000
0000
0000
0001
0000
0000
0000
,
0010
0001
0000
0000
1000
0000
0000
0000
0010
1000
0000
0000
0001
0000
0000
0000
,
0100
0010
0000
1000
0100
0000
0000
0000
0010
0001
0000
0100
0010
0000
0000
0000
,
1000
0100
0000
0010
0001
0000
0000
0000
0100
0010
0000
1000
0001
0000
0000
0000
,
0010
0100
1000
0001
0000
0001
0001
0000
,
0100
0010
1000
0001
0000
0000
0000
0000
,
0010
0100
0010
0100
0000
0000
1001
0000
,
0010
0100
0000
0000
1000
0001
0000
0000
0100
0010
0000
0000
1001
0000
0000
0000
,
0100
0010
0001
1000
0010
0100
0001
1000
,
0100
0001
0100
1000
0010
0100
0001
1000
,
0100
0010
0001
1000
0010
0100
0001
1000
,
0100
0010
0001
0000
0000
0000
1100
0000
,
0001
0100
0010
1000
0001
0010
0100
1000
,
0010
0001
0010
1000
0001
0010
0100
1000
,
0001
0100
0010
1000
0001
0010
0100
1000
,
0001
0100
0100
0000
0000
0000
1100
0000
,
0010
0001
0001
0000
1000
0010
0010
0010
,
0000
0100
0001
1000
0100
0010
0001
1000
,
0010
0100
0100
0000
0001
1000
1000
1000
,
0000
0100
0010
0001
0100
0010
1000
0100
,
0010
0001
1000
0010
0100
0001
1000
0100
,
0010
0001
1000
0010
0100
0001
1000
0100
,
0010
0001
1000
0100
0010
0001
0100
1000
,
0100
0001
1000
0000
0000
0000
0110
0000
,
0001
1000
0010
0100
0001
1000
0100
0010
,
0001
0100
0010
1000
0001
0010
1000
0010
,
0001
1000
0010
0100
0001
1000
0100
0001
,
0100
1000
0001
0000
0000
0000
0110
0000
,
0001
0100
0100
0000
0010
1000
0100
0010
,
0000
0010
0001
1000
0100
0010
0001
1000
,
0010
0100
0100
0000
0010
1000
0001
0010
,
0000
0100
1000
0001
0100
0010
1000
0001
,
0010
0100
0000
0000
1000
0000
0000
0000
0001
0000
0100
0000
0010
0000
1000
0000
,
0001
0100
0000
0001
0100
0000
0001
0100
0000
0001
0100
0000
0010
0000
1000
0000
,
0100
0010
0001
0000
1000
0100
0010
0001
,
1000
0000
0000
0010
0000
0000
0100
0000
0000
0000
0001
0000
1001
0000
0000
0000
,
0010
1000
0100
0001
0100
1000
0010
0100
,
0001
1000
0100
0010
0001
0100
0010
1000
,
0001
0100
1000
0100
0010
1000
0100
0001
,
0100
0010
0001
1000
0010
0100
0001
0010
,
0100
1000
0001
0100
0010
1000
0100
0001
,
0100
0010
0001
0100
0010
0001
0010
1000
,
0100
0001
0100
1000
0010
0001
0010
1000
,
0100
0001
0100
1000
0001
0010
0100
0000
,
0001
1000
0000
0000
1000
0100
0000
0000
0100
0010
0000
0000
0010
0001
0000
0000
,
0001
0100
0000
0000
0100
0010
0000
0000
0010
1000
0000
0000
1000
0001
0000
0000
,
0001
0010
0000
0000
0010
0001
0000
0000
0001
0100
0000
0000
0100
0001
0000
0000
,
0001
1000
0000
0000
1000
0100
0000
0000
0100
1000
0000
0000
1000
0010
0000
0000
,
0010
1000
0000
0000
1000
0001
0000
0000
0001
0010
0000
0000
0010
0100
0000
0000
,
0100
0001
0000
0000
0001
0100
0000
0000
0100
1000
0000
0000
1000
0100
0000
0000
,
0100
0010
0000
0000
0010
0001
0000
0000
0001
1000
0000
0000
1000
0001
0000
0000
,
0010
0000
0010
0000
0010
0000
0001
0000
0000
1000
0000
0000
0000
0000
0000
0000
,
0001
0100
1000
0001
0010
1000
0001
0000
,
1000
0010
0001
0000
1000
0100
0001
0000
,
0110
1000
0001
0000
0100
0000
0101
1000
,
0010
0000
0100
0000
1010
0001
0100
0000
,
0010
1000
0100
0010
0100
1000
0001
0000
,
1000
0100
0100
0000
0001
0100
0100
0000
,
0110
1000
0001
0000
1100
0000
1010
0100
,
0001
0000
0101
0000
1010
0100
1000
0000
,
0010
1000
0001
0010
0100
1000
0001
0010
,
1000
0001
0100
1000
0010
0100
0001
0000
,
0010
0100
0001
0010
1000
0001
0100
1000
,
0010
0100
0001
0010
0100
1000
0001
0000
,
1100
0001
0101
1000
,
1000
0010
0100
0001
0010
0100
1000
0000
,
1100
0000
0011
0000
0001
0100
1000
0000
,
0101
0000
1000
0000
0010
1000
0001
0000
,
1000
0100
0010
0001
0100
0010
1000
1000
,
0010
0100
0001
0010
0100
0100
1000
0000
,
0001
0000
0000
0000
1000
0010
0100
0000
,
0010
0000
0000
0000
0010
0010
0010
0000
,
1001
0000
1100
0000
0010
1000
0100
0000
,
1001
0000
0101
0000
0010
0001
0100
0000
,
0011
0000
1100
0000
0001
0001
0100
0000
,
1000
0000
1000
0000
0001
1000
0001
0000
,
0100
1000
0100
0010
0100
0001
0100
1000
,
0100
0001
0100
1000
0100
0001
0100
0010
,
0100
1000
0100
0010
0100
1000
0100
0000
,
0101
0000
1000
0000
,
0010
0001
0010
1000
0010
0001
0010
1000
,
0010
0100
0010
0001
0010
0100
0010
0001
,
0010
1000
0010
0100
0010
1000
0010
0000
,
1001
0000
0010
0010
,
1001
0000
0010
1001
,
0010
1000
0100
0000
0010
0001
0100
0000
,
0010
1000
0100
0010
0001
0100
0010
0000
,
0010
0100
0001
1000
0100
0010
0001
0100
,
0010
1000
0001
0010
0100
1000
0001
0000
,
0001
0100
1000
0000
1000
0100
0001
0000
,
0001
0100
1000
0100
0001
0100
1000
0000
,
0010
1000
0100
0010
0100
1000
0001
0100
,
0010
1000
0100
0010
0100
1000
0001
0000
,
0010
0100
0001
0000
0010
0100
1000
0000
,
0010
0100
0001
0010
0100
1000
0010
0000
,
0100
0001
0010
0100
0010
0001
0010
1000
,
0010
0001
0100
1000
0100
0001
0010
0100
,
1000
0010
0001
0010
1000
0100
0010
1000
,
0010
0001
0100
1000
0100
0001
0010
0001
,
0100
1000
0100
0001
0010
0001
0100
0010
,
1000
0100
0001
0100
1000
0001
0010
0100
,
0001
0100
1000
0010
0001
0010
1000
0000
,
0100
0000
0100
0000
0100
0000
0010
0000
0000
0001
0000
0000
0000
0000
0000
0000
,
1100
0000
0101
0000
0001
0100
1000
0100
,
0000
0001
0100
0000
0010
1000
0100
0000
,
0001
0100
0000
0000
0100
0010
0000
0000
0010
0001
0000
0000
0001
0010
0000
0000
,
0010
1000
0000
0000
1000
0100
0000
0000
0100
0010
0000
0000
0010
0100
0000
0000
,
0100
1000
0000
0000
1000
0100
0000
0000
0100
0001
0000
0000
0001
0100
0000
0000
,
0100
1000
0000
0000
1000
0010
0000
0000
0010
0001
0000
0000
0001
0010
0000
0000
,
0010
1000
0000
0000
1000
0001
0000
0000
0001
0100
0000
0000
0100
1000
0000
0000
,
1000
0100
0000
0000
0100
0010
0000
0000
0010
1000
0000
0000
1000
0001
0000
0000
,
0001
0010
0000
0000
0010
1000
0000
0000
1000
0010
0000
0000
0010
0001
0000
0000
,
1000
0000
0001
0000
0100
0000
0001
1000
0000
0001
1000
0000
0000
0000
0000
0000
,
0010
0000
1000
0000
0100
0000
1000
0001
0000
1000
0001
0000
0000
0000
0000
0000
,
0001
0000
1000
0000
0100
0000
0010
0100
0000
0010
0100
0000
0000
0000
0001
0000
,
1000
0000
0000
0000
;
