#TITLE:DDR MEMORIAL;
#SUBTITLE:(Dancing Wip3ouT series);
#ARTIST:Tony the TGR;
#TITLETRANSLIT:;
#SUBTITLETRANSLIT:;
#ARTISTTRANSLIT:;
#CREDIT:;
#BANNER:WipE-DDR.png;
#BACKGROUND:WipE-DDR-bg.png;
#LYRICSPATH:;
#CDTITLE:./CDTITLES/Dance Dance Revolution.png;
#MUSIC:WipE-DDR.mp3;
#OFFSET:-6.700;
#SAMPLESTART:59.000;
#SAMPLELENGTH:24.000;
#SELECTABLE:YES;
#BPMS:0.000=145.000,320.000=150.000,352.000=155.000,384.000=160.000,580.000=150.000,740.000=310.000;
#STOPS:1069.000=0.400
,1073.000=0.400
,1145.000=0.400
,1149.000=0.400
,1205.000=0.400
,1209.000=0.400
;
#BGCHANGES:;

//---------------dance-single - ----------------
#NOTES:
     dance-single:
     :
     Challenge:
     9:
     0.685,1.000,0.438,0.114,0.139:
0010
0000
1000
0001
0010
0000
1000
0001
,
0010
0000
1000
0001
0010
0000
0011
0000
,
1100
0000
0001
0100
0010
0000
0001
0100
,
0010
0000
0001
0100
0010
0000
1010
0000
,
0101
0000
1000
0100
0010
0000
1000
0100
,
0010
0000
1000
0100
0010
0000
1100
0000
,
0011
0000
0100
0001
0010
0000
0100
0001
,
0010
0000
0100
0001
0010
0000
0101
0000
,
1010
0000
1100
0000
0010
0001
0100
0000
,
0010
0000
1100
0000
0010
0001
0100
0000
,
0010
0000
0101
0000
0010
1000
0100
0000
,
0010
0000
0101
0000
0010
1000
0100
0000
,
0001
0000
1000
0100
0001
0000
1000
0100
,
0001
0000
1000
0100
0001
0000
0110
0000
,
1001
0000
0001
0010
1000
0000
0001
0010
,
1000
0000
0001
0010
1000
0000
0110
0000
,
1100
0001
1000
0000
0100
0010
0001
0100
,
0010
1000
0100
0000
0010
0100
1000
0010
,
0100
0001
1000
0000
0010
1000
0100
0001
,
0100
1000
0010
0100
0001
0000
1001
0000
,
0101
1000
0001
0000
0100
0010
1000
0100
,
0010
0001
0100
0000
0010
0100
0001
0010
,
0100
1000
0001
0000
0010
0001
0100
1000
,
0100
0001
0010
0100
1000
0000
1001
0000
,
1100
0001
1000
0000
0010
1000
0100
0010
,
0100
1000
0010
0000
0010
0100
0001
0010
,
0100
0010
0001
0000
0001
0100
1000
0100
,
0001
0010
0100
0010
0001
0000
1001
0000
,
0101
1000
0001
0000
0010
0001
0100
0010
,
0100
0001
0010
0000
0010
0100
1000
0010
,
0100
0010
1000
0000
1000
0100
0001
0100
,
1000
0010
0100
0010
1000
0000
1001
0000
,
0010
0100
0010
0000
1001
0000
0110
0000
,
1000
0001
0100
0000
1100
0000
0101
0000
,
0010
0100
1000
0000
1010
0000
0101
0000
,
0010
1001
0100
1001
,
0100
0010
0100
0000
1001
0000
0110
0000
,
0001
1000
0100
0000
0101
0000
1100
0000
,
0010
0100
0001
0000
0011
0000
1100
0000
,
0010
1001
0100
1001
,
1000
0100
0001
0100
0010
0001
0100
0000
,
0001
0100
1000
0100
0010
1000
0100
0000
,
0001
1100
0001
1100
,
0010
0000
1000
0001
0000
1000
0101
0000
,
1000
0100
0001
0100
1000
0100
1000
0100
,
0001
1000
0100
0000
0011
0000
1100
0000
,
0001
0000
0110
0000
1000
0000
0010
1000
,
0001
0100
0010
0000
1001
0000
0110
0000
,
1001
0010
0100
1000
0010
0100
0001
0010
,
0000
0010
0100
1000
0010
0100
0001
1000
,
0000
1000
0010
0100
0010
1000
0100
0010
,
0000
0001
0100
0001
1000
0100
0001
0000
,
1000
0100
0010
0001
0100
0010
1000
0100
,
0000
0100
0010
0001
0100
0010
1000
0001
,
0000
0001
0100
0010
0100
0001
0010
0100
,
0000
1000
0100
1000
0001
0100
1000
0000
,
0101
0000
0000
0000
1000
0100
0000
0010
,
0000
0001
0000
0100
0000
0000
0001
0000
,
1000
0000
0000
0100
1000
0010
0100
0001
,
0000
1000
0000
0000
0000
0100
1000
0000
,
0100
0000
0001
0000
0100
1000
0001
0100
,
0000
0000
0100
0000
0010
0000
1000
0100
,
0010
0001
0100
0001
1000
0100
1000
0010
,
0000
0100
0000
0000
0001
1000
0100
0000
,
1001
0000
1000
0000
0001
0000
0001
1000
,
0000
1000
0100
0010
0001
1000
0001
0100
,
1000
0000
0100
0000
0001
0000
1000
0010
,
0100
0000
0010
0001
0010
0000
1000
0100
,
0010
0000
0001
0000
0100
0000
0001
0010
,
0000
0001
1000
0000
0001
0100
0001
0000
,
1000
0000
0100
0100
0000
1000
0000
0001
,
0000
0100
0100
0010
0010
0000
1000
0000
,
1001
0001
0100
0010
1000
0100
0010
0010
,
0000
0100
0010
0001
1000
0001
0100
1000
,
0000
0100
0001
0010
0100
1000
0001
0100
,
0000
0100
0001
1000
0100
1000
1000
0000
,
1001
1000
0010
0100
0001
0010
0100
0100
,
0000
0010
0100
1000
0001
1000
0010
0001
,
0000
0010
1000
0100
0010
0001
1000
0010
,
0000
0010
0000
1000
0000
0100
1000
0001
,
0101
0000
0000
0001
0000
0000
0001
0000
0000
0000
1000
0000
0100
0000
0010
0000
,
0001
0000
0000
0001
0000
0000
0001
0000
0000
0000
1000
0000
0100
0000
0010
0000
,
0001
0000
0000
0001
0000
0000
0001
0000
0000
0000
1000
0000
0100
0000
0010
0000
,
0001
0000
0000
0100
0000
0000
0010
0000
0000
0000
1000
0000
0001
0000
0100
0000
,
1001
0000
0000
1000
0000
0000
1000
0000
0000
0000
0010
0000
1000
0000
0100
0000
,
0010
0000
0000
0010
0000
0000
0010
0000
0000
0000
0100
0000
1000
0000
0001
0000
,
1000
0000
0000
0100
0000
0000
0001
0000
0000
0000
0100
0000
1000
0000
0010
0000
,
0100
0000
0000
0001
0000
0000
0010
0000
0000
0000
0001
0000
1000
0000
1010
0000
,
0001
0100
0001
1000
0000
0010
0000
0100
,
0000
0001
0102
0000
0000
0020
0003
0000
,
0130
1000
0100
0010
0000
0001
0000
1000
,
0010
0100
0010
0100
0010
0100
0010
0100
,
0101
0001
0100
0010
0000
1000
0000
0010
,
0000
0100
1200
0000
0000
0020
0300
0000
,
0130
1000
0010
0100
0000
0001
0000
0000
,
1001
0000
0000
0020
0200
0000
0000
0000
0000
0000
0000
0000
0330
0000
0000
0000
,
0002
0000
0000
0000
0023
0000
0000
0000
0031
0010
0001
0010
0001
0000
0010
0000
,
0200
0000
0000
0000
2300
0000
0000
0000
3100
1000
0100
1000
0100
0000
1000
0000
,
0100
0010
0000
0010
0100
0000
0100
0000
1000
0000
0000
1000
0010
0000
1000
0000
,
0010
0000
0000
0100
0001
0000
0001
0010
0000
0010
0100
0000
0100
0000
1000
0000
,
0001
0010
0000
0001
0010
0000
0100
0000
1000
0000
1000
0000
2000
0000
0000
0000
,
3010
0100
0010
0100
0010
0000
0100
0000
0020
0000
0000
0000
2030
0000
0000
0000
,
3001
1000
0001
1000
0001
1000
0001
1000
0100
1000
0100
1000
0001
0010
0001
0010
,
0001
0000
0000
0000
1001
0000
0000
0000
0100
0010
0100
0010
0100
0010
0100
0000
,
1001
1000
0010
0000
0101
0000
0010
0000
,
0001
0100
0000
1010
0000
0001
0010
0100
,
2000
0100
0000
0010
0000
0001
3000
1000
,
0010
0000
0010
1000
0000
1010
0000
0000
,
1001
0001
0100
0000
1010
0000
0100
0000
,
0010
0001
0100
0010
0000
0010
1000
0200
,
0000
0000
0000
0020
0000
0330
0000
0001
,
0010
0000
0100
1000
0000
1001
0000
0000
,
0110
0000
0000
0000
0001
0000
0000
0010
0100
0000
0000
0000
1000
0000
0000
0000
,
0001
0010
0100
1000
0000
0011
0000
1000
,
0100
0010
0001
0010
1000
0000
0011
1000
,
0010
0000
0000
0001
0000
0000
0200
0000
0010
0000
0000
0000
0310
0000
0100
0000
,
1001
0001
0100
1000
0100
0000
1010
0000
,
0001
0010
0001
0100
0000
1100
0000
0000
,
0001
0001
1000
1000
0010
0010
0100
0100
,
0001
0000
0000
1000
0000
0000
0010
0000
0200
0000
0000
0000
0310
0000
0000
0000
,
0100
0001
0100
0000
0001
1000
0001
0000
1000
0010
1000
0000
0010
0000
0100
0000
,
1001
0010
0100
0010
0000
1001
0000
0200
,
0000
0301
0010
1000
0000
0011
0000
1000
,
0100
0001
0100
0001
0000
1100
0000
0001
,
0100
0001
0100
0010
1000
0010
1000
0001
,
1001
1000
0010
0100
0000
1001
0000
0010
,
0001
0100
1000
0100
0000
0101
0000
0020
,
0000
1000
1000
1000
0000
0130
0000
0200
,
0000
0001
0001
0001
0001
0301
0000
0010
,
1001
0100
1000
0010
0000
0110
0000
0000
,
0001
0010
1000
0100
0000
1010
0000
0000
,
0001
0010
0001
0010
0000
0101
0000
0000
,
0001
0010
0001
1000
0100
1000
0100
0010
,
0110
0100
1000
0001
0000
0110
0000
1000
,
0010
0001
0010
0001
0000
0011
0000
1000
,
0010
0001
0010
1000
0000
0011
0000
0100
,
0000
1000
0100
0010
0100
0102
0000
0000
,
2003
0000
0000
0000
3200
0000
0000
0000
1300
0100
1000
0100
1000
0000
0100
0000
,
0020
0000
0000
0000
0032
0000
0000
0000
0013
0001
0010
0001
0010
0000
0001
0000
,
0010
0100
0000
0100
0010
0000
0000
0010
0001
0000
0000
0001
0100
0000
0001
0000
,
0100
0010
0000
0010
1000
0000
1000
0100
0000
0100
0010
0000
0010
0000
0001
0000
,
1000
0100
0000
1000
0100
0000
0010
0000
0001
0000
0001
0000
0002
0000
0000
0000
,
0103
0010
0100
0010
0100
0000
0010
0000
0200
0000
0000
0000
0302
0000
0000
0000
,
1003
0001
1000
0001
1000
0001
1000
0001
0010
0001
0010
0001
1000
0100
1000
0100
,
1000
0000
0000
0000
1001
0000
0000
0000
0010
0100
0010
0100
0010
0100
0010
0000
,
2002
0000
3003
0110
,
1001
0000
0100
0010
0001
0100
0001
0000
,
0100
0000
0101
0000
1000
0001
0100
0000
,
0100
0000
0100
0000
0010
0100
0010
0000
,
1000
0010
1000
0100
0001
0100
1000
0010
,
1000
0000
0000
0100
0000
0000
0001
0000
0000
0010
0000
0000
1000
0000
0000
0000
,
0100
0000
0100
0000
0100
0000
0000
0000
0100
0001
0000
0100
1000
0000
0000
0000
,
0101
0000
1010
0000
1001
0000
0100
0100
,
0001
0010
0100
1000
0010
0001
0100
0010
,
1001
0000
0000
1000
0001
0000
0100
0000
0000
0010
0000
0000
1000
0000
0001
0000
,
0101
0000
1100
0000
0101
0000
0100
0100
,
0100
0000
0000
0010
1000
0000
0001
0000
0000
0100
0000
0000
0001
0000
1000
0000
,
1100
0000
0101
0000
1100
0000
0100
0100
,
0100
0000
0000
1000
0010
0000
0100
0000
0000
0001
0000
0000
1000
0000
0001
0000
,
0011
0000
1100
0000
0011
0000
0100
0100
,
0100
0000
0000
0001
0010
0000
0100
0000
0000
1000
0000
0000
0010
0000
0100
0000
,
0001
0000
1000
0000
0001
0000
0000
0000
0110
0000
0000
0000
1000
0001
1000
0000
,
0110
0000
0001
1000
0000
0010
0100
0001
,
0100
0000
1000
0100
0000
0100
0001
0010
,
0100
0000
1000
0100
0000
0001
0100
1000
,
0010
0000
0010
0001
0000
0001
0010
1000
,
0100
0010
0100
0010
0100
1000
0100
1000
,
0001
1000
0001
1000
0100
1001
0000
0001
,
0100
0010
0100
0010
0100
0001
0100
0001
,
1000
0001
1000
0001
0100
1001
0000
0110
,
1000
0000
0100
0000
0010
0001
0000
1000
0100
0000
0010
0000
0001
0000
1000
0000
,
0001
0000
0010
0000
0100
1000
0000
0001
0010
0000
0100
0000
1000
0000
0001
0000
,
0100
0000
0010
0000
1000
0001
0000
0100
0010
0000
1000
0000
0001
0000
0010
0000
,
0100
0000
1000
0000
0001
0100
0000
0010
1000
0000
0001
0000
0100
0000
0010
0000
,
1000
0000
0100
0000
0001
0100
0000
1000
0100
0000
0010
0000
0100
0000
1000
0000
,
0001
0000
0100
0000
1000
0100
0000
0001
0100
0000
0010
0000
0100
0000
0001
0000
,
1000
0000
0010
0000
0001
0010
0000
1000
0010
0000
0100
0000
0010
0000
1000
0000
,
0001
0000
0010
0000
1000
0010
0000
0001
0010
0000
0100
0000
0010
0000
0001
0000
,
1001
0000
1000
0000
0001
1000
0000
0100
0000
0010
0000
0000
0000
0000
0100
0000
,
0010
0000
0001
0000
1000
0001
0000
0100
0000
0000
0000
0000
0010
0000
0100
0000
,
1000
0000
0001
0000
1000
0001
0000
0010
0000
0100
0000
0000
0000
0000
0010
0000
,
0100
0000
1000
0000
0001
1000
0000
0010
0000
0000
0000
0000
0010
0000
0100
0000
,
0001
0000
0001
0000
1000
0010
0000
0100
0000
0100
0000
0000
0000
0000
0001
0000
,
0100
0000
0100
0000
0001
1000
0000
0100
0000
0000
0000
0000
0010
0000
0100
0000
,
1000
0000
1000
0000
0001
0100
0000
0010
0000
0010
0000
0000
0000
0000
0000
0000
,
1000
0100
0010
0001
,
1000
0100
0010
0001
,
0110
0000
1001
0000
,
0010
0100
0100
0000
,
0001
0100
0001
0000
,
0010
0001
0010
0000
,
1000
0010
1000
0000
,
0100
1000
0100
0000
,
1000
0100
0001
0000
,
0001
0010
1000
0000
,
1000
0100
1100
0000
,
0001
0100
0101
0000
,
1000
0001
0101
0000
,
0001
1000
1100
0000
,
0001
0010
0011
0000
,
1000
0010
1010
0000
,
0001
1000
1010
0000
,
1000
0001
0011
1010
,
1001
0000
0000
0100
0000
0000
0001
0000
,
0000
0010
0000
0000
1000
0000
0000
0000
,
1000
0000
0000
0010
0000
0000
1000
0000
,
0000
0100
0000
0000
0010
0000
0000
0000
,
1000
0000
0000
0001
0000
0000
0010
0000
,
0000
1000
0000
0000
0101
0000
0000
0000
,
0001
0000
0000
0010
0000
0000
0100
0000
,
0000
1000
0000
0000
1100
0000
0000
0000
,
0001
0000
0000
0010
0000
0000
1000
0000
,
0000
0100
0000
0000
0001
0000
0000
0000
,
0001
0000
0000
0100
0000
0000
0001
0000
,
0000
0010
0000
0000
0100
0000
0000
0000
,
0001
0000
0000
1000
0000
0000
0100
0000
,
0000
0001
0000
0000
1010
0000
0000
0000
,
1000
0010
0100
0001
,
1000
0010
0100
0001
,
1002
0100
0000
0100
,
0000
0100
0000
0100
,
0000
0000
0103
0000
0000
0000
1000
0100
,
0000
0000
0010
0001
0000
0000
0001
1000
,
0002
1000
0000
1003
,
0200
0000
0310
0002
,
0000
0203
0010
0000
,
0310
1000
1001
1000
,
0100
0020
0000
0001
,
0000
0100
0000
0001
,
0000
0100
0000
0031
,
0000
0000
0001
0010
0000
0000
0100
1000
,
0000
0000
1000
0010
0100
0000
0010
1000
,
0100
0000
0100
0010
0001
0000
0010
0001
,
0010
0010
0002
0000
,
1000
0000
0103
0100
,
0201
0001
0000
0310
,
0000
0000
0001
0010
0001
0000
1000
0001
,
1000
0000
1000
0100
1000
0000
2000
0000
,
0000
0001
3002
0000
,
1003
0000
0001
0010
0000
0000
0010
0100
,
0020
0000
0000
0000
0130
0000
0100
1000
,
0100
0000
0010
0100
0010
0000
0001
0010
,
0001
0000
1000
0001
1000
0000
0100
0000
,
0010
0002
1000
2003
,
0001
0000
3002
1000
,
0000
1003
0000
0110
,
0000
0000
0010
0100
0010
0000
0000
0000
,
0100
0001
0000
0000
0100
0010
0000
0000
,
0010
1000
0001
0000
0010
0001
1000
0000
,
0010
1000
0001
0000
0001
0010
0100
0000
,
1000
0000
0100
0000
0010
0000
0100
0001
,
0100
0010
0200
0000
0000
0000
0010
0000
,
0000
0010
0000
0310
,
0000
1000
1000
0100
,
0010
0000
0001
1000
0001
0000
0000
0000
,
0010
0100
1000
0000
0000
0000
0010
0100
,
0001
0000
0000
0000
0010
1000
0001
0000
,
0000
0000
1000
0100
0010
0000
0010
0000
,
0100
0010
0001
1000
,
0100
1100
0000
1001
,
0000
1010
0000
0110
,
0000
1010
0000
1001
,
0000
0000
0010
0001
0010
0000
0000
0000
,
0001
1000
0010
0000
0000
0000
0010
1000
,
0001
0000
0001
0000
0100
0010
1000
0000
,
1000
0000
0100
0010
0001
0000
1001
0000
,
0001
0100
0010
1000
,
1100
1100
1001
1001
,
1010
1010
0110
0110
,
0101
0101
1001
1001
,
0100
0000
1000
0000
0100
0000
1000
0010
,
0100
0001
1000
1000
,
0010
0000
0001
0000
0010
0000
0001
0100
,
0010
1000
0001
1000
,
0001
0000
0100
0000
0001
0000
0100
0010
,
0100
0010
0100
0001
,
1000
0000
0010
0000
1000
0000
0010
0100
,
0010
0100
0001
0001
,
1000
0000
0100
0000
0010
0000
0001
0010
,
0100
1000
1100
0001
,
0001
0000
0010
0000
0100
0000
1000
0100
,
0010
0001
0101
1000
,
1000
0000
0010
0000
0100
0000
0001
0100
,
0010
1000
0100
0010
,
0100
0000
0001
0000
0100
0000
0010
0001
,
0010
0100
1000
0001
,
1001
1001
0110
0110
,
1001
1001
1010
1001
,
0101
1001
0011
1001
,
1100
0000
1000
0000
0100
0000
0010
0001
,
0100
0001
0001
0100
,
0010
0000
1000
0000
0100
0000
0100
1000
,
0001
1000
0010
0100
,
0001
0000
0100
0000
0010
0000
0010
1000
,
0010
0100
0001
0010
,
0100
0000
1000
0000
0010
0000
0100
0001
,
0010
0000
0010
0000
0001
0000
1000
0001
,
0100
0000
0001
0000
0010
0000
0001
1000
,
0010
0100
0001
1000
,
1001
0000
0001
0000
0010
0000
0100
1000
,
0001
0001
0010
0100
,
0110
1100
1001
0011
,
0110
1100
1001
1001
,
0011
1001
0101
1001
,
1100
0000
1000
0100
0010
0001
1000
0100
,
0010
0001
0010
0100
1000
0010
0100
0001
,
0100
0001
0100
0010
1000
0010
1000
0010
,
0100
0010
0100
0010
0100
0001
0100
0010
,
1000
0001
0010
0100
1000
0001
0010
0100
,
1000
0001
0100
0010
1000
0001
1000
0001
,
1000
0001
1000
0001
0010
0100
0010
0100
,
0010
0100
0010
0001
1000
0010
0100
0001
,
1000
0100
0010
0001
0010
0100
1000
0001
,
0010
0100
1000
0001
0010
0100
1000
0001
,
0010
0100
1000
0100
0010
0001
1000
0100
,
0010
0001
1000
0100
0010
0001
0100
0010
,
1000
0010
0100
0001
1000
0100
0010
0001
,
0100
0010
1000
0001
0010
0100
1000
0100
,
0010
0001
0010
0100
1000
0010
0100
0001
,
0100
0010
1000
0010
0100
0001
0010
0100
,
2000
0000
0000
0000
,
3000
0000
0000
0000
;

//---------------dance-single - ----------------
#NOTES:
     dance-single:
     :
     Hard:
     8:
     0.613,0.781,0.372,0.119,0.055: // measure 1
0010
0000
1000
0001
0010
0000
1000
0001
,  // measure 2
0010
0000
1000
0001
0010
0000
0011
0000
,  // measure 3
1100
0000
0001
0100
0010
0000
0001
0100
,  // measure 4
0010
0000
0001
0100
0010
0000
1010
0000
,  // measure 5
0101
0000
1000
0100
0010
0000
1000
0100
,  // measure 6
0010
0000
1000
0100
0010
0000
1100
0000
,  // measure 7
0011
0000
0100
0001
0010
0000
0100
0001
,  // measure 8
0010
0000
0100
0001
0010
0000
0101
0000
,  // measure 9
1010
0000
1100
0000
0010
0001
0100
0000
,  // measure 10
0010
0000
1100
0000
0010
0001
0100
0000
,  // measure 11
0010
0000
0101
0000
0010
1000
0100
0000
,  // measure 12
0010
0000
0101
0000
0010
1000
0100
0000
,  // measure 13
0001
0000
1000
0100
0001
0000
1000
0100
,  // measure 14
0001
0000
1000
0100
0001
0000
0110
0000
,  // measure 15
1001
0000
0001
0010
1000
0000
0001
0010
,  // measure 16
1000
0000
0001
0010
1000
0000
0110
0000
,  // measure 17
1100
0001
1000
0000
0100
0010
0001
0100
,  // measure 18
0010
1000
0100
0000
0010
0100
1000
0010
,  // measure 19
0100
0001
1000
0000
0010
1000
0100
0001
,  // measure 20
0100
1000
0010
0100
0001
0000
1001
0000
,  // measure 21
0101
1000
0001
0000
0100
0010
1000
0100
,  // measure 22
0010
0001
0100
0000
0010
0100
0001
0010
,  // measure 23
0100
1000
0001
0000
0010
0001
0100
1000
,  // measure 24
0100
0001
0010
0100
1000
0000
1001
0000
,  // measure 25
1100
0001
1000
0000
0010
1000
0100
0010
,  // measure 26
0100
1000
0010
0000
0010
0100
0001
0010
,  // measure 27
0100
0010
0001
0000
0001
0100
1000
0100
,  // measure 28
0001
0010
0100
0010
0001
0000
1001
0000
,  // measure 29
0101
1000
0001
0000
0010
0001
0100
0010
,  // measure 30
0100
0001
0010
0000
0010
0100
1000
0010
,  // measure 31
0100
0010
1000
0000
1000
0100
0001
0100
,  // measure 32
1000
0010
0100
0010
1000
0000
1001
0000
,  // measure 33
0010
0100
0010
0000
1001
0000
0110
0000
,  // measure 34
1000
0001
0100
0000
1100
0000
0101
0000
,  // measure 35
0010
0100
1000
0000
1010
0000
0101
0000
,  // measure 36
0010
1001
0100
1001
,  // measure 37
0100
0010
0100
0000
1001
0000
0110
0000
,  // measure 38
0001
1000
0100
0000
0101
0000
1100
0000
,  // measure 39
0010
0100
0001
0000
0011
0000
1100
0000
,  // measure 40
0010
1001
0100
1001
,  // measure 41
1000
0100
0001
0100
0010
0001
0100
0000
,  // measure 42
0001
0100
1000
0100
0010
1000
0100
0000
,  // measure 43
0001
1100
0001
1100
,  // measure 44
0010
0000
1000
0001
0000
1000
0101
0000
,  // measure 45
1000
0100
0001
0100
1000
0100
1000
0100
,  // measure 46
0001
1000
0100
0000
0011
0000
1100
0000
,  // measure 47
0001
0000
0110
0000
1000
0000
0010
1000
,  // measure 48
0001
0100
0010
0000
1001
0000
0110
0000
,  // measure 49
1001
0010
0100
1000
0010
0100
0001
0010
,  // measure 50
0000
0010
0100
1000
0010
0100
0001
1000
,  // measure 51
0000
1000
0010
0100
0010
1000
0100
0010
,  // measure 52
0000
0001
0100
0001
1000
0100
0001
0000
,  // measure 53
1000
0100
0010
0001
0100
0010
1000
0100
,  // measure 54
0000
0100
0010
0001
0100
0010
1000
0001
,  // measure 55
0000
0001
0100
0010
0100
0001
0010
0100
,  // measure 56
0000
1000
0100
1000
0001
0100
1000
0000
,  // measure 57
0101
0000
0000
0000
1000
0100
0000
0010
,  // measure 58
0000
0001
0000
0100
0000
0000
0001
0000
,  // measure 59
1000
0000
0000
0100
1000
0010
0100
0001
,  // measure 60
0000
1000
0000
0000
0000
0100
1000
0000
,  // measure 61
0100
0000
0001
0000
0100
1000
0001
0100
,  // measure 62
0000
0000
0100
0000
0010
0000
1000
0100
,  // measure 63
0010
0001
0100
0001
1000
0100
1000
0010
,  // measure 64
0000
0100
0000
0000
0001
1000
0100
0000
,  // measure 65
1001
0000
1000
0000
0001
0000
0001
1000
,  // measure 66
0000
1000
0100
0010
0001
1000
0001
0100
,  // measure 67
1000
0000
0100
0000
0001
0000
1000
0010
,  // measure 68
0100
0000
0010
0001
0010
0000
1000
0100
,  // measure 69
0010
0000
0001
0000
0100
0000
0001
0010
,  // measure 70
0000
0001
1000
0000
0001
0100
0001
0000
,  // measure 71
1000
0000
0100
0100
0000
1000
0000
0001
,  // measure 72
0000
0100
0100
0010
0010
0000
1000
0000
,  // measure 73
1001
0001
0100
0010
1000
0100
0010
0010
,  // measure 74
0000
0100
0010
0001
1000
0001
0100
1000
,  // measure 75
0000
0100
0001
0010
0100
1000
0001
0100
,  // measure 76
0000
0100
0001
1000
0100
1000
1000
0000
,  // measure 77
1001
1000
0010
0100
0001
0010
0100
0100
,  // measure 78
0000
0010
0100
1000
0001
1000
0010
0001
,  // measure 79
0000
0010
1000
0100
0010
0001
1000
0010
,  // measure 80
0000
0010
0000
1000
0000
0100
1000
0001
,  // measure 81
0101
0000
0000
0001
0000
0000
0001
0000
0000
0000
1000
0000
0100
0000
0010
0000
,  // measure 82
0001
0000
0000
0001
0000
0000
0001
0000
0000
0000
1000
0000
0100
0000
0010
0000
,  // measure 83
0001
0000
0000
0001
0000
0000
0001
0000
0000
0000
1000
0000
0100
0000
0010
0000
,  // measure 84
0001
0000
0000
0100
0000
0000
0010
0000
0000
0000
1000
0000
0001
0000
0100
0000
,  // measure 85
1001
0000
0000
1000
0000
0000
1000
0000
0000
0000
0010
0000
1000
0000
0100
0000
,  // measure 86
0010
0000
0000
0010
0000
0000
0010
0000
0000
0000
0100
0000
1000
0000
0001
0000
,  // measure 87
1000
0000
0000
0100
0000
0000
0001
0000
0000
0000
0100
0000
1000
0000
0010
0000
,  // measure 88
0100
0000
0000
0001
0000
0000
0010
0000
0000
0000
0001
0000
1000
0000
0010
0000
,  // measure 89
1000
0010
1000
0001
0000
0100
0000
0010
,  // measure 90
0000
1000
2010
0000
0000
0200
3000
0000
,  // measure 91
0310
0001
0010
0100
0000
1000
0000
0001
,  // measure 92
1000
0010
0100
0010
0100
0010
0100
0010
,  // measure 93
1010
1000
0010
0100
0000
0001
0000
0100
,  // measure 94
0000
0010
0021
0000
0000
0200
0030
0000
,  // measure 95
0310
0001
0100
0010
0000
1000
0000
0000
,  // measure 96
1001
0000
0000
0200
0020
0000
0000
0000
0000
0000
0000
0000
0330
0000
0000
0000
,  // measure 97
2000
0000
3200
0000
0310
0001
0100
0010
,  // measure 98
2000
0000
3002
0000
0103
0010
1000
0100
,  // measure 99
0010
0001
0000
0001
0010
0000
0100
0000
1000
0100
0000
0100
1000
0000
0001
0000
,  // measure 100
0100
0000
0000
0010
0000
0000
1000
0000
0000
0100
0000
0000
0010
0000
0001
0000
,  // measure 101
1000
0100
0000
1000
0100
0000
0010
0000
0001
0000
0001
0000
0002
0000
0000
0000
,  // measure 102
1003
0100
1000
0010
0200
0000
0302
0000
,  // measure 103
0013
0100
1000
0010
0100
0001
0001
1000
,  // measure 104
1000
0000
1001
0000
0010
0100
0010
0100
,  // measure 105
1001
0001
0100
0000
1010
0000
0100
0000
,  // measure 106
1000
0010
0000
0101
0000
1000
0100
0010
,  // measure 107
0002
0010
0000
0100
0000
1000
0003
0001
,  // measure 108
0100
0000
0100
0001
0000
0101
0000
0000
,  // measure 109
1001
1000
0010
0000
0101
0000
0010
0000
,  // measure 110
0100
1000
0010
0100
0000
0100
0001
0020
,  // measure 111
0000
0000
0000
0200
0000
0330
0000
1000
,  // measure 112
0100
0000
0010
0001
0000
1001
0000
0000
,  // measure 113
0110
0000
0000
0000
1000
0000
0000
0100
0010
0000
0000
0000
0001
0000
0000
0000
,  // measure 114
1000
0100
0010
0001
0000
1100
0000
0001
,  // measure 115
0010
0100
1000
0100
0001
0000
1100
0001
,  // measure 116
0100
0000
0000
1000
0000
0000
0020
0000
0100
0000
0000
0000
0130
0000
0010
0000
,  // measure 117
1001
1000
0010
0001
0010
0000
0101
0000
,  // measure 118
1000
0100
1000
0010
0000
0011
0000
0000
,  // measure 119
1000
1000
0001
0001
0100
0100
0010
0010
,  // measure 120
1000
0000
0000
0001
0000
0000
0100
0000
0020
0000
0000
0000
0130
0000
0000
0000
,  // measure 121
0010
1000
0000
0000
1000
0001
0000
0000
0001
0100
0000
0000
0100
0000
0010
0000
,  // measure 122
1001
0100
0010
0100
0000
1001
0000
0020
,  // measure 123
0000
1030
0100
0001
0000
1100
0000
0001
,  // measure 124
0010
1000
0010
1000
0000
0011
0000
1000
,  // measure 125
0010
1000
0010
0100
0001
0100
0001
1000
,  // measure 126
1001
0001
0100
0010
0000
1001
0000
0100
,  // measure 127
1000
0010
0001
0010
0000
1010
0000
0200
,  // measure 128
0000
0001
0001
0001
0000
0310
0000
0020
,  // measure 129
0000
1000
1000
1000
1000
1030
0000
0001
,  // measure 130
0100
0010
1000
0001
0000
0110
0000
0000
,  // measure 131
1000
0100
0001
0010
0000
0101
0000
0000
,  // measure 132
1000
0100
1000
0100
0000
1010
0000
0000
,  // measure 133
1000
0100
1000
0001
0010
0001
0010
0100
,  // measure 134
0110
0010
0001
1000
0000
0110
0000
0001
,  // measure 135
0100
1000
0100
1000
0000
1100
0000
0001
,  // measure 136
0100
1000
0100
0001
0000
1100
0000
0010
,  // measure 137
0000
0001
0010
0100
0010
2010
0000
0000
,  // measure 138
3002
0000
0023
0000
0130
1000
0010
0100
,  // measure 139
0002
0000
2003
0000
3010
0100
0001
0010
,  // measure 140
0100
1000
0000
1000
0100
0000
0010
0000
0001
0010
0000
0010
0001
0000
1000
0000
,  // measure 141
0010
0100
0000
0100
0001
0000
0001
0010
0000
0010
0100
0000
0100
0000
1000
0000
,  // measure 142
0001
0010
0000
0001
0010
0000
0100
0000
1000
0000
1000
0000
2000
0000
0000
0000
,  // measure 143
3001
0010
0001
0100
0020
0000
2030
0000
,  // measure 144
3100
0010
0001
0100
0010
1000
1000
0001
,  // measure 145
0002
0000
0000
0000
2003
0000
0000
0000
3010
0100
0010
0100
0010
0100
0010
0000
,  // measure 146
0220
0000
0330
0110
,  // measure 147
1001
0000
0010
0100
1000
0000
0101
0000
,  // measure 148
0010
0000
1100
0000
0001
0001
1000
0000
,  // measure 149
0010
0001
0100
0000
1000
0100
0001
0000
,  // measure 150
0001
0010
0100
1000
0010
0100
0001
0000
,  // measure 151
1000
0000
0000
0100
0000
0000
0001
0000
0000
0100
0000
0000
1000
0000
0000
0000
,  // measure 152
0010
0010
0010
0000
0011
0000
1100
0000
,  // measure 153
0010
0001
0010
1000
,  // measure 154
0010
0001
0100
0000
1000
0100
0001
0000
,  // measure 155
0100
1100
0101
1100
,  // measure 156
0001
0000
0001
0000
1000
0100
1000
0000
,  // measure 157
0100
0101
1100
0101
,  // measure 158
1000
0000
1000
0000
0001
0100
0001
0000
,  // measure 159
0100
1100
0101
1100
,  // measure 160
0010
0001
0100
0000
0010
1000
0100
0000
,  // measure 161
1000
0100
0001
0000
1100
0000
0101
0000
,  // measure 162
1000
0001
0100
0000
0010
0001
0100
0000
,  // measure 163
1001
0000
1000
0010
0000
0010
0100
0001
,  // measure 164
0100
0000
0100
0001
0000
0001
0010
0100
,  // measure 165
1000
0000
1000
0010
0000
0010
0001
0010
,  // measure 166
1000
0000
1000
0100
0000
0100
0010
0001
,  // measure 167
1000
0100
1000
0000
0010
1000
0010
0000
,  // measure 168
0001
0100
0001
0000
0100
1000
0100
0001
,  // measure 169
0010
0001
0010
0000
1000
0010
1000
0000
,  // measure 170
0100
0001
0100
0000
0001
0010
0001
0010
,  // measure 171
0100
1000
0010
1000
0100
1000
0010
0000
,  // measure 172
0100
0001
0010
0001
0100
0001
0010
0000
,  // measure 173
0001
1000
0001
0100
1000
0100
0001
0000
,  // measure 174
1000
0001
1000
0100
0001
0100
1000
0000
,  // measure 175
0001
0100
0001
0100
0001
1000
0001
1000
,  // measure 176
0001
0100
0010
1000
0100
0010
0001
0000
,  // measure 177
1000
0100
1000
0100
1000
0001
1000
0001
,  // measure 178
1000
0010
0100
0001
0010
0100
1000
0000
,  // measure 179
0010
0000
0100
0000
0010
1000
0001
0000
0100
0000
0000
0000
0100
0000
0000
0000
,  // measure 180
0100
0000
0001
0000
1000
0001
1000
0000
0100
0000
0000
0000
1000
0000
0100
0000
,  // measure 181
0010
0000
0100
0000
0010
0001
1000
0000
0100
0000
0000
0000
0100
0000
0000
0000
,  // measure 182
0100
0000
1000
0000
0010
1000
0001
0000
0100
0000
0000
0000
1001
0000
0000
0000
,  // measure 183
0100
0000
0010
0000
0100
0001
1000
0000
0010
0000
0000
0000
0010
0000
0000
0000
,  // measure 184
0010
0000
1000
0000
0001
1000
0001
0000
0010
0000
0000
0000
0001
0000
0010
0000
,  // measure 185
0100
0000
0010
0000
0100
1000
0001
0000
0010
0000
0000
0000
0010
0000
0000
0000
,  // measure 186
0010
0001
0100
1000
,  // measure 187
0010
0001
0100
1000
,  // measure 188
0010
0000
1010
0000
,  // measure 189
1000
0000
1100
0000
,  // measure 190
0010
0010
0100
0000
,  // measure 191
0001
0100
0100
0000
,  // measure 192
0001
0100
1000
0000
,  // measure 193
1000
0010
0001
0000
,  // measure 194
0010
0000
1010
0000
,  // measure 195
0011
0000
0100
0010
,  // measure 196
0100
0000
0101
0000
,  // measure 197
0001
0000
0011
0000
,  // measure 198
0100
0100
0010
0000
,  // measure 199
1000
0010
0010
0000
,  // measure 200
1000
0010
0001
0000
,  // measure 201
0001
0100
1000
0000
,  // measure 202
0100
0000
0101
0000
,  // measure 203
1100
0000
0010
0010
,  // measure 204
0001
0000
0000
0100
0000
0000
1000
0000
,  // measure 205
0000
0100
0000
0000
0001
0000
0000
0000
,  // measure 206
1000
0000
0000
0010
0000
0000
0100
0000
,  // measure 207
0001
0100
0000
0000
0101
0000
0000
0000
,  // measure 208
1000
0000
0000
0100
0000
0000
0001
0000
,  // measure 209
0000
0100
0000
0000
1000
0000
0000
0000
,  // measure 210
0001
0000
0000
0010
0000
0000
0100
0000
,  // measure 211
1000
0100
0000
0000
1100
0000
0000
0000
,  // measure 212
1000
0000
0000
0010
0000
0000
0100
0000
,  // measure 213
0000
0001
0000
0000
1000
0000
0000
0000
,  // measure 214
0010
0000
0000
0100
0000
0000
1000
0000
,  // measure 215
0000
0001
0000
0000
0010
0000
0000
0000
,  // measure 216
1000
0000
0000
0010
0000
0000
0100
0000
,  // measure 217
0000
1000
0000
0000
0100
0000
0000
0000
,  // measure 218
0001
0000
0000
0010
0000
0000
1000
0000
,  // measure 219
0000
0100
0000
0000
0001
0000
1000
0000
,  // measure 220
0002
0100
0000
0100
,  // measure 221
0000
0100
0000
0100
,  // measure 222
0000
0103
0000
1000
,  // measure 223
0000
0100
0010
0000
,  // measure 224
0002
1000
0000
1003
,  // measure 225
0200
0000
0310
0002
,  // measure 226
0000
0203
0010
0000
,  // measure 227
0310
1000
0000
1000
,  // measure 228
0100
0020
0000
0001
,  // measure 229
0000
0100
0000
0001
,  // measure 230
0000
0100
0000
0031
,  // measure 231
0000
0001
0010
0000
,  // measure 232
0100
1000
0000
0010
,  // measure 233
1000
0000
0100
1000
,  // measure 234
0000
0010
0002
0000
,  // measure 235
1000
0000
0103
0100
,  // measure 236
0201
0001
0000
0310
,  // measure 237
0000
1000
0010
0000
,  // measure 238
0001
0010
0000
2000
,  // measure 239
0000
0001
3002
0000
,  // measure 240
1003
0001
0000
0010
,  // measure 241
0020
0000
0130
0100
,  // measure 242
1000
0100
0100
0001
,  // measure 243
0100
0100
0000
0100
,  // measure 244
0010
0002
0000
2003
,  // measure 245
0001
0000
3002
1000
,  // measure 246
0000
1003
0000
0110
,  // measure 247
0000
0010
0010
0000
,  // measure 248
0100
0001
0000
0100
,  // measure 249
1000
0000
0010
1000
,  // measure 250
0000
0010
0001
0000
,  // measure 251
1000
0100
0010
0100
,  // measure 252
0001
0200
0000
0010
,  // measure 253
0000
0010
0000
0310
,  // measure 254
0000
1000
0000
1001
,  // measure 255
0000
0001
0001
0000
,  // measure 256
0010
1000
0000
0010
,  // measure 257
0100
0000
0100
0001
,  // measure 258
0000
1000
0001
0010
,  // measure 259
0100
0010
0001
1000
,  // measure 260
0100
1100
0000
1001
,  // measure 261
0000
1010
0000
0110
,  // measure 262
0000
1010
0000
1001
,  // measure 263
0000
0010
0011
0000
,  // measure 264
0001
0010
0000
0010
,  // measure 265
0001
0000
0010
1000
,  // measure 266
0000
1000
0100
0000
,  // measure 267
0001
0100
1000
0010
,  // measure 268
0100
0100
0001
0001
,  // measure 269
1000
1000
0010
0010
,  // measure 270
0100
0100
0010
0010
,  // measure 271
0100
0000
1000
0000
0100
0000
1000
0010
,  // measure 272
0100
0001
1000
0000
,  // measure 273
0010
0000
0001
0000
0010
0000
0001
0100
,  // measure 274
0010
1000
0001
0000
,  // measure 275
0001
0000
0100
0000
0001
0000
0100
0010
,  // measure 276
0100
0010
0100
0000
,  // measure 277
1000
0000
0010
0000
1000
0000
0010
0100
,  // measure 278
0010
0100
0001
0000
,  // measure 279
1000
0000
0100
0000
0010
0000
0001
0010
,  // measure 280
0100
1000
1100
0000
,  // measure 281
0001
0000
0010
0000
0100
0000
1000
0100
,  // measure 282
0010
0001
0101
0000
,  // measure 283
1000
0000
0010
0000
0100
0000
0001
0100
,  // measure 284
0010
1000
0100
0010
,  // measure 285
0100
0000
0001
0000
0100
0000
0010
0001
,  // measure 286
0010
0100
1000
0001
,  // measure 287
1001
1001
0100
0010
,  // measure 288
1001
0110
1010
1001
,  // measure 289
0101
1001
0011
1001
,  // measure 290
1100
1000
0100
0010
,  // measure 291
0100
0010
0001
0100
,  // measure 292
0010
1000
0010
0100
,  // measure 293
0001
1000
0010
0100
,  // measure 294
0001
0100
0010
1000
,  // measure 295
0010
0100
0001
1000
,  // measure 296
0010
0001
0010
0100
,  // measure 297
0010
0000
0100
0000
0001
0000
1000
0001
,  // measure 298
0100
0001
0010
1000
,  // measure 299
0010
0001
0100
0010
,  // measure 300
1000
0001
0010
0100
,  // measure 301
1000
0001
0010
0100
,  // measure 302
0110
1100
1001
0011
,  // measure 303
0110
1100
1001
0101
,  // measure 304
1001
1010
0110
0101
,  // measure 305
1001
0000
0001
0000
0010
0000
0100
1000
,  // measure 306
0100
0010
0001
0010
,  // measure 307
0100
0000
1000
0000
0100
0000
0010
0001
,  // measure 308
0100
0001
0010
0100
,  // measure 309
1000
0000
0001
1000
0010
0000
0100
0000
,  // measure 310
0001
0000
1000
0000
0100
0000
1000
0001
,  // measure 311
0100
0010
1000
0001
,  // measure 312
0010
0000
0100
1000
0010
0000
0100
0000
,  // measure 313
0001
0000
0010
0000
0100
0000
0010
0001
,  // measure 314
1000
0010
0100
0001
,  // measure 315
1000
0000
0100
0000
0010
0000
0001
0010
,  // measure 316
0001
0100
0001
1000
,  // measure 317
0001
0000
0100
0000
1000
0000
0100
0001
,  // measure 318
0100
1000
0100
0010
,  // measure 319
1000
0100
0010
0001
0100
0010
1000
0001
,  // measure 320
0010
0100
1000
0100
0010
0001
1000
0010
,  // measure 321
0200
0000
0000
0000
,  // measure 322
0300
0000
0000
0000
;

//---------------dance-single - ----------------
#NOTES:
     dance-single:
     :
     Medium:
     6:
     0.450,0.586,0.251,0.175,0.000:
0010
1000
0001
0000
,
0010
1000
0001
0000
,
1000
0100
0010
0000
,
1000
0100
0010
0000
,
0010
0001
1000
0000
,
0010
0001
1000
0000
,
0001
0100
0010
0000
,
0001
0100
0010
0000
,
0100
0001
0010
0000
,
0100
0001
0010
0000
,
0100
1000
0010
1000
,
0100
0010
0001
1000
,
0100
1000
0010
0000
,
0100
1000
0010
0000
,
0100
0001
0010
0001
,
0100
0010
1000
0001
,
1010
0000
0100
0000
0001
1000
0100
0000
,
0001
1100
0010
0001
,
1000
0010
0100
0001
,
1000
0001
1000
0000
0010
0000
0010
0000
,
1000
0101
0010
0100
,
1000
0101
0010
1000
,
0001
0010
0100
1000
,
0001
0000
0010
0100
1000
0000
0010
0000
,
0101
0000
0010
0000
0001
1000
0100
0000
,
0001
1010
0100
0001
,
1000
0100
0010
0001
,
1000
0001
1000
0001
0100
0000
0100
0000
,
1000
0011
0100
0001
,
1000
0011
0100
0010
,
0001
0100
0010
1000
,
0010
0100
0010
0100
0001
0000
1000
0000
,
0100
0000
1001
0000
0010
0100
1000
0000
,
0010
0000
1001
0000
0010
0100
0001
0000
,
0010
1001
0100
1001
,
0010
1001
0100
1001
,
0010
0000
1100
0000
0010
0001
0100
0000
,
1000
0000
0101
0000
0010
1000
0100
0000
,
0001
0110
0001
0110
,
1000
0110
1000
0110
,
0001
1000
0100
0000
1000
0100
0001
0000
,
0100
1000
0001
0000
1000
0001
0010
0000
,
1000
0011
1000
0101
,
0010
1100
0010
0101
,
1000
0010
0100
0000
0010
0100
0001
0000
,
0100
0001
0010
0000
0001
0010
1000
0000
,
0010
0001
0100
0000
0010
0000
0010
0000
,
1001
0110
1001
0110
,
1001
0000
1000
0000
1000
0000
1000
0100
,
0000
0000
0001
0000
0001
0000
0001
0100
,
0000
0000
1000
0000
1000
0000
1000
0100
,
0000
0000
0001
0000
1000
0001
0100
0000
,
1001
0000
0001
0000
0001
0000
0001
0010
,
0000
0000
1000
0000
1000
0000
1000
0010
,
0000
0000
0001
0000
0001
0000
0001
0010
,
0000
0000
1000
0000
0001
1000
0010
0000
,
1001
0000
1000
0100
,
1000
0001
0001
0000
,
0100
0000
0100
0001
,
1000
0000
0100
0100
,
1000
0000
0001
0001
,
0001
0000
1000
0100
,
0010
0000
0001
0000
0100
0000
0010
0100
,
0000
0010
0000
0000
0100
0000
0100
0000
,
1001
0000
0000
0000
0000
0000
1000
0100
,
0000
0010
0001
0000
0100
0000
0001
1000
,
0100
0000
0000
0000
0000
0000
0100
0001
,
0100
0000
0000
0000
0000
0000
0010
0100
,
0110
0000
0000
0000
0000
0000
0001
0100
,
0000
1000
0100
0000
0001
0001
0000
0000
,
1000
0000
0000
0100
0000
0001
0000
0010
,
0000
0100
0100
0010
0010
0000
0110
0000
,
1001
0000
0100
0000
0001
0000
1000
0100
,
0000
0000
0010
0000
0001
0000
1000
0100
,
0000
0000
0010
0000
0001
0000
1000
0100
,
0000
0010
0100
0000
0000
0100
0100
0000
,
1001
0000
0010
0000
1000
0000
0001
0010
,
0000
0000
0100
0000
1000
0000
0001
0010
,
0000
0000
0100
0000
1000
0000
0001
0010
,
0000
0100
0000
1000
0000
0010
0100
0001
,
1001
0000
1000
0000
,
1000
0000
1000
0000
,
0001
0000
0001
0000
,
0001
0000
1000
0001
,
1001
0000
1000
0000
,
1000
0000
1000
0000
,
0001
0000
0001
0000
,
0001
0000
1000
0001
,
1000
0000
0100
0000
0010
0001
0010
0000
,
0100
1000
0200
0000
0300
0020
0000
0000
,
0031
0010
0100
1000
,
0100
0010
0100
0000
0010
0100
0010
0000
,
1000
0000
0100
0000
0010
0001
0010
0000
,
0100
1000
0200
0000
0300
0020
0000
0000
,
0031
0010
0100
1000
,
2002
0000
0000
3003
,
0100
0000
0100
0000
0010
0010
0010
0000
,
1000
0000
1000
0000
0001
0001
0001
0000
,
1000
1100
0001
0101
,
1000
0001
1000
0000
0001
1000
0001
0000
,
0010
0000
0010
0000
0100
0100
0100
0000
,
1000
0000
1000
0000
0001
0001
0001
0000
,
1000
1010
0001
0011
,
1000
0001
1000
0000
0001
1000
0001
0000
,
1001
0100
0010
0100
,
0001
1000
0001
1000
,
0100
1000
0100
0000
0100
0010
0100
0000
,
0010
0000
0001
0000
1000
0010
1000
0000
,
0110
0001
1000
1000
,
0001
0000
0100
0010
0100
0000
0100
0000
,
0010
0000
1000
0010
1000
0000
0000
1000
,
0001
0000
0100
0010
0000
0110
0000
0000
,
1001
0000
0100
0000
1000
0010
0100
0000
,
0010
0000
0100
0000
0001
0010
0100
0000
,
1000
0000
0010
0000
0100
0010
1000
0000
,
0100
0010
0001
1000
,
1001
0000
0001
0000
0100
1000
0001
0000
,
1000
0000
0001
0000
0010
1000
0001
0000
,
0100
0000
1000
0000
0001
1000
0100
0000
,
0010
0000
0100
0010
0200
0000
0300
0000
,
1100
0101
1100
0101
,
1000
0000
0100
0000
1000
0100
0100
0000
,
0010
0000
0001
0000
0010
0001
0001
0000
,
1000
0000
0010
0000
1000
0010
0010
0000
,
0100
0100
0100
0000
0001
0001
0001
0000
,
0001
0000
0010
0000
0001
0010
0010
0000
,
0100
0000
1000
0000
0100
1000
1000
0000
,
0001
0000
0100
0000
0001
0100
0100
0000
,
0010
0010
0010
0000
1000
1000
1000
0000
,
0110
0000
0001
0000
0100
0001
0001
0000
,
1000
0000
0010
0000
1000
0010
0010
0000
,
0100
0000
1000
0000
0100
1000
1000
0000
,
0001
0001
0001
0000
0010
0010
0010
0000
,
0100
0000
1000
0000
0010
1000
1000
0000
,
0001
0000
0100
0000
0001
0100
0100
0000
,
0010
0000
0001
0000
0010
0001
0001
0000
,
2000
3100
0002
0103
,
1000
0000
1000
0000
0001
0001
0001
0000
,
0010
0000
0010
0000
0100
0100
0100
0000
,
0010
1010
0100
0101
,
0010
0100
0010
0000
0100
0010
0100
0000
,
0001
0000
0001
0000
1000
1000
1000
0000
,
0010
0000
0010
0000
0100
0100
0100
0000
,
0010
1010
0100
0101
,
0010
0100
0010
0000
0100
0010
0100
0000
,
2002
0000
3003
0110
,
1001
1000
0001
0001
,
0010
0000
0100
0000
1000
0001
0100
0000
,
0010
0010
0100
0100
,
0010
0001
0100
0000
0010
0000
1100
0000
,
0001
0001
1000
1000
,
0001
1000
0010
0000
1010
0000
0101
0000
,
0010
0010
0100
0100
,
0001
0100
0001
0000
1000
0100
1000
0000
,
0010
0010
0100
0100
,
0101
0101
1100
0101
,
0001
0001
1000
1000
,
1100
1100
1010
1100
,
0100
0100
0010
0010
,
0011
0011
1010
0011
,
0001
0001
1000
1000
,
1010
1010
1100
1010
,
1000
0100
0010
0000
0001
0000
0100
0000
,
1000
0000
0100
0000
0001
0000
0010
0001
,
0100
1000
0100
0001
,
0010
0000
0010
0000
0100
0000
0100
0001
,
1000
0010
1000
0010
,
0001
0000
0010
0000
1000
0000
0100
1000
,
0010
0001
0010
1000
,
0100
0000
0100
0000
0010
0000
0010
0001
,
1000
1000
1000
1000
,
1000
0000
1000
0000
1000
0000
1001
1000
,
1000
1000
1000
1000
,
1000
0000
1000
0000
1000
0000
1001
1000
,
0001
0001
0001
0001
,
0001
0000
0001
0000
0001
0000
1001
0001
,
0001
0001
0001
0001
,
0001
0000
0001
0000
0001
0000
1001
0001
,
1000
0100
0010
0000
0010
0000
0000
0000
,
1000
0100
0010
0000
1001
0000
0000
0000
,
1000
0100
0010
0000
0010
0000
0000
0000
,
1000
0010
0100
0000
1001
0000
0000
0000
,
0001
0010
0100
0000
1001
0000
0000
0000
,
0001
0010
0100
0000
0100
0000
0000
0000
,
0001
0100
0010
0000
1001
0000
0000
0000
,
0100
0000
0010
0000
,
0100
0000
0000
0000
,
0110
0000
1000
0000
,
0010
0000
0001
0000
,
0010
0000
1000
0000
,
0010
0000
0010
0010
,
0010
0000
0001
0000
,
0010
0000
1000
0000
,
0010
0000
0001
0000
,
0010
0000
0010
0010
,
0100
0000
0001
0000
,
0100
0000
1000
0000
,
0100
0000
0001
0000
,
0100
0000
0100
0100
,
0100
0000
1000
0000
,
0100
0000
0001
0000
,
0100
0000
1000
0000
,
0100
0000
0100
0100
,
0100
0000
0100
0000
,
0001
0000
0001
0000
,
0010
0000
1000
0000
,
0010
0000
0001
0000
,
0100
0000
0100
0000
,
0010
0000
0010
0000
,
1000
0000
0010
0000
,
0001
0000
0010
0000
,
0010
0000
0010
0000
,
1000
0000
1000
0000
,
0100
0000
0001
0000
,
0100
0000
1000
0000
,
0010
0000
0010
0000
,
0100
0000
0100
0000
,
0001
0000
0100
0000
,
1000
0000
0100
0000
,
1001
0002
0000
2003
,
0000
3020
0000
0230
,
0000
0300
0000
0010
,
0000
1000
0010
0000
,
0010
0100
0000
0200
,
0000
0010
0000
0001
,
0000
0010
0000
0302
,
0000
0100
0000
1000
,
0000
2003
0000
3002
,
0000
0203
0000
0320
,
0000
0030
0000
0100
,
0000
0001
0100
0000
,
0100
0010
0000
0020
,
0000
0100
0000
1000
,
0000
0100
0000
2000
,
0030
0000
3001
0100
,
0102
0000
0023
0000
,
0230
0000
2300
0000
,
3000
0000
0100
0000
,
0010
0100
0000
0100
,
1000
0000
2000
0000
,
0100
0000
0001
0000
,
0100
0000
3002
0000
,
1000
0000
0010
0000
,
0023
0000
0230
0000
,
2300
0000
3002
0000
,
0010
0003
0000
0100
,
0000
0010
0100
0000
,
0100
1000
0000
2000
,
0000
0100
0000
0001
,
0000
0100
0000
3002
,
0000
1003
0000
0010
,
0120
0000
2030
0000
,
3020
0000
0230
0000
,
0010
0300
0000
0001
,
0000
0001
1000
0000
,
1000
0001
0020
0000
,
0100
0000
1000
0000
,
0100
0000
1000
0000
,
0230
0000
0320
0000
,
0032
0000
2003
0000
,
3002
0000
2003
0000
,
0000
3100
0000
0010
,
0000
0001
0010
0000
,
0010
1000
0010
0000
,
0100
0001
0100
0000
,
0010
0001
0010
0000
,
0100
1000
0100
0000
,
2002
3003
2000
3100
,
0200
0310
0002
0013
,
0020
0130
2000
3001
,
0002
1003
1000
0000
,
0100
0010
0001
0000
,
1000
0000
0010
0000
,
0100
0001
1000
0000
,
0010
0000
0100
0000
,
0001
0100
1000
0000
,
0100
0000
0001
0000
,
1000
0100
0001
0000
,
0100
0000
0010
0000
,
1000
0100
0010
0000
,
0100
0000
0010
0000
,
0100
0010
0001
0000
,
0010
0000
1000
0000
,
1000
0010
0001
0000
,
0010
0000
1000
0000
,
0001
0010
1000
0000
,
0220
0330
0200
0310
,
0020
0130
0200
0301
,
0002
1003
2000
3002
,
1003
0000
1100
0000
,
0001
0000
0101
0000
,
0010
0000
0101
0000
,
0010
0100
0001
0000
,
2100
0000
3010
0000
,
0100
0000
0011
0000
,
0100
0000
0110
0000
,
1000
0000
0001
0010
,
0200
0000
1300
0000
,
0001
0000
1001
0000
,
0010
0000
0110
0000
,
1000
0000
1001
0000
,
0202
0303
0002
0013
,
0020
0130
0200
1300
,
2000
3100
0200
0310
,
0010
0001
0100
0000
,
0010
1000
0100
0000
,
1000
0100
0001
0000
,
0001
0010
1000
0000
,
1000
0010
0100
0000
,
0001
0010
0100
0000
,
1000
0001
1000
0000
,
0001
1000
0001
0000
,
1000
0100
0001
0100
,
1000
0100
0001
0100
,
1000
0010
0100
0001
,
0010
0100
1000
0100
,
0010
0001
0100
0010
,
1000
0001
0100
1000
,
0100
0001
0010
1000
,
0010
0001
0100
1000
,
0200
0000
0000
0000
,
0300
0000
0000
0000
;

//---------------dance-single - ----------------
#NOTES:
     dance-single:
     :
     Easy:
     4:
     0.332,0.547,0.180,0.214,0.000:
1000
1000
0010
0000
,
1000
0000
0001
0000
,
0100
0100
0010
0000
,
1000
0000
0100
0000
,
0001
0001
0100
0000
,
0001
0000
1000
0000
,
0010
0010
0100
0000
,
0001
0000
1000
0000
,
0001
0100
0000
0001
,
0000
0100
0010
1000
,
0000
0100
0000
1000
,
0001
0100
0000
0001
,
0000
0100
0001
0010
,
0000
0100
0000
0010
,
0001
1000
0000
0100
,
0000
1000
0000
0001
,
1000
0100
0010
0001
,
0100
0010
0100
0000
,
0001
0010
0100
1000
,
0001
0100
0100
0000
,
0010
0001
0100
0001
,
1000
0100
1000
0000
,
0001
0100
1000
0100
,
0001
0010
0001
0000
,
0001
0100
0010
1000
,
0100
0010
0100
0000
,
1000
0010
0100
0001
,
1000
0100
0100
0000
,
0010
1000
0100
1000
,
0001
0100
0001
0000
,
1000
0100
0001
0100
,
1000
0010
1000
0000
,
0010
0000
1000
0100
,
0001
0000
1000
0000
,
0001
0100
0010
0000
,
0001
0000
1000
0000
,
0010
0000
0001
0100
,
1000
0000
0001
0000
,
1000
0100
0010
0000
,
1000
0000
0001
0000
,
1000
0100
0001
0100
,
1000
0100
0001
0100
,
0010
0010
0100
0100
,
1000
0000
0001
0000
,
1000
0010
0001
0010
,
1000
0100
0001
0100
,
1000
0001
0000
0010
,
1001
0110
1001
0110
,
1001
1000
1000
1000
,
0000
0001
0001
0001
,
0000
1000
1000
1000
,
0000
0100
0001
0010
,
1001
0001
0001
0001
,
0000
1000
1000
1000
,
0000
0001
0001
0001
,
0000
0010
1000
0100
,
0110
0000
0000
0100
,
0001
0000
0000
0000
,
0000
1000
0000
0000
,
0000
0100
0000
1000
,
0010
0000
0100
0100
,
0001
0000
0000
0000
,
1000
0000
0001
0100
,
0000
0100
0100
0100
,
1001
0000
0000
1000
,
0000
0100
0100
1000
,
0001
0000
0000
0010
,
0010
0000
0000
0001
,
1001
0000
0000
1000
,
1000
1000
0000
0001
,
0001
0000
0100
0000
,
1000
0000
0010
0000
,
1001
0010
0010
0000
,
0100
0000
0100
0100
,
0001
0000
1000
1000
,
0000
0100
0000
0100
,
0110
0010
0010
0000
,
1000
0000
0001
0001
,
0100
0000
0001
0000
,
0010
0010
0100
0010
,
1001
0000
0000
0000
,
0100
0000
0000
0000
,
0001
0000
0000
0000
,
0100
0000
0000
0000
,
1001
0000
0000
0000
,
0100
0000
0000
0000
,
1000
0000
0000
0000
,
0100
0000
0000
0000
,
1001
0100
0001
0100
,
0001
0002
0000
2003
,
3000
0100
0010
0001
,
0001
0010
0100
1000
,
1001
0010
1000
0010
,
1000
2000
0000
3002
,
0003
0010
0100
1000
,
1001
0000
0000
0000
,
1000
1000
0100
0100
,
0010
0010
0001
0001
,
1000
1100
0001
0101
,
1000
0010
0100
0001
,
1001
0001
0010
0010
,
0100
0100
1000
1000
,
0001
0011
1000
1010
,
0001
0100
0010
1000
,
1001
0100
0000
0100
,
0000
0010
0000
0010
,
0100
0010
0100
0010
,
1000
0001
1000
0001
,
0110
1000
0000
0001
,
0000
1000
0000
0001
,
0100
0010
1000
0001
,
0100
0010
1000
0001
,
0101
0000
1100
0000
,
1000
0100
1000
0100
,
0010
0001
0010
0001
,
0011
0000
1010
0000
,
0011
0000
0101
0000
,
0100
0001
0100
0001
,
1000
0010
1000
0010
,
1000
0100
0010
0001
,
1001
0110
1001
0110
,
1000
0010
0010
1000
,
0001
0100
0100
0001
,
1000
0000
0100
0000
,
0001
0000
0010
0000
,
0100
1000
1000
0100
,
0010
0001
0001
0010
,
0100
0000
0001
0000
,
0010
0000
0001
0000
,
0100
0000
0010
0001
,
0001
0010
0100
1000
,
1000
0100
0010
0000
,
1000
0000
0100
0000
,
1001
1000
0010
0010
,
0100
0100
0001
0001
,
0100
1000
0100
0001
,
0100
1000
0100
0001
,
1000
1000
0100
0100
,
0010
0010
0001
0001
,
1000
1100
0001
0101
,
1000
0010
0100
0001
,
1001
0001
0010
0010
,
0100
0100
1000
1000
,
0001
0011
1000
1010
,
0001
0100
0010
1000
,
1001
0000
0000
0000
,
0010
0000
0000
0000
1000
0001
0100
0000
,
0010
0000
0010
0000
,
0010
1000
0010
0001
,
0010
0000
0010
0000
,
0100
0000
0100
0000
0001
1000
0100
0000
,
0100
0000
0100
0000
,
0100
1000
0100
0001
,
0100
0010
0110
0000
,
1000
0000
0001
0000
,
0100
0010
0110
0000
,
1000
0000
0001
0000
,
0010
0100
0110
0000
,
0001
0000
1000
0000
,
0010
0100
0110
0000
,
0001
0000
1000
0000
,
0100
0100
0100
0000
,
0001
0100
1000
0000
,
0100
0100
0100
0000
,
1000
0100
0001
0000
,
0010
0010
0010
0000
,
1000
0010
0001
0000
,
0010
0010
0010
0000
,
0001
0010
1000
0000
,
0010
0010
0010
0010
,
1000
1000
1000
1000
,
0100
0100
0100
0100
,
0001
0001
0001
0001
,
0010
0010
0010
0010
,
0001
0001
0001
0001
,
0100
0100
0100
0100
,
1000
1000
1000
1000
,
0010
1000
0010
0001
,
0000
1000
0001
0000
,
0010
1000
0010
0001
,
0000
1000
0001
0000
,
0100
0001
0100
1000
,
0000
0001
1000
0000
,
0100
0001
0100
1000
,
0000
0001
1000
0001
,
1001
0000
0000
0000
,
0100
0000
0000
0000
,
0100
0000
0000
0000
,
0100
0000
0001
0000
,
0010
0000
0000
0000
,
0010
0000
0000
0000
,
0010
0000
0000
0000
,
0010
0000
1000
0000
,
0100
0000
0000
0000
,
0100
0000
0000
0000
,
0100
0000
0000
0000
,
0100
0000
0001
0000
,
0010
0000
0000
0000
,
0010
0000
0000
0000
,
0010
0000
0000
0000
,
0010
0000
0000
0000
,
0010
0000
0000
0000
,
1000
0000
0000
0000
,
0100
0000
0000
0000
,
0001
0000
0000
0000
,
0010
0000
0010
0000
,
1000
0000
1000
0000
,
0100
0000
0100
0000
,
0001
0000
0001
0000
,
0100
0000
0000
0000
,
0001
0000
0000
0000
,
0010
0000
0000
0000
,
1000
0000
0000
0000
,
0100
0000
0100
0000
,
0001
0000
0001
0000
,
0010
0000
0010
0000
,
1000
0000
1000
0000
,
1001
0000
0000
0000
,
0000
0000
0000
0000
,
0010
2000
0000
3002
,
0000
0203
0000
0320
,
0000
0030
0000
1000
,
0000
1000
0001
0000
,
0001
1000
0000
0020
,
0000
0230
0000
0320
,
0000
0230
0000
0020
,
0000
0000
0000
0330
,
0000
0020
0000
2030
,
0000
3002
0000
0203
,
0000
0310
0000
1000
,
0000
0010
1000
0000
,
0001
0100
0000
0002
,
0000
2003
0000
3002
,
0000
2003
0000
0002
,
0000
0000
0000
3003
,
0000
2000
0000
3200
,
0000
0320
0000
0032
,
0000
0003
0000
0100
,
0000
0100
0100
0000
,
0001
0100
0000
0002
,
0000
0023
0000
0032
,
0000
0023
0000
0002
,
0000
0000
0000
0033
,
0000
2000
0000
3002
,
0000
0023
0000
0230
,
0000
1300
0000
0001
,
0000
0010
0001
0000
,
0001
0001
0000
0020
,
0000
0032
0000
0023
,
0000
0032
0000
0020
,
0000
0000
0033
0000
,
0110
0020
0000
2030
,
0000
3002
0000
0203
,
0000
0300
0000
0100
,
0000
0010
0100
0000
,
0100
1000
0000
0200
,
0000
0302
0000
0203
,
0000
0302
0000
0200
,
0000
0000
0000
0303
,
0000
0200
0000
0320
,
0000
2030
0000
3002
,
0000
0103
0000
0010
,
0000
1000
1000
0000
,
0001
0001
0000
2000
,
0000
3020
0000
2030
,
0000
3020
0000
2000
,
0000
0000
3030
0000
,
2200
3300
1001
0000
,
2002
3003
0110
0000
,
0110
0000
1001
0000
,
2002
3003
1000
0000
,
0010
0000
0001
0000
,
0100
0000
1000
0000
,
0100
0000
0001
0000
,
0010
0000
1000
0000
,
0001
0000
0010
0000
,
1000
0000
0100
0000
,
0001
0000
0010
0000
,
0100
0000
1000
0000
,
0010
0000
0100
0000
,
0001
0000
1000
0000
,
0010
0000
0100
0000
,
0010
0000
0010
0000
,
0100
0000
1000
0000
,
1000
0000
0001
0000
,
0001
0000
1000
0000
,
0220
0330
1100
0000
,
0202
0303
0011
0000
,
0101
0000
1010
0000
,
2200
0000
3300
0000
,
0010
0000
0010
0000
,
0100
0000
0001
0000
,
1000
0000
0010
0000
,
0220
0000
0330
0000
,
0100
0000
0100
0000
,
0010
0000
1000
0000
,
0001
0000
0100
0000
,
2002
0000
3003
0000
,
1000
0000
1000
0000
,
0001
0000
0100
0000
,
0010
0000
1000
0000
,
2002
3003
0110
0000
,
0220
0330
1010
0000
,
1100
0000
0011
0000
,
0202
0000
0303
0000
,
1000
0000
0001
0000
,
0100
0000
0010
0000
,
1000
0000
0100
0100
,
0220
0000
0330
0000
,
0100
0000
0001
0000
,
0100
0000
0010
0000
,
1000
0000
0010
0010
,
0220
0000
0330
0000
,
0001
0000
1000
0000
,
0010
0000
0100
0000
,
0001
0000
0010
0000
,
2002
0000
3003
0000
,
0100
0000
0010
0000
,
1000
0000
0001
0000
,
0100
0000
0010
0000
,
2002
0000
0000
0000
,
3003
0000
0000
0000
;
