#TITLE:COSMOPOLITAN Mix;
#SUBTITLE:(DDR SOLO -Side B-);
#ARTIST:Tony the TGR;
#TITLETRANSLIT:;
#SUBTITLETRANSLIT:;
#ARTISTTRANSLIT:;
#CREDIT:;
#BANNER:SOLOB.png;
#BACKGROUND:SOLOB-bg.PNG;
#LYRICSPATH:;
#CDTITLE:./CDTITLES/Dance Dance Revolution Solo.png;
#MUSIC:SOLOB.mp3;
#OFFSET:-0.044;
#SAMPLESTART:155.760;
#SAMPLELENGTH:12.000;
#SELECTABLE:YES;
#DISPLAYBPM:170.000;
#BPMS:0.000=170.000;
#STOPS:;
#BGCHANGES:;

//---------------dance-single - ----------------
#NOTES:
     dance-single:
     :
     Easy:
     4:
     0.336,0.483,0.235,0.000,0.000: // measure 1
0000
0000
0000
0000
,  // measure 2
0000
0000
0000
0000
,  // measure 3
0000
0000
0000
0000
,  // measure 4
0000
0000
0000
0000
,  // measure 5
0000
0000
0000
0000
,  // measure 6
0000
0000
0000
0000
,  // measure 7
0000
0000
0000
0000
,  // measure 8
0000
0000
0000
0000
,  // measure 9
1000
0000
0000
0000
,  // measure 10
0000
0000
0000
0000
,  // measure 11
0010
0000
0000
0000
,  // measure 12
0000
0000
0000
0000
,  // measure 13
1000
0010
0000
0000
,  // measure 14
0010
1000
0000
0000
,  // measure 15
0001
0010
0000
0000
,  // measure 16
0010
0001
0000
0000
,  // measure 17
0001
1000
0000
0000
,  // measure 18
1000
0001
0000
0000
,  // measure 19
0001
0110
0000
0000
,  // measure 20
1000
0110
0000
0000
,  // measure 21
0001
0100
0000
0000
,  // measure 22
1000
0100
0000
0000
,  // measure 23
1001
0110
0000
0000
,  // measure 24
1001
0110
0000
0000
,  // measure 25
0001
0000
1001
0000
,  // measure 26
1000
0000
1001
0000
,  // measure 27
0110
0000
0001
0000
,  // measure 28
0110
0000
1000
0000
,  // measure 29
0110
0000
1001
0000
,  // measure 30
0110
0000
1001
0000
,  // measure 31
0001
0000
1000
0000
,  // measure 32
0010
0001
0010
1000
,  // measure 33
0000
0000
0000
0000
,  // measure 34
0001
1000
0000
0000
,  // measure 35
1000
0001
0000
0000
,  // measure 36
0001
0110
0000
0000
,  // measure 37
1000
0110
0000
0000
,  // measure 38
0001
0100
0000
0000
,  // measure 39
1000
0100
0000
0000
,  // measure 40
0010
0100
0000
0000
,  // measure 41
1001
0010
0100
1001
,  // measure 42
0000
0000
0000
0000
,  // measure 43
0010
0100
0001
1000
,  // measure 44
0001
0000
0000
0000
,  // measure 45
0010
0000
0000
0000
,  // measure 46
0001
0010
0000
0000
,  // measure 47
0010
0001
0000
0000
,  // measure 48
1000
0010
0000
0000
,  // measure 49
0010
1000
0000
0000
,  // measure 50
0001
1000
0000
0000
,  // measure 51
1000
0001
0000
0000
,  // measure 52
0001
0110
0000
0000
,  // measure 53
1000
0110
0000
0000
,  // measure 54
0001
0100
0000
0000
,  // measure 55
1000
0100
0000
0000
,  // measure 56
0010
0100
0000
0000
,  // measure 57
0110
0001
1000
0110
,  // measure 58
0010
0001
0010
1000
,  // measure 59
0001
1000
0000
0000
,  // measure 60
1000
0110
1000
0100
,  // measure 61
1000
0001
0000
0000
,  // measure 62
0001
0110
1001
0010
,  // measure 63
1000
0001
0000
0000
,  // measure 64
0010
0110
0001
0100
,  // measure 65
0100
0001
0000
0000
,  // measure 66
0010
1000
1001
0110
,  // measure 67
0000
0001
1000
0100
,  // measure 68
0000
1000
0001
0100
,  // measure 69
0000
0010
0100
0100
,  // measure 70
0010
0100
0010
0001
,  // measure 71
0100
0000
0010
0100
,  // measure 72
0100
0010
0100
1000
,  // measure 73
0010
0000
0100
0010
,  // measure 74
0001
0100
0010
0100
,  // measure 75
0000
1000
0001
0100
,  // measure 76
0000
0001
1000
0100
,  // measure 77
0000
0001
1000
0100
,  // measure 78
0000
1000
0001
0100
,  // measure 79
0000
0100
1001
0100
,  // measure 80
0000
0100
1001
0100
,  // measure 81
0001
0000
1000
0001
1000
0001
1000
0000
,  // measure 82
0001
0100
1000
0000
,  // measure 83
0001
1000
0000
0000
,  // measure 84
1000
0110
1000
0100
,  // measure 85
1000
0001
0000
0000
,  // measure 86
0001
0110
1001
0010
,  // measure 87
1000
0001
0000
0000
,  // measure 88
0010
0110
0001
0100
,  // measure 89
0100
0001
0000
0000
,  // measure 90
0010
1000
0110
1001
,  // measure 91
0100
0001
0100
0001
,  // measure 92
0010
0001
0100
0001
,  // measure 93
0010
0001
0100
0001
,  // measure 94
0010
0000
0001
0000
0010
0001
0000
1000
,  // measure 95
0010
1000
0100
1000
,  // measure 96
0010
1000
0100
1000
,  // measure 97
0010
1000
0100
1000
,  // measure 98
0010
1000
0100
0100
,  // measure 99
1000
0001
1000
0001
1000
0000
0001
0000
,  // measure 100
0010
1000
0000
0000
,  // measure 101
1000
0110
1000
0100
,  // measure 102
1000
0001
0000
0000
,  // measure 103
0001
0110
1001
0010
,  // measure 104
1000
0001
0000
0000
,  // measure 105
0010
0110
0001
0100
,  // measure 106
0100
0001
0000
0000
,  // measure 107
0010
1000
1001
0110
,  // measure 108
0001
1000
0100
0100
,  // measure 109
0010
1000
0001
0110
,  // measure 110
1001
0000
0000
0000
,  // measure 111
0010
0000
0000
0000
,  // measure 112
0010
0000
1000
0000
,  // measure 113
0100
0000
0001
0000
,  // measure 114
0010
0100
0001
1000
,  // measure 115
1001
0001
0010
1000
,  // measure 116
0100
0010
0001
0010
,  // measure 117
0001
1000
0001
0100
,  // measure 118
0100
0010
1000
0010
,  // measure 119
1000
0001
1000
0100
,  // measure 120
0100
0010
1000
0100
,  // measure 121
0001
0010
1000
0100
,  // measure 122
1000
1000
0001
0001
,  // measure 123
1001
0010
0010
0000
,  // measure 124
1000
0010
0001
0010
,  // measure 125
1000
0001
0010
1000
,  // measure 126
1000
0010
0001
1000
,  // measure 127
0100
1000
0010
0001
,  // measure 128
0001
0010
1000
0001
,  // measure 129
0100
0010
0010
1000
,  // measure 130
0001
1000
0001
1000
,  // measure 131
0001
0000
0000
0010
,  // measure 132
0010
0000
0001
0000
,  // measure 133
1000
0001
1000
0100
,  // measure 134
0100
0000
1000
0000
,  // measure 135
0001
1000
0001
0010
,  // measure 136
0010
0000
1000
0000
,  // measure 137
0001
1000
0001
0100
,  // measure 138
0100
0000
0001
0000
,  // measure 139
1000
0001
1000
1001
,  // measure 140
0000
0010
0010
0000
,  // measure 141
0010
1000
0010
0001
,  // measure 142
0100
0010
0100
0001
,  // measure 143
0001
1000
0001
0100
,  // measure 144
0100
0010
0100
1000
,  // measure 145
1000
0001
1000
0100
,  // measure 146
0100
0010
1000
0100
,  // measure 147
0001
1000
0001
0100
,  // measure 148
1000
1000
0001
0001
,  // measure 149
1001
0010
0010
0000
,  // measure 150
1000
0010
0001
0010
,  // measure 151
1000
0001
0001
0100
,  // measure 152
0100
0001
1000
0001
,  // measure 153
0100
1000
1000
0010
,  // measure 154
0010
1000
0001
1000
,  // measure 155
0100
0010
0100
0001
,  // measure 156
1000
0010
0001
1000
,  // measure 157
0001
1000
0100
0100
,  // measure 158
1001
0010
0110
0100
,  // measure 159
1001
0000
0000
0000
,  // measure 160
0110
1001
0110
1001
,  // measure 161
0110
1000
0100
1000
,  // measure 162
0110
0001
0100
0001
,  // measure 163
1000
0010
0001
0100
,  // measure 164
0001
0010
1000
0100
,  // measure 165
1001
0010
0001
0100
,  // measure 166
1001
0010
1000
0100
,  // measure 167
0001
0000
1000
1000
,  // measure 168
1000
1000
0001
0001
,  // measure 169
0001
0110
1000
0010
,  // measure 170
1001
0100
0001
0010
,  // measure 171
1000
0000
0010
0010
,  // measure 172
0010
0010
0100
0100
,  // measure 173
0100
1001
1000
0010
,  // measure 174
0110
1000
0001
0000
,  // measure 175
1001
0110
1000
1000
,  // measure 176
1000
1000
0001
0001
,  // measure 177
0001
0001
1000
0100
,  // measure 178
1000
0100
0010
0001
,  // measure 179
0010
0001
0010
0010
,  // measure 180
0010
0010
0100
0100
,  // measure 181
0100
0100
0001
0010
,  // measure 182
1000
0100
1000
0100
,  // measure 183
0001
0000
0000
0000
1000
1000
0000
0000
,  // measure 184
0001
0000
0100
0000
,  // measure 185
0010
0000
0000
0000
1000
0100
0001
0000
,  // measure 186
1000
0000
0000
0000
0000
1000
0000
1000
,  // measure 187
0000
1000
0000
0000
0001
0001
0000
0000
,  // measure 188
1000
0000
0001
0001
,  // measure 189
1000
0000
0000
0000
1000
0010
0001
0000
,  // measure 190
1000
0000
0100
1000
,  // measure 191
0110
0000
1001
0000
0000
0010
0000
0000
,  // measure 192
0001
0000
0000
0100
0000
0000
1000
0000
,  // measure 193
0100
0001
0010
1000
,  // measure 194
0100
0001
0010
1000
,  // measure 195
0010
0001
0100
1000
,  // measure 196
0010
0001
0000
1001
,  // measure 197
0010
1000
0001
0110
,  // measure 198
1000
0010
0100
0001
,  // measure 199
0010
1000
0100
1001
,  // measure 200
0110
1001
0110
1000
,  // measure 201
1000
1000
1000
0001
,  // measure 202
0001
0001
0110
1000
,  // measure 203
0100
0010
1001
0001
,  // measure 204
0100
1000
0000
0100
,  // measure 205
0100
0100
0100
0001
,  // measure 206
0001
1000
1000
0010
,  // measure 207
1001
0110
0001
0110
,  // measure 208
1001
0010
1000
0001
,  // measure 209
0110
0100
1001
0100
,  // measure 210
1000
0000
0000
0000
,  // measure 211
0000
0000
0000
0000
,  // measure 212
0000
0000
0000
0000
,  // measure 213
0000
0000
0000
0000
,  // measure 214
0000
0000
0000
0000
,  // measure 215
0000
0000
0000
0000
,  // measure 216
0000
0000
0000
0000
,  // measure 217
0000
0000
0000
0000
,  // measure 218
0010
0000
0000
0000
0000
0000
0000
0001
,  // measure 219
0100
0000
0000
0100
,  // measure 220
0010
0000
0000
0000
0000
0000
0000
0100
,  // measure 221
0010
0000
0001
1000
,  // measure 222
0100
0000
0000
0000
0000
0000
0000
1000
,  // measure 223
0010
0000
0010
0001
,  // measure 224
0100
0000
0000
0000
,  // measure 225
0010
0001
0000
1000
0001
0000
0100
0000
,  // measure 226
0000
0000
0000
0000
0000
0000
0010
0010
,  // measure 227
0000
1000
0000
0010
0000
0001
0000
0010
,  // measure 228
0000
1000
0000
0100
0000
1000
0000
0010
,  // measure 229
0000
0100
0000
0001
0000
0100
0000
0001
,  // measure 230
1000
1000
0000
0000
0000
1000
0100
0100
,  // measure 231
0000
0001
0000
0010
0000
1000
0000
0010
,  // measure 232
0000
0001
0000
0100
0000
0001
0000
0010
,  // measure 233
0000
0100
0000
1000
0000
0100
0000
1000
,  // measure 234
0001
0001
0000
1000
0000
0001
0100
0000
,  // measure 235
0000
0000
0000
0000
0100
1000
0001
0000
,  // measure 236
0000
0000
0000
0001
0100
0000
0000
0001
,  // measure 237
0001
0000
1000
0010
0100
0000
1001
0000
,  // measure 238
0000
0000
1000
0001
1000
0001
1000
0001
,  // measure 239
0000
1000
0000
0010
0000
0001
0000
0010
,  // measure 240
0000
1000
0000
0100
0000
1000
0000
0010
,  // measure 241
0000
0100
0000
0001
0000
0100
0000
0001
,  // measure 242
1000
1000
0000
0000
0000
1000
0100
0100
,  // measure 243
0000
0001
0000
0010
0000
1000
0000
0010
,  // measure 244
0000
0001
0000
0100
0000
0001
0000
0010
,  // measure 245
0000
0100
0000
1000
0000
0100
0000
1000
,  // measure 246
0001
0001
0000
1000
0000
0001
0100
0000
,  // measure 247
0000
0000
0000
1001
,  // measure 248
0010
0010
0000
1000
0100
0000
0001
0000
,  // measure 249
0000
0000
0000
0010
0000
0010
1000
0001
,  // measure 250
0000
0100
0010
0000
0001
0000
0000
0000
,  // measure 251
0000
0000
0000
0000
,  // measure 252
0000
0000
0000
1001
,  // measure 253
0010
0010
0010
0010
,  // measure 254
0010
0010
0100
1001
,  // measure 255
0100
0100
0100
1000
,  // measure 256
0000
0001
0000
0010
,  // measure 257
0000
0100
0000
1001
,  // measure 258
0000
0000
0000
0100
,  // measure 259
0100
0000
0010
0000
0001
0100
0000
1000
,  // measure 260
0010
0011
1100
1000
,  // measure 261
0010
0000
0010
0000
1000
0100
0000
0001
,  // measure 262
0010
0011
1100
0001
,  // measure 263
0010
0000
0100
0000
1000
0010
0000
0001
,  // measure 264
0100
1010
0101
0001
,  // measure 265
0100
0000
1000
0000
0010
0010
0000
0100
,  // measure 266
0100
0010
1001
0010
,  // measure 267
1000
0000
0000
0010
0000
0001
0000
0100
,  // measure 268
0000
0000
0010
1000
0010
0100
0000
0010
,  // measure 269
0001
0000
0000
0010
0000
1000
0000
0100
,  // measure 270
0000
0000
0010
0001
0010
0100
0010
0000
,  // measure 271
1000
0000
0000
0010
0000
0001
0000
0100
,  // measure 272
0000
0000
0010
1000
0010
0100
0000
0010
,  // measure 273
0001
0000
0000
0010
0000
1000
0000
0100
,  // measure 274
0000
0000
0010
0001
0010
0100
0000
0000
;

//---------------dance-single - ----------------
#NOTES:
     dance-single:
     :
     Medium:
     6:
     0.435,0.518,0.343,0.000,0.001: // measure 1
0000
0000
0000
0000
,  // measure 2
0000
0000
0000
0000
,  // measure 3
0000
0000
0000
0000
,  // measure 4
0000
0000
0000
0000
,  // measure 5
0000
0000
0000
0000
,  // measure 6
0000
0000
0000
0000
,  // measure 7
0000
0000
0000
0000
,  // measure 8
0000
0000
0000
0000
,  // measure 9
1000
0000
0100
0000
,  // measure 10
0100
0000
0001
0000
,  // measure 11
0001
0000
0010
0000
,  // measure 12
0010
0000
1000
0000
,  // measure 13
1000
0000
0101
0000
,  // measure 14
0001
0000
1010
0000
,  // measure 15
0001
0000
1100
0000
,  // measure 16
1000
0000
0011
0000
,  // measure 17
0101
0000
0100
0000
,  // measure 18
0101
0000
0011
0000
,  // measure 19
1100
0000
0100
0000
,  // measure 20
1100
0000
1010
0000
,  // measure 21
1001
0000
0110
0000
,  // measure 22
0011
0000
1010
0000
,  // measure 23
0110
0000
1001
0000
,  // measure 24
1010
0000
0011
0000
,  // measure 25
1000
0010
1000
0010
,  // measure 26
1000
0010
1000
0110
,  // measure 27
0001
0010
0001
0010
,  // measure 28
0001
0010
0001
0110
,  // measure 29
1000
0100
1000
0100
,  // measure 30
1000
0100
1000
0110
,  // measure 31
0001
0100
0001
0100
,  // measure 32
0001
1000
1001
0110
,  // measure 33
0000
0000
1000
0000
,  // measure 34
1000
0100
0100
0001
,  // measure 35
0001
0000
0010
0000
0010
0001
1000
0000
,  // measure 36
1000
0010
0010
0001
,  // measure 37
0001
0000
0100
0000
0100
0001
1000
0000
,  // measure 38
0010
0001
0001
0010
,  // measure 39
0001
0000
1000
0000
1000
0001
0100
0000
,  // measure 40
0110
0010
0000
0000
,  // measure 41
0001
0010
0001
0100
,  // measure 42
0000
0000
0000
0000
,  // measure 43
1000
0010
1000
0000
0001
0010
0001
0000
,  // measure 44
1000
1000
0001
0001
,  // measure 45
1000
0000
0010
0000
,  // measure 46
0001
0000
1100
0000
,  // measure 47
1000
0000
0011
0000
,  // measure 48
1000
0000
0101
0000
,  // measure 49
0001
0000
1010
0000
,  // measure 50
1000
0100
0100
0001
,  // measure 51
0001
0000
0010
0000
0010
0001
1000
0000
,  // measure 52
1000
0010
0010
0001
,  // measure 53
0001
0000
0100
0000
0100
0001
1000
0000
,  // measure 54
1000
0001
0001
0010
,  // measure 55
0010
0000
1000
0000
1000
0001
0100
0000
,  // measure 56
0110
0010
0000
0000
,  // measure 57
0001
0010
0001
0100
,  // measure 58
0000
0000
0000
0000
,  // measure 59
1000
0010
1000
0000
0001
0010
0001
0000
,  // measure 60
0010
1000
0010
0001
,  // measure 61
1000
0000
0010
0000
,  // measure 62
0001
0000
0010
0000
,  // measure 63
0001
0010
0001
0000
1000
0010
1000
0000
,  // measure 64
0010
0001
0010
1000
,  // measure 65
0001
0010
1000
0010
,  // measure 66
0110
1000
0100
0100
,  // measure 67
1000
0000
0001
0000
0100
0010
0100
0000
,  // measure 68
0001
0001
1000
0100
,  // measure 69
0001
0000
0001
0000
1000
0010
0100
0000
,  // measure 70
0001
1001
0100
0100
,  // measure 71
1000
0000
1001
0000
0100
0010
0100
0000
,  // measure 72
0001
1000
0100
0001
,  // measure 73
1000
0101
1100
0101
,  // measure 74
0000
0000
0010
0000
0100
0100
0100
0000
,  // measure 75
0000
0000
1000
0000
0100
0100
0100
0000
,  // measure 76
0000
1100
0010
0101
,  // measure 77
1000
1010
0100
0101
,  // measure 78
0100
0000
0010
0000
0100
0100
0100
0000
,  // measure 79
0100
0000
0100
0000
0010
0100
0001
0000
,  // measure 80
0010
0100
0100
1000
,  // measure 81
0100
0011
0101
0010
,  // measure 82
0010
1000
0100
0000
0100
0000
0100
0000
,  // measure 83
0010
0001
0000
0000
0100
0000
0100
0000
,  // measure 84
0001
0100
1010
0101
,  // measure 85
0001
0000
0010
0000
0100
0010
0100
0000
,  // measure 86
1000
0000
0010
0000
0100
0010
0100
0000
,  // measure 87
0010
1000
0000
0000
0100
0000
0100
0000
,  // measure 88
0100
1000
0001
0100
0001
1000
0001
1000
,  // measure 89
0001
0000
0100
0000
0001
0100
0010
0000
,  // measure 90
1000
1000
0100
0100
,  // measure 91
1000
0000
0001
0000
0100
0010
0100
0000
,  // measure 92
0001
0001
1000
0100
,  // measure 93
0001
0000
0001
0000
1000
0010
0100
0000
,  // measure 94
0001
0011
0100
0100
,  // measure 95
1000
0000
0101
0000
0010
0100
0010
0000
,  // measure 96
1000
0001
0100
0001
,  // measure 97
1000
0101
1100
0101
,  // measure 98
0010
1000
0100
0000
1000
0000
0100
0000
,  // measure 99
0010
0001
0100
0000
0001
0000
0100
0000
,  // measure 100
0010
1000
0100
0000
1000
0000
0100
0000
,  // measure 101
0010
0001
0100
0000
0001
1000
0000
1000
,  // measure 102
0010
0100
0001
0000
0100
0000
0001
0000
,  // measure 103
0010
0100
1000
0000
0100
0000
1000
0000
,  // measure 104
0010
0100
0001
0000
0100
0000
0001
0000
,  // measure 105
0010
0100
1000
0000
0100
0100
0000
0000
,  // measure 106
1000
0001
1000
0001
0100
0000
0100
0000
,  // measure 107
0001
1000
0100
0100
,  // measure 108
1000
0000
0001
0000
0100
0010
0100
0000
,  // measure 109
0001
0001
1000
0100
,  // measure 110
0001
0000
0001
0000
1000
0010
0100
0000
,  // measure 111
0001
1001
0100
0100
,  // measure 112
1000
0000
0101
0000
0010
0100
0010
0000
,  // measure 113
0001
1000
0100
1000
,  // measure 114
0001
0101
1100
0101
,  // measure 115
1001
0000
0000
0000
0000
0000
0000
0001
,  // measure 116
1000
0000
0000
0000
0000
0000
0000
0010
,  // measure 117
0100
0000
0010
1000
,  // measure 118
0100
0001
0010
1000
,  // measure 119
0100
0001
0010
1000
,  // measure 120
0100
0001
0010
1000
,  // measure 121
0100
1001
0110
1001
,  // measure 122
1001
0000
0010
0000
0100
0000
0000
0001
,  // measure 123
1000
0010
1000
0001
,  // measure 124
0010
0010
0001
1000
,  // measure 125
0100
0000
0010
0100
1000
0000
0001
0000
,  // measure 126
0100
0010
1000
0001
,  // measure 127
0100
0000
0010
0100
0001
0000
1000
0000
,  // measure 128
0100
0010
0001
0100
,  // measure 129
0010
1000
0001
0100
,  // measure 130
0001
1000
0110
1001
,  // measure 131
1001
0000
0010
0000
0100
0000
0000
0001
,  // measure 132
1000
0001
0010
0100
,  // measure 133
1000
0010
0010
1000
,  // measure 134
0001
0000
0010
0001
0100
0000
0100
0000
,  // measure 135
0010
1000
1000
0001
,  // measure 136
1000
0000
0010
1000
0100
0000
0100
0000
,  // measure 137
0010
0001
1000
0001
,  // measure 138
0100
0000
0001
1000
0001
0000
1000
0001
,  // measure 139
1000
0000
1001
0000
0000
0000
0100
1000
,  // measure 140
0001
0000
1001
0000
,  // measure 141
1100
0000
0101
0000
1001
0000
0010
1000
,  // measure 142
0010
0000
1001
0000
,  // measure 143
1010
0000
0101
0000
1001
0000
0100
1000
,  // measure 144
0001
0000
1001
0000
,  // measure 145
1100
0000
0101
0000
1001
0000
0010
1000
,  // measure 146
0010
0000
1001
0000
,  // measure 147
0110
1001
1001
0110
,  // measure 148
0000
0000
0010
0000
0100
0000
0000
0001
,  // measure 149
1000
0010
1000
0001
,  // measure 150
0100
0010
1000
0001
,  // measure 151
0100
0000
0010
1000
0001
0000
1000
0000
,  // measure 152
0100
0010
0001
1000
,  // measure 153
0100
0000
0010
0001
1000
0000
0001
0000
,  // measure 154
0100
0010
1000
0100
,  // measure 155
0010
0001
1000
0100
,  // measure 156
0001
1000
0110
1001
,  // measure 157
1001
0000
0010
0000
0100
0000
0000
0001
,  // measure 158
1000
0001
0010
0100
,  // measure 159
1000
0000
0010
0100
0001
0000
1000
0000
,  // measure 160
0001
0000
0010
0100
1000
0000
1000
0000
,  // measure 161
0001
0000
0010
0001
0100
0000
0100
0000
,  // measure 162
0001
0000
0010
0001
0100
0000
0100
0000
,  // measure 163
0010
1000
1000
0001
,  // measure 164
0100
0000
0001
1000
0001
0000
1000
0001
,  // measure 165
1000
1001
0110
1001
,  // measure 166
1001
0000
0100
0010
0001
1000
0000
1000
,  // measure 167
0100
0000
0011
0001
,  // measure 168
0100
1000
1010
0001
,  // measure 169
0100
1000
0110
0001
,  // measure 170
0100
1000
0011
0000
,  // measure 171
1100
0000
1010
1000
,  // measure 172
0100
0001
0110
1000
,  // measure 173
0100
0001
0011
0000
,  // measure 174
0000
0000
1001
0110
,  // measure 175
1001
0110
1000
0100
,  // measure 176
0010
0000
0010
0001
1000
0000
0100
0000
,  // measure 177
0010
1000
0001
0100
,  // measure 178
0010
0000
0010
1000
0001
0000
0100
0000
,  // measure 179
1000
0000
0001
0010
,  // measure 180
1000
0000
1000
0100
0001
0000
0010
0000
,  // measure 181
1000
0100
0001
0100
,  // measure 182
1000
0010
0001
0000
,  // measure 183
1100
0101
1000
1000
,  // measure 184
1000
1000
0001
0001
,  // measure 185
0001
0000
0001
0000
1000
1000
0000
0000
,  // measure 186
1000
1000
0000
0000
0001
0001
0000
0000
,  // measure 187
0001
0001
0000
0000
0010
0000
0010
0000
,  // measure 188
0010
0010
0100
0100
,  // measure 189
0100
0000
0100
0000
1000
1000
0000
0000
,  // measure 190
0001
0001
0000
0000
0010
0010
0010
0000
,  // measure 191
0100
0000
1000
0001
,  // measure 192
1000
0100
0001
0000
0000
1000
0000
1000
,  // measure 193
0000
1000
0000
0000
0001
0100
0100
0000
,  // measure 194
1000
0010
0010
0000
0000
0001
0000
0001
,  // measure 195
0000
0001
0000
0000
0010
0000
1000
0000
,  // measure 196
0010
0001
1000
0000
0000
0100
0000
0100
,  // measure 197
0000
0100
0000
0000
0010
1000
0001
0000
,  // measure 198
0010
1000
0001
0000
1000
1000
0001
0001
,  // measure 199
0010
0000
0100
0000
0000
1000
0001
1000
,  // measure 200
1000
0000
0000
0001
1000
0001
0001
0000
,  // measure 201
0100
1000
0010
0101
,  // measure 202
1000
0010
0001
1100
,  // measure 203
0010
0001
0100
1010
,  // measure 204
0000
0101
0000
1000
,  // measure 205
0100
0001
0010
1100
,  // measure 206
0001
0010
1000
0100
,  // measure 207
0000
0000
0000
1001
,  // measure 208
0110
1001
0110
1000
,  // measure 209
0010
0000
0001
0000
0100
1000
0010
0000
,  // measure 210
0001
0100
1000
0001
,  // measure 211
0010
0000
1000
0000
0100
0001
0010
0000
,  // measure 212
1000
0100
0000
0010
,  // measure 213
0100
0000
1000
0000
0001
0100
1000
0000
,  // measure 214
0001
1000
0010
0001
,  // measure 215
1000
0000
0100
0000
0001
0000
1000
0100
,  // measure 216
0000
0000
0001
0010
0000
0000
0100
0010
,  // measure 217
0000
0000
0001
1000
0000
0000
0000
0000
,  // measure 218
0100
0000
0000
0010
,  // measure 219
0001
0010
1000
0000
0010
0000
0100
0000
,  // measure 220
0100
0000
0010
1000
0100
0000
0110
0000
,  // measure 221
0000
0000
1000
0000
0001
1000
0100
0000
,  // measure 222
0000
0000
1000
0001
1000
0001
1000
0000
,  // measure 223
0010
0000
0001
0000
0100
1000
0010
0000
,  // measure 224
0000
0000
0010
1000
0100
0000
1001
0000
,  // measure 225
0000
0000
0010
0000
1000
0000
0100
0001
,  // measure 226
0000
1000
0010
0000
1100
0000
0000
0011
,  // measure 227
0000
0100
0000
0001
0000
1010
0000
0010
,  // measure 228
0000
1000
0000
0010
0000
1001
0000
0010
,  // measure 229
0000
0100
0000
0001
0000
0100
0000
0001
,  // measure 230
1000
1000
0000
0010
0000
0001
0100
1000
,  // measure 231
0000
0001
0000
0010
0000
0011
0000
1100
,  // measure 232
0000
0100
0000
0010
0000
1001
0000
0010
,  // measure 233
0000
0100
0000
1000
0000
0110
0000
1000
,  // measure 234
0001
0001
0000
0010
0000
1000
0100
0000
,  // measure 235
0001
0010
0000
0000
0100
1000
0001
0000
,  // measure 236
0000
0000
0001
0100
0001
1000
0000
0100
,  // measure 237
0100
0000
0010
0001
0100
0000
1001
0000
,  // measure 238
0000
0000
1000
0100
1000
0001
0000
0011
,  // measure 239
0000
0100
0000
0001
0000
1010
0000
0010
,  // measure 240
0000
1000
0000
0010
0000
1001
0000
0010
,  // measure 241
0000
0100
0000
0001
0000
0101
0000
0001
,  // measure 242
1000
1000
0000
0000
0000
0010
1000
0100
,  // measure 243
0000
0001
0000
0010
1000
0010
0000
1000
,  // measure 244
0001
0100
0000
0010
0000
1001
0000
0010
,  // measure 245
0100
0001
0000
1000
0001
0010
0000
1000
,  // measure 246
0001
0001
0000
0010
0000
1000
0100
0000
,  // measure 247
0000
0000
0000
1001
,  // measure 248
0010
0010
0000
1000
0100
0000
0001
0000
,  // measure 249
0000
0000
0000
0010
0000
0010
1000
0001
,  // measure 250
0000
0010
0100
0000
0101
0000
0000
0000
,  // measure 251
0000
0000
0000
0110
,  // measure 252
0000
0000
0000
1000
1000
0001
0100
0000
,  // measure 253
0000
0000
0000
0100
0000
0001
0100
0000
,  // measure 254
0000
0000
0000
1001
,  // measure 255
0000
0000
0000
1000
0000
0001
0100
0000
,  // measure 256
0000
0000
0000
0000
0000
0000
0000
0000
0000
0000
0001
1000
0001
0000
0000
0000
,  // measure 257
0000
0000
0000
0010
0000
0010
0000
0001
,  // measure 258
1000
0100
0000
0000
0000
0000
1001
0000
,  // measure 259
0010
1000
0100
0000
0001
0010
0000
1000
,  // measure 260
0100
1100
0011
1000
,  // measure 261
1000
0001
0010
0000
0010
0001
0000
0100
,  // measure 262
1000
0011
0101
1000
,  // measure 263
0010
1000
0100
0000
0001
0010
0000
1000
,  // measure 264
0100
1100
0011
0100
,  // measure 265
0001
0010
0100
0000
0010
0001
0000
1000
,  // measure 266
0100
0010
1000
0100
,  // measure 267
0001
0000
0010
0001
0100
1000
0000
0010
,  // measure 268
0000
0100
0010
1000
0010
1000
0000
0010
,  // measure 269
0001
0000
0100
0010
0100
1000
0000
0001
,  // measure 270
0000
0010
0010
1000
0100
0001
0100
0000
,  // measure 271
0001
0000
0010
0001
0100
1000
0000
0010
,  // measure 272
0000
0100
0010
1000
0010
1000
0000
0010
,  // measure 273
0001
0000
0100
0010
0100
1000
0000
0001
,  // measure 274
0000
0010
0010
1000
0100
0001
0000
0000
;

//---------------dance-single - ----------------
#NOTES:
     dance-single:
     :
     Hard:
     7:
     0.529,0.587,0.517,0.000,0.003: // measure 1
0000
0000
0000
0000
,  // measure 2
0000
0000
0000
0000
,  // measure 3
0000
0000
0000
0000
,  // measure 4
0000
0000
0000
0000
,  // measure 5
0000
0000
0000
0000
,  // measure 6
0000
0000
0000
0000
,  // measure 7
0000
0000
0000
0000
,  // measure 8
0000
0000
0000
0000
,  // measure 9
0100
0000
0000
0000
,  // measure 10
0010
0000
0000
0000
,  // measure 11
0001
0000
1000
0000
,  // measure 12
0010
0000
0100
0000
,  // measure 13
1000
0100
1000
0100
,  // measure 14
0100
1000
0100
1000
,  // measure 15
0001
0100
0001
0100
,  // measure 16
0100
0001
0100
0001
,  // measure 17
1000
0010
0001
0000
,  // measure 18
1000
0010
1001
0010
,  // measure 19
0001
0000
0000
0001
,  // measure 20
0010
1001
0010
1000
,  // measure 21
0100
1001
0100
0000
,  // measure 22
1000
0100
1001
0100
,  // measure 23
0001
0000
0000
0010
,  // measure 24
1001
0100
0100
0000
,  // measure 25
0010
0100
0010
0100
0010
0001
0010
0001
,  // measure 26
0010
1000
0010
1000
0010
0100
0010
0100
,  // measure 27
0010
1000
0001
0000
0010
0100
0010
0100
,  // measure 28
0010
1000
0010
1000
0010
0001
0010
0001
,  // measure 29
0100
0001
0100
0001
0100
0010
0100
0010
,  // measure 30
1000
0100
1000
0100
0001
0100
0001
0100
,  // measure 31
0010
0100
0010
0000
1000
0010
1000
0000
,  // measure 32
1000
0010
1000
0001
0010
0001
0010
0000
,  // measure 33
0000
0000
0000
0000
,  // measure 34
1000
0010
0001
1000
,  // measure 35
0010
0000
0001
0000
1000
0001
1000
0000
,  // measure 36
1010
1010
0011
0011
,  // measure 37
1010
0000
0011
0000
0001
1000
0001
0000
,  // measure 38
1000
0100
0001
1001
,  // measure 39
0100
0000
0001
0000
1000
0001
1000
0000
,  // measure 40
0001
0010
0000
0000
,  // measure 41
1000
0010
1000
0000
0010
1000
0010
1000
,  // measure 42
0000
0000
0000
0000
,  // measure 43
1000
0010
1000
0010
0100
0001
0100
0001
,  // measure 44
1000
1000
0001
0001
,  // measure 45
0000
0000
0000
0000
,  // measure 46
1000
0100
1000
0100
,  // measure 47
0100
1000
0100
1000
,  // measure 48
0001
0100
0001
0100
,  // measure 49
0100
0001
0100
0001
,  // measure 50
1000
0010
0001
1000
,  // measure 51
0010
0000
0001
0000
1000
0001
1000
0000
,  // measure 52
1100
0110
0011
0101
,  // measure 53
0011
0000
0101
0000
0001
1000
0001
0000
,  // measure 54
1000
0100
0001
1010
,  // measure 55
0100
0000
0001
0000
1000
0001
1000
0000
,  // measure 56
0010
1000
0001
0000
0000
0000
0000
0000
,  // measure 57
1000
0100
1000
0000
0100
1000
0100
1000
,  // measure 58
0000
0000
0000
0000
,  // measure 59
1000
0010
0100
0001
0010
0001
1000
0100
,  // measure 60
1000
1000
0001
0001
,  // measure 61
1000
0000
0001
0000
,  // measure 62
1000
0010
0100
0001
,  // measure 63
1000
0010
0100
0001
0010
0001
1000
0100
,  // measure 64
1000
1000
0001
0001
,  // measure 65
1000
0010
0100
0001
,  // measure 66
1001
1000
1100
0001
,  // measure 67
0101
0000
1100
0000
0100
0010
0100
0000
,  // measure 68
1000
0001
1000
0000
0101
0000
1000
0000
,  // measure 69
0001
1000
0001
0000
1100
0000
0101
0000
,  // measure 70
1000
0001
1100
0100
,  // measure 71
0101
0000
1100
0000
0100
0010
0100
0000
,  // measure 72
1000
0001
1000
0000
0101
0000
1000
0000
,  // measure 73
1000
0001
1000
0001
0100
0010
0100
0010
,  // measure 74
0000
1000
0100
1010
,  // measure 75
0000
0001
0100
0011
,  // measure 76
0000
0000
0101
1010
,  // measure 77
0100
0001
1010
1010
,  // measure 78
0101
1100
0001
1000
,  // measure 79
0100
0011
0011
0100
,  // measure 80
0010
0001
1000
0010
,  // measure 81
1000
0001
1000
0001
1000
0001
1000
0001
,  // measure 82
0100
0110
0100
1010
,  // measure 83
0001
1010
0001
0011
,  // measure 84
0010
0101
0010
1100
,  // measure 85
0011
0000
1100
0000
0001
1000
0100
0000
,  // measure 86
0011
1100
0101
1010
,  // measure 87
0001
0010
1000
0001
,  // measure 88
0010
0001
0010
0001
1000
0010
1000
0010
,  // measure 89
0100
0010
1000
0001
1000
0001
0100
0010
,  // measure 90
1000
0001
0101
0100
,  // measure 91
1100
0000
0101
0000
0100
0010
0100
0000
,  // measure 92
0001
1000
0001
0000
1100
0000
0001
0000
,  // measure 93
0001
1000
0001
0000
1100
0000
0110
0000
,  // measure 94
1000
0001
1100
0100
,  // measure 95
0101
0000
1100
0000
0100
0010
0100
0000
,  // measure 96
1000
0001
1000
0000
0101
0000
1000
0000
,  // measure 97
1000
0001
1000
0001
0100
0010
0100
0010
,  // measure 98
1000
1100
0010
1001
,  // measure 99
0010
1001
0010
1001
,  // measure 100
0100
0101
1000
1010
,  // measure 101
0001
0000
1000
0000
0010
0100
0010
0100
,  // measure 102
0010
1010
0101
0010
,  // measure 103
1001
0010
1001
0100
,  // measure 104
1001
0010
1001
0100
,  // measure 105
0100
0010
0100
0010
0100
0010
1000
0001
,  // measure 106
0100
0010
1000
0001
0100
0010
1000
0001
,  // measure 107
0010
0001
1100
0010
,  // measure 108
0101
0000
1100
0000
0100
0010
0100
0000
,  // measure 109
1000
0001
1000
0000
1100
0000
0001
0000
,  // measure 110
0001
1000
0001
0000
1100
0000
0110
0000
,  // measure 111
1000
0001
0101
0010
,  // measure 112
1100
0000
0101
0000
0100
0010
0100
0000
,  // measure 113
1000
0001
1000
0000
1100
0000
0001
0000
,  // measure 114
0010
0100
1000
0001
1000
0001
0010
0100
,  // measure 115
1001
0000
0000
0000
0000
0000
0000
0010
,  // measure 116
0100
0000
0000
0000
0000
0000
0000
1000
,  // measure 117
0100
0000
0011
0001
,  // measure 118
0110
1000
1100
0101
,  // measure 119
0010
1000
0100
0001
,  // measure 120
0010
1000
0100
0001
,  // measure 121
0010
0001
1000
0001
0100
0001
0010
0001
,  // measure 122
1001
0000
1100
0000
0101
0000
0000
0010
,  // measure 123
0100
0000
0010
0100
1000
0000
0101
0000
,  // measure 124
1100
0010
0101
1000
,  // measure 125
0100
0000
0010
0100
1000
0000
0101
0000
,  // measure 126
1100
0010
0101
1000
,  // measure 127
0100
0000
0010
0100
1000
0000
0101
0000
,  // measure 128
1100
0010
1001
0100
,  // measure 129
0100
0000
0010
0100
0001
0000
1100
0000
,  // measure 130
0101
0000
1001
0000
0010
0001
0100
0010
,  // measure 131
1001
0000
1100
0000
0101
0000
0000
0010
,  // measure 132
0100
0000
0010
1000
0100
0000
0011
0000
,  // measure 133
1100
0010
1001
1000
,  // measure 134
0001
0000
0010
0001
0100
0000
1010
0000
,  // measure 135
0101
0010
1001
0001
,  // measure 136
0100
0000
0010
1000
0100
0000
0011
0000
,  // measure 137
1010
0100
1001
0100
,  // measure 138
0100
0000
1000
0100
1100
0000
0001
0100
,  // measure 139
0101
0000
0000
0000
0000
0000
0010
1000
,  // measure 140
0010
1000
0010
1000
0001
1000
0001
1000
,  // measure 141
0001
0010
0100
1000
0001
0000
0010
0100
,  // measure 142
0010
0100
0010
0100
0010
0001
0010
0001
,  // measure 143
0010
0001
1000
0001
0100
0000
0010
1000
,  // measure 144
0010
1000
0010
1000
0001
1000
0001
1000
,  // measure 145
0001
0010
0100
1000
0001
0000
0010
0001
,  // measure 146
0010
0001
0010
0001
1000
0010
1000
0010
,  // measure 147
1000
0010
0100
0001
0010
0000
1001
0000
,  // measure 148
0000
0000
0110
0000
0101
0000
0000
0010
,  // measure 149
0100
0000
0010
0100
1000
0000
0101
0000
,  // measure 150
1100
0010
1100
0001
,  // measure 151
0100
0000
0010
0100
0001
0000
1010
0000
,  // measure 152
1100
0010
0101
1000
,  // measure 153
0100
0000
0010
0100
1000
0000
0011
0000
,  // measure 154
0101
0010
1001
0110
,  // measure 155
0100
0000
0010
0100
0001
0000
1100
0000
,  // measure 156
0110
1001
0110
0110
,  // measure 157
0001
0000
1100
0000
0101
0000
0000
0010
,  // measure 158
0100
0000
0010
1000
0100
0000
0011
0000
,  // measure 159
1100
0001
0101
1000
,  // measure 160
0001
0000
0010
0001
0100
0000
1010
0000
,  // measure 161
0101
0010
1001
0001
,  // measure 162
0100
0000
0010
1000
0100
0000
0011
0000
,  // measure 163
1100
0010
1001
0110
,  // measure 164
1001
0000
0010
0100
1001
0000
0010
0100
,  // measure 165
1001
1010
0101
0011
,  // measure 166
1100
0000
0000
0000
0000
0000
0100
0000
0001
0000
0000
0010
0000
0000
1001
0000
,  // measure 167
0110
0000
0010
0001
,  // measure 168
0100
1000
0010
0001
,  // measure 169
0100
1000
0000
1001
,  // measure 170
0110
0000
0101
0000
1010
0000
0001
0001
,  // measure 171
0100
0000
0010
1000
,  // measure 172
0100
0001
0010
1000
,  // measure 173
0100
0001
0000
0110
,  // measure 174
1001
0000
1010
0000
0100
0001
0010
0000
,  // measure 175
0100
1000
0010
0000
1010
0000
0000
0000
,  // measure 176
0011
0000
1100
0000
,  // measure 177
0101
0000
0000
0000
1000
0100
0010
0000
,  // measure 178
0010
0001
0100
0000
0100
1000
0001
0000
,  // measure 179
0001
0100
1000
0000
1100
0000
0000
0000
,  // measure 180
1010
0000
0101
0000
,  // measure 181
0011
0000
0000
0000
0001
0010
1000
0000
,  // measure 182
0001
0010
1000
0000
0010
0000
0010
0000
,  // measure 183
1100
0101
1000
0101
,  // measure 184
1000
0011
0001
1010
,  // measure 185
0001
0000
1100
0000
0001
0010
0001
0000
,  // measure 186
0100
1000
0100
0000
0010
0000
0010
0000
,  // measure 187
1100
0000
0001
1100
,  // measure 188
0001
1010
1000
0101
,  // measure 189
1000
0000
0011
0000
0100
1000
0100
0000
,  // measure 190
0001
0010
0001
0000
1000
0100
0010
0000
,  // measure 191
0110
0000
0000
0000
1000
0100
0001
0000
,  // measure 192
1000
0010
0001
0000
0000
1000
0010
0100
,  // measure 193
1000
0001
0000
0000
0010
0010
0010
0010
,  // measure 194
0000
0100
0010
0000
0000
0001
0100
0001
,  // measure 195
0100
0001
0000
0000
0001
0010
1000
0000
,  // measure 196
0001
0100
1000
0000
0000
1000
0010
0100
,  // measure 197
1000
0001
0000
0000
0100
0100
0100
0100
,  // measure 198
0000
1000
0001
0000
1000
0100
1000
0001
,  // measure 199
0010
0001
0010
0000
0000
1000
1000
1000
,  // measure 200
1000
0000
0000
0001
0001
0001
0001
0000
,  // measure 201
0100
1000
0010
0001
,  // measure 202
0100
1000
0010
0000
,  // measure 203
1001
0110
0101
1010
,  // measure 204
0000
0000
0100
0100
0100
0000
1000
0000
,  // measure 205
0010
0001
0100
1000
,  // measure 206
0010
0001
0100
0000
,  // measure 207
1001
0000
0110
0000
1010
0000
0001
0100
,  // measure 208
0001
0000
0010
1000
0010
0000
0100
1000
,  // measure 209
0000
0000
0010
0001
0000
0000
1000
0100
,  // measure 210
0000
0000
0001
0010
0000
0000
0010
0010
,  // measure 211
0010
0000
1000
1000
1000
0000
0001
0001
,  // measure 212
0001
0000
0100
0100
0100
0000
0010
1000
,  // measure 213
0000
0000
1000
0010
0000
0000
0010
0001
,  // measure 214
0000
0000
0001
0010
0000
0000
0010
0010
,  // measure 215
1000
0000
1000
1000
0001
0000
0001
0001
,  // measure 216
0100
0000
0100
0100
0010
0000
0010
1000
,  // measure 217
0100
0010
1000
0100
0010
1000
0000
0000
,  // measure 218
0001
0000
0000
0010
,  // measure 219
0001
0010
1000
0000
0010
0100
0000
0100
,  // measure 220
0100
0000
0010
1000
0100
0000
0100
0000
,  // measure 221
0000
0000
0001
0000
0010
0100
0000
0010
,  // measure 222
0010
0000
0010
0001
0100
0000
0110
0000
,  // measure 223
0000
0000
1000
0000
0010
0100
0000
0100
,  // measure 224
0100
0000
0010
1000
0100
0000
0110
0000
,  // measure 225
1000
0010
0001
0000
0010
0100
0010
0010
,  // measure 226
0000
0001
0100
0100
0100
0000
0000
0010
,  // measure 227
1000
0001
0000
0001
0100
1000
0000
0010
,  // measure 228
0001
1000
0000
1000
0100
0001
0000
0010
,  // measure 229
1000
0100
0000
0001
0100
0001
0000
0001
,  // measure 230
1000
1000
0000
0001
0000
1000
0000
0010
,  // measure 231
0001
1000
0000
1000
0100
0001
0000
0010
,  // measure 232
1000
0001
0000
0001
0100
1000
0000
0010
,  // measure 233
0001
0100
0000
1000
0100
1000
0000
1000
,  // measure 234
0001
0001
0000
1000
0000
0001
0010
0000
,  // measure 235
0000
0000
0010
0100
,  // measure 236
0000
0000
0001
1000
0001
1000
0000
0000
,  // measure 237
0000
0100
0100
0010
,  // measure 238
0000
0000
1000
0001
1000
0001
0010
1000
,  // measure 239
0001
0000
0001
0100
1000
0000
0010
0001
,  // measure 240
1000
0000
1000
0100
0001
0000
0010
1000
,  // measure 241
0100
0000
0001
0100
0001
0000
0000
0001
,  // measure 242
1000
1000
0000
0001
0000
1000
0000
0010
,  // measure 243
0001
1000
0000
1000
0100
0001
0000
0010
,  // measure 244
1000
0001
0000
0001
0100
1000
0000
0010
,  // measure 245
0001
0100
0000
1000
0100
1000
0000
1000
,  // measure 246
0001
0001
0000
1000
0000
0001
0100
0000
,  // measure 247
0000
0000
0000
1001
,  // measure 248
0010
0010
0000
1000
0100
0000
0101
0000
,  // measure 249
0000
0000
0000
0010
0000
0010
1000
0001
,  // measure 250
0000
0010
0100
0000
0101
0000
0000
0000
,  // measure 251
0000
0000
0000
0110
,  // measure 252
0000
0000
0000
1000
0010
0001
1001
0000
,  // measure 253
0000
0000
0000
0100
0000
0001
0110
0000
,  // measure 254
0000
0000
0000
1001
,  // measure 255
0000
0000
0000
1000
0000
0001
0101
0000
,  // measure 256
0000
0000
0000
0000
0000
0000
0000
0000
0000
0000
0001
1000
0001
0000
0000
0000
,  // measure 257
0000
0000
0000
0010
0000
0010
0000
0001
,  // measure 258
1000
0100
0000
0000
0000
0000
1001
0000
,  // measure 259
0010
1000
0100
0000
0001
0010
0000
1000
,  // measure 260
0100
0000
1000
0100
0010
0001
1001
0000
,  // measure 261
0010
0001
0100
0000
1000
0010
0000
0001
,  // measure 262
0100
0000
0001
0100
0010
1000
1001
0000
,  // measure 263
0010
1000
0100
0000
0001
0010
0000
1000
,  // measure 264
0100
0000
1000
0100
0010
0001
1001
0000
,  // measure 265
0010
0001
0100
0000
1000
0010
0000
0001
,  // measure 266
0100
0000
0001
0100
0010
1000
0010
0001
,  // measure 267
0010
0001
1000
0010
1000
0010
0001
0010
,  // measure 268
0001
1000
0010
0001
0100
1000
0001
0010
,  // measure 269
0010
0001
1000
0010
1000
0010
0001
0010
,  // measure 270
0001
0010
1000
0100
0001
0010
0010
1000
,  // measure 271
0010
1000
0001
0010
0001
0010
1000
0010
,  // measure 272
1000
0001
0010
1000
0100
0001
1000
0010
,  // measure 273
0010
1000
0001
0010
0001
0010
1000
0010
,  // measure 274
1000
0010
0001
0100
1000
0010
0000
0000
;
