#TITLE:the REBOUND Mix;
#SUBTITLE:(DDR ULTRAMIX 4);
#ARTIST:baconman;
#TITLETRANSLIT:;
#SUBTITLETRANSLIT:;
#ARTISTTRANSLIT:;
#CREDIT:;
#BANNER:EASY - the REBOUND Mix.png;
#BACKGROUND:EASY - the REBOUND Mix-bg.png;
#LYRICSPATH:;
#CDTITLE:Dance Dance Revolution Ultramix 4.png;
#MUSIC:EASY - the REBOUND Mix.mp3;
#OFFSET:0.000;
#SAMPLESTART:42.888;
#SAMPLELENGTH:25.000;
#SELECTABLE:YES;
#DISPLAYBPM:140.000;
#BPMS:0.000=140.000;
#STOPS:;
#BGCHANGES:;

//---------------dance-single - ----------------
#NOTES:
     dance-single:
     :
     Easy:
     3:
     0.210,0.259,0.039,0.169,0.000:
0000
0000
0000
0000
,
0000
0000
0000
0000
,
0000
0000
0000
0000
,
0000
0000
0000
0000
,
1000
0000
0000
0002
,
0000
0000
0003
0000
,
1000
0000
0000
0200
,
0000
0000
0300
0000
,
0100
1000
0001
0000
,
0100
0000
0001
0000
,
1000
0001
1000
0001
,
0000
0000
0000
0000
,
0100
0001
1000
0000
,
0100
0000
1000
0000
,
0001
1000
0001
1000
,
0000
0000
0000
0000
,
1000
0001
0010
0000
,
0010
0000
1000
0000
,
0100
0010
0100
0010
,
0000
0000
0001
0100
,
1000
0100
0000
0001
,
0000
1000
0100
1000
,
0000
0000
0002
0003
,
2000
3000
0200
0300
,
0020
0000
0030
0010
,
0002
0003
1000
0100
,
1000
0000
0001
0100
,
0001
0000
1000
0010
,
1000
0000
0001
0010
,
0001
0000
0100
0010
,
0100
0000
0001
1000
,
0001
0000
1000
0100
,
0001
0100
2000
3000
,
0002
0003
0200
0300
,
0010
1000
0100
0010
,
0000
0000
0001
0100
,
2000
3000
0200
0300
,
0002
0003
0010
0001
,
0100
1000
0100
0010
,
0000
0000
1000
0100
,
0001
0100
0010
0001
,
0100
0000
0000
1000
,
0100
0001
0100
1000
,
0000
0000
0010
0001
,
0100
1000
0100
0020
,
0000
0030
1000
0200
,
0000
0000
0300
0100
,
0020
0030
0002
0003
,
2000
0000
3000
0200
,
0300
0002
0000
0003
,
0200
0300
1000
0020
,
0000
0000
0000
0030
,
0010
1000
0100
0002
,
0000
0000
0003
0001
,
0200
0300
1000
0002
,
0000
0000
0003
0000
,
0100
0000
0000
0000
,
1000
0000
0100
0000
,
1000
0000
0001
0000
,
0010
0000
0001
0000
,
0200
0000
0000
0300
,
0001
0000
1000
0000
,
0010
0000
1000
0000
,
0020
0000
0000
0030
,
2000
0000
0000
3000
,
0001
0000
0100
0000
,
0001
0000
1000
0000
,
0010
0000
1000
0000
,
0200
0000
0000
0300
,
1000
0000
0010
0000
,
0100
0000
0001
0000
,
0100
0000
0010
0000
,
1000
0000
0001
0000
,
1000
0000
0010
0000
,
0100
0100
0100
0000
,
0001
0000
1000
0000
,
0100
0010
0100
0000
,
0001
0000
0010
0000
,
0100
0100
0100
0000
,
1000
0000
0010
0000
,
0100
0010
0100
0000
,
0001
0000
1000
0000
,
0001
0001
0001
0000
,
1000
0001
1000
0000
,
0100
0000
1000
0000
,
0010
0010
0010
0000
,
0100
0010
0100
0000
,
2002
0000
0000
3003
,
0000
0000
0000
0000
,
0001
0000
0010
0000
,
0100
0000
1000
0000
,
0010
0000
0000
1000
,
0001
0000
0000
0000
,
1000
1000
1000
0000
,
0001
0100
0001
0000
,
0010
0010
0010
0000
,
0100
1000
0100
1000
,
0001
0000
0100
0000
,
0001
0000
1000
0000
,
0200
0000
0000
0300
,
1000
0000
0100
0000
,
0010
0010
0010
0000
,
0001
0010
0001
0000
,
0100
0000
0010
0000
,
1000
0000
0010
0000
,
0100
0000
0010
0000
,
1000
0000
0010
0000
,
0100
0000
0010
0000
,
1000
0001
1000
0001
,
0100
0000
0010
0000
,
1001
0000
0000
0000
,
0100
0000
0100
0000
,
0010
0000
0010
0000
,
0001
0000
0001
0000
,
1000
0000
1000
0000
,
1002
0000
0000
0003
,
2000
0000
0000
3000
,
0002
0000
0000
0003
,
0200
0000
0000
0300
,
0020
0000
0000
0030
,
0200
0000
0000
0300
,
0020
0000
0000
0030
,
2000
0000
0000
3000
,
0001
0100
0001
0000
,
1000
0100
1000
0000
,
0010
1000
0010
0000
,
0001
0010
0001
0000
,
1000
0000
1000
0000
,
0001
0000
0001
0000
,
0100
0000
0100
0000
,
0010
0000
0010
0000
,
1000
0000
0100
0000
,
0001
0000
0001
0000
,
0100
0000
0100
0000
,
1000
0000
1000
0000
,
0001
0001
0001
0000
,
0100
0000
0100
0000
,
1000
1000
1000
0000
,
0001
0000
0001
0000
,
0010
0000
0100
0000
,
0010
0000
0010
0000
,
0000
1000
1000
0000
,
0001
0000
0001
0000
,
1000
0000
0100
0000
,
1000
0000
0001
0000
,
0100
0000
0001
0000
,
0010
0010
0100
0100
,
0110
0000
1000
0000
,
0001
0000
1000
0000
,
0001
0000
1000
0000
,
0100
0000
0010
0000
,
0100
0100
0010
0010
,
0110
0000
0010
0000
,
0001
0000
0100
0000
,
0010
0000
1000
0000
,
1001
0000
0000
0000
,
0010
0010
1000
0001
,
2000
3000
0000
0000
,
0100
0100
0001
1000
,
0002
0003
0000
0000
,
1000
1000
0010
0100
,
0020
0030
0000
0000
,
0001
0001
0100
0010
,
0100
0010
1001
0000
,
0010
0100
0010
0100
,
0010
0000
1000
0001
,
1000
0000
0010
0100
,
0010
0000
0001
1000
,
0002
0003
2000
3000
,
0020
0030
0200
0300
,
0001
0001
1000
1000
,
0020
0000
0030
0100
,
0002
0003
2000
3000
,
0010
0100
0020
0030
,
0200
0300
0020
0030
,
0001
1000
0001
0000
,
2000
0000
3001
0000
,
0200
0000
0310
0000
,
0002
0000
1003
0000
,
0200
0000
0310
0000
,
1000
0001
1000
0001
,
0010
0100
0010
0000
,
0001
1000
0001
1000
,
0010
0100
0010
0000
,
1001
0000
0100
0000
,
0001
0000
1000
0000
,
1001
0000
1001
0000
,
0110
0000
0000
0000
,
1000
0000
1000
0000
,
0001
0000
0001
0000
,
1000
0000
1000
0000
,
0001
0000
0001
0000
,
1000
1000
1000
0000
,
0001
0001
0001
0000
,
0010
0000
0100
0000
,
0010
0000
0100
0000
,
1001
0001
0001
0000
,
0000
1000
1000
1000
,
0000
0001
1000
0001
,
0010
0100
0010
0000
,
0001
0000
0001
0000
,
1000
0000
1000
0000
,
0010
0010
0010
0010
,
0010
0100
0100
0000
,
0010
0000
0000
0100
,
0000
0000
0000
0100
,
0001
0000
0000
0000
,
1000
0000
0000
1000
,
0100
0000
0000
0100
,
0001
0000
0000
0001
,
0010
0000
0000
0000
,
0100
0000
0000
0000
,
0210
0000
0000
0300
,
0020
0000
0000
0030
,
0210
0000
0000
0300
,
0010
0000
0000
0000
,
0001
1000
0001
0000
,
1000
0001
1000
0000
,
0010
0010
0010
0000
,
0100
0100
0100
0000
,
0010
0000
1000
0000
,
0001
0000
0100
0000
,
0001
0100
0001
0000
,
1000
0100
1000
0000
,
1001
0000
0010
0000
,
0200
0000
0000
0300
,
0020
0000
0000
0030
,
2000
0000
3000
0000
,
1000
1000
0100
0000
,
0001
0001
0100
0000
,
1000
1000
0010
0000
,
0001
0001
0010
0000
,
2000
3000
0002
0003
,
2000
3000
0002
0003
,
0200
0300
0020
0030
,
0110
0000
0000
0000
;

//---------------dance-single - ----------------
#NOTES:
     dance-single:
     :
     Medium:
     7:
     0.386,0.491,0.181,0.223,0.005:
0000
0000
0000
0000
,
0000
0000
0000
0000
,
0000
0000
0000
0000
,
0000
0000
0000
0000
,
2000
0000
0000
3002
,
0000
0000
0103
0010
,
0200
0000
0000
0302
,
0000
0000
0000
0003
,
0100
1000
0100
0010
,
0001
0100
0100
0010
,
0100
1000
0100
0020
,
0000
1000
1000
1030
,
0100
0001
0100
0010
,
0001
0100
1000
0100
,
0010
1000
0010
0002
,
0000
0010
0010
0013
,
1000
0100
0010
0000
0100
0000
0010
0000
,
0100
1000
0100
0000
0010
0000
0001
0000
,
1000
0100
0010
0002
,
0000
0000
0000
0000
1003
0100
0010
0100
,
1000
0200
0000
0000
0000
0000
0310
0000
,
0000
0001
1000
0002
,
0000
0000
0100
0000
,
0010
0000
0103
0000
,
0100
0001
2000
0000
3020
0000
2030
0000
,
3100
0010
0002
0000
0203
0000
0302
0000
,
1003
0010
0200
0000
0320
0000
0230
0000
,
0301
1000
0020
0000
2030
0000
3001
0100
,
0010
1000
0200
0000
0320
0000
0031
1000
,
0010
0100
0002
0000
2003
0000
3001
0100
,
0001
1000
0200
0000
0320
0000
0130
1000
,
0010
1000
0002
0000
2003
0000
3200
0000
,
1300
1100
0001
0101
,
0010
0110
0100
1001
,
0100
0100
0010
0020
,
0000
0000
1030
0002
,
1003
1100
0001
0101
,
0010
0110
0100
1001
,
0001
0001
1000
2000
,
0000
3001
0100
0010
,
1000
0001
1000
0001
1000
0000
0100
0000
,
0000
1000
0010
0100
,
0001
1000
0001
1000
0001
0000
0100
0000
,
0000
0001
1000
0010
,
0100
0010
0100
0000
0001
0000
1000
0000
,
0010
0100
0010
0000
1000
0000
0001
0000
,
0100
0001
1000
0010
,
1000
0100
0001
0000
1000
0100
0001
0000
,
0200
0000
1300
0002
,
0000
2003
0000
3010
,
0200
0000
0310
2000
,
0000
0000
0000
3000
,
0001
1000
0001
0000
0100
0000
0020
0000
,
0000
0000
0000
0000
0030
0000
1000
0010
,
0200
0300
0001
1000
,
0000
0001
0100
0000
0000
0000
0000
0000
,
0100
0010
0100
0010
,
0100
1000
0100
0010
,
0100
0000
0001
0100
0000
0000
0000
0000
,
1100
0000
0011
0000
,
0100
0001
0100
0010
,
0100
0000
1000
0000
0100
0000
0001
0100
,
0000
0000
0110
0000
,
1000
0010
0100
0000
,
0001
0100
1000
0100
,
0001
0100
0010
1000
,
0010
0000
1000
0100
0000
0000
0010
0000
,
0001
1001
1000
1001
,
0001
0100
1000
0000
0100
0000
0001
0000
,
1000
0100
0001
0000
0100
0000
1000
0000
,
0010
0100
0001
1000
,
0010
0100
0001
1000
,
1000
0010
0000
0100
0001
0000
0010
0000
,
0100
1100
0001
0101
,
1000
0100
0000
0001
0100
0000
0010
0000
,
1000
1100
0001
0011
,
0010
0100
0000
0001
1000
0000
0100
0000
,
0010
0011
0100
1100
,
1000
0100
0000
0010
0100
0000
0001
0000
,
0100
1001
0010
1010
,
1000
0100
0010
0000
0100
0000
0100
0000
,
0001
0100
1000
0001
,
0001
0010
0100
0000
0010
0000
0010
0000
,
1000
0010
0001
1000
,
1000
0100
0010
0000
0100
0000
0100
0000
,
0001
0010
0100
0000
0010
0000
0010
0000
,
2002
0000
0000
3003
,
0000
0000
0000
0000
,
0010
0001
0010
0000
1000
0000
1000
0000
,
1001
0010
0100
1001
,
0220
0000
0000
0300
0000
1000
0000
2030
,
0000
3010
1000
0001
,
1000
0100
1000
0000
0001
0100
0001
0000
,
0100
0010
1000
0001
,
1000
0100
1000
0000
0010
0001
0010
0000
,
0020
2030
3002
0203
,
0301
1000
0100
0000
0100
0000
0100
0000
,
0110
0001
1000
0110
,
0100
0010
0001
0000
1000
0000
1000
0000
,
1010
0001
0100
1010
,
0001
0100
1000
0000
0100
0000
0001
0000
,
1000
0100
0001
0000
0100
0000
1000
0000
,
0001
0100
0001
0000
1000
0010
1000
0000
,
0202
0000
0000
0303
,
1000
0001
0100
0000
0010
0000
0010
0000
,
1010
0000
0101
0000
,
0010
0100
0001
0000
0010
0000
0010
0000
,
1001
0000
1010
0000
,
1000
0100
1000
0000
0020
0000
0230
0000
,
0301
1000
0010
0000
0200
0000
0302
0000
,
1003
0010
0100
0000
0001
1000
0001
0000
,
1000
1100
0001
0101
,
1002
0000
0000
0000
0000
0103
0000
0000
,
1000
0000
0010
0000
0100
0000
1000
0001
,
1000
0000
0010
0000
0100
0000
0001
1000
,
0001
0000
0100
0000
1000
0000
0001
0010
,
0001
0000
1000
0010
1000
0000
0001
0100
,
0002
0000
0000
0000
0000
0003
0001
0010
,
0002
0000
0000
0000
0000
0003
1000
0100
,
2000
0000
0000
0000
0000
3000
0010
1000
,
0020
0000
0000
0000
0000
0030
0001
0010
,
0002
0000
0100
0000
0010
0003
0001
0000
,
2000
0000
0100
0000
0010
3000
1000
0100
,
0020
0000
0100
0000
0001
0030
0100
1000
,
0100
0010
0100
0000
0100
0010
0100
0000
,
0020
0000
1030
0000
0100
1000
0100
1000
,
0001
0000
0001
0000
0010
0100
0010
0000
,
0020
0000
0031
0000
0100
0001
0100
0001
,
1000
0000
1000
0000
0100
1000
0100
1000
,
0010
0000
0001
0000
0110
0000
0001
0100
,
1000
0000
0100
0000
0001
0000
1000
0010
,
0001
0000
0010
0000
1010
0000
0100
0001
,
0010
0000
0100
0000
1100
0000
0001
0100
,
0020
0000
0000
0000
1030
0000
0000
0000
1100
0000
0000
1000
0000
0000
0000
0000
,
0200
0000
0000
0000
0310
0000
0000
0000
0001
0000
0000
0010
0000
0000
0000
0000
,
0200
0000
0000
0000
0310
0000
0000
0000
1000
0000
0000
0100
0000
0000
0000
0000
,
0002
0000
0000
0000
1003
0000
0000
0000
1000
0000
0000
0001
0000
0000
0000
0000
,
1000
0001
0010
0000
1000
0001
0010
0000
,
0001
1000
0010
0100
0010
1000
0001
0000
,
0001
1000
0100
0000
0001
1000
0100
0000
,
0001
1000
0010
0100
0010
1000
0001
0000
,
0200
0000
0301
0000
0010
0001
0010
0001
,
1000
0000
1000
0000
0100
0010
0100
0000
,
0200
0000
1300
0000
0010
1000
0010
1000
,
0001
0000
0001
0000
0010
0001
0010
0001
,
0100
0000
1000
0000
0110
0000
1000
0010
,
0001
0000
0010
0000
1000
0000
0001
0100
,
1000
0000
0100
0000
0101
0000
0010
1000
,
0001
0100
0001
0100
,
0001
0000
1000
0100
,
1000
0000
0001
0010
,
0001
0000
0001
0100
,
0001
1000
0010
0100
,
0001
1000
0100
1000
,
1100
0000
0101
0000
,
1001
1001
1001
0010
,
1000
0100
1000
0000
1000
0100
1000
0000
,
0001
0010
1000
0000
,
0001
0010
0001
0000
0001
0010
0001
0000
,
1000
0000
0100
0001
0000
0000
0000
0000
,
0010
1000
0100
0000
0010
0000
0010
0000
,
0001
0100
0010
1000
,
0010
0001
0100
0000
0010
0000
0010
0000
,
1000
0100
0010
0000
,
0001
0100
0001
0000
0001
0100
0001
0000
,
1000
0010
0001
0000
,
1000
0010
1000
0000
1000
0010
1000
0000
,
0001
0000
0100
1000
0000
0000
0000
0000
,
0010
0001
0100
0000
0010
0000
0010
0000
,
1000
0100
0010
0010
,
0001
0100
0001
0000
0001
0100
0001
0000
,
1000
0100
1000
0000
1000
0100
1000
0000
,
1000
0000
0100
0000
0010
0100
0010
0000
,
0001
0000
0100
0000
0010
0100
0010
0000
,
1000
0100
1000
0001
,
2002
0000
0000
3003
,
0001
1000
0100
1000
,
0010
0000
0100
0000
0001
0000
0100
0010
,
1000
0010
0100
0001
,
1001
0001
1000
0000
,
0001
0000
0100
0000
0010
0100
0010
0000
,
1000
0000
0100
0000
0010
0100
0010
0000
,
0001
0100
0001
1000
,
2002
0000
0000
3003
,
1000
0001
0100
0001
,
0010
0000
0100
0000
1000
0000
0100
0010
,
0001
0010
0100
1000
,
0002
2000
0000
3003
,
1001
1000
0001
0001
,
1000
1000
0100
0100
,
0010
0010
0001
0001
,
0100
0100
0110
0000
,
1000
0000
0010
1000
0100
0000
0100
0000
,
0000
0000
0010
0001
0100
0000
0010
0000
,
1000
0010
0100
0001
,
1000
0001
1001
0000
,
0010
0000
0100
0001
0010
0000
0011
0000
,
0000
0000
0100
1000
0010
0000
1010
0000
,
0000
0000
1000
0001
1000
0000
0010
0000
,
0100
0010
0100
0000
,
0000
0000
0010
0100
0010
0000
0110
0000
,
0000
0000
0001
1000
0001
0000
1001
0000
,
0110
0000
0011
0000
,
1100
0000
1000
0100
1000
0000
0000
0000
,
1000
0100
1000
0100
,
0010
0001
0010
0001
,
0100
0001
0100
0001
,
1000
0010
1000
0010
,
0100
0001
0100
0001
,
1000
0100
1000
0100
,
0010
0001
0010
0001
,
1000
1000
0000
0001
0000
0000
0001
1000
,
1002
0000
0000
0003
,
2000
0000
0000
3000
,
0200
0000
0000
0300
,
0002
0000
0000
0003
,
0210
1000
0001
1300
,
0120
0001
1000
0031
,
2001
0010
0100
3010
,
1001
0002
0100
0000
0010
0000
0103
0000
,
1001
0100
0001
1000
,
1001
0100
1000
0001
,
0010
0100
0001
1000
,
0100
0010
0001
1000
,
1001
0020
0000
0130
,
1001
0200
0000
0310
,
1001
0020
0000
0130
,
1002
2000
0000
3003
,
1000
0010
1000
0000
1000
0010
1000
0000
,
0001
0100
1000
0000
,
0001
0100
0001
0000
0001
0100
0001
0000
,
1000
0000
0010
0001
0000
0000
0000
0000
,
0100
1000
0010
0000
0100
0000
0100
0000
,
0001
0010
0100
1000
,
0100
0001
0010
0000
0100
0000
0100
0000
,
2002
0000
0000
3003
,
0110
0000
0000
0000
;

//---------------dance-single - ----------------
#NOTES:
     dance-single:
     :
     Hard:
     9:
     0.523,0.636,0.313,0.238,0.044: // measure 1
0000
0000
0000
0000
,  // measure 2
0000
0000
0000
0000
,  // measure 3
0000
0000
0000
0000
,  // measure 4
0000
0000
0000
0000
,  // measure 5
0010
0100
1000
0010
0100
0000
0010
0000
,  // measure 6
0000
0001
0000
0010
0000
0100
0000
0010
,  // measure 7
1000
0100
1000
0010
1000
0000
0100
0000
,  // measure 8
0000
0010
0000
0001
0000
0100
0000
0000
,  // measure 9
0010
1000
0100
0000
1000
0000
0010
0100
,  // measure 10
0001
0010
0100
0000
0002
0000
0203
0000
,  // measure 11
0302
0203
2300
3020
,  // measure 12
0030
0200
0000
0000
0001
0000
0301
0000
,  // measure 13
0100
1000
0100
0000
0001
0000
0010
0100
,  // measure 14
0010
0001
0100
0000
2000
0000
3200
0000
,  // measure 15
2300
3200
0302
0023
,  // measure 16
0030
0200
0000
0000
1000
0000
1300
0000
,  // measure 17
0100
0010
0001
0010
0200
0000
2300
0000
,  // measure 18
3010
1000
0100
1000
0020
0000
0230
0000
,  // measure 19
0301
0010
0100
0010
0002
0000
0203
0000
,  // measure 20
1300
0100
0010
0100
2000
0000
3200
0000
,  // measure 21
0301
0010
0100
0010
0001
0100
2000
0000
,  // measure 22
0000
3200
0302
0023
,  // measure 23
0031
1000
0000
0100
1000
0010
0000
0100
,  // measure 24
0001
0010
0000
0100
1000
0010
1000
0000
,  // measure 25
0200
1000
2300
0010
,  // measure 26
3020
0001
0032
0010
,  // measure 27
0023
1000
2030
0001
,  // measure 28
3002
0100
0203
0010
,  // measure 29
0310
1000
0000
1000
0000
0010
0100
0000
0100
0000
0001
0000
0100
0000
1000
0000
,  // measure 30
0100
0001
0000
0001
0000
1000
0100
0000
0100
0000
0010
0000
0001
0000
0010
0000
,  // measure 31
0100
0001
0000
0001
0000
0100
1000
0000
1000
0000
0010
0000
0100
0000
0010
0000
,  // measure 32
1000
0100
0000
0100
0000
0010
0001
0000
1001
0000
0000
0000
0000
0000
0000
0000
,  // measure 33
0010
0001
0100
0001
0010
0001
0100
0001
,  // measure 34
1000
0010
1000
0100
1000
0010
1000
0000
,  // measure 35
0010
0100
0000
0000
0001
0000
1000
0000
0010
0100
0000
0000
0001
0000
1000
0000
,  // measure 36
0100
1000
0000
0000
0001
0000
0010
0000
0100
1000
0000
0000
0110
0000
0000
0000
,  // measure 37
1000
0100
0001
0100
1000
0100
0001
0100
,  // measure 38
0010
0001
0100
0001
0010
0001
0100
0000
,  // measure 39
0001
1000
0000
0000
0010
0000
0100
0000
0001
1000
0000
0000
0010
0000
0100
0000
,  // measure 40
0001
0100
0000
0000
0010
0000
1000
0000
0001
0100
0000
0000
1001
0000
0000
0000
,  // measure 41
0001
0100
0001
0100
0001
0000
1000
0000
0100
0000
0100
0000
0002
0000
0000
0000
,  // measure 42
0000
0000
0203
0000
2300
0000
3020
0030
,  // measure 43
1000
0100
1000
0100
1000
0000
0001
0000
0100
0000
0100
0000
2000
0000
0000
0000
,  // measure 44
0000
0000
3200
0000
0301
0010
0001
0100
,  // measure 45
1000
0200
0000
0000
0000
0000
0320
0000
,  // measure 46
0000
0000
1030
0101
,  // measure 47
1000
0010
0100
0010
1000
0100
0010
0100
,  // measure 48
1000
0001
0100
1000
0100
0001
1000
0000
,  // measure 49
0002
0203
2300
3020
,  // measure 50
0000
0032
0000
0023
,  // measure 51
2030
0000
3200
0302
,  // measure 52
0000
0000
0000
0003
,  // measure 53
1000
0010
1000
0100
1000
0010
0200
0000
,  // measure 54
0000
0000
0000
0000
0300
0000
0001
0100
,  // measure 55
0020
0000
2030
3200
,  // measure 56
0000
0310
0002
0000
0000
0000
0013
0000
,  // measure 57
0010
0001
0200
0000
0000
0000
0010
0000
,  // measure 58
0302
0100
1000
0103
,  // measure 59
1000
0010
0200
0000
0000
0000
1000
0000
,  // measure 60
0320
0100
0001
0130
,  // measure 61
0001
1000
0020
0000
0000
0000
0001
0000
,  // measure 62
2030
0001
0100
3001
,  // measure 63
0100
0001
0100
0000
0010
1000
0010
0000
,  // measure 64
0011
0000
0110
0000
,  // measure 65
0010
0001
0000
0010
1000
0000
0010
0001
,  // measure 66
0100
1000
0000
0100
0001
0000
0010
0100
,  // measure 67
1000
0100
0000
0001
0010
0000
1000
0010
,  // measure 68
0110
0000
1001
0000
,  // measure 69
0001
1000
0000
0010
0100
0000
0001
0010
,  // measure 70
1000
0010
0000
0001
0100
0000
0010
0100
,  // measure 71
0010
1000
0000
0010
0100
0000
0001
1000
,  // measure 72
1100
0000
0101
0000
,  // measure 73
0100
1000
0010
0000
0100
0010
0100
0000
,  // measure 74
0001
1000
0010
0000
0100
1000
0100
0000
,  // measure 75
0100
0101
0100
0101
,  // measure 76
0010
1010
0010
1010
,  // measure 77
0001
1000
0001
0100
0010
1000
0001
0000
,  // measure 78
0100
0010
0100
1000
0100
0001
0010
0100
,  // measure 79
0020
0001
0100
0001
,  // measure 80
0230
0000
0000
0300
,  // measure 81
1000
0100
0010
0001
0010
0100
1000
0000
,  // measure 82
0001
0101
1000
1100
,  // measure 83
0100
0010
0001
0010
0100
0010
0001
0000
,  // measure 84
0100
0110
1000
1001
,  // measure 85
1000
0010
1000
0010
0000
0100
0001
0100
,  // measure 86
0010
1000
0100
0001
0000
0100
1000
0100
,  // measure 87
0010
0001
0010
0100
1000
0100
0010
0100
,  // measure 88
1001
0001
0101
0100
,  // measure 89
0001
1000
0010
0100
0001
0100
1000
0000
,  // measure 90
0101
0001
1100
0100
,  // measure 91
0010
0001
0100
0001
1000
0010
1000
0000
,  // measure 92
0100
1001
0010
0110
,  // measure 93
0001
0100
0001
0100
0000
0010
1000
0010
,  // measure 94
0100
0001
0010
1000
0000
0010
0001
0010
,  // measure 95
0100
0000
1000
0002
0000
0100
0000
2003
,  // measure 96
0000
0000
0000
3000
,  // measure 97
0001
0010
0100
0010
0100
0010
0100
0010
,  // measure 98
0001
0101
0001
0101
,  // measure 99
0100
0010
1000
0010
1000
0010
1000
0010
,  // measure 100
0100
0110
0100
0110
,  // measure 101
1000
0010
1000
0010
0000
0100
0001
0010
,  // measure 102
0100
0010
0001
1100
0000
0000
0110
0000
,  // measure 103
0100
1000
0001
0100
0010
0100
0001
0100
,  // measure 104
0010
1000
0100
1000
0001
1000
0020
0000
,  // measure 105
1032
0000
0000
0000
0000
0003
1001
0110
,  // measure 106
2000
0000
0000
0000
0000
3000
0110
1001
,  // measure 107
0200
0000
0000
0000
0000
0300
0110
1001
,  // measure 108
0020
0000
0000
0000
0000
0030
1001
0110
,  // measure 109
1000
0000
0010
0000
0200
0300
0010
1100
,  // measure 110
0001
0000
0010
0000
0200
0300
0010
0101
,  // measure 111
1000
0000
0100
0000
0002
0003
0010
1100
,  // measure 112
0001
1000
0001
1000
0001
1000
0001
1010
,  // measure 113
0100
0000
0000
0000
0001
0000
0000
0000
0011
0000
0000
1001
0000
0000
0100
0000
,  // measure 114
1000
0010
1000
0000
0001
0010
0001
0000
,  // measure 115
1100
0000
0010
0000
1010
0000
0100
0001
,  // measure 116
0010
0000
0100
0001
0100
0010
0001
0100
,  // measure 117
0010
0000
0000
0000
1000
0000
0000
0000
1100
0000
0000
1001
0000
0000
0010
0000
,  // measure 118
0001
0100
0001
0000
1000
0100
1000
0000
,  // measure 119
0011
0000
0100
0000
0101
0000
0010
1000
,  // measure 120
0100
0000
0010
1000
0010
0100
1000
0010
,  // measure 121
0100
0000
0000
0000
0001
0000
0000
0000
0011
0000
0000
1001
0000
0000
0100
0000
,  // measure 122
1000
0000
0000
0000
0010
0000
0000
0000
0101
0000
0000
1001
0000
0000
0010
0000
,  // measure 123
1000
0000
0000
0000
0100
0000
0000
0000
0011
0000
0000
0110
0000
0000
0100
0000
,  // measure 124
1000
0000
0000
0000
0001
0000
0000
0000
0101
0000
0000
0110
0000
0000
0010
0000
,  // measure 125
1010
1000
0100
0010
1000
0010
0100
1000
,  // measure 126
1001
0001
0100
0010
0001
0010
0100
0001
,  // measure 127
1100
1000
0010
0100
0101
0010
1000
0100
,  // measure 128
1100
0001
1000
0010
0110
0001
1000
0100
,  // measure 129
0110
0000
0000
0000
1000
0000
0000
0000
1100
0000
0000
1001
0000
0000
0010
0000
,  // measure 130
0001
0100
0010
0000
1000
0100
0010
0000
,  // measure 131
0011
0000
0100
0000
0101
0000
0010
1000
,  // measure 132
0100
0001
0010
1000
0010
0100
1000
0010
,  // measure 133
0100
0000
0000
0000
0001
0000
0000
0000
0011
0000
0000
1001
0000
0000
0100
0000
,  // measure 134
1000
0010
0100
0000
0001
0010
0100
0000
,  // measure 135
1100
0000
0010
0000
1010
0000
0100
0001
,  // measure 136
0010
1000
0100
0001
0100
0010
0001
0100
,  // measure 137
0010
0000
0000
0000
1000
0000
0000
0000
1100
0000
0000
1001
0000
0000
0010
0000
,  // measure 138
0001
0000
0000
0000
0100
0000
0000
0000
1010
0000
0000
1001
0000
0000
0100
0000
,  // measure 139
0001
0000
0000
0000
0010
0000
0000
0000
1100
0000
0000
0110
0000
0000
0010
0000
,  // measure 140
0001
0000
0000
0000
1000
0000
0000
0000
1010
0000
0000
0110
0000
0000
0100
0000
,  // measure 141
0101
0001
0010
0100
0001
0100
0010
0001
,  // measure 142
1001
1000
0010
0100
1000
0100
0010
1000
,  // measure 143
0011
0001
0100
0010
1010
0100
0001
0010
,  // measure 144
0011
1000
0001
0100
0110
1000
0001
0010
,  // measure 145
0110
0000
1000
0000
0010
1000
0100
0010
,  // measure 146
0001
0100
0001
1000
0100
0010
0001
0000
,  // measure 147
1001
0000
0010
0000
0100
0001
0010
0100
,  // measure 148
1000
0010
1000
0001
0010
0100
1000
0000
,  // measure 149
0001
0100
0010
0000
0001
0100
0001
0000
,  // measure 150
1000
0000
1000
0000
0100
1000
0010
0000
,  // measure 151
0100
0000
0001
0000
1000
0010
0100
0010
,  // measure 152
0000
0000
0001
0000
1000
0100
0010
0002
,  // measure 153
0000
1003
0100
2000
0000
3010
0100
0002
,  // measure 154
0000
0103
0010
1000
0200
0000
0310
0100
,  // measure 155
1000
0100
0010
0000
1000
0100
0010
0000
,  // measure 156
0001
0100
0010
0010
0100
0000
1001
0000
,  // measure 157
1000
0100
1000
0010
0100
0001
1000
0000
,  // measure 158
0101
1100
0102
1003
,  // measure 159
0010
0100
0001
0100
0010
1000
0100
1000
,  // measure 160
0001
0000
1000
0001
0000
0000
1001
0000
,  // measure 161
0001
0100
1000
0000
0001
0100
1000
0000
,  // measure 162
1020
0130
0210
0301
,  // measure 163
0001
1000
0100
0000
0001
1000
0100
0000
,  // measure 164
1000
0100
1000
0001
0010
0000
0110
0000
,  // measure 165
0001
0100
0001
0010
0100
1000
0001
0000
,  // measure 166
1100
0101
2100
3001
,  // measure 167
0010
0100
1000
0100
0010
0001
0100
0001
,  // measure 168
1000
0000
0001
1000
0000
0000
1001
0000
,  // measure 169
1000
0100
0001
0000
1000
0100
0001
0000
,  // measure 170
0021
0130
0210
1300
,  // measure 171
1000
0001
0100
0000
1000
0001
0100
0000
,  // measure 172
0001
0100
0001
1000
0010
0000
0110
0000
,  // measure 173
0001
0000
1100
0000
0010
0001
1000
0000
,  // measure 174
0001
0000
1000
0100
1000
0000
0001
0000
,  // measure 175
0100
0000
0010
0100
0001
0000
0001
1000
,  // measure 176
0100
0000
0100
0000
0100
0000
0100
1000
,  // measure 177
0010
0000
1000
0000
0101
0000
0001
1000
,  // measure 178
0100
0000
0100
1000
0010
0000
0010
0100
,  // measure 179
0001
0000
0001
1000
0100
0000
0100
1000
,  // measure 180
0010
0001
0010
0010
,  // measure 181
0001
1000
0100
1000
0001
0000
0001
0100
,  // measure 182
1000
0000
1000
0100
0001
0000
0100
1000
,  // measure 183
0100
0000
0001
0000
0100
0000
1000
0010
,  // measure 184
0100
0000
0100
0000
0100
0000
0100
0001
,  // measure 185
0010
0000
0010
0000
0010
0000
0010
1000
,  // measure 186
0001
0000
0001
0000
0001
0000
0100
0001
,  // measure 187
1000
0000
0100
1000
0010
0000
0100
0001
,  // measure 188
0000
2002
0000
3003
,  // measure 189
0100
1000
0001
1000
0010
0000
0101
0000
,  // measure 190
1000
1000
0001
0010
0100
0000
1100
0000
,  // measure 191
1000
0000
0010
0100
1000
0000
0001
0100
,  // measure 192
0010
0000
0100
0000
0010
0001
0100
0010
,  // measure 193
0100
0100
0010
1000
0100
0000
1000
0000
,  // measure 194
0010
0010
0100
0001
0010
0000
0001
0000
,  // measure 195
0100
0000
0010
0100
1000
0000
1000
0100
,  // measure 196
0001
0000
0010
0000
0100
0000
1000
0001
,  // measure 197
1001
0000
0010
1000
0100
0010
0001
0010
,  // measure 198
0100
0000
0010
1000
0010
0100
0001
1000
,  // measure 199
0100
0000
0010
0001
1000
0000
0100
0001
,  // measure 200
1000
0010
0100
0001
1000
0000
0010
0100
,  // measure 201
1000
1000
0100
0200
0001
0000
1300
0000
,  // measure 202
0001
0001
0100
0200
1000
0000
0301
0000
,  // measure 203
1000
0000
1000
0100
0100
0000
0010
0001
,  // measure 204
0100
0000
0010
1000
0100
0000
0000
0000
,  // measure 205
0010
0000
0100
0000
0010
1000
0100
0000
,  // measure 206
0010
0000
0100
0000
0010
0001
0100
0000
,  // measure 207
0001
1000
0010
0001
,  // measure 208
0100
1000
0010
0100
,  // measure 209
1001
0000
0010
0000
0001
0001
0100
0000
,  // measure 210
1001
0000
0010
0000
1000
1000
0100
0000
,  // measure 211
1001
0000
0010
0001
0100
0000
0000
0000
,  // measure 212
0010
0100
0000
0001
0000
0000
0100
0100
,  // measure 213
1002
0000
0000
0000
,  // measure 214
0023
0000
0000
0000
,  // measure 215
0230
0000
0000
0000
,  // measure 216
2300
0000
0000
0000
3001
1000
0001
1000
,  // measure 217
0001
0001
0010
0100
1000
0010
0100
0100
,  // measure 218
1000
0100
0001
0010
0100
1000
0010
0100
,  // measure 219
0010
1000
0010
0100
0001
0010
0011
0000
,  // measure 220
1000
0100
0010
0001
0010
0100
1000
0001
,  // measure 221
1000
0000
0010
0000
0100
0100
0001
0010
,  // measure 222
0001
0000
0101
0000
1000
0010
1000
0000
,  // measure 223
0010
1000
0100
0000
0010
0001
0100
0000
,  // measure 224
0010
0100
0001
0010
0100
1000
0001
0100
,  // measure 225
0010
0000
0011
0000
0010
0001
0010
0000
,  // measure 226
1000
0000
1100
0000
0100
1000
0100
0000
,  // measure 227
0001
0000
0101
0000
0010
1000
0010
0000
,  // measure 228
1000
2002
0000
3003
,  // measure 229
1000
0010
1000
0100
0010
0001
1000
0000
,  // measure 230
0011
1010
0012
1003
,  // measure 231
0100
0010
0001
0010
0100
1000
0010
1000
,  // measure 232
0001
0000
1000
0001
0000
0000
1001
0000
,  // measure 233
0001
0010
1000
0000
0001
0010
1000
0000
,  // measure 234
1200
0310
0120
0031
,  // measure 235
0001
1000
0010
0000
0001
0001
0100
0000
,  // measure 236
1000
0001
0010
1000
0100
0001
0010
1000
,  // measure 237
1001
0000
0000
0000
;
