#TITLE:Trance Sunrise Mix;
#SUBTITLE:(DDR EXTREME 2);
#ARTIST:Nightime;
#TITLETRANSLIT:;
#SUBTITLETRANSLIT:;
#ARTISTTRANSLIT:;
#CREDIT:;
#BANNER:DDREXT2.png;
#BACKGROUND:DDREXT2-bg.png;
#LYRICSPATH:;
#CDTITLE:./CDTITLES/DANCE DANCE REVOLUTION EXTREME 2.PNG;
#MUSIC:DDREXT2.mp3;
#OFFSET:0.000;
#SAMPLESTART:336.000;
#SAMPLELENGTH:15.000;
#SELECTABLE:YES;
#BPMS:0.000=140.000,878.000=70.000,886.000=140.000;
#STOPS:878.000=3.420
;
#BGCHANGES:;

//---------------dance-single - ----------------
#NOTES:
     dance-single:
     :
     Easy:
     3:
     0.278,0.371,0.037,0.337,0.000:
0000
0000
0000
0000
,
0000
0000
0000
0000
,
0000
0000
0000
0000
,
0000
0000
0000
0000
,
1000
0001
1000
0002
,
0000
0003
0010
0100
,
2000
3000
0200
0300
,
0020
0030
0002
0003
,
0100
0010
0100
0020
,
0000
0030
1000
0001
,
0020
0030
0200
0300
,
2000
3000
0002
0003
,
0010
0002
0003
0001
,
1000
0200
0300
0100
,
1000
0020
0030
0010
,
0100
0002
0003
0001
,
0010
0100
0010
0100
,
1000
0100
1000
0100
,
0001
0100
0001
0100
,
1000
1000
0010
0010
,
0100
0100
0001
2000
,
0000
3000
0100
0010
,
0002
0003
0020
0030
,
0200
0300
2000
3000
,
0010
0100
0010
0200
,
0300
0100
0001
1000
,
0200
0300
0020
0030
,
0002
0003
2000
3000
,
0100
2000
3000
1000
,
0001
0020
0030
0010
,
0001
0200
0300
0100
,
0010
2000
3000
1000
,
0100
0010
0100
0010
,
0001
0010
0001
0010
,
1000
0010
1000
0010
,
0001
1000
0001
0010
,
0200
0000
0000
0300
,
0001
1000
0001
1000
,
0002
0000
0000
0003
,
1000
0001
1000
0000
,
1001
2002
3003
0000
,
0110
0220
0330
0000
,
0010
0100
0010
0100
,
0001
1000
0001
0000
,
0101
0202
0303
0000
,
1100
2200
3300
0000
,
0001
1000
0001
1000
,
0010
0100
0010
0000
,
0002
1000
0000
1003
,
0200
0010
0000
0310
,
0002
1000
0000
1003
,
0020
0100
0000
0130
,
0001
1000
1000
1000
,
0100
0010
0010
0010
,
0001
0100
0100
0100
,
0010
1000
1000
1000
,
2002
0000
0000
3003
,
0000
0000
1000
0010
,
0200
0000
0000
0300
,
0000
0000
0001
0010
,
0200
0300
1000
0000
,
1000
0000
0010
0100
,
0002
0003
1000
0000
,
1000
0000
0002
0000
,
0000
0003
2000
0000
,
0000
3001
0002
0000
,
0000
0003
2000
0000
,
0000
3010
0100
0100
,
0010
0000
0100
0100
,
0010
0000
1000
0001
,
1000
0100
0010
0001
,
1000
0000
0001
0001
,
0001
0000
1000
1000
,
1000
0000
0010
1000
,
0100
0010
0010
0010
,
0100
0010
0220
0000
,
0330
0000
1000
0010
,
1000
0001
0100
0010
,
1000
0000
0010
1000
,
0100
0001
0100
1000
,
0001
0000
0001
0100
,
0001
1000
0001
0010
,
0100
0000
0100
0010
,
0100
1000
0010
1000
,
0001
0100
0002
0003
,
0001
1000
0002
0003
,
0001
1000
0020
0030
,
0010
1000
0200
0300
,
0100
1000
0020
0030
,
0010
0100
0200
0300
,
0100
0001
0002
0003
,
0001
1000
2000
3000
,
1000
0010
0020
0030
,
0010
1000
0001
0010
,
0100
1000
0002
0003
,
0001
1000
0010
1000
,
0100
0010
0020
0030
,
0100
0010
0001
1000
,
0001
0100
0020
0030
,
0010
1000
0001
0100
,
0010
1000
1000
0001
,
1000
0000
0001
1000
,
0001
0000
1000
0100
,
0010
0000
0010
0001
,
0010
0000
0001
1000
,
0001
0100
0001
1000
,
0100
0010
0001
0000
,
0001
0000
1000
0000
,
1000
0000
0010
1000
,
0100
0010
0001
0010
,
0100
1000
0001
0001
,
1000
1000
0001
0000
,
0001
0000
0010
0001
,
0100
0000
0010
1000
,
0100
0000
0010
0100
,
1000
0000
0010
0100
,
0001
0000
2000
0000
,
0000
3000
0002
0000
,
0000
0003
0100
0100
,
0010
0000
1000
1000
,
0001
0000
1001
0000
,
0100
0010
1000
0000
,
0100
0010
0001
0000
,
1000
0001
0100
0000
,
0001
1000
0200
0300
,
0020
0000
0000
0030
,
0002
0000
0000
1003
,
0200
0300
0000
0000
,
0000
0000
0010
0200
,
0300
0001
1000
0200
,
0300
0010
0001
2000
,
3000
0010
0100
0002
,
0003
1000
0100
0020
,
0030
0001
1000
0002
,
0003
0100
0010
0200
,
0300
0001
1000
0002
,
0003
1000
1000
0002
,
0013
0000
0001
2000
,
3010
0000
1000
0002
,
0103
0000
0001
2000
,
3100
0000
0020
0031
,
0100
0000
0020
1030
,
0100
0000
2000
3010
,
0100
0000
0002
0013
,
0100
0000
2000
3100
,
2000
3000
0002
0103
,
0002
0003
0020
0130
,
0020
0030
0002
1003
,
0002
0003
2000
3010
,
2000
3000
0002
0013
,
0002
0003
0200
0310
,
0200
0300
0002
1003
,
0002
0003
1001
0000
,
1000
1000
0010
0000
,
0010
0010
0100
0000
,
0100
0100
0001
0000
,
0001
0001
1000
0000
,
0100
0000
0010
0000
,
0100
0000
0010
1000
,
0010
1000
0001
0100
,
0001
0100
1001
0000
,
0000
0000
0020
0000
,
0000
0030
0002
0000
,
0000
0003
2000
0000
,
0000
3000
0002
0000
,
0000
0003
0020
0000
,
0000
0030
0200
0000
,
0000
0300
2000
0000
,
0000
3000
0020
0000
,
0000
0030
0100
0001
,
0100
0000
1000
0010
,
1000
0000
0001
1000
,
0001
0000
0100
0010
,
0100
0000
0010
0001
,
0010
0000
0100
1000
,
0100
0000
0001
0100
,
0001
0000
1000
0100
,
1000
0000
0001
0010
,
0100
0010
0001
0000
,
1000
0000
1000
0010
,
0100
0010
1000
0000
,
0001
0000
0010
0001
,
0100
0001
0010
0000
,
0001
0000
0010
1000
,
0100
1000
0010
0000
,
1000
0000
2000
0000
,
0000
0000
0001
0000
,
0000
3000
0010
0001
,
0100
0000
0010
1000
,
0100
0000
1000
0001
,
0100
0000
0001
1000
,
0100
0000
0010
0100
,
1000
0000
0010
0100
,
0001
0000
1000
0001
,
0010
0000
0220
0000
,
0000
0330
0100
1000
,
0100
0001
0100
1000
,
0010
0000
0002
0003
,
2000
3000
0020
0030
,
0200
0300
0001
0010
,
0100
1000
0001
1000
,
0100
0000
0002
0003
,
0200
0300
0010
1000
,
0001
1000
0010
0000
,
0001
0000
0010
0010
,
1000
0001
0100
0000
,
0100
0000
1000
0000
,
0001
0100
1000
1000
,
0002
0003
0001
1000
,
0100
0100
0020
0030
,
0002
0003
0001
1000
,
0001
0100
2000
3000
,
0100
0000
0001
1000
,
0010
0000
2000
3000
,
0002
0003
0010
1000
,
0010
0100
0001
0001
,
1000
0100
0020
0030
,
0100
0001
0020
0000
,
0030
0000
0010
1000
,
0100
0010
0200
0000
,
0300
0000
0010
0000
,
0100
0000
0001
0000
,
0100
0000
1000
0000
,
0010
0000
0001
0100
,
1000
0001
2002
0000
,
3003
0000
1000
0000
,
0001
0000
0010
0010
,
1000
0001
0100
0000
,
0100
0000
1000
0100
,
0001
0100
1000
1000
,
0002
0003
0001
1000
,
0100
0100
0020
0030
,
0002
0003
0001
1000
,
0001
0100
0020
0000
,
0030
0000
2000
0000
,
3001
0000
0200
0000
,
0310
0100
0002
0103
,
1000
0010
0200
0300
,
0100
0010
2000
3000
,
0002
0003
1000
0100
,
0001
0000
1000
0100
,
0010
0001
0002
0000
,
0003
0010
2000
0000
,
3000
0100
0100
0010
,
0100
0010
0220
0000
,
0000
0330
0000
0000
;

//---------------dance-single - ----------------
#NOTES:
     dance-single:
     :
     Medium:
     5:
     0.400,0.428,0.170,0.260,0.000:
0000
0000
0000
0000
,
0000
0000
0000
0000
,
0000
0000
0000
0000
,
0000
0000
0000
0000
,
0110
0010
2000
3002
,
1003
0000
1000
0000
0001
0010
0001
0000
,
2000
3020
0000
1000
,
0000
0100
0000
1030
,
0001
0010
0002
1000
,
0000
0000
1003
0000
1000
0001
0010
0000
,
0200
1000
0000
0010
,
0000
0000
1300
0000
0010
0100
0001
0000
,
2000
0100
0001
3100
,
0020
0000
0001
0000
0100
0000
0031
0100
,
0020
1000
0100
1030
,
0200
0000
0001
0000
0010
0000
0301
1000
,
0200
0010
1000
0310
,
0002
0000
1000
0000
0010
0000
1003
0010
,
0200
0001
0010
0301
,
0020
1000
0000
1030
,
0110
0100
0002
2003
,
3001
0000
0001
0000
1000
0100
1000
0000
,
0002
0203
0000
0001
,
0000
0010
0000
0301
,
0100
0010
2000
0001
,
0000
0000
3001
0000
0001
1000
0100
0000
,
0020
0001
0000
0100
,
0000
0000
0031
0000
1000
0010
1000
0001
,
0100
0110
1000
1010
,
0100
0000
1100
0000
0100
0020
0000
0031
,
0000
0110
0001
0101
,
0010
0000
1100
0000
0001
0010
0001
1000
,
0010
0110
0001
0101
,
0010
0000
0011
0000
0010
0200
0000
1300
,
0000
0110
1000
1100
,
0010
0000
0101
0000
0010
0100
2000
0000
,
0002
3000
0100
0000
0000
0000
0100
0000
,
0000
0000
0103
0000
0001
0100
0020
0000
,
2030
0100
0000
0100
,
0000
0000
3100
0000
0000
0000
1000
0100
,
0000
0000
1100
0000
0000
0000
0001
0100
,
0000
0000
0101
0000
0000
0010
0001
0200
,
0000
0310
1000
1010
,
0100
0000
0101
0000
1000
0000
0001
0010
,
0000
0000
1100
0000
0000
0000
1000
0010
,
0000
0000
0101
0000
0000
0010
1000
0200
,
0000
0310
0001
0011
,
0100
0000
1100
0000
0010
0000
0001
2000
,
0000
0000
3001
0000
0000
0000
1000
0002
,
0000
0000
1003
0000
0000
0010
0100
0002
,
0000
0000
1000
0003
0010
0000
1010
0000
,
0100
0000
0101
0000
0001
0000
0010
0200
,
0000
0000
0310
0000
0000
0000
0100
0020
,
0000
0000
0130
0000
0000
1000
0010
2000
,
0000
3001
0000
1001
,
0100
0000
0110
0000
1000
0001
0200
0000
,
0020
0000
0000
0000
,
0000
0000
0330
0000
0001
1000
0200
0000
,
0020
0000
0000
0000
,
0000
0000
0330
0000
0001
1000
0000
0010
,
0000
0100
0000
0001
1000
0200
0020
0000
,
0000
0330
0000
0001
1000
0020
0000
0200
,
0000
0000
0000
0000
,
0330
0000
0000
0100
0001
0000
1000
0000
,
0100
1000
0010
0010
,
0010
0000
1000
0001
,
0010
0000
0100
0000
1000
0001
1000
0000
,
0010
1010
0010
1000
,
0001
0000
1000
0000
0001
0010
0100
0000
,
1000
1001
0001
1000
,
0001
0000
0100
0000
0010
1000
0100
0000
,
0010
0011
0001
0001
,
1000
0000
0100
0000
0010
0001
0100
0000
,
0001
0101
0100
0010
,
1000
0010
1010
0011
,
2002
3003
0220
0000
,
0330
0000
1000
1000
,
0001
0100
1000
0000
0100
0000
0100
0000
,
0001
0010
0100
1000
0010
0000
0010
0000
,
0100
0100
0002
0000
,
1000
1003
0001
0001
,
1000
0010
1000
0000
0100
0000
0100
0000
,
0010
0001
1000
0001
0100
0000
0100
0000
,
0001
0001
2000
0000
,
0100
0000
3100
0000
0010
0001
1000
0000
,
0010
1000
1010
0000
0010
1000
0001
0000
,
0010
0001
0011
0000
1001
0000
0000
0000
,
0000
0000
0110
0000
0010
1000
0100
1000
,
0010
0100
0001
0000
0001
1000
0100
0000
,
1000
0100
1100
0000
1000
0001
0100
0000
,
0001
0100
0101
0000
0001
0010
1000
0000
,
1000
0010
0001
0000
0001
0100
0010
0100
,
0010
1000
0001
1000
0002
0000
1000
0000
,
0100
0000
1003
0100
0020
0000
0001
0000
,
0100
0000
0031
1000
0200
0000
1000
0000
,
0010
0000
1300
0001
2000
0000
3000
0000
,
0000
0110
2000
0001
,
0010
0000
3001
0010
0002
0000
1000
0000
,
0100
0000
1003
0010
2000
0000
0010
0000
,
0010
3010
1010
0000
,
0000
0000
0000
0000
0001
0100
1000
0000
,
0001
0100
1000
0000
0100
0001
1000
0000
,
0010
1000
0100
0000
1000
0001
0100
0000
,
0001
0010
1000
0000
0001
1000
0010
0000
,
0100
0001
0101
0000
0000
1000
0000
0010
,
0000
1000
0010
1010
0000
0001
0000
1000
,
0000
0100
1000
1100
0000
1000
0000
0001
,
0000
0010
0001
0011
0000
0001
0000
1000
,
0000
0010
1000
1001
0001
0000
1000
0000
,
0010
1000
0002
1003
,
0020
0130
0020
1030
,
0200
1300
0001
1000
,
0001
1000
1001
0100
,
1000
0100
1000
0000
0001
0000
0100
0000
,
0001
0100
0001
0000
0010
0000
0010
0000
,
0100
0100
1000
1000
,
0001
1000
0001
0000
0200
0000
0000
0000
,
0000
0000
0320
0000
,
0000
0030
1000
0001
,
1000
0000
0001
0000
1000
0100
0001
0000
,
0001
0100
1000
0000
1001
0000
0001
0000
,
0100
0001
1000
0000
0100
0000
0010
0000
,
0100
1000
0001
0000
1000
0000
0100
0000
,
0010
0001
1000
0000
0100
0000
1000
0000
,
0001
0100
0010
0000
1000
0000
0001
0000
,
0010
0100
1000
0000
0010
0000
0100
0000
,
0001
0100
0010
0000
1000
0000
0010
0000
,
1000
0001
0010
0000
0200
0000
0000
0000
,
0000
0300
1001
0010
,
0100
0001
2000
0000
3100
1000
0002
0000
,
1003
0100
0010
0001
,
0100
0001
0200
0000
0310
1000
0020
0000
,
0130
0001
0010
0100
,
1000
0100
0020
0000
0031
0100
0020
0000
,
1030
0010
0100
0001
,
1000
0010
0200
0000
0301
0010
0200
0000
,
1300
0001
1000
0000
1001
0000
0100
0000
,
1000
0001
0100
0001
,
1000
0100
0010
0001
0100
0000
0001
0000
,
1000
0100
0010
0001
,
1000
0001
0100
0010
0100
0000
0001
0000
,
0010
0100
1000
0010
,
0100
0001
0010
0001
1000
0000
0100
0000
,
0010
0001
1000
0010
,
0100
0001
1000
0100
0010
0000
0100
0000
,
1000
0002
0100
0100
,
0010
0000
0013
0100
1000
0000
0001
0000
,
0100
0020
1000
1000
,
0100
0000
0130
0010
1000
0000
0001
0000
,
0010
2000
0100
0100
,
0010
0000
3010
0100
0001
0000
1000
0000
,
0100
0020
0001
0001
,
0100
0000
0130
0010
0001
0000
0100
0000
,
1000
0100
0010
0100
,
0001
1000
0010
0000
1000
0000
0100
0000
,
0001
0010
0001
1000
,
1000
0010
0100
0000
1000
0000
0100
0000
,
0010
0001
0010
0000
0001
0000
0010
0000
,
0100
1000
0100
0000
1000
0000
0001
0000
,
1000
0000
0001
0000
1000
0001
1000
0000
,
0100
0010
1001
0000
,
0000
0000
0000
0000
0001
0000
0001
0100
,
0000
0000
0000
0000
0100
0000
0100
0010
,
0000
0000
0000
0000
1000
0000
1000
0100
,
0000
0000
0000
0000
0001
0000
0001
1000
,
0000
0000
0000
0000
0010
0000
0010
0100
,
0000
0000
0000
0000
0100
0000
0100
1000
,
0000
0000
0000
0000
0010
0000
0010
0001
,
0000
0000
0000
0000
1000
0000
1000
0001
,
0000
0000
0000
0000
0100
0000
0010
0001
,
0000
0001
0010
0000
0100
0000
1000
0100
,
0000
0100
1000
0000
0001
0000
0100
0010
,
0000
0010
0100
0000
0001
0000
1000
0001
,
0000
0001
1000
0000
0100
0000
0010
0001
,
0000
0001
0010
0000
0100
0000
1000
0100
,
0000
0100
1000
0000
0001
0000
0100
0010
,
0000
0010
0100
0000
0001
0000
1000
0001
,
0000
0001
1000
0000
1000
0000
0100
0000
,
0010
0000
0001
0100
1000
0000
0100
0000
,
0001
0000
1000
0100
0001
0000
0100
0000
,
1000
0000
0100
0010
0001
0000
0010
0000
,
0100
0000
1000
0100
0001
0000
0100
0000
,
1000
0000
0001
0100
1000
0000
0100
0000
,
0001
0000
0010
0100
1000
0000
0100
0000
,
0010
0000
0001
0100
1000
0000
0100
0000
,
0001
0010
0100
1000
0002
0000
0000
0000
,
0000
0000
0200
0000
,
0000
0303
1000
0001
,
1000
0001
0010
0100
,
0010
0000
0001
0100
1000
0000
0100
0000
,
1000
0100
0001
0010
,
0001
0000
0010
0100
1000
0000
0010
0000
,
1000
0010
0100
0001
,
0100
0000
0001
0010
0100
0000
1000
0000
,
0100
1000
0220
0000
,
0000
0000
0330
0000
1000
0000
0001
0100
,
0000
1000
0100
0000
0010
0000
0100
0000
,
0010
0001
0100
0001
0010
0000
0100
1000
,
0000
0100
0001
0000
0100
0000
0010
0000
,
1000
0100
1000
0010
1000
0000
0010
0001
,
0000
0010
1000
0000
0100
0000
0010
0000
,
0001
0100
1000
0100
0001
0000
1000
0010
,
0000
0001
0010
0000
0001
1000
0001
0000
,
0010
0100
0010
0000
1000
0000
0101
0000
,
1000
0100
0010
0000
0002
0000
0103
0000
,
1000
0001
0100
0000
0001
0100
0002
0000
,
1003
0100
1000
0010
,
0001
0100
2000
3010
,
0100
0000
1010
0000
0001
0100
0002
0000
,
0013
1000
0100
0000
0010
0000
0100
0000
,
0010
0100
2000
0000
3001
0000
0110
0000
,
0100
1001
0020
0000
,
0030
0100
2000
0000
,
3002
0013
0200
1000
,
0320
0001
0032
2003
,
3020
0230
0301
1001
,
1000
0000
0100
0000
0010
0100
0010
0000
,
1000
0001
0010
0000
0001
0000
0210
0000
,
0310
0100
1000
0100
,
0001
0000
0010
0000
1001
0200
0000
0000
,
0002
0003
0000
0000
2000
3000
0000
0000
,
0002
0003
0300
0000
0101
0000
0000
0000
,
1010
0000
1010
0000
,
0101
0000
0001
0100
,
0010
0100
0220
0000
,
0000
0330
0001
1100
,
0001
0100
0010
0000
2000
0000
3100
0000
,
0001
1000
0100
0000
1000
0100
2000
0000
,
3001
0100
0001
0010
,
1000
0100
0002
0013
,
0100
0000
0011
0000
1000
0100
2000
0000
,
3010
0001
0100
0000
0010
0000
0100
0000
,
0010
0100
0002
0000
1003
0000
0110
0000
,
0100
1001
1000
0100
,
0001
0000
0100
0000
0010
0100
0010
0000
,
1000
0001
0100
0010
1000
0000
1000
0000
,
0001
0001
0020
0030
,
0100
1001
2000
3001
,
0200
0310
0020
1000
,
0130
0000
0001
0000
1000
0100
1000
0000
,
0100
0001
0010
1000
,
0100
0001
0020
0031
,
0200
1300
0100
1001
,
0010
0110
0010
0100
,
0001
1000
0001
0000
2002
0000
0000
0000
,
0000
3003
0000
0000
;

//---------------dance-single - ----------------
#NOTES:
     dance-single:
     :
     Hard:
     8:
     0.566,0.656,0.342,0.226,0.250: // measure 1
0000
0000
0000
0000
,  // measure 2
0000
0000
0000
0000
,  // measure 3
0000
0000
0000
0000
,  // measure 4
0000
0000
0000
0000
,  // measure 5
0010
0001
2000
0000
3200
0000
2300
0000
,  // measure 6
0000
0000
3000
0000
0001
0020
0000
0230
,  // measure 7
0000
1300
0020
0000
0000
0000
0001
0000
,  // measure 8
0000
0100
0000
1030
,  // measure 9
0001
1002
0203
0320
,  // measure 10
0000
0030
1000
0010
,  // measure 11
0100
2002
0003
0100
,  // measure 12
0000
0000
3001
0000
1000
0100
0010
0001
,  // measure 13
1000
0000
0000
0010
0000
0000
0100
0000
0000
0010
0000
0000
1000
0000
0000
0000
,  // measure 14
0001
0000
0000
0010
0000
0000
0100
0000
0000
0010
0000
0000
0001
0000
0000
0000
,  // measure 15
0100
0000
0000
0010
0000
0000
0001
0000
0000
0010
0000
0000
1000
0000
0000
0000
,  // measure 16
0001
0000
0000
0100
0000
0000
1000
0000
0000
0100
0000
0000
0010
0000
0000
0000
,  // measure 17
1000
0000
0000
0010
0100
0000
0010
0000
0000
1000
0010
0000
1000
0000
0000
0000
,  // measure 18
0001
0000
0000
0010
0100
0000
0010
0000
0000
0001
0010
0000
0001
0000
0000
0000
,  // measure 19
0010
0000
0000
0100
1000
0000
0100
1000
0000
0100
1000
0000
0001
0000
0000
0000
,  // measure 20
0100
0000
0000
0010
1000
0000
0010
1000
0000
0010
1000
0000
0001
0000
0000
0000
,  // measure 21
1001
0210
0320
0230
,  // measure 22
0001
0000
0010
0000
0301
2000
0000
3020
,  // measure 23
0000
0130
0002
0000
0100
0000
1000
0000
,  // measure 24
0100
0000
1003
0000
0100
0010
1000
0002
,  // measure 25
0000
0003
0100
0000
0001
0000
1200
0000
,  // measure 26
0000
0000
0310
0001
0010
0001
0010
0200
,  // measure 27
0000
1300
0002
0013
,  // measure 28
0020
0000
0130
0000
1000
0200
0000
0310
,  // measure 29
0000
0100
0000
0001
0100
1000
0001
0000
,  // measure 30
1000
0000
0001
0000
1000
0020
0000
0230
,  // measure 31
0000
0301
1000
1100
,  // measure 32
0001
0000
0101
0000
1000
0020
0000
0130
,  // measure 33
0000
0010
0000
0001
0010
1000
0001
0000
,  // measure 34
1000
0000
0001
0000
1000
0200
0000
0320
,  // measure 35
0000
0031
0100
1010
,  // measure 36
0100
0000
1010
0001
0100
0010
2000
0000
,  // measure 37
0000
3000
0001
0000
0010
0000
0011
0000
,  // measure 38
0100
0000
0011
1000
0100
0010
0200
0000
,  // measure 39
0000
0310
0001
0100
0000
0000
1001
0000
,  // measure 40
0010
0000
1001
0000
0010
0000
1000
0200
,  // measure 41
0000
0000
0310
0000
0000
0000
0001
0200
,  // measure 42
0000
0000
0310
0000
0000
0100
0001
2000
,  // measure 43
0000
3100
0010
0011
,  // measure 44
1001
0000
1100
0000
0110
0000
0001
0020
,  // measure 45
0000
0000
0130
0000
0000
0000
1000
0020
,  // measure 46
0000
0000
0130
0000
0000
0010
1000
0002
,  // measure 47
0000
0013
0100
1100
,  // measure 48
1001
0011
0101
1010
,  // measure 49
0010
0000
0000
0100
0001
0000
1000
0000
0000
0001
0010
0000
0200
0000
0000
0000
,  // measure 50
0310
0000
0000
0100
1000
0000
0001
0000
0000
1000
0010
0000
0200
0000
0000
0000
,  // measure 51
0301
0000
0000
0100
0010
0000
1000
0000
0000
0100
0010
0000
0002
0000
0000
0000
,  // measure 52
1003
0000
0000
0100
0010
0000
0001
0000
0000
0100
0010
0000
2000
0000
0000
0000
,  // measure 53
3001
0000
0000
0100
0010
0000
1000
0010
0000
0100
0010
0000
1000
0000
0000
0000
,  // measure 54
0100
0000
0000
0010
0100
0000
1000
0100
0000
0010
0100
0000
1000
0000
0000
0000
,  // measure 55
0010
0000
0000
0100
0001
0000
1000
0100
0000
0001
0100
0000
1000
0000
0000
0000
,  // measure 56
0010
0000
0000
0100
1000
0000
0100
0001
0000
1000
0100
0000
0001
0000
0000
0000
,  // measure 57
1001
0000
0000
1000
0010
0000
1000
0010
0000
0100
0020
0000
0000
0000
0000
0000
,  // measure 58
1030
0000
0000
0001
0010
0000
0001
0010
0000
0100
0020
0000
0000
0000
0000
0000
,  // measure 59
0031
0000
0000
0100
0010
0000
0100
0010
0000
1000
0002
0000
0000
0000
0000
0000
,  // measure 60
1003
0000
0000
0100
0010
0000
0100
0010
0000
0001
2000
0000
0000
0000
0000
0000
,  // measure 61
3010
0000
0000
0001
0010
0000
0001
0010
0000
1000
0002
0000
0000
0000
0000
0000
,  // measure 62
0013
0000
0000
1000
0010
0000
1000
0010
0000
0001
2000
0000
0000
0000
0000
0000
,  // measure 63
3100
0000
0000
1000
0001
0000
1000
0001
0000
0100
0002
0000
0000
0000
0000
0000
,  // measure 64
0103
0000
0000
0001
1000
0000
0001
0000
1000
0000
0000
0000
0010
0000
0100
0000
,  // measure 65
0000
0001
0010
0100
0020
0000
0032
0000
,  // measure 66
2003
0000
3000
0000
0001
0000
0010
0100
,  // measure 67
0000
1000
0010
0100
0020
0000
2030
0000
,  // measure 68
3002
0000
0000
0000
1003
0000
0000
0000
1001
0000
0000
0100
0000
0000
1000
0000
,  // measure 69
0000
0010
0000
0000
0200
0000
0000
0000
0000
0000
0000
0000
0000
0000
0000
0000
,  // measure 70
0300
0000
0000
0000
0110
0000
0000
0000
0001
0000
0000
0010
0000
0000
0100
0000
,  // measure 71
0000
1000
0000
0000
0020
0000
0000
0000
0000
0000
0000
0000
0000
0000
0000
0000
,  // measure 72
0030
0000
0000
0000
0110
0000
0000
0000
1000
0000
0000
0100
0000
0000
0010
0000
,  // measure 73
0000
0001
0000
0000
0200
0000
0000
0000
0000
0000
0000
0000
0000
0000
0000
0000
,  // measure 74
0300
0000
0000
0000
0110
0000
0000
0000
0001
0000
0000
0100
0000
0000
0010
0000
,  // measure 75
0000
1000
0000
0000
0100
0000
0010
0000
0100
0000
0000
1000
0000
0000
0010
0000
,  // measure 76
0000
0100
0000
0000
1001
0000
0100
0000
2002
0000
0000
0000
0000
0000
0000
0000
,  // measure 77
0000
0000
0000
0000
3003
0000
0000
0000
0100
0000
0000
0001
0000
0000
0010
0000
,  // measure 78
0000
1000
0000
0000
0010
0000
0001
0000
1000
0000
0000
0010
0000
0000
0100
0001
,  // measure 79
0000
1000
0000
0100
1000
0000
0100
0000
0010
0000
0000
0001
0000
0000
0100
0000
,  // measure 80
0000
1000
0000
0000
0100
0000
0001
0000
1000
0000
0000
0100
0000
0000
0010
0001
,  // measure 81
0000
1000
0000
0010
1000
0000
0010
0000
0100
0000
0000
0001
0000
0000
0010
0000
,  // measure 82
0000
0100
0000
0000
1000
0000
0001
0000
1000
0000
0000
0010
0000
0000
0100
0001
,  // measure 83
0000
0010
0000
0100
1000
0000
0001
0000
1000
0000
0000
0100
0000
0000
0010
0000
,  // measure 84
0000
0001
0000
0000
0100
0000
0001
0000
0101
0000
0000
0000
0011
0000
0000
0000
,  // measure 85
1100
0000
0000
0000
1010
0000
0000
0000
0001
0000
0000
1000
0000
0000
0100
0000
,  // measure 86
0000
0001
0000
0000
0100
0000
1000
0000
0001
0000
0000
0100
0000
0000
0010
1000
,  // measure 87
0000
0001
0000
0010
0001
0000
0010
0000
0100
0000
0000
1000
0000
0000
0010
0000
,  // measure 88
0000
0001
0000
0000
0010
0000
1000
0000
0001
0000
0000
0010
0000
0000
0100
1000
,  // measure 89
0000
0001
0000
0100
0001
0000
0100
0000
0010
0000
0000
1000
0000
0000
0100
0000
,  // measure 90
0000
0010
0000
0000
0001
0000
1000
0000
0001
0000
0000
0100
0000
0000
0010
1000
,  // measure 91
0000
0100
0000
0010
0001
0000
1000
0000
0001
0000
0000
0010
0000
0000
0100
0000
,  // measure 92
0000
1000
0000
0000
0010
0000
1000
0000
0010
0000
0100
0000
0001
0000
1000
0000
,  // measure 93
0001
0000
1001
0000
0001
0100
1000
0100
,  // measure 94
0001
0100
1000
0100
0001
1000
0001
0100
,  // measure 95
0001
1000
0001
0100
0001
0010
1000
0010
,  // measure 96
0001
0010
1000
0010
0001
1000
0001
0010
,  // measure 97
0001
1000
0001
0010
0100
1000
0100
0001
,  // measure 98
0100
1000
0100
0001
0100
1000
0010
1000
,  // measure 99
0100
1000
0010
1000
0100
0001
0100
1000
,  // measure 100
0010
0001
0010
1000
0100
0001
0100
1000
,  // measure 101
0010
0000
0100
0000
0001
0000
0010
0000
0120
0000
0000
0100
0000
0000
0100
0000
,  // measure 102
0000
0100
0000
0000
0130
0000
1000
0000
0002
0000
0000
1000
0000
0000
1000
0000
,  // measure 103
0000
1000
0000
0000
1003
0000
0010
0000
0200
0000
0000
0010
0000
0000
0010
0000
,  // measure 104
0000
0010
0000
0000
0310
0000
0100
0000
0001
0000
0100
0000
1000
0000
0100
0000
,  // measure 105
0001
0100
0010
1000
0001
1000
0100
0000
,  // measure 106
1000
0010
0100
0001
1000
0001
0010
0000
,  // measure 107
0100
1000
0010
0100
0010
0001
0010
0000
,  // measure 108
1000
0100
0010
0001
0010
1000
0010
0000
,  // measure 109
0001
0100
0010
1000
1001
0000
0101
0000
,  // measure 110
0010
0100
0001
0010
0110
0000
1100
0000
,  // measure 111
0010
0100
1000
0010
0110
0000
1001
0000
,  // measure 112
0100
1000
0001
0010
0110
0000
1001
0000
,  // measure 113
0100
0001
1000
0010
1000
0020
0000
0230
,  // measure 114
0000
0301
1000
0000
0001
0020
0000
0230
,  // measure 115
0000
1300
0001
0000
1000
0002
0000
0203
,  // measure 116
0000
1300
0100
0000
0001
2000
0000
3200
,  // measure 117
0000
0301
0100
0000
2200
0000
0000
0000
,  // measure 118
0300
3001
0202
0000
,  // measure 119
0300
0000
1003
0000
0010
2000
0000
3002
,  // measure 120
0000
1003
0100
0000
0010
0002
0000
2003
,  // measure 121
0000
3001
0100
0010
1000
0000
1100
0000
,  // measure 122
0001
1000
0100
0000
1000
0001
1000
0000
,  // measure 123
0001
1000
0010
0000
0100
0000
0101
0000
,  // measure 124
1000
0001
0100
0000
0001
1000
0001
0000
,  // measure 125
1000
0001
0010
0000
0100
0000
0110
0000
,  // measure 126
1000
0100
0010
0000
0100
0010
0100
0000
,  // measure 127
0010
0100
0001
0000
0100
0000
1100
0000
,  // measure 128
0010
0100
0001
0000
1000
0100
0010
0001
,  // measure 129
0010
0100
1000
0001
0100
0010
0001
0000
,  // measure 130
0010
0100
0010
0000
1000
0010
0100
0000
,  // measure 131
0001
0000
0011
0000
0100
0010
1000
0000
,  // measure 132
0010
0100
0010
0000
0001
0010
0100
0000
,  // measure 133
1000
0000
1010
0000
0010
1000
0001
0000
,  // measure 134
0100
0001
1000
0000
0010
1000
0100
0000
,  // measure 135
0010
0000
1001
0000
0100
0001
1000
0000
,  // measure 136
0010
1000
0001
0000
0100
0001
0010
0000
,  // measure 137
0100
0000
1001
0000
1000
0010
1000
0001
,  // measure 138
1000
0000
0100
0000
1000
0000
0001
0000
0100
0000
0010
0000
0100
0000
0001
0100
,  // measure 139
0010
0100
0001
0100
0010
1000
0010
0100
,  // measure 140
0010
0000
0001
0000
0010
0000
0100
0000
0001
0000
1000
0000
0001
0000
0100
0001
,  // measure 141
1000
0000
0001
0000
1000
0010
1000
0000
0100
0000
0010
0000
0100
0000
0001
0000
,  // measure 142
0100
0000
0010
0000
0100
0000
1000
0000
0001
0000
0010
0000
0001
0000
1000
0001
,  // measure 143
0010
0001
1000
0010
0100
0001
0100
0010
,  // measure 144
0100
0000
1000
0000
0100
0000
0001
0000
0010
0000
0100
0000
0010
0000
0001
0010
,  // measure 145
0100
0000
0010
0000
0001
0010
0001
0000
0100
0000
0000
0000
0001
0000
0000
1000
,  // measure 146
0000
0001
0000
0000
1000
0000
0100
0000
0001
0000
0000
0000
0100
0000
0000
0010
,  // measure 147
0000
0100
0000
0000
0010
0000
0001
0000
0100
0000
0000
0000
0010
0000
0000
0100
,  // measure 148
0000
0001
0000
0000
1000
0000
0010
0000
0001
0000
0000
0000
0010
0000
0000
1000
,  // measure 149
0000
0010
0000
0000
0100
0001
0100
0000
0010
0000
0000
0000
1000
0000
0000
0001
,  // measure 150
0000
1000
0000
0000
0001
0000
0010
0000
1000
0000
0000
0000
0010
0000
0000
0100
,  // measure 151
0000
0010
0000
0000
0100
0000
1000
0000
0010
0000
0000
0000
0100
0000
0000
0010
,  // measure 152
0000
1000
0000
0000
0001
0000
0100
0000
1000
0000
0000
0000
0100
0000
0000
0001
,  // measure 153
0000
0100
0000
0000
0010
1000
0010
0000
1000
0000
0000
0000
1010
0000
0000
0000
,  // measure 154
0100
0000
0101
0000
0001
0010
0001
1000
,  // measure 155
0001
0100
0001
0000
0010
0000
0011
0000
,  // measure 156
0100
0000
1100
0000
1000
0010
1000
0001
,  // measure 157
1000
0100
1000
0000
0010
0001
1000
0001
,  // measure 158
0010
0100
1000
0000
1000
0100
0010
0001
,  // measure 159
0010
0001
0100
0000
0001
0010
1000
0000
,  // measure 160
1000
0010
0001
0000
0001
0100
0010
1000
,  // measure 161
0001
1000
0010
0100
2002
0000
0000
0000
,  // measure 162
0000
0000
0000
0000
3003
0000
0000
0000
0010
0000
0000
0100
0000
0000
2000
0000
,  // measure 163
0000
0000
0000
0000
3100
0000
0000
0000
1000
0000
0000
0100
0000
0000
0020
0000
,  // measure 164
0000
0000
0000
0000
0130
0000
0000
0000
1000
0000
0000
0001
0000
0000
0200
0000
,  // measure 165
0000
0000
0000
0000
0310
0000
0000
0000
0100
0000
0000
0010
0000
0000
0002
0000
,  // measure 166
0000
0000
0000
0000
0013
0000
0000
0000
0010
0000
0000
0100
0000
0000
2000
0000
,  // measure 167
0000
0000
0000
0000
3100
0000
0000
0000
0001
0000
0000
0010
0000
0000
0200
0000
,  // measure 168
0000
0000
0000
0000
0301
0000
0000
0000
0001
0000
0000
0100
0000
0000
2000
0000
,  // measure 169
0000
0000
0000
0000
3100
0000
0000
0000
0010
0000
0000
0100
0000
0000
1000
0000
,  // measure 170
0000
0000
0100
0000
1000
0000
0100
0000
0010
0000
0000
0100
0000
0000
1000
0000
,  // measure 171
0000
0000
0001
0000
0100
0000
0010
0000
0100
0000
0000
0010
0000
0000
0001
0000
,  // measure 172
0000
0000
0010
0000
0010
0000
0100
0000
0001
0000
0000
0001
0000
0000
0100
0000
,  // measure 173
0000
0000
1000
0000
0100
0000
0001
0000
0010
0000
0000
0100
0000
0000
1000
0000
,  // measure 174
0000
0000
0100
0000
1000
0000
0001
0000
0010
0000
0000
0001
0000
0000
0011
0000
,  // measure 175
0000
0000
0100
0000
1000
0000
0010
0000
0100
0000
0000
0010
0000
0000
0110
0000
,  // measure 176
0000
0000
1000
0000
0001
0000
1000
0000
0100
0000
0000
1000
0000
0000
1100
0000
,  // measure 177
0000
0000
0100
0000
1000
0000
0001
0000
1000
0000
0000
0001
0000
0000
1001
0000
,  // measure 178
0000
0010
1000
0100
1000
0000
0101
0000
,  // measure 179
0001
0000
1000
0000
0010
0000
0100
0010
0100
0000
0000
0000
1001
0000
0000
0000
,  // measure 180
0010
0000
1000
0000
0001
0000
0100
0001
0100
0000
0000
0000
1100
0000
0000
0000
,  // measure 181
0100
0000
0001
0000
0010
0000
0001
0010
0001
0000
0000
0000
1010
0000
0000
0000
,  // measure 182
1000
0000
0100
0000
1000
0000
0001
1000
0001
0000
0000
0000
0110
0000
0000
0000
,  // measure 183
0001
0000
0100
0000
0001
0000
1000
0001
1000
0000
0000
0000
0110
0000
0000
0000
,  // measure 184
0100
0000
1000
0000
0010
0000
1000
0010
1000
0000
0010
0000
1000
0000
0100
0000
,  // measure 185
0010
0001
0100
0010
1000
0001
0100
0001
,  // measure 186
1000
0100
1000
0000
0001
0100
0001
0000
0200
0000
0000
0000
0000
0000
0000
0000
,  // measure 187
0000
0000
0020
0000
,  // measure 188
0000
0000
0000
0000
0330
0000
0000
0000
1000
0000
0000
1100
0000
0000
1001
0000
,  // measure 189
0000
0000
0100
0000
0010
0000
0001
0000
1000
0000
0000
1001
0000
0000
0101
0000
,  // measure 190
0000
0000
0001
0000
0010
0000
0100
0000
1000
0000
0000
1010
0000
0000
0110
0000
,  // measure 191
0000
0000
0100
0000
0001
0000
1000
0000
0100
0000
0000
0110
0000
0000
0101
0000
,  // measure 192
0000
0000
1000
0000
0001
0000
1000
0000
0001
0000
0000
0101
0000
0000
1100
0000
,  // measure 193
0000
0000
0010
0000
0100
0000
0010
0000
0100
0000
0000
1100
0000
0000
1001
0000
,  // measure 194
0000
0000
0001
0000
0100
0000
0001
0000
0100
0000
0000
0110
0000
0000
1010
0000
,  // measure 195
0000
0000
1000
0000
0100
0000
1000
0000
0100
0000
0000
0110
0000
0000
0011
0000
,  // measure 196
0000
0001
1000
0001
1000
0100
0010
0001
,  // measure 197
1000
0100
0010
0001
1000
0001
0100
0001
,  // measure 198
1000
0100
1000
0001
0010
0100
1000
0001
,  // measure 199
1000
0000
0100
0000
0001
0000
0100
0000
1000
0000
0000
1100
0000
0000
1001
0000
,  // measure 200
0000
0001
0100
0010
1000
0001
1000
0100
,  // measure 201
0010
0001
0100
0010
1000
0100
0010
0001
,  // measure 202
1000
0100
0001
0100
0010
0001
0010
0001
,  // measure 203
0100
0000
0001
0000
1000
0000
0010
0000
0110
0000
0000
1001
0000
0000
0101
0000
,  // measure 204
1100
0000
0000
0110
0000
0000
0011
0000
1010
0000
0000
1000
0100
0000
1000
0000
,  // measure 205
0010
0000
0100
0000
0001
0000
1000
0000
1001
0000
0000
1000
0100
0000
0010
0000
,  // measure 206
0001
0000
0010
0000
0100
0000
1000
0000
0011
0000
0000
0001
1000
0000
0100
0000
,  // measure 207
0010
0000
0100
0000
1000
0000
0001
0000
1001
0000
0000
1000
0010
0000
0100
0000
,  // measure 208
0001
0000
0010
0000
0011
0000
1001
0000
1010
0000
0000
0010
0100
0000
0001
0000
,  // measure 209
0010
0000
0100
0000
1000
0000
0100
0000
0110
0000
0000
0100
0010
0000
0001
0000
,  // measure 210
0100
0000
0010
0000
1000
0000
0010
0000
1010
0000
0000
1000
0001
0000
0100
0000
,  // measure 211
0001
0000
0010
0000
0100
0000
1000
0000
1001
0000
0000
0001
0100
0000
0010
0000
,  // measure 212
0110
0000
0000
0000
1001
0000
0000
0000
1100
0000
0000
0100
0000
0000
0010
0000
,  // measure 213
1000
0000
0000
0000
0001
0000
0100
0000
0010
0000
0000
0100
0000
0000
0001
0000
,  // measure 214
0010
0000
0000
0000
1000
0000
0001
0000
0010
0000
0000
0001
0000
0000
0010
0000
,  // measure 215
0100
0000
0000
0000
1000
0000
0010
0000
0100
0000
0000
0010
0000
0000
0001
0000
,  // measure 216
0010
0000
0100
1000
0100
0010
0001
0010
,  // measure 217
0100
1000
0010
0100
0001
0010
0100
1000
,  // measure 218
0100
1000
0010
0100
0001
0010
0100
1000
,  // measure 219
0010
0100
1000
0001
0010
0100
1000
0000
,  // measure 220
1000
0000
0010
0000
1000
0000
0100
0000
0010
0000
1000
0100
0020
0000
0000
0030
,  // measure 221
0100
1000
0001
0100
0020
0000
0000
0030
0001
1000
0100
0010
0200
0000
0000
0300
,  // measure 222
1000
0001
0100
0010
0200
0000
0000
0300
0101
0000
0000
0000
0010
0000
0000
0000
,  // measure 223
1100
0010
0011
1000
,  // measure 224
1010
0000
0001
0000
1001
0100
1001
0010
,  // measure 225
1001
0100
1001
0010
2002
0000
0000
0000
,  // measure 226
0000
0000
0000
0000
3003
0000
0000
0000
0101
0000
0000
0001
0010
0000
0001
0000
,  // measure 227
0100
0000
0010
0000
1000
0000
0001
0000
1001
0000
0000
0001
0010
0000
0100
0000
,  // measure 228
1000
0000
0100
0000
0010
0000
0001
0000
1100
0000
0000
1000
0001
0000
0010
0000
,  // measure 229
0100
0000
0010
0000
0001
0000
1000
0000
1001
0000
0000
0001
0100
0000
0010
0000
,  // measure 230
1000
0000
0100
0000
1100
0000
1001
0000
0011
0000
1000
0100
0010
0000
0100
0000
,  // measure 231
1000
0000
0001
0000
0100
0000
0010
0000
0110
0000
0010
1000
0100
0000
0010
0000
,  // measure 232
0100
0000
1000
0000
0010
0000
0100
0000
0110
0000
0100
0001
0010
0000
0001
0000
,  // measure 233
1000
0000
0100
0000
0010
0000
0001
0000
0011
0000
0010
0001
1000
0000
0010
0000
,  // measure 234
0100
0000
0001
0000
0101
0000
1001
0000
1100
0000
0000
0001
0100
0000
0010
0000
,  // measure 235
0100
0000
0000
0000
0110
0000
0000
0000
1001
0000
0000
1000
0100
0000
1000
0000
,  // measure 236
0001
0000
0000
0000
0011
0000
1001
0000
1010
0000
0000
0100
0001
0000
1000
0000
,  // measure 237
0010
0000
0000
0000
0110
0000
0000
0000
0101
0000
0000
0010
1000
0000
0100
0000
,  // measure 238
1000
0000
0000
0000
1001
0000
0000
0000
0011
0000
0000
1000
0010
0000
0100
0000
,  // measure 239
0010
0000
0000
0000
0110
0000
0000
0000
1001
0000
0000
0001
0010
0000
0001
0000
,  // measure 240
1000
0000
0000
0000
1100
0000
1001
0000
0101
0000
0000
0010
1000
0000
0001
0000
,  // measure 241
0100
0000
0110
0000
0110
0100
0101
0001
,  // measure 242
0011
0000
0010
0000
0110
0000
1001
0000
0001
0100
0002
0000
1000
0000
1000
0000
,  // measure 243
0100
0000
0100
0000
1003
0000
1000
0000
0010
0100
0020
0000
1000
0000
1000
0000
,  // measure 244
0001
0000
0001
0000
1030
0000
1000
0000
0001
0010
0001
0000
1000
0010
1000
0000
,  // measure 245
0001
0100
0001
0000
1000
0100
1000
0000
0020
0000
0000
0000
0000
0000
0000
0000
,  // measure 246
0000
0030
0000
0000
;
