#TITLE:TIME WARP Mix;
#SUBTITLE:(DDR PwrMix);
#ARTIST:baconman;
#TITLETRANSLIT:;
#SUBTITLETRANSLIT:;
#ARTISTTRANSLIT:;
#CREDIT:;
#BANNER:1stMix.png;
#BACKGROUND:1stMix-bg.png;
#LYRICSPATH:;
#CDTITLE:./CDTITLES/Dance Dance Revolution.png;
#MUSIC:1stMix.mp3;
#OFFSET:-12.040;
#SAMPLESTART:81.040;
#SAMPLELENGTH:12.000;
#SELECTABLE:YES;
#BPMS:0.000=120.000,152.000=125.000,290.000=130.000,585.000=135.000;
#STOPS:;
#BGCHANGES:;

//---------------dance-single - ----------------
#NOTES:
     dance-single:
     :
     Easy:
     3:
     0.231,0.310,0.133,0.000,0.000: // measure 1
0000
0000
0010
0010
,  // measure 2
0000
0000
0100
0100
,  // measure 3
0000
0000
1000
1000
,  // measure 4
0000
0000
0001
0001
,  // measure 5
0000
0000
0010
0010
,  // measure 6
0000
0000
0100
0100
,  // measure 7
0000
0010
1000
1000
,  // measure 8
0000
0100
0001
0001
,  // measure 9
0000
0010
0100
1001
,  // measure 10
0000
0010
0100
1001
,  // measure 11
0000
0000
0010
0100
,  // measure 12
0000
0000
0001
1000
,  // measure 13
0000
0100
0001
0001
,  // measure 14
0000
0010
1000
1000
,  // measure 15
0000
0010
0001
0100
,  // measure 16
0000
0010
1000
0100
,  // measure 17
0000
1000
0010
0100
,  // measure 18
0000
0001
0010
0100
,  // measure 19
0000
0000
0010
0100
,  // measure 20
1001
0000
0000
0000
,  // measure 21
0000
0000
0010
0100
,  // measure 22
1001
0000
0000
0000
,  // measure 23
0000
0010
0100
0001
,  // measure 24
1001
0100
0100
0000
,  // measure 25
0000
0010
0100
1000
,  // measure 26
1001
0100
0100
0000
,  // measure 27
0000
0010
0000
0001
,  // measure 28
0000
0010
0100
0001
,  // measure 29
0000
0010
0000
1000
,  // measure 30
0000
0010
0100
1000
,  // measure 31
0000
0001
0000
0100
,  // measure 32
0000
1000
0000
1001
,  // measure 33
0000
1000
0000
0010
,  // measure 34
0000
0010
0000
0000
,  // measure 35
0000
1000
0100
1000
,  // measure 36
0010
0100
0010
0100
,  // measure 37
0000
0001
0100
0001
,  // measure 38
0010
0100
0010
0100
,  // measure 39
1001
0000
0000
0000
,  // measure 40
0010
0000
0000
0000
,  // measure 41
0001
0000
0000
0000
,  // measure 42
0100
0000
0000
0000
,  // measure 43
0001
0000
0000
0000
,  // measure 44
0010
0000
0000
0000
,  // measure 45
1000
0000
0000
0000
,  // measure 46
0100
0000
0000
0000
,  // measure 47
1000
0000
0010
0000
,  // measure 48
0010
0000
0001
0000
,  // measure 49
0001
0000
0100
0000
,  // measure 50
0100
0000
0010
0000
,  // measure 51
0010
0000
1000
0000
,  // measure 52
1000
0000
0100
0000
,  // measure 53
0100
0000
0001
0000
,  // measure 54
1000
0000
0001
0000
,  // measure 55
1000
0000
0000
0000
,  // measure 56
0000
0000
0000
0000
,  // measure 57
0000
0000
0001
0000
,  // measure 58
0010
0100
0010
0100
,  // measure 59
0010
0000
1000
0000
,  // measure 60
0100
0010
0100
0010
,  // measure 61
0100
0000
0001
0000
,  // measure 62
1000
0000
0001
0000
,  // measure 63
1000
0010
0001
0100
,  // measure 64
1000
0000
0000
0000
,  // measure 65
0000
0000
0001
0000
,  // measure 66
0010
0100
0010
0100
,  // measure 67
0010
0000
1000
0000
,  // measure 68
0100
0010
0100
0010
,  // measure 69
0100
0000
0001
0000
,  // measure 70
1000
0000
0001
0000
,  // measure 71
1000
0010
0001
0100
,  // measure 72
1000
0000
0000
0000
,  // measure 73
0000
0000
0000
0010
,  // measure 74
0001
0100
1000
0001
,  // measure 75
0100
0000
1000
0001
0000
0000
0000
0000
,  // measure 76
0000
0000
0000
0000
,  // measure 77
0000
0000
0000
0010
,  // measure 78
1000
0100
0001
1000
,  // measure 79
0100
0000
0001
1000
0000
0000
0000
0000
,  // measure 80
0000
0000
0000
0000
,  // measure 81
0000
0000
0010
0001
,  // measure 82
0000
1000
0000
0100
,  // measure 83
0000
0000
0001
0000
0010
0010
0000
0000
,  // measure 84
0001
0000
1000
0000
,  // measure 85
0100
0000
1000
0000
0010
0010
0000
0000
,  // measure 86
0100
0100
0000
0000
0001
0001
0000
0000
,  // measure 87
1000
1000
0000
0000
0000
0000
0010
0000
,  // measure 88
0000
0100
0000
1000
,  // measure 89
0001
0000
0100
0000
0010
0010
0001
0000
,  // measure 90
0000
0100
1000
0000
,  // measure 91
0100
0000
0001
0000
,  // measure 92
0010
0000
1000
0100
,  // measure 93
0001
0010
0110
0000
,  // measure 94
1001
0000
0110
1001
,  // measure 95
0110
0000
0000
1001
,  // measure 96
0010
0001
0100
1000
,  // measure 97
0001
0000
0100
0000
0100
0001
0000
0000
,  // measure 98
0000
0001
0000
0100
,  // measure 99
0000
1000
0000
0000
,  // measure 100
0010
0100
1000
0010
,  // measure 101
0001
0000
0100
0000
0100
1000
0000
0000
,  // measure 102
0000
1000
0000
0010
,  // measure 103
0000
0000
0001
0000
0000
0100
0010
0000
,  // measure 104
0010
1000
0100
0001
,  // measure 105
1000
0000
0100
0000
0001
1000
0000
0000
,  // measure 106
0000
1000
0000
0100
,  // measure 107
0000
0001
0000
0000
,  // measure 108
0010
0100
0010
1000
,  // measure 109
0001
0000
0010
0000
0100
0001
0000
0000
,  // measure 110
0000
1000
0000
0010
,  // measure 111
0000
0001
0000
0000
,  // measure 112
0010
0001
0100
1000
,  // measure 113
0001
0000
0100
0000
1000
0001
0000
0000
,  // measure 114
0100
1000
0000
0000
0000
0100
1000
0100
,  // measure 115
1000
0100
1000
0000
0000
0000
0110
0000
,  // measure 116
0000
1001
0000
0110
,  // measure 117
1001
0110
0000
0000
,  // measure 118
0100
0000
0100
0000
,  // measure 119
0100
0000
0100
0000
,  // measure 120
0100
0000
0001
0010
,  // measure 121
0100
0000
1000
0010
,  // measure 122
0100
0000
0001
0100
,  // measure 123
1000
0000
1000
0100
,  // measure 124
0001
0100
0010
0001
,  // measure 125
0010
0100
0010
1000
,  // measure 126
0010
0100
1001
0000
,  // measure 127
0001
0000
0100
0000
,  // measure 128
0100
0000
0000
0000
,  // measure 129
0100
0100
0000
0000
0000
0000
0001
0000
,  // measure 130
0100
0100
0000
0000
0000
0000
1000
0000
,  // measure 131
0100
0100
0000
0000
0100
0000
1000
0000
,  // measure 132
0100
0100
0000
0000
0100
0000
0001
0000
,  // measure 133
0100
0100
0100
0000
0001
0000
1000
0000
,  // measure 134
0100
1000
0100
1000
,  // measure 135
0100
0000
1000
0001
,  // measure 136
0100
1001
0100
0010
,  // measure 137
0001
0000
0001
1000
,  // measure 138
0100
1001
0100
0010
,  // measure 139
1000
0000
0010
0100
,  // measure 140
1001
0100
0010
0100
,  // measure 141
1001
0000
0001
0010
,  // measure 142
1000
0100
1000
0010
,  // measure 143
0001
0010
0100
0001
,  // measure 144
0100
1001
0110
0001
,  // measure 145
0001
0001
0001
0000
1000
0000
0100
0000
,  // measure 146
1000
1001
0110
1000
,  // measure 147
0100
0100
0100
0000
0010
0000
1000
0000
,  // measure 148
0010
1001
0110
0001
,  // measure 149
1000
1000
1000
0000
0001
0000
0010
0000
,  // measure 150
0001
1001
0110
0001
,  // measure 151
0010
0010
0010
0000
1001
0000
1000
0000
,  // measure 152
0000
1000
1001
0001
,  // measure 153
0000
0001
0100
1000
,  // measure 154
0010
0001
1000
1001
,  // measure 155
0000
0001
1001
1000
,  // measure 156
0000
1000
1001
0001
,  // measure 157
0000
0001
0100
1000
,  // measure 158
0010
0001
1000
1001
,  // measure 159
0000
0010
0010
1001
,  // measure 160
0001
0010
1000
0100
,  // measure 161
0010
0100
1000
0000
,  // measure 162
0001
1000
0100
0010
,  // measure 163
0000
0010
0010
1001
,  // measure 164
0001
0010
1000
0100
,  // measure 165
0010
0100
0001
0000
,  // measure 166
1000
0001
0010
0100
,  // measure 167
0100
0001
0100
0001
,  // measure 168
0100
1000
0100
1000
,  // measure 169
0100
0001
0100
0001
,  // measure 170
0100
1000
0100
1000
,  // measure 171
0000
0001
1001
1000
,  // measure 172
0000
1000
1001
0001
,  // measure 173
0000
0001
0100
1000
,  // measure 174
0010
0001
1000
1001
,  // measure 175
0000
0001
1001
1000
,  // measure 176
0000
1000
1001
0001
,  // measure 177
0000
0001
0100
1000
,  // measure 178
0010
0001
1000
1001
,  // measure 179
0000
0010
0010
1001
,  // measure 180
0001
0010
1000
0100
,  // measure 181
0010
0100
1000
0000
,  // measure 182
0001
1000
0100
0010
,  // measure 183
0000
0010
0010
1001
,  // measure 184
0001
0010
1000
0100
,  // measure 185
0010
0100
0001
0000
,  // measure 186
1000
0001
0010
0100
,  // measure 187
0000
0000
0100
0001
,  // measure 188
0100
1000
0100
0001
,  // measure 189
0100
1000
0100
0001
,  // measure 190
0100
1000
0010
0100
,  // measure 191
1001
0000
0100
1000
,  // measure 192
0100
0001
0100
1000
,  // measure 193
0100
0001
0100
1000
,  // measure 194
0100
0001
0010
0100
,  // measure 195
1001
0000
0000
0000
;

//---------------dance-single - ----------------
#NOTES:
     dance-single:
     :
     Medium:
     4:
     0.292,0.310,0.229,0.000,0.000: // measure 1
0000
1000
0010
0010
,  // measure 2
0000
0001
0100
0100
,  // measure 3
0000
0010
1000
1000
,  // measure 4
0000
0100
0001
0001
,  // measure 5
0000
1000
0010
1000
,  // measure 6
0000
0001
0100
0001
,  // measure 7
1001
0001
1000
1000
,  // measure 8
1001
1000
0001
0001
,  // measure 9
0010
0100
0010
1001
,  // measure 10
0010
0100
0010
1001
,  // measure 11
0000
1001
0010
0100
,  // measure 12
0000
0110
0001
1000
,  // measure 13
0001
1000
0001
0001
,  // measure 14
1000
0001
1000
1000
,  // measure 15
0110
1000
0001
0100
,  // measure 16
0110
0001
1000
0100
,  // measure 17
0000
1000
0010
0100
,  // measure 18
0010
0001
0010
0100
,  // measure 19
0000
0000
0010
0100
,  // measure 20
1001
0000
0000
0000
,  // measure 21
0000
0000
0010
0100
,  // measure 22
1001
0000
0000
0000
,  // measure 23
0000
0010
0100
0001
,  // measure 24
0101
1000
0100
0000
,  // measure 25
0000
0010
0100
1000
,  // measure 26
1100
0001
0100
1001
,  // measure 27
0000
0010
0000
0001
,  // measure 28
0000
0010
0100
0001
,  // measure 29
0000
0010
0000
1000
,  // measure 30
0000
0010
0100
1000
,  // measure 31
0000
0001
0010
1000
,  // measure 32
0000
1000
0100
1001
,  // measure 33
0000
1000
0000
0010
,  // measure 34
0000
0010
0000
0000
,  // measure 35
1100
0001
0100
1000
,  // measure 36
0010
0100
1000
0100
,  // measure 37
0101
1000
0100
0001
,  // measure 38
0010
0100
0001
0100
,  // measure 39
1001
0000
0010
0001
,  // measure 40
0100
1000
0010
0001
,  // measure 41
0100
1000
0100
0001
,  // measure 42
0010
1000
0100
0001
,  // measure 43
0010
1000
0010
0001
,  // measure 44
0100
1000
0100
0001
,  // measure 45
0010
1000
0000
0000
,  // measure 46
0000
0000
0010
0100
,  // measure 47
0001
1000
0001
0100
,  // measure 48
1000
0010
1000
0100
,  // measure 49
1000
0010
0001
0100
,  // measure 50
0001
0010
1000
0100
,  // measure 51
0001
0010
1000
0100
,  // measure 52
0001
0100
1000
0100
,  // measure 53
1000
0100
0001
0100
,  // measure 54
0001
0100
0001
0010
,  // measure 55
1000
0100
0000
0000
,  // measure 56
0000
0000
0100
0010
,  // measure 57
1000
0001
0000
0001
,  // measure 58
0000
0010
0100
1000
,  // measure 59
0010
0100
0000
1000
,  // measure 60
0000
0100
0010
0001
,  // measure 61
0010
0100
0000
0001
,  // measure 62
0100
1000
0000
0001
,  // measure 63
0010
1000
0000
0000
,  // measure 64
0100
1000
0010
0001
,  // measure 65
0100
1000
0000
0001
,  // measure 66
0000
0010
0100
1000
,  // measure 67
0010
0100
0000
1000
,  // measure 68
0000
0100
0010
0001
,  // measure 69
0010
0100
0000
0001
,  // measure 70
0100
1000
0000
0001
,  // measure 71
0010
1000
0010
0001
,  // measure 72
0100
1000
0010
1000
,  // measure 73
0100
0001
0000
0010
,  // measure 74
1000
0100
0001
1000
,  // measure 75
0110
0000
0001
1000
0000
0000
0000
0000
,  // measure 76
0000
0000
0000
0000
,  // measure 77
0000
0000
0000
0010
,  // measure 78
0001
0100
1000
0001
,  // measure 79
0110
0000
1000
0001
0000
0000
0000
0000
,  // measure 80
0000
0000
0000
0000
,  // measure 81
0000
0000
0010
0001
,  // measure 82
0000
0000
1000
1000
0000
0000
0100
0000
,  // measure 83
0000
0000
0001
0001
0010
0000
0100
0000
,  // measure 84
0000
0000
0010
0010
0000
0000
0001
0000
,  // measure 85
1000
0000
0000
0000
0010
0001
0010
0000
,  // measure 86
0100
1000
0100
0000
1000
0010
1000
0000
,  // measure 87
0001
0100
0001
0000
0000
0000
0010
0000
,  // measure 88
1000
0100
0001
1000
,  // measure 89
0100
0000
0000
0000
0010
0001
0100
1000
,  // measure 90
0100
0000
0100
0001
,  // measure 91
0000
0100
0001
1000
,  // measure 92
0010
0001
1000
0100
,  // measure 93
0001
0000
0010
0010
0100
0000
0000
0001
,  // measure 94
1000
0000
0000
0010
0100
0001
1000
0010
,  // measure 95
0100
0000
0000
0000
0000
0001
1000
0000
,  // measure 96
0010
0001
0100
1000
,  // measure 97
0001
0000
0110
0000
0100
0001
0000
0000
,  // measure 98
0001
0100
1000
0010
,  // measure 99
0001
0110
0000
0000
,  // measure 100
0010
0100
1000
0010
,  // measure 101
0001
0000
0110
0000
0100
1000
0000
0000
,  // measure 102
1000
0100
0001
0010
,  // measure 103
0001
0000
0110
0000
0000
0100
0010
0000
,  // measure 104
0010
1000
0100
0001
,  // measure 105
1000
0000
0110
0000
0001
1000
0000
0000
,  // measure 106
0001
0100
1000
0010
,  // measure 107
0001
0110
0000
0000
,  // measure 108
0010
0100
0010
1000
,  // measure 109
0001
0000
0110
0000
0100
0001
0000
0000
,  // measure 110
1000
0100
0001
0010
,  // measure 111
0001
0110
0000
0000
,  // measure 112
0010
0001
0100
1000
,  // measure 113
0001
0000
0100
0000
1000
0001
0000
0000
,  // measure 114
0100
0001
0000
0000
0000
0100
1000
0100
,  // measure 115
0001
0100
1000
0000
0000
0010
0100
0000
,  // measure 116
0000
0001
1000
0000
0000
0010
0100
0001
,  // measure 117
1000
0010
0100
0000
0000
0000
0000
0000
,  // measure 118
0100
0000
0100
0001
,  // measure 119
0100
1000
0010
0100
,  // measure 120
0001
0100
0010
0001
,  // measure 121
0010
0100
0010
1000
,  // measure 122
0010
0000
0100
1000
,  // measure 123
0100
0001
0010
0100
,  // measure 124
1000
0100
0010
1000
,  // measure 125
0010
0100
0010
0001
,  // measure 126
0010
0100
1001
0000
,  // measure 127
0001
0000
0100
0000
,  // measure 128
0100
0010
0001
0100
,  // measure 129
1000
1000
0000
0000
0001
0000
0000
0000
,  // measure 130
0001
0001
0010
0000
1000
0000
0100
0000
,  // measure 131
0001
0001
0000
0000
1000
0000
0000
0000
,  // measure 132
1000
1000
0010
0000
0001
0000
0100
0000
,  // measure 133
1000
1000
0100
0000
0001
0000
1000
0000
,  // measure 134
0100
1000
0100
1000
,  // measure 135
0100
0010
0100
0001
,  // measure 136
0100
1001
0110
1000
,  // measure 137
0001
0001
0001
0000
1000
0000
0100
0000
,  // measure 138
1000
1001
0110
1000
,  // measure 139
0100
0100
0100
0000
0010
0000
1000
0000
,  // measure 140
0010
1001
0110
0001
,  // measure 141
1000
1000
1000
0000
0001
0000
0010
0000
,  // measure 142
0001
1001
0110
0001
,  // measure 143
0010
0010
0010
0000
0100
0000
0001
0000
,  // measure 144
0100
1100
0101
1000
,  // measure 145
0001
0001
0001
0000
1000
0000
0100
0000
,  // measure 146
1000
1100
0101
1000
,  // measure 147
0100
0100
0100
0000
0010
0000
1000
0000
,  // measure 148
0010
0101
1100
0001
,  // measure 149
1000
1000
1000
0000
0001
0000
0010
0000
,  // measure 150
0001
0101
1100
0001
,  // measure 151
0010
0010
0010
0000
0000
0000
0110
0000
,  // measure 152
1001
0010
0000
0110
,  // measure 153
1001
0001
0100
1000
,  // measure 154
0010
0001
1000
1001
,  // measure 155
0010
0000
0110
1001
,  // measure 156
0010
0000
0110
1001
,  // measure 157
0000
0001
0100
1000
,  // measure 158
0010
0001
1000
1001
,  // measure 159
0000
0010
0010
1001
,  // measure 160
0001
0011
1000
1100
,  // measure 161
0010
0100
1100
0000
,  // measure 162
0001
1000
0100
0011
,  // measure 163
0000
0010
0010
1001
,  // measure 164
0001
0011
1000
1100
,  // measure 165
0010
0100
0101
0000
,  // measure 166
1000
0001
0010
1100
,  // measure 167
0100
0001
0100
0001
,  // measure 168
0100
1000
0100
1000
,  // measure 169
0100
0001
0100
0001
,  // measure 170
0100
1000
0100
1000
,  // measure 171
0010
0000
0110
1001
,  // measure 172
0010
0000
0110
1001
,  // measure 173
0000
0001
0100
1000
,  // measure 174
0010
0001
1000
1001
,  // measure 175
0010
0000
0110
1001
,  // measure 176
0010
0000
0110
1001
,  // measure 177
0000
0001
0100
1000
,  // measure 178
0010
0001
1000
1001
,  // measure 179
0000
0010
0010
1001
,  // measure 180
0001
0011
1000
1100
,  // measure 181
0010
0100
1100
0000
,  // measure 182
0001
1000
0100
0011
,  // measure 183
0000
0010
0010
1001
,  // measure 184
0001
0011
1000
1100
,  // measure 185
0010
0100
0101
0000
,  // measure 186
1000
0001
0010
1100
,  // measure 187
0000
0000
0100
0001
,  // measure 188
0100
1000
0100
0001
,  // measure 189
0100
1000
0100
0001
,  // measure 190
0100
1000
0010
0100
,  // measure 191
1001
0000
0100
1000
,  // measure 192
0100
0001
0100
1000
,  // measure 193
0100
0001
0100
1000
,  // measure 194
0100
0001
0010
0100
,  // measure 195
1001
0000
0000
0000
;

//---------------dance-single - ----------------
#NOTES:
     dance-single:
     :
     Hard:
     6:
     0.364,0.387,0.200,0.000,0.000: // measure 1
0000
0000
0000
0000
,  // measure 2
0000
0000
0000
0000
,  // measure 3
0000
0100
0010
1000
,  // measure 4
1000
0010
0100
0001
,  // measure 5
0001
0100
1000
0010
,  // measure 6
1100
0010
0001
0100
,  // measure 7
0011
0110
0001
1000
,  // measure 8
0100
0110
1000
0001
,  // measure 9
0100
0010
0100
1010
,  // measure 10
0001
0010
0100
0011
,  // measure 11
1000
0010
0001
0100
,  // measure 12
1000
0010
1000
0100
,  // measure 13
0001
0000
1001
0000
0110
0000
0001
0100
,  // measure 14
0001
0000
1001
0000
0110
0000
1000
0100
,  // measure 15
1000
0010
1000
0011
,  // measure 16
0100
0010
0001
1010
,  // measure 17
0100
0001
0010
0000
1000
0000
0010
0000
,  // measure 18
0100
0010
0001
0010
,  // measure 19
0100
0000
0000
0010
,  // measure 20
0100
0000
1001
0000
0010
0000
0100
1000
,  // measure 21
0001
0000
0000
0010
,  // measure 22
0100
0000
1001
0000
0010
0000
0100
0001
,  // measure 23
1000
0000
0000
0000
0010
0000
0100
1000
,  // measure 24
0001
0000
0101
0000
1000
0001
0100
0001
,  // measure 25
1000
0000
0000
0000
0010
0000
0100
0001
,  // measure 26
1000
0000
1100
0000
0001
1000
0100
1000
,  // measure 27
0001
1000
0010
1000
,  // measure 28
0001
0000
1000
0000
0010
0000
0100
1000
,  // measure 29
0001
0001
0010
0001
,  // measure 30
1000
0000
0001
0000
0010
0000
0100
0001
,  // measure 31
1000
0000
0001
0010
,  // measure 32
1000
0000
1000
0100
,  // measure 33
1001
0000
1000
0010
,  // measure 34
0001
0000
0100
0000
,  // measure 35
0000
0000
1100
0000
0001
0000
0100
0001
,  // measure 36
1000
0000
0010
0000
0100
1000
0001
0000
,  // measure 37
0100
0000
0101
0000
1000
0000
0100
1000
,  // measure 38
0001
0000
0010
0000
0100
0001
1000
0000
,  // measure 39
0100
1001
1001
0010
,  // measure 40
0001
0100
1000
0000
0010
0000
0001
0000
,  // measure 41
0100
1000
0010
0000
0001
0000
0100
0000
,  // measure 42
1000
0010
0001
0000
0100
0000
1000
0000
,  // measure 43
0010
0001
0100
0000
1000
0000
0010
0000
,  // measure 44
0001
0100
1000
0000
0010
0000
0001
0000
,  // measure 45
0100
1000
0010
0000
0001
0000
0100
0000
,  // measure 46
1000
0010
0001
0000
0010
0010
0100
0000
,  // measure 47
1000
1000
0001
0000
1001
0000
0001
0000
,  // measure 48
0100
0001
0100
0000
1000
0000
0010
0000
,  // measure 49
0001
0010
0001
0000
0100
0000
1000
0000
,  // measure 50
0010
1000
0010
0000
0001
0000
0100
0000
,  // measure 51
1000
0100
1000
0000
0100
0010
0100
0000
,  // measure 52
0001
0100
0001
0000
0010
0000
1000
0000
,  // measure 53
0100
1000
0100
0000
0001
0000
0010
0000
,  // measure 54
1000
0010
1000
0000
0100
0000
0001
0000
,  // measure 55
0010
0001
0010
0000
0100
0000
0010
0000
,  // measure 56
1000
0001
0010
0100
0010
0001
0100
1000
,  // measure 57
0010
0001
0100
1000
1001
0000
0001
0000
,  // measure 58
0000
0010
1100
0001
,  // measure 59
0010
0100
0000
1000
,  // measure 60
0000
0100
0011
1000
,  // measure 61
0010
0100
0010
0000
1001
0000
0110
0000
,  // measure 62
0001
1000
0100
0001
,  // measure 63
1000
0001
0100
1000
,  // measure 64
0100
0000
0001
0000
0010
1000
0100
0000
,  // measure 65
0010
0001
0100
0000
1001
0000
1000
0000
,  // measure 66
0100
1000
0010
0000
0101
0000
1000
0000
,  // measure 67
0010
0000
0100
0000
0000
0000
1000
0001
,  // measure 68
0010
0001
0100
0000
1010
0000
0001
0000
,  // measure 69
0010
0100
0010
0000
1001
0000
0110
0000
,  // measure 70
0000
0001
0000
0100
,  // measure 71
0000
0000
1000
0000
0010
0100
0001
0000
,  // measure 72
0100
0010
1000
0000
0010
0001
0100
1000
,  // measure 73
0010
0001
0100
1000
1001
0000
0001
0000
,  // measure 74
0100
0000
0010
0100
1000
0000
0010
0000
,  // measure 75
1001
0000
0001
0100
0000
0000
0000
0000
,  // measure 76
0000
0000
0000
0000
,  // measure 77
0000
0000
0000
1000
,  // measure 78
0100
0000
0010
0100
0001
0000
0010
0000
,  // measure 79
1001
0000
1000
0100
0000
0000
0000
0000
,  // measure 80
0000
0000
0000
0000
,  // measure 81
0000
0000
0010
0100
,  // measure 82
0000
0000
1000
0100
0000
0000
1000
0000
,  // measure 83
0000
0000
0001
0000
0010
0100
1000
0000
,  // measure 84
0010
0000
0100
0000
0001
0010
0001
0100
,  // measure 85
0001
1000
1001
0000
0010
0010
1000
0000
,  // measure 86
1000
1000
0100
0000
0100
0100
0001
0000
,  // measure 87
0001
0001
0010
0000
0010
0010
0001
0000
,  // measure 88
0001
0001
0100
0000
0100
0100
1000
0000
,  // measure 89
1000
0010
0110
0000
0010
0001
1000
0100
,  // measure 90
0001
0000
0010
1000
,  // measure 91
0000
0001
1000
0000
,  // measure 92
0010
0000
1000
0001
0010
0000
1000
0000
,  // measure 93
0100
0000
0001
1000
0010
0000
0000
1000
,  // measure 94
0100
0000
0000
0001
0010
0001
0100
0100
,  // measure 95
0010
0000
0000
0000
0000
1000
0001
0000
,  // measure 96
1000
0000
0100
0000
0010
0100
0001
0000
,  // measure 97
0010
0000
1001
0000
1000
0100
0000
0000
,  // measure 98
0001
0000
0100
0000
0100
1000
0010
0000
,  // measure 99
0010
0001
0100
0000
0000
0010
0100
0000
,  // measure 100
0001
0000
0100
0000
0010
0100
1000
0000
,  // measure 101
0010
0000
1001
0000
0001
0100
0000
0000
,  // measure 102
1000
0000
0100
0000
0100
0001
0010
0000
,  // measure 103
0010
1000
1010
0000
0000
0100
0010
0000
,  // measure 104
0100
0000
1000
0000
0100
0001
1000
0000
,  // measure 105
0001
0000
0110
0000
0010
1000
0000
0000
,  // measure 106
0001
0000
0100
0000
0100
1000
0010
0000
,  // measure 107
0010
0001
0100
0000
0000
0010
0100
0000
,  // measure 108
0010
0000
0001
0000
0100
1000
0001
0000
,  // measure 109
1000
0000
0110
0000
0010
0001
0000
0000
,  // measure 110
1000
0000
0100
0000
0100
0001
0010
0000
,  // measure 111
0010
1000
1010
0000
0000
0100
0010
0000
,  // measure 112
1000
0000
0100
0000
0010
0100
0001
0000
,  // measure 113
0010
0000
1001
0000
1000
0100
0000
0000
,  // measure 114
0001
0010
0000
0000
0000
0100
1000
0010
,  // measure 115
0001
1000
0100
0000
0000
0010
0110
0000
,  // measure 116
0000
1000
1001
0000
0000
0100
0010
0001
,  // measure 117
1000
0010
0100
0000
0100
0000
0000
0000
,  // measure 118
0100
0000
1000
0000
0100
0000
1000
0010
,  // measure 119
0001
1000
0100
0010
,  // measure 120
1000
0100
0001
0000
0100
0000
0001
0010
,  // measure 121
1000
0001
0100
0010
,  // measure 122
0001
0100
1000
0000
0010
0000
1000
0010
,  // measure 123
0001
1100
0001
0010
,  // measure 124
1000
0100
0001
0000
0010
0000
0001
0010
,  // measure 125
1000
0101
1000
0010
,  // measure 126
0001
0100
1000
0000
1001
0000
0000
0000
,  // measure 127
0001
0000
0100
0000
,  // measure 128
0100
0001
1000
0010
,  // measure 129
0001
0100
1000
0000
0001
0000
0010
0000
,  // measure 130
1000
0100
0001
0000
0100
0000
1000
0000
,  // measure 131
0010
0001
0100
0000
0001
0000
1000
0000
,  // measure 132
0010
0001
0100
0000
1000
0000
0001
0000
,  // measure 133
0010
1000
0100
0000
0001
0000
1000
0000
,  // measure 134
0100
1000
0100
1000
,  // measure 135
0100
0010
0100
0001
,  // measure 136
0100
0000
1000
0100
0001
0100
1000
0000
,  // measure 137
0001
0010
1000
0000
0001
0000
0010
0000
,  // measure 138
0001
0000
0001
0100
1000
0100
0001
0000
,  // measure 139
0010
1000
0100
0000
0010
0000
1000
0000
,  // measure 140
0010
0000
0001
0100
1000
0100
0001
0000
,  // measure 141
1000
0100
0001
0000
1000
0000
0100
0000
,  // measure 142
1000
0000
1000
0100
0001
0100
1000
0000
,  // measure 143
0100
0001
0010
0000
1000
0000
0001
0000
,  // measure 144
0100
0000
1000
0000
0100
0001
0010
0000
,  // measure 145
1000
0010
0001
0000
0010
0000
0100
0000
,  // measure 146
1000
0000
0010
0000
1000
0100
0001
0000
,  // measure 147
0010
0001
0100
0000
0001
0000
1000
0000
,  // measure 148
0010
0000
0001
0000
0010
1000
0100
0000
,  // measure 149
0001
0100
1000
0000
0100
0000
0010
0000
,  // measure 150
0001
0000
0100
0000
0001
0010
1000
0000
,  // measure 151
0100
0010
0010
0000
0100
0000
1001
0000
,  // measure 152
1000
0100
0010
0000
0100
0000
1001
0000
,  // measure 153
0001
0100
1000
0000
0100
0000
0001
0000
,  // measure 154
0100
1000
0100
0000
0001
0000
1000
0000
,  // measure 155
0100
0001
0010
0000
0100
0000
1001
0000
,  // measure 156
0001
0100
0010
0000
0100
0000
1001
0000
,  // measure 157
1000
0100
0001
0000
0100
0000
1000
0000
,  // measure 158
0100
0001
0100
0000
1000
0000
0001
0000
,  // measure 159
1000
0001
1001
0000
0010
0000
1001
0000
,  // measure 160
1000
0100
0010
0000
0011
0000
1100
0000
,  // measure 161
0000
0000
0001
0000
0100
0000
1000
0010
,  // measure 162
0001
0100
1000
0001
,  // measure 163
0100
1000
0010
0000
0010
0000
1001
0000
,  // measure 164
0001
0100
0010
0000
1010
0000
0101
0000
,  // measure 165
0000
0000
1000
0000
0100
0000
0001
0010
,  // measure 166
1000
0100
0001
1000
,  // measure 167
0001
1000
1001
0000
0010
0000
0001
0000
,  // measure 168
0010
0001
0010
0000
0001
0000
0010
0000
,  // measure 169
0001
0010
1000
0000
0010
0000
1000
0000
,  // measure 170
0010
1000
0010
0000
1000
0000
0010
0000
,  // measure 171
0100
0010
0010
0000
0100
0000
1001
0000
,  // measure 172
1000
0100
0010
0000
0100
0000
1001
0000
,  // measure 173
0001
0100
1000
0000
0100
0000
0001
0000
,  // measure 174
0100
1000
0100
0000
0001
0000
1000
0000
,  // measure 175
0100
0001
0010
0000
0100
0000
1001
0000
,  // measure 176
0001
0100
0010
0000
0100
0000
1001
0000
,  // measure 177
1000
0100
0001
0000
0100
0000
1000
0000
,  // measure 178
0100
0001
0100
0000
1000
0000
0001
0000
,  // measure 179
1000
0001
1001
0000
0010
0000
1001
0000
,  // measure 180
1000
0100
0010
0000
0011
0000
1100
0000
,  // measure 181
0000
0000
0001
0000
0100
0000
1000
0010
,  // measure 182
0001
0100
1000
0001
,  // measure 183
0100
1000
0010
0000
0010
0000
1001
0000
,  // measure 184
0001
0100
0010
0000
1010
0000
0101
0000
,  // measure 185
0000
0000
1000
0000
0100
0000
0001
0010
,  // measure 186
1000
0100
0001
1000
,  // measure 187
0001
1000
1001
0000
0010
0000
0001
0000
,  // measure 188
0010
0001
0010
0000
1000
0000
0010
0000
,  // measure 189
1000
0010
0001
0000
0010
0000
0001
0000
,  // measure 190
0010
0001
0100
0000
1000
0000
0001
0000
,  // measure 191
1000
0001
1001
0000
0100
0000
1000
0000
,  // measure 192
0100
1000
0100
0000
0001
0000
0100
0000
,  // measure 193
0001
0100
1000
0000
0100
0000
1000
0000
,  // measure 194
0100
1000
0010
0000
0001
0000
1000
0000
,  // measure 195
1001
0000
0000
0000
;

//---------------dance-single - ----------------
#NOTES:
     dance-single:
     :
     Challenge:
     8:
     0.555,0.645,0.213,0.011,0.294:
0000
0000
0000
0000
1000
0001
0010
0000
,
0001
1000
0010
0000
1000
0001
0100
0000
,
0001
0000
1000
0000
0100
0000
0000
0000
0100
1000
0100
1000
0100
0000
0100
0000
,
0100
0000
1000
0000
0010
0000
0000
0000
0100
0001
0100
0001
0100
0000
0100
0000
,
0100
0001
0100
0000
0010
0000
0100
0000
,
0001
0001
0010
0100
,
1000
0000
0000
0000
1000
0000
0000
0000
0100
1000
0100
1000
0100
0000
0100
0000
,
0100
0000
1000
0000
0010
0000
0000
0000
0100
0001
0100
0001
0100
0000
0100
0000
,
0100
0001
0010
0000
0100
0000
0010
0000
,
0001
0001
0100
0010
,
1000
0000
1000
0000
0100
0010
0001
1000
,
0100
0010
0001
1000
0100
0010
0001
1000
,
0100
0010
0001
1000
0010
0100
0001
1000
,
0010
0100
0001
1000
0010
0100
0001
1000
,
0010
0100
0001
0010
0100
1000
1010
0000
,
1000
0001
1000
0001
0001
0100
0110
0000
,
0001
1000
0001
1000
0001
1000
0100
0010
,
0001
1000
0100
0010
1001
0000
1001
0001
,
0001
0001
0001
1000
0001
0000
1000
0000
,
0011
0000
0110
0000
1001
0000
0000
0100
,
0100
0000
0001
1000
,
0101
0000
0110
0000
1001
0000
0000
0010
,
0010
0000
1100
1001
,
0110
0000
1001
0000
1001
0000
0100
0001
,
1000
0000
0011
1100
,
0110
0000
1000
0000
1001
0000
0001
0100
,
1000
0000
1001
0000
0100
0010
0001
1000
,
0100
0010
0001
1000
0100
0010
0001
1000
,
0100
0010
0001
1000
0100
0010
1000
0001
,
0100
0010
1000
0001
0100
0010
1000
0001
,
0100
0010
1000
0001
0100
1000
1100
0000
,
0010
0001
0010
0000
1100
0000
0101
0000
,
0010
1000
0010
0000
0101
0000
0010
1000
,
0010
0100
0001
0000
1001
0000
0010
0001
,
0010
0100
1000
0000
1000
0100
1000
0100
,
0001
0100
0001
0100
1000
0100
1000
0100
,
0001
0100
0001
0100
1000
0010
1010
0000
,
0001
0000
0010
0000
0011
0000
0000
0000
0001
0000
0000
0000
0001
0000
0000
1000
,
0001
0000
0010
0000
0100
0000
1000
0000
0001
0000
0001
0000
0001
0000
0010
0100
,
0010
0100
0010
0000
0001
0000
0000
0000
1000
0000
1000
0000
1000
0000
0010
0100
,
0000
0001
0000
1000
0100
0000
0000
0000
0010
0000
0010
0000
0010
0000
0001
0100
,
0010
0100
0010
0000
1000
0000
0000
0000
0100
0000
0100
0000
0100
0000
0010
0001
,
0000
0001
0000
0001
0100
0000
0000
0000
0010
0000
1000
0000
0100
0000
0010
0001
,
0010
0001
0100
0000
0010
0000
0000
0000
1000
0000
0100
0000
0100
0000
0010
0001
,
0000
1000
0000
0100
1000
0000
0000
0000
0001
0000
0001
0000
0010
0000
0100
1000
,
0001
1000
0001
0000
0100
0000
0010
1000
0100
1000
0100
0000
0010
0000
0001
1000
,
0010
0100
0010
0000
1000
0000
0001
0000
0000
0000
0010
0000
0010
0000
0100
0000
,
1000
0000
0000
0000
0000
0001
0001
0100
,
1000
0000
0000
0000
0000
0000
0000
0000
0100
0000
0100
0000
0001
0000
0000
1000
,
0100
0000
0100
0000
0010
0000
0000
0000
0001
0000
1000
0000
0100
0000
0000
0010
,
0001
0100
0010
1000
0000
0001
0001
0000
,
0010
0000
0000
0100
0000
0000
1000
0000
0000
0000
0001
0000
0001
0000
0000
0000
,
0100
0000
0000
0010
0000
0000
1000
0000
0001
0000
0010
0000
0100
0000
1000
0100
,
0000
0010
0000
0001
1000
0000
0000
0000
0010
0000
0100
0000
0001
0000
1000
0100
,
0000
0010
0000
0001
1000
0000
0000
0000
0001
0000
0000
0000
0001
0000
0000
0010
,
0100
0000
1000
0000
0001
0000
0100
0000
0010
0000
0000
0000
0010
0000
0000
1000
,
0010
0000
0100
0000
0001
0000
0010
0000
0100
0000
0000
0000
0100
0000
0000
0010
,
0001
1000
0010
0100
0000
0100
0100
0000
,
0001
0000
0000
0001
0000
0000
0001
0000
1000
0000
0000
0000
1000
0000
0000
0100
,
0010
0001
0010
1000
0000
0010
0010
0000
,
0001
0000
0000
1000
0000
0000
0100
0000
0000
0000
0010
0000
0001
0000
0100
0000
,
0010
0000
1000
0100
0000
0010
0001
0100
,
0010
0000
1001
0000
0000
0010
0100
0000
,
1000
0000
0000
1000
0000
0000
0001
0000
0000
0000
0100
0000
0010
0000
1000
0000
,
0001
0000
1100
0000
0000
0000
0000
0000
0010
0000
0000
0000
0010
0000
0000
0001
,
1000
0100
0010
0001
0000
0100
0100
0000
,
0010
0000
0000
1000
0000
0000
0100
0000
0010
0000
0000
0000
0010
0000
0000
0001
,
0100
0010
1000
0100
0000
0010
0010
0000
,
0101
0000
0000
0000
1100
0000
0000
0000
1001
0000
0000
0000
0010
0000
0000
0100
,
1000
0001
0100
0010
0000
1000
0001
0010
,
0100
0000
1001
0000
0100
0010
1000
0000
,
0001
0000
0000
0100
0000
0000
0010
0000
1000
0000
0100
0000
0010
0000
0001
0000
,
1000
0101
0000
0000
1001
0000
0010
1000
,
0100
0010
0001
0000
0100
0001
0100
0010
,
1001
0000
0001
0100
0000
0000
0010
1000
,
0100
0000
0011
0000
0010
0100
1000
0010
,
0100
0001
0000
0000
0000
0000
0010
0001
,
0100
0010
1000
0000
0100
1000
0100
0010
,
1001
0000
1000
0100
0000
0000
0010
0001
,
0100
0000
1010
0000
0010
0100
0001
0010
,
0100
1000
0000
0000
0101
0000
1000
0000
,
0100
1000
0100
1000
0000
0000
0000
0000
0010
0000
0010
0000
0100
0000
0100
0000
,
0001
0000
0100
0000
0010
0000
0000
0000
1000
0000
0000
0010
1000
0000
0000
0000
,
0001
0000
0000
0100
0001
0000
0000
0000
1000
0000
0100
0000
0010
0000
0001
0000
,
0100
0010
1001
0000
0001
0001
0100
0000
,
1000
1000
0100
0000
0010
0100
1000
0001
,
0010
0000
0001
0000
1000
0000
0000
0000
1010
0000
0000
0000
0010
1000
0000
0000
,
0011
0000
0000
0000
0010
0001
0000
0000
0100
0000
0001
0000
0010
0000
1000
0000
,
0001
0000
0000
0000
0000
0000
0001
0000
0010
0000
0001
1000
0001
0000
1000
0000
,
0001
0000
0100
0000
0001
0100
0001
0000
0000
0000
1000
0001
1000
0000
0001
0000
,
1000
0000
0100
0000
1000
0100
1000
0000
0000
0000
0100
1000
0100
0000
0010
0000
,
0100
0000
0010
0000
0001
0010
0001
0000
0000
0000
0100
0000
0001
0000
1000
0000
,
0100
0010
0100
0001
1000
0000
0000
0010
,
0100
0000
0000
0001
1000
0100
0010
0001
,
1000
0000
0000
0000
0000
0010
0100
0000
,
0010
0001
0100
0010
1000
0000
0100
1000
,
0100
0010
1001
0000
0001
0100
0000
0000
,
0010
1000
0010
1000
0010
0000
0000
0000
0100
0001
0100
0001
0100
0000
0000
0000
,
0001
1000
0001
1000
0001
0000
0000
0000
1000
0000
0001
0000
0100
0000
0000
0000
,
0010
1000
0100
0010
0001
0000
0100
0001
,
0010
0100
1001
0000
1000
0100
0000
0000
,
1000
0100
1000
0100
1000
0000
0000
0000
0001
0010
0001
0010
0001
0000
0000
0000
,
0010
0100
0010
0100
0010
0000
0000
0000
0001
0000
1000
0000
0010
0000
0000
0000
,
0100
0010
1000
0100
1000
0000
0001
0010
,
0100
1000
1100
0000
0001
0100
0000
0000
,
1000
0000
1000
0000
1000
0100
0010
0001
,
0100
0000
0010
0000
1000
0000
0001
0000
1000
0100
1000
0100
1000
0000
0000
0000
,
0100
0010
0001
0100
0001
0000
1000
0010
,
0100
0001
0101
0000
1000
0100
0000
0000
,
0001
0000
0001
0000
0001
0100
0010
1000
,
0100
0000
0010
0000
0001
0000
0100
0000
0001
0010
0001
0010
0001
0000
0000
0000
,
0010
0001
0100
0010
1000
0000
0100
1000
,
0010
0100
1001
0000
1000
0100
1000
0001
,
0100
0010
0100
0000
0001
0100
0010
1000
,
0100
0001
0100
1000
0000
1010
0101
0000
,
0000
0011
1100
0000
0000
0001
0100
0010
,
1000
0001
1001
0000
0000
0000
0000
0000
,
0000
0000
0000
0000
1000
0001
1000
0001
1000
0000
0000
0000
0010
0100
0000
0000
,
0010
0100
0000
0000
0001
0010
0001
0010
0001
0000
0000
0000
0100
0010
0000
0000
,
0100
0010
0000
0000
1000
0100
1000
0100
1000
0000
0000
0000
0010
0100
0000
0000
,
0010
0100
0000
0000
0001
0000
0001
0000
1000
0100
0000
0000
0001
0000
0001
0000
,
1000
0100
0000
0000
0010
0100
0010
0100
0010
0000
0000
0000
0001
0100
0000
0000
,
0001
0100
0000
0000
0010
1000
0010
1000
0010
0000
0000
0000
0100
0001
0000
0000
,
0100
0001
0000
0000
0010
0000
0010
0000
0100
1000
0000
0000
0010
0000
0010
0000
,
0100
1000
0000
0000
0001
0000
0001
0000
0100
0010
0000
0000
0001
0000
0001
0000
,
0100
0010
0000
0000
1000
0000
0100
0000
0010
0000
0001
0000
1000
0000
0000
0000
,
1001
0000
0000
0000
1000
0100
1000
0100
1000
0000
0010
0000
0100
0000
0100
0000
,
0010
0100
0000
0000
0001
0010
0001
0010
0001
0000
0100
0000
0010
0000
0010
0000
,
0100
0010
0000
0000
1000
0100
1000
0100
1000
0000
0000
0000
0001
0100
0001
0100
,
0001
0000
0000
0000
0010
0100
0010
0100
0010
0000
0001
0000
1000
0000
1000
0000
,
0001
1000
0000
0000
0010
0100
0010
0100
0010
0000
1000
0000
0001
0000
0001
0000
,
0010
0000
0100
0000
1000
0010
1000
0010
1000
0000
0100
0000
0010
0000
0010
0000
,
0001
1000
0000
0000
0010
0100
0010
0100
0010
0000
0000
0000
1000
0100
1000
0100
,
1000
0000
0000
0000
0001
0100
0001
0100
0010
1000
0010
1000
0001
0010
0001
0010
,
0100
0000
0000
0000
1000
0100
1000
0000
0000
0000
0001
0100
0001
0100
0000
0000
,
0000
0000
0000
0000
0001
0100
0010
0000
0010
0000
0001
0100
0010
0000
0010
0000
,
0001
0100
0010
0000
1000
0000
0100
0000
0010
0001
0000
0000
0100
0010
1000
0000
,
1000
0000
0000
0000
1000
0000
0100
0000
0010
0001
0100
0000
0010
1000
0100
0000
,
0100
0000
0100
0000
0100
0000
0010
0000
0001
0100
0000
0000
0010
0100
0000
0000
,
0010
1000
0000
0000
0001
0000
0010
0000
0100
1000
0000
0100
0010
0001
0000
0000
,
0010
0100
0000
0000
1000
0000
1000
0000
1000
0001
0000
0000
0010
0000
0010
0000
,
0010
0100
0000
0000
1000
0000
1000
0000
1000
0010
0000
0000
0100
0000
0100
0000
,
0100
0001
0000
0000
0000
0000
0000
0000
0000
0000
1000
0100
1000
0000
0000
0000
,
0000
0000
0001
0010
0001
0000
1000
0010
1000
0000
0001
0010
0001
0000
0000
0000
,
0000
0000
0001
0000
1000
0000
1000
0000
0100
0010
0000
0000
0001
0000
0001
0000
,
0100
0010
0000
0000
1000
0000
0100
0000
0010
0100
0010
0000
0001
0100
0001
0000
,
0001
0000
0000
0000
1000
0000
1000
0000
0100
0010
0000
0001
1000
0000
0010
0100
,
0000
0001
0010
0000
0100
0000
0100
0000
1000
0010
0000
0100
0001
0000
0010
0100
,
0000
1000
0010
0000
0100
0000
0100
0000
0001
1000
0000
0000
0010
0000
0010
0000
,
1000
0001
0000
0000
0010
0100
1000
0000
1000
0000
0001
1000
0100
0000
0100
0000
,
0100
0000
0100
0000
0010
0000
0000
0100
0001
0000
1000
0000
0010
0000
0000
0000
,
1100
0000
0000
0000
0001
0000
0000
1000
0010
0000
0100
0000
0001
0000
1000
0000
,
1010
0000
0000
0000
0100
0001
0000
0000
0001
0100
0000
0000
0100
1000
0000
0000
,
1000
0100
0000
0000
0010
0000
1000
0000
0010
0000
0001
0000
0010
0000
0100
0000
,
0110
0000
0000
0000
0001
0000
0000
1000
0010
0000
0100
0000
0001
0000
0000
0000
,
1010
0000
0000
0000
0100
0000
0000
0001
0010
0000
0100
0000
1000
0000
0001
0000
,
0011
0000
0000
0000
0100
1000
0000
0000
1000
0100
0000
0000
0100
0001
0000
0000
,
0001
0100
0000
0000
0010
0000
0001
0000
0010
0000
1000
0000
0010
0000
0100
0000
,
0110
0021
1000
0031
,
0001
0100
0001
0010
1000
0010
0001
1000
,
1001
0000
0000
0000
0010
1000
0000
0000
0001
0000
0001
0000
0010
0001
0000
0000
,
1000
1000
0001
0010
1000
0010
0001
0100
,
0110
0201
1000
0301
,
1000
0010
1000
0100
0001
0100
1000
0001
,
1001
0000
0000
0000
0100
0001
0000
0000
1000
0000
1000
0000
0100
1000
0000
0000
,
0001
0001
1000
0100
0001
0100
1000
0010
,
0110
0000
0000
0000
1000
0000
0100
0000
1000
0000
0100
1000
0000
0100
1000
0000
,
0100
0000
1000
0000
0001
0000
0100
0000
0001
0000
0100
0001
0000
0100
0001
0000
,
0010
0000
0001
0000
1000
0000
0001
0000
1000
0000
0001
1000
0000
0001
1000
0000
,
0001
0000
1000
0000
0010
0000
0100
0000
0010
0000
0100
0010
0000
0100
0010
0000
,
1000
0000
0001
0000
0100
0000
0000
0010
1000
0000
0001
0000
0100
0000
0000
0000
,
0011
0000
0001
0000
1000
0000
0000
0001
0100
0000
0010
0000
1000
0000
0001
0000
,
0101
0000
0000
0000
0010
1000
0000
0000
1000
0010
0000
0000
0010
0001
0000
0000
,
0001
0010
0000
0000
0100
0000
0001
0000
0100
0000
1000
0000
0100
0000
0010
0000
,
0110
0000
0010
0000
1000
0000
0000
0001
0100
0000
0010
0000
1000
0000
0000
0000
,
0101
0000
0100
0000
0010
0000
0000
1000
0100
0000
0010
0000
0001
0000
1000
0000
,
1100
0000
0000
0000
0010
0001
0000
0000
0001
0010
0000
0000
0010
1000
0000
0000
,
1000
0010
0000
0000
0100
0000
1000
0000
0100
0000
0001
0000
0100
0000
0010
0000
,
0110
1200
0001
1300
,
1000
0100
1000
0010
0001
0010
1000
0001
,
1001
0000
0000
0000
0100
0001
0000
0000
0010
0000
0010
0000
0100
1000
0000
0000
,
0010
0010
1000
0100
0001
0100
1000
0010
,
0110
1020
0001
1030
,
0001
0010
0001
0100
1000
0100
0001
1000
,
1001
0000
0000
0000
0010
1000
0000
0000
0100
0000
0100
0000
0010
0001
0000
0000
,
0100
0100
0001
0010
1000
0010
0001
0100
,
0110
0000
0010
0000
1000
0000
0000
0100
1000
0000
0001
0000
0010
0000
0100
0000
,
0100
0000
0010
0000
0001
0000
0000
0100
0001
0000
1000
0000
0010
0000
0100
0000
,
0100
0000
0010
0000
1000
0000
0000
0001
0010
0000
0100
0000
1000
0000
0001
0000
,
0001
0100
0010
1000
0001
1000
0100
0100
,
0110
0000
0000
0000
0001
0000
0000
0100
0001
0000
1000
0000
0010
0000
0100
0000
,
0100
0000
0010
0000
1000
0000
0000
0100
1000
0000
0001
0000
0010
0000
0100
0000
,
0100
0000
0010
0000
0001
0000
0000
1000
0010
0000
0100
0000
0001
0000
1000
0000
,
1000
0100
0010
0001
1000
0001
0100
0000
,
0110
0000
0000
0000
;
