#TITLE:Moonlight Vision Mix;
#SUBTITLE:(DDR 5th Mix);
#ARTIST:baconman;
#TITLETRANSLIT:;
#SUBTITLETRANSLIT:;
#ARTISTTRANSLIT:;
#CREDIT:;
#BANNER:5thMix.png;
#BACKGROUND:;
#LYRICSPATH:;
#CDTITLE:./CDTITLES/DANCE DANCE REVOLUTION 5TH MIX.PNG;
#MUSIC:5thMix.ogg;
#OFFSET:-0.374;
#SAMPLESTART:62.390;
#SAMPLELENGTH:20.000;
#SELECTABLE:YES;
#BPMS:0.000=180.000,196.000=90.000,196.500=180.000,296.000=90.000,312.000=180.000,342.500=194.000,511.000=48.500,516.000=194.000,582.000=84.000,583.000=140.000,778.500=145.000;
#STOPS:;
#BGCHANGES:;

//---------------dance-single - ----------------
#NOTES:
     dance-single:
     :
     Easy:
     3:
     0.295,0.400,0.051,0.383,0.000:
0000
0000
0000
0000
,
0000
0000
0000
0000
,
0000
0000
0000
0000
,
0000
0000
0000
0000
,
0010
0000
0010
0000
,
0100
0000
1001
0000
,
0020
0030
2000
3000
,
0002
0003
0200
0300
,
0010
0010
1000
0000
,
0100
0100
0010
0000
,
0001
0100
0010
1000
,
0020
0000
0130
0000
,
0001
1000
0100
0000
,
0010
0001
0100
0000
,
0020
0000
1000
0000
,
0031
0000
0001
0000
,
1001
0100
0010
0000
,
0001
0001
0100
0000
,
0010
0000
0010
0000
,
1000
0000
0100
0000
,
0010
0001
1000
0000
,
0010
0100
0001
0000
,
0020
0030
2000
3000
,
0002
0003
0200
0300
,
0020
0000
1030
0000
,
0100
0000
1001
0000
,
0020
0000
0031
0000
,
0100
0000
0110
0000
,
0002
0000
1000
0000
,
0103
0000
1001
0000
,
0020
0000
0230
0000
,
0302
0000
2003
0000
,
3020
0000
1030
0000
,
0100
0000
0110
0000
,
0002
0000
0103
0000
,
0010
0000
1001
0000
,
0002
0000
0013
0000
,
0100
0000
1001
0000
,
0020
0000
2030
0000
,
3002
0000
0103
0000
,
0010
0100
0001
1000
,
0200
0000
0301
0000
,
0001
0100
1000
0100
,
0002
0000
1003
0000
,
0010
0001
0100
1000
,
0100
0000
0100
0000
,
0010
0000
0001
0000
,
0100
0000
0020
0000
,
0000
0000
0000
0000
,
0000
0030
0000
0000
0000
0000
0010
0000
,
1001
0200
0300
0000
,
0000
0000
0000
1000
,
0110
0002
0003
0000
,
0000
0000
0000
0001
,
0110
2000
3000
0000
,
0000
0000
0000
0110
,
1001
0200
0300
0010
,
0000
0001
0000
0020
,
0100
1000
0130
0001
,
0001
1000
1000
0020
,
0100
0001
0130
1000
,
1000
0001
0001
0020
,
0100
1000
0031
1000
,
1000
0001
0001
0200
,
0010
0001
1300
0001
,
0001
1000
1000
0000
,
1000
0000
2000
0000
,
0100
3000
0200
0000
,
0010
0300
0020
0000
,
0001
0030
0002
0000
,
1000
0003
2000
0000
,
0100
3000
0200
0000
,
0010
0300
0020
0000
,
0001
0030
0002
0000
,
0100
0203
0010
0320
,
1000
2030
0001
3002
,
0100
0203
0010
0320
,
1000
1000
1000
1000
,
1030
1000
0100
0100
,
0010
0010
0001
0001
,
0002
0103
2000
3100
,
0001
0001
0001
0001
,
1000
1000
1000
1000
,
0001
0001
0001
0001
,
1000
0100
0001
0010
,
0000
0000
0000
0010
,
0000
0010
0000
0100
,
0000
0100
0000
0001
,
0000
1000
0000
0001
,
0000
1000
0000
0010
,
0000
0100
0000
0001
,
0000
1000
0000
0002
,
0000
2003
0000
3020
,
0000
0230
0000
1300
,
0000
0200
0000
0310
,
0001
0100
0000
0002
,
0000
1003
0000
1000
,
0100
0010
0000
0020
,
0000
0031
0000
1000
,
0001
0100
0000
2000
,
0000
3100
0000
0001
,
1000
0100
0000
0002
,
0000
0100
0000
0010
,
0000
0013
0000
0002
,
0000
0100
0000
1000
,
0000
0103
0000
0001
,
0000
0001
0000
1000
,
0000
1000
0000
0010
,
0000
0010
0000
1000
,
1000
1000
0000
0010
,
0000
0100
0000
0010
,
0000
0100
0000
0001
,
0000
0100
0000
1000
,
0000
0100
0000
0002
,
0000
0003
0000
0002
,
0000
0003
0000
2000
,
0000
3000
0000
2000
,
0000
3000
0000
0020
,
0000
0000
0000
0000
,
0000
0000
0000
0100
,
0000
0100
0000
0100
,
0000
0130
0000
0001
,
0000
1000
0000
0000
,
0000
0000
0000
0010
,
0000
0000
0000
0010
,
0000
0000
0000
0100
,
0000
0000
0000
0100
,
0000
0000
0000
0010
,
0000
2000
0000
0000
3000
0000
0000
0000
,
1000
0000
1000
0000
,
1000
0000
1000
0000
,
1000
0000
1000
0000
,
1000
0000
1000
0000
,
0002
0000
0103
0000
,
2000
0000
3100
0000
,
0002
0000
0103
0000
,
0100
0000
0100
0000
,
1000
0000
1000
0000
,
1000
0000
1000
0000
,
0002
0000
0103
0000
,
1000
0000
1000
0000
,
0010
0000
0010
0000
,
1000
0000
1000
0000
,
0001
0000
0001
0000
,
0100
0000
0100
0000
,
0000
0000
0000
0010
,
0000
0010
0000
0010
,
0000
0010
0000
0000
,
0000
0000
0000
0000
,
0000
0000
0000
1000
,
0100
0001
0010
1000
,
0100
1000
0100
0001
,
0100
0001
0100
2000
,
0000
0002
3003
0010
,
1000
0100
0001
0010
,
0001
0100
1000
0010
,
1000
0100
0001
0002
,
0000
2000
3003
1000
,
0100
0001
0100
1000
,
0100
0001
0000
2000
,
0000
3002
0000
1000
,
1000
1003
0000
1000
,
0100
0001
0100
1000
,
0100
0001
0000
1000
,
0000
1000
0000
1000
,
0000
1000
0000
0001
,
0100
1000
0010
0001
,
0100
0001
0100
1000
,
0100
1000
0100
0002
,
0000
2000
3003
0010
,
0001
0100
1000
0010
,
1000
0100
0001
0010
,
0001
0100
1000
2000
,
0000
0002
3003
1000
,
0100
0001
0100
1000
,
0100
0001
0000
2000
,
0000
3002
0000
1000
,
1000
1003
0000
0001
,
0000
0001
0000
1000
,
0000
1000
0000
0001
,
0000
0001
0000
1000
,
0000
1000
0000
0000
,
0001
2002
0003
3000
,
1000
2002
3000
1003
,
1000
1000
0000
0000
,
1000
0200
0300
1000
,
0100
0001
0010
1000
,
0100
1000
0100
0001
,
0100
0001
0100
2000
,
0000
0002
3003
0010
,
1000
0100
0001
0010
,
0001
0100
1000
0010
,
1000
0100
0001
0002
,
0000
2000
3003
0000
,
0000
0000
0000
2000
,
3000
2000
3000
0002
,
0003
0002
0003
2000
,
3000
2000
3000
0002
,
0003
0002
0003
0020
,
0030
0002
0003
2000
,
3000
0020
0030
2000
,
3000
0002
0003
2002
,
0000
0000
3003
0010
,
0010
2000
3000
0001
,
0001
0020
0000
0130
,
0100
2000
3000
0001
,
0001
0200
0300
0010
,
1000
0002
0003
0010
,
0001
2000
3000
0010
,
1000
0002
0003
2002
,
0000
0000
3003
0020
,
0030
1000
0010
0200
,
0300
0010
1000
0002
,
0003
0010
0001
1000
,
1000
0001
0001
0200
,
0300
0001
0100
0020
,
0030
0100
0001
2000
,
3000
0100
1000
0001
,
0001
1000
1000
0020
,
0000
0000
0000
0030
,
0000
0000
0000
1000
,
1000
0010
0100
0001
,
0000
0010
0000
0200
,
0000
0000
0000
0300
,
0000
0000
0000
1000
,
1000
0010
0100
0001
,
0000
0000
0000
0010
,
0002
0100
0103
0010
,
2000
0100
3100
0010
,
0002
0100
0103
0001
,
1000
2002
3003
0010
,
2000
0100
3100
0010
,
0002
0100
0103
0010
,
2000
0100
3100
0220
,
0000
0000
0330
0010
,
0010
0001
0001
1000
,
1000
0010
0010
0100
,
0100
0001
0001
1000
,
1000
0100
0100
0010
,
0002
1000
1003
0010
,
2000
0001
3001
0010
,
0002
1000
1003
0010
,
2000
0001
3001
0020
,
0000
0030
0000
0020
,
0000
0000
0000
0032
,
0000
0000
0000
1000
,
1000
1000
2000
3003
;

//---------------dance-single - ----------------
#NOTES:
     dance-single:
     :
     Medium:
     6:
     0.460,0.800,0.151,0.464,0.003:
0000
0000
0000
0000
,
0000
0000
0000
0000
,
0000
0000
0000
0000
,
0000
0000
0000
0000
,
0010
0010
0010
1000
,
0200
0300
2002
3003
,
0010
0010
0010
0001
,
0200
0300
0200
0300
,
1001
0100
1000
0000
,
1000
0100
1000
0000
2200
0000
3300
0000
,
2020
3030
0202
0303
,
0001
0000
0001
0000
,
0010
0100
1000
0000
,
0010
0100
0001
0000
,
1000
0100
0010
0001
,
0100
0010
1000
0000
,
0010
0100
0010
0000
1001
0000
0000
0000
,
0001
1000
0001
0000
1001
0000
0000
0000
,
0001
0001
0100
0100
,
1000
0000
0001
0000
,
0001
0100
0010
0000
,
1000
0100
0010
0000
,
0002
0000
2003
0000
,
3020
0000
0230
0000
,
0310
0010
0010
1000
,
0200
0300
2002
3003
,
0010
0010
0010
0001
,
0200
0300
0220
0330
,
1000
1000
1000
0001
,
0200
0300
2002
3003
,
0020
0000
0032
0000
,
0203
0000
2300
0000
,
3010
0010
0010
1000
,
0020
0030
0202
0303
,
1000
1000
1000
0001
,
0200
0300
2200
3300
,
0001
0001
0001
0010
,
0200
0300
2002
3003
,
2000
0000
3020
0000
,
0230
0000
0302
0000
,
0013
0100
1000
0000
0010
0100
0001
0000
,
0011
0011
1010
1010
,
0010
0001
0100
0000
0010
1000
0100
0000
,
0020
0000
0031
0000
0100
0010
1000
0000
,
1100
1100
0101
0101
,
0010
0001
0100
1000
,
0010
1000
0010
1000
0010
0000
2000
0000
,
0002
3003
0000
2002
,
0000
3003
0000
0000
,
0000
0000
0000
1100
,
0002
0013
2000
3100
,
0001
1000
0100
0000
0001
1000
0100
0000
,
0020
0032
2003
3010
,
0001
1000
0100
0000
0001
1000
0100
0000
,
2000
3100
0020
0031
,
0001
1000
0100
0000
0001
1000
0100
0000
,
0020
0032
0203
0310
,
0001
1000
0100
0000
0001
1000
0100
0000
,
0002
1003
0020
0130
,
0001
0100
1000
0000
0001
0100
1000
0000
,
0002
0023
0230
1300
,
0001
0100
1000
0000
0001
0100
1000
0000
,
0020
2030
3002
0013
,
0001
0100
1000
0000
0001
0100
1000
0000
,
0002
0023
0230
2300
,
3000
0000
0001
0100
1000
0000
0001
0100
,
2000
0001
3002
1000
,
2003
0100
0100
0100
,
3200
0010
0320
0001
,
0032
1000
1000
1000
,
2003
0010
3020
0100
,
0230
0001
0001
0001
,
0302
1000
2003
0100
,
3200
0010
0010
0010
,
0320
0001
0032
1000
2003
0010
0010
0010
,
3020
0100
0230
0001
0302
1000
2003
0100
,
3200
0010
0320
0001
0032
1000
2003
0010
,
3010
0100
0001
0010
0100
1000
0001
0100
,
2000
3002
2003
3002
,
2003
3002
2003
3001
,
0001
0100
0010
0000
1000
0100
0010
0000
,
0001
1001
0001
0011
,
1000
1010
1000
1001
,
0020
0030
1001
0100
,
0011
0100
0010
1000
,
0000
0000
0000
0001
,
0001
1000
1000
0001
,
0001
1000
1000
0010
,
1000
0010
1000
0001
,
1000
0100
0000
0001
,
0100
1000
0100
0010
,
0010
0001
0001
1000
,
1000
0100
0100
0001
,
1000
0100
0000
0010
,
0010
0000
0001
1000
0000
0000
0001
0000
,
0001
0000
0010
0100
0000
0000
1000
0000
,
1000
0000
0001
0100
0000
0000
1000
0000
,
0100
0000
0001
1000
0000
0000
0010
0000
,
0001
0000
1000
0100
0000
0000
0001
0000
,
0001
0000
1000
0100
0000
0000
0010
0000
,
0001
0000
0100
0010
0000
0000
1000
0000
,
0001
0000
0010
0100
0000
0000
0002
0000
,
1003
0000
0001
1000
0000
0000
0020
0000
,
0130
0000
0010
0100
0000
0000
2000
0000
,
3001
0000
1000
0001
0000
0000
0200
0000
,
0310
0000
0100
0010
0000
0000
0020
0000
,
0031
0000
1000
0100
0000
0000
0020
0000
,
1030
0000
0001
0100
0000
0000
0020
0000
,
0031
0000
1000
0100
0000
0000
0020
0000
,
1030
0000
0001
0100
0000
0000
0001
0000
,
1000
0000
0001
1000
0001
0000
0100
0000
,
0010
0000
0100
0010
0100
0000
0001
0000
,
1000
0000
0100
0010
0100
0000
1000
0000
,
0001
0000
0100
0010
0100
0000
0001
0000
,
0100
0000
1000
0100
0010
0000
1000
0000
,
0100
0000
0001
0100
0010
0000
0001
0000
,
0100
0000
1000
0100
0010
0000
1000
0000
,
0100
0000
0001
0100
0010
0000
2002
0000
,
0000
0000
0000
0000
,
0000
3003
0000
0001
,
0001
1000
1000
0010
,
0010
0000
0100
0000
0100
0000
0001
1000
,
0001
0000
1000
0001
1000
0000
0001
1000
,
0001
0110
0000
0010
,
0010
0010
0010
0100
,
0100
0100
0100
0010
,
0010
0100
0100
2002
,
0000
0000
3003
1000
,
0000
0000
1000
0000
0000
1000
0000
0000
0000
1000
0000
0000
1000
0000
0000
0000
,
1000
1000
0001
0001
,
1000
1000
0001
0001
,
0010
0100
0010
0100
,
0001
0002
1000
0103
,
0001
0001
0100
0002
,
1000
1003
0100
2000
,
0001
3100
1000
0100
,
0001
1000
0200
0000
,
0320
0000
1030
1000
,
0100
0000
0001
0100
,
1000
0000
0100
0100
,
0010
0000
0000
0000
0001
1000
0100
0000
,
0002
0103
2000
3100
,
0002
0000
0103
0000
1000
0100
0010
0000
,
0002
0103
2000
3100
,
0002
0000
0103
0000
0001
1000
0100
0000
,
0000
0000
0000
0010
,
0001
0100
1000
0020
,
0000
0000
0000
0030
,
0000
0000
0000
0000
,
0000
0000
0000
0000
0000
0000
0010
1000
,
0100
0000
0010
0001
0100
0000
0010
1000
,
0100
0000
0010
0001
0100
0000
1000
0100
,
0001
1000
0002
2000
,
3003
0000
1100
0000
0101
0000
0001
0100
,
1000
0000
0001
0100
1000
0000
1000
0100
,
0001
0000
1000
0100
0001
0000
0001
0100
,
1000
0001
2000
0002
,
3003
0000
0101
0000
1100
0000
0001
0100
,
0001
0000
1000
0100
1000
0000
0001
0100
,
0001
1001
0000
2000
,
3000
0000
0002
0000
0003
0000
1000
0100
,
0001
0000
0101
0000
0000
0000
0010
0001
,
0010
0000
0100
1000
0100
0000
0010
0001
,
0010
1200
0000
1000
,
0000
1000
0000
1000
,
0000
0000
1300
0000
0000
0000
0010
1000
,
0100
0000
0001
0100
1000
0000
0010
1000
,
0100
0000
1000
0100
0001
0000
1000
0100
,
0001
1000
0002
2000
,
3003
0000
1100
0000
0101
0000
0010
0001
,
0100
0000
0001
0100
1000
0000
0010
1000
,
0100
0000
1000
0100
0001
0000
0001
0100
,
1000
0001
2000
0002
,
3003
0000
0101
0000
1100
0000
0001
0100
,
0001
0000
1000
0100
1000
0000
0001
0100
,
0001
1001
0000
2000
,
0000
0000
0002
0000
3003
0000
1000
0100
,
0001
0000
0101
0000
0000
0000
0010
0001
,
0010
0000
0100
1000
0100
0000
0010
1000
,
0010
2010
0000
0001
,
0000
3002
0000
1000
,
0000
1003
0000
0000
,
0010
1001
0100
1001
,
0100
0000
1001
0000
1000
0100
0001
0100
,
1000
1100
0000
0000
,
2000
0000
0200
0000
3300
0000
0010
1000
,
0100
0000
1000
0100
0001
0000
0010
0001
,
0100
0000
0001
0100
1000
0000
1000
0100
,
0001
1000
0002
2000
,
3003
0000
1100
0000
0101
0000
0010
0001
,
0100
0000
0010
1000
0100
0000
0010
0001
,
0100
0000
1000
0100
0001
0000
0001
0100
,
1000
0001
2000
0002
,
3003
0101
1100
0000
,
0000
0000
0000
0020
,
0030
0000
0100
0001
0100
0000
0020
0000
,
0030
0000
0100
1000
0100
0000
0002
0000
,
0003
0000
0010
0100
1000
0000
0002
0000
,
0003
0000
0100
0010
1000
0000
0200
0000
,
0300
0000
0010
0001
0010
0000
0200
0000
,
0300
0000
1000
0010
1000
0000
0002
0000
,
0003
0000
0100
0010
2000
0000
0002
0000
,
0000
0000
3003
0010
,
0010
0000
0100
0001
0100
0000
1000
0000
,
1000
0000
0010
0100
0010
0000
1000
0000
,
1000
0000
0100
0001
0100
0000
1000
0000
,
1000
0000
0010
0100
0001
1000
0100
0000
,
0010
0000
0001
0100
0010
0000
1000
0000
,
0100
0000
0001
0100
1000
0000
0010
0000
,
0100
0000
0001
0010
0100
0000
2000
0000
,
0000
0000
3000
0010
,
1000
0010
1000
0001
,
0100
0001
0100
0010
,
0100
0001
0100
0001
,
0010
0100
1000
0010
,
1000
0010
1000
0001
,
0100
0001
0100
0010
,
0100
1000
0100
0010
,
1000
0100
0002
0100
,
0100
0100
0203
1000
,
1000
1000
1300
0010
,
1000
0010
0100
0001
,
0020
0000
0000
0001
,
0001
0001
0032
0100
,
0100
0100
0103
0010
,
1000
0010
0100
0002
,
0000
0000
0000
0000
0003
0000
1000
0100
,
1000
0000
0002
0000
0103
0000
0001
0100
,
0001
0000
0020
0000
0130
0000
0010
0100
,
0010
0002
1003
1001
,
1001
0000
0200
0000
0300
0000
0010
1000
,
0010
0000
0200
0000
0301
0000
0010
0001
,
0010
0000
0200
0000
1300
0000
0010
1000
,
0010
0200
0302
2000
,
0000
0000
3003
0010
,
0010
0000
0100
1000
0100
0000
0001
0000
,
0001
0000
0010
0100
0010
0000
0001
0000
,
0001
0000
0100
0010
0100
0000
0001
0000
,
0001
0000
0010
0100
1000
0001
0100
0000
,
0010
0000
1000
0100
0010
0000
0001
0000
,
0100
0000
1000
0100
0001
0000
0010
0000
,
0100
0000
1000
0010
0100
0000
0001
0000
,
0010
0000
0100
1000
0010
0200
0001
0000
,
0001
0001
0001
0001
,
0001
0001
0301
2000
,
3001
0000
0100
1000
0100
0000
0001
0000
,
0001
0000
1000
0010
2000
0002
0000
3003
;

//---------------dance-single - ----------------
#NOTES:
     dance-single:
     :
     Hard:
     8:
     0.571,0.966,0.105,0.340,0.190: // measure 1
0000
0000
0000
0000
,  // measure 2
0000
0000
0000
0000
,  // measure 3
0000
0000
0000
0000
,  // measure 4
0000
0000
0000
0000
0000
0000
0000
0000
0000
0000
0000
0000
0000
0000
0000
0010
,  // measure 5
1000
0000
0010
0100
0001
1000
0000
1001
,  // measure 6
0000
0000
0200
0000
0000
0000
0000
0000
0300
0000
0000
0000
0000
0000
0000
0010
,  // measure 7
0001
0000
0100
0010
1000
0001
0000
0200
,  // measure 8
0000
0000
0300
0000
,  // measure 9
0100
1000
0010
1000
0100
0000
0000
0000
,  // measure 10
0010
0001
0010
0000
0011
0000
0000
0000
,  // measure 11
0001
0100
0010
0000
2000
0000
3100
0000
,  // measure 12
0010
0001
0100
0001
0010
0000
0000
0000
,  // measure 13
0011
0101
1001
0000
,  // measure 14
0100
1000
0010
1000
0100
0000
0000
0000
,  // measure 15
1001
0000
1001
0000
1000
0100
1000
0001
,  // measure 16
0100
0001
1000
0100
1000
0000
0000
0000
,  // measure 17
0010
0001
0100
0001
0010
0000
0000
0000
,  // measure 18
0001
0010
0100
0000
0101
0000
0000
0000
,  // measure 19
0001
0002
0103
0200
,  // measure 20
0302
0000
1003
0000
,  // measure 21
0010
0100
1000
0100
0010
0000
0000
0000
,  // measure 22
0001
0010
0100
0010
0001
0000
0000
0000
,  // measure 23
0002
0000
2000
3000
,  // measure 24
0020
0000
0000
0000
0030
0000
0000
0000
0200
0000
0000
0000
0303
0000
0000
0010
,  // measure 25
1000
0000
0010
0100
0001
1000
0000
1001
,  // measure 26
0000
0000
0200
0000
0000
0000
0000
0000
0300
0000
0000
0000
0000
0000
0000
0010
,  // measure 27
1000
0000
0010
0100
0010
1000
0000
0200
,  // measure 28
0000
0000
0000
0000
0000
0000
0000
0000
0300
0000
0000
0000
0000
0000
0000
0001
,  // measure 29
1000
0000
0010
1000
0001
0100
0000
1001
,  // measure 30
0000
0200
0000
0000
0300
0000
0000
0000
,  // measure 31
0002
0000
2000
3000
,  // measure 32
0200
0000
0000
0000
0300
0000
0000
0000
0020
0000
0000
0000
0033
0000
0000
0010
,  // measure 33
0001
0000
1000
0100
0010
0001
0000
1100
,  // measure 34
0000
0000
0002
0000
0000
0000
0000
0000
0003
0000
0000
0000
0000
0000
0000
0100
,  // measure 35
1000
0000
0001
0010
0100
1000
0000
0002
,  // measure 36
0000
0000
0000
0000
0000
0000
0000
0000
0003
0000
0000
0000
0000
0000
0000
0001
,  // measure 37
0100
0000
0010
0100
0001
1000
0000
0011
,  // measure 38
0000
0200
0000
0000
0300
0000
0000
0000
,  // measure 39
2000
0000
0002
0003
,  // measure 40
0200
0300
0020
3030
,  // measure 41
1000
0100
0010
0100
1000
0100
0010
0000
,  // measure 42
0011
0011
0101
0101
,  // measure 43
0001
0010
0100
0010
0001
0010
0100
1000
,  // measure 44
0010
0100
1000
0100
0010
0100
1000
0000
,  // measure 45
1001
1001
0011
0011
,  // measure 46
0100
0010
0100
0001
0100
1000
0100
0000
,  // measure 47
0010
0001
1000
0010
0100
0000
0002
0000
,  // measure 48
2000
0000
0000
3003
,  // measure 49
0010
0000
0000
0100
0010
0000
0000
0100
0010
0000
0000
0100
0010
0000
0000
0100
,  // measure 50
0000
0000
0000
0000
,  // measure 51
0001
1000
0100
0010
0001
0100
0010
0000
,  // measure 52
2000
0000
0000
0000
3001
0100
0000
0000
0020
0000
0000
0000
1030
0100
0000
0000
,  // measure 53
0010
0001
0100
0010
1000
0001
0010
0000
,  // measure 54
0200
0000
0000
0000
1300
0001
0000
0000
0200
0000
0000
0000
0310
1000
0000
0000
,  // measure 55
0100
0010
0001
0100
0010
1000
0001
0000
,  // measure 56
0020
0000
0000
0000
0130
1000
0000
0000
0002
0000
0000
0000
0103
0010
0000
0000
,  // measure 57
1000
0001
0010
0100
1000
0001
0100
0000
,  // measure 58
0020
0000
0000
0000
1030
0001
0000
0000
0020
0000
0000
0000
0130
1000
0000
0000
,  // measure 59
0010
0100
0001
0010
0100
1000
0001
0000
,  // measure 60
0200
0000
0000
0000
0310
1000
0000
0000
0200
0000
0000
0000
0310
0001
0000
0000
,  // measure 61
1000
0100
0010
0001
1000
0010
0100
0000
,  // measure 62
0002
0000
0000
0000
0013
0100
0000
0000
2000
0000
0000
0000
3010
0100
0000
0000
,  // measure 63
0001
0010
0100
1000
0001
0010
0100
0000
,  // measure 64
2000
0000
0000
0000
3001
0100
0000
0000
0020
0000
0000
0000
1030
0001
0000
0000
,  // measure 65
0100
0010
1000
0001
0010
0100
1000
0000
,  // measure 66
0002
0000
0000
0000
0103
0010
0000
0000
2000
0000
0000
0000
3001
0100
0000
0000
,  // measure 67
0010
1000
0100
0010
0001
0010
0100
1000
,  // measure 68
0000
0001
0100
0010
1000
0001
0010
0000
,  // measure 69
0100
1000
0100
0010
0001
1000
0010
0100
,  // measure 70
0000
0001
1000
0100
0010
0001
0100
0000
,  // measure 71
0010
1000
0001
0010
0001
0100
0010
1000
,  // measure 72
0000
0001
0100
0010
1000
0001
0010
0000
,  // measure 73
0100
1000
0001
0100
0010
1000
0100
1000
,  // measure 74
0000
0001
0100
0010
1000
0100
0010
0000
,  // measure 75
0001
1000
0100
1000
0001
0100
0010
1000
0000
0001
0010
0100
1000
0001
0100
0000
,  // measure 76
0010
1000
0100
0010
0001
1000
0001
0100
0000
0010
1000
0100
0010
0001
0100
0000
,  // measure 77
0010
1000
0010
0100
0001
0010
0001
0100
0000
0010
1000
0001
0010
0100
1000
0000
,  // measure 78
0001
0100
0010
1000
0001
0010
0100
1000
0000
0001
0010
0100
1000
0010
0100
0000
,  // measure 79
0002
2003
3002
2003
,  // measure 80
3001
0000
0000
0001
1000
0000
0000
1000
0001
0000
0000
0001
1000
0000
0000
0000
,  // measure 81
0010
0000
0000
0100
0001
0000
0000
0010
0100
0000
0000
1000
0010
0000
0000
0100
,  // measure 82
0001
0000
0000
1000
0001
0000
0000
1000
0001
0000
0000
1000
0001
0000
0000
1000
,  // measure 83
0010
0000
0000
0100
0010
0000
0000
0100
0010
0000
0000
0100
0010
0000
0000
0100
,  // measure 84
0001
0000
1000
0000
0000
0000
0000
0000
0001
1000
0000
0000
0001
1000
0000
0000
,  // measure 85
0001
1000
0000
0000
0001
0010
0000
0000
0010
0100
0000
0000
0100
1000
0000
0000
,  // measure 86
1000
0000
0000
0010
,  // measure 87
0010
0000
0010
0001
0100
0000
2000
0000
,  // measure 88
3100
0000
0001
0100
0010
0000
2000
0000
,  // measure 89
3100
0000
0010
0001
1000
0000
0002
0000
,  // measure 90
0103
0000
0001
1000
0100
0000
0020
0000
,  // measure 91
0000
0031
0000
1000
0100
0000
0002
0000
,  // measure 92
0000
1003
0000
0001
0100
0000
0020
0000
,  // measure 93
0000
1030
0000
1000
0100
0000
0020
0000
,  // measure 94
0000
0002
0000
0033
0000
0000
0010
0001
,  // measure 95
1000
0100
0000
0001
0100
0000
0010
1000
,  // measure 96
0100
1000
0000
0001
0010
0000
0100
1000
,  // measure 97
0001
0100
0000
0010
1000
0000
0100
0010
,  // measure 98
0001
0100
0000
1000
0100
0000
0001
1000
,  // measure 99
0001
1000
0010
1000
0100
0000
1000
0100
,  // measure 100
1000
0100
0010
0001
0100
0000
0001
0100
,  // measure 101
0001
0100
0010
1000
0100
0000
1000
0001
,  // measure 102
1000
0001
0000
0100
0010
0000
0020
0000
,  // measure 103
0000
1000
0000
1030
0000
0000
0002
0000
,  // measure 104
0000
0100
0000
0103
0000
0000
0020
0000
,  // measure 105
0000
1000
0000
0130
0000
0000
0020
0000
,  // measure 106
0000
0001
0000
0130
0000
0000
1000
0100
,  // measure 107
1000
0002
0000
0103
0000
0000
0001
1000
,  // measure 108
0100
0020
0000
0031
0000
0000
0001
1000
,  // measure 109
0001
0200
0000
0310
0000
0000
0001
0100
,  // measure 110
0001
2000
0000
3100
0000
0000
0010
0001
,  // measure 111
0100
0010
1000
0100
0010
0000
0001
1000
,  // measure 112
0100
0010
0001
0100
0010
0000
0010
1000
,  // measure 113
0001
0100
0010
1000
0001
0000
0010
0001
,  // measure 114
1000
0100
0010
0001
0100
0000
0001
0000
,  // measure 115
0002
1000
2003
0100
,  // measure 116
3200
0010
0320
0002
,  // measure 117
0030
1000
0000
0010
,  // measure 118
1000
0103
0000
0002
,  // measure 119
0000
2003
0000
0000
3200
0000
0000
0302
,  // measure 120
0000
0000
0103
0000
0000
0000
0001
1000
,  // measure 121
0001
0000
1000
0001
1000
0000
0010
0100
,  // measure 122
0010
0000
0100
0010
0100
0000
0001
1000
,  // measure 123
0100
0000
1000
0001
0100
0000
0001
1000
,  // measure 124
0100
0000
1001
0000
0000
0000
0010
1000
,  // measure 125
0200
0000
1000
1000
1300
0000
0010
0001
,  // measure 126
0200
0000
0001
0001
0301
0000
1000
0001
,  // measure 127
0200
0000
0000
0000
0000
0000
0010
0000
0000
0010
0000
0000
0310
0000
0000
0000
0000
0000
0100
0000
0000
0000
0100
0000
,  // measure 128
0000
0100
0000
0000
0000
0000
0000
0000
0000
0000
0000
0000
0010
0010
0000
0000
,  // measure 129
0000
0000
1000
1000
0000
0100
0100
0000
0000
0001
0001
0000
0100
0100
0000
0000
,  // measure 130
2000
0000
3100
0000
0001
0100
0001
0000
,  // measure 131
0002
0000
0103
0000
1000
0100
1000
0000
,  // measure 132
2000
0000
3100
0000
0001
0100
0001
0000
,  // measure 133
0002
0000
0103
0000
1000
0100
2000
0000
,  // measure 134
0010
0000
3010
0000
0010
1000
0200
0000
,  // measure 135
0001
0000
0301
0000
0001
1000
0200
0000
,  // measure 136
1000
0000
1300
0000
1000
0001
0100
0000
,  // measure 137
0001
1000
0010
1000
0001
1000
0100
0000
,  // measure 138
0002
0000
0003
0000
0010
1000
0100
0000
,  // measure 139
2000
0000
3000
0000
0010
0001
0100
0000
,  // measure 140
0020
0000
0030
0000
0001
1000
0010
0000
,  // measure 141
0200
0300
0001
1000
,  // measure 142
0100
0100
0100
0100
,  // measure 143
0100
0100
0100
0100
,  // measure 144
0100
0100
0100
0100
,  // measure 145
0100
0000
0100
0000
0100
0100
0100
0000
,  // measure 146
0000
0000
0000
0000
0020
0000
0031
0010
,  // measure 147
1000
2000
0000
3000
0001
0100
2000
0000
,  // measure 148
3001
0000
0000
0000
1000
0100
0000
0000
0001
0100
0000
0000
0000
0000
0000
0000
,  // measure 149
0000
0000
0000
0000
,  // measure 150
0000
0000
0000
0000
0000
0000
1000
0100
,  // measure 151
0001
0100
1000
0010
1000
0100
0001
0000
,  // measure 152
0001
0100
0000
0000
0000
0000
0001
0010
,  // measure 153
1000
2000
0000
3000
0001
0100
2000
0000
,  // measure 154
3001
0000
0000
0000
1000
0100
0000
0000
0001
0100
0000
0000
0010
0000
1000
0000
,  // measure 155
0001
0100
1000
0100
0001
0100
1000
0000
,  // measure 156
1000
0100
0000
0000
0000
0000
1000
0010
,  // measure 157
0001
0002
0000
0003
1000
0100
0002
0000
,  // measure 158
1003
0000
0000
0000
0001
0100
0000
0000
1000
0100
0000
0000
0020
0000
0000
0000
,  // measure 159
0130
1000
0010
0100
0001
0010
0100
1000
,  // measure 160
0010
0100
0002
0000
0003
0000
0202
0000
,  // measure 161
0303
0000
1100
0000
0001
0010
1000
0010
,  // measure 162
0001
0100
1000
0000
0100
0010
1000
0100
,  // measure 163
0010
0001
0100
0010
1000
0100
0010
0001
,  // measure 164
0100
0010
1000
0000
0010
1000
0200
0000
,  // measure 165
0001
0000
0001
0000
0301
0000
0001
0100
,  // measure 166
2000
0000
0000
0000
3000
0000
1000
0100
,  // measure 167
0001
0100
1000
0010
1000
0100
0001
0000
,  // measure 168
0001
0100
0000
0000
0000
0000
1000
0010
,  // measure 169
0001
0002
0000
0003
1000
0100
0002
0000
,  // measure 170
1003
0000
0000
0000
0001
0100
0000
0000
1000
0100
0000
0000
0001
0000
0100
0000
,  // measure 171
1000
0010
0001
0010
1000
0100
0001
0100
,  // measure 172
1000
0010
0001
0010
1000
0100
0001
0100
,  // measure 173
1000
0020
0000
0030
1000
0100
0002
0000
,  // measure 174
1003
0000
0000
0000
0001
0100
0000
0000
1000
0100
0000
0000
0020
0000
0000
0000
,  // measure 175
0130
1000
0010
0100
0001
0010
0100
1000
,  // measure 176
0010
0100
0002
0000
0003
0000
0202
0000
,  // measure 177
0303
0000
1100
0000
1000
0010
0001
0010
,  // measure 178
1000
0100
0001
0000
0100
0010
0001
0100
,  // measure 179
0010
1000
0100
0010
0001
0100
0010
1000
,  // measure 180
0100
0010
0001
0000
0010
0001
0100
0000
,  // measure 181
1000
0100
0001
0000
0001
0100
1000
0100
,  // measure 182
0001
0000
0000
0000
,  // measure 183
0010
2100
3100
0012
,  // measure 184
0013
0000
1001
1000
0100
0001
0100
1000
,  // measure 185
0100
1000
0000
0000
,  // measure 186
0020
0000
0200
0000
0330
0000
1000
0100
,  // measure 187
0001
0100
1000
0010
1000
0100
0001
0000
,  // measure 188
0001
0100
0000
0000
0000
0000
0001
0010
,  // measure 189
1000
2000
0000
3000
0001
0100
2000
0000
,  // measure 190
3001
0000
0000
0000
1000
0100
0000
0000
0001
0100
0000
0000
1000
0000
0100
0000
,  // measure 191
0001
0010
1000
0010
0001
0100
1000
0100
,  // measure 192
0001
0010
1000
0010
0001
0100
1000
0100
,  // measure 193
0001
0020
0000
0030
0001
0100
2000
0000
,  // measure 194
3001
0000
0000
0000
1000
0100
0000
0000
0001
0100
0000
0000
0000
0000
0000
0000
,  // measure 195
0000
0000
0000
0000
0000
0000
0000
0000
0000
0000
0000
0000
0010
0000
0000
1000
,  // measure 196
0000
0000
0020
0000
0000
0000
0000
0000
0130
0000
0000
0000
0001
0000
0000
0010
,  // measure 197
0000
0000
0002
0000
0000
0000
0000
0000
1003
0000
0000
0000
0010
0000
0000
1000
,  // measure 198
0000
0000
0020
0000
0000
0000
0000
0000
0130
0000
0000
0000
0001
0000
0000
0010
,  // measure 199
0000
0000
0002
0000
0000
0000
0000
0000
1003
0000
0000
0000
0010
0000
0000
1000
,  // measure 200
0000
0000
0200
0000
0000
0000
0000
0000
0310
0000
0000
0000
0001
0000
0000
0100
,  // measure 201
0000
0000
0020
0000
0000
0000
0000
0000
1030
0000
0000
0000
0100
0000
0000
0010
,  // measure 202
0000
0002
0000
0000
0103
0000
0220
0000
,  // measure 203
0000
0000
0000
0000
0000
0000
0000
0000
0330
0000
0000
0000
0010
0000
0000
1000
,  // measure 204
0000
0000
0010
0000
0000
1000
0000
0000
0100
0000
1000
0000
0001
0000
0000
0010
,  // measure 205
0000
0000
0001
0000
0000
0010
0000
0000
0100
0000
0010
0000
0001
0000
0000
0100
,  // measure 206
0000
0000
0010
0000
0000
0100
0000
0000
1000
0000
0100
0000
0001
0000
0000
0010
,  // measure 207
0000
0000
0100
0000
0000
1000
0000
0000
0001
0000
0100
0000
0010
0000
0000
1000
,  // measure 208
0000
0000
0010
0000
0000
1000
0000
0000
0100
0000
0010
0000
0001
0000
0000
1000
,  // measure 209
0000
0000
0001
0000
0000
0000
1000
0000
0010
0000
0100
0000
0001
0000
0000
0010
,  // measure 210
0000
0000
0100
0000
0000
0010
0000
0000
0001
0000
0100
0000
1000
0000
0000
0000
,  // measure 211
0000
0000
0000
0000
0000
0000
0100
0001
,  // measure 212
0100
0001
0100
0001
0100
0001
0100
0010
,  // measure 213
0100
0010
0100
0010
0100
0010
0100
1000
,  // measure 214
0100
1000
0100
1000
0100
1000
0100
0001
,  // measure 215
0010
0000
0100
1000
0010
0000
0100
1000
,  // measure 216
0100
1000
0100
1000
0100
1000
0100
0010
,  // measure 217
0100
0010
0100
0010
0100
0010
0100
0001
,  // measure 218
0100
0001
0100
0001
0100
0001
0100
0010
,  // measure 219
1000
0000
0000
0000
0100
0000
0010
0000
0001
0000
0000
0000
1000
0000
0100
1000
,  // measure 220
0100
0000
0000
0000
0010
0000
0001
0010
0001
0000
0000
0000
0100
0000
1000
0100
,  // measure 221
1000
0000
0000
0000
0100
0000
0001
0100
0001
0000
0000
0000
1000
0000
0000
0000
,  // measure 222
1000
0000
0100
0000
0010
0000
0001
0100
,  // measure 223
1000
0000
0000
0000
0100
0000
0000
0000
0001
0000
0000
0000
1000
0000
1000
0100
,  // measure 224
1000
0000
0000
0000
0100
0000
0100
0010
0100
0000
0000
0000
1000
0000
1000
0001
,  // measure 225
0100
0000
0000
0000
0010
0000
0010
1000
0001
0000
0000
0000
1000
0000
0000
0000
,  // measure 226
1000
0100
0010
0001
,  // measure 227
0000
0000
0000
0000
0000
0000
1000
0010
,  // measure 228
1000
0001
1000
0100
0010
0001
0100
1000
,  // measure 229
0100
0010
0100
0001
0010
0100
1000
0010
,  // measure 230
1000
0001
1000
0100
0010
0001
0011
0000
,  // measure 231
1001
0000
0101
0000
0010
0000
1000
0100
,  // measure 232
1000
0001
1000
0010
0100
0001
0010
0100
,  // measure 233
0010
0001
1000
0010
0100
0010
0100
1000
,  // measure 234
0100
0010
0100
0001
1000
0000
1001
0000
,  // measure 235
0010
0000
0010
0000
1000
0000
0100
0000
1000
0000
0000
0000
0010
0000
0000
1000
,  // measure 236
0000
0000
0010
0000
0000
1000
0000
0000
0100
0000
1000
0000
0001
0000
0000
0010
,  // measure 237
0000
0000
0001
0000
0000
0010
0000
0000
0100
0000
0010
0000
0001
0000
0000
0100
,  // measure 238
0000
0000
0010
0000
0000
0100
0000
0000
1000
0000
0100
0000
0001
0000
0000
0010
,  // measure 239
0000
0000
0100
0000
0000
1000
0000
0000
0001
0000
0100
0000
0010
0000
0000
1000
,  // measure 240
0000
0000
0010
0000
0000
1000
0000
0000
0100
0000
0010
0000
0001
0000
0000
1000
,  // measure 241
0000
0000
0001
0000
0000
0000
1000
0000
0010
0000
0100
0000
0001
0000
0000
0010
,  // measure 242
0000
0000
0100
0000
0000
0010
0000
0000
0001
0000
0100
0000
1000
0000
0000
0100
,  // measure 243
0000
0000
0001
0000
0000
1000
0000
0000
0100
0000
0020
0000
0001
0000
0000
0000
,  // measure 244
0001
0000
0001
0030
0001
2000
0010
0000
,  // measure 245
0010
0000
0010
3000
0010
0100
0110
0000
,  // measure 246
0110
0000
1010
0000
1001
0100
0101
0000
,  // measure 247
0110
0000
1000
0010
0100
0002
0000
0003
;
