#TITLE:Beach Party Mix;
#SUBTITLE:(DDR SOLO 2000);
#ARTIST:baconman;
#TITLETRANSLIT:;
#SUBTITLETRANSLIT:;
#ARTISTTRANSLIT:;
#CREDIT:;
#BANNER:DDRSOLO.png;
#BACKGROUND:;
#LYRICSPATH:;
#CDTITLE:./CDTITLES/DANCE DANCE REVOLUTION SOLO.PNG;
#MUSIC:DDRSOLO.mp3;
#OFFSET:-0.050;
#SAMPLESTART:73.890;
#SAMPLELENGTH:20.000;
#SELECTABLE:YES;
#BPMS:0.000=134.000,160.000=140.000,176.000=145.000,192.000=150.000,304.000=145.000,324.000=140.000,338.000=137.000,486.000=142.000,688.000=144.100;
#STOPS:;
#BGCHANGES:;

//---------------dance-single - ----------------
#NOTES:
     dance-single:
     :
     Easy:
     2:
     0.268,0.409,0.143,0.206,0.000:
0000
0000
0000
0000
,
0000
0000
0000
0000
,
0000
0000
0000
0000
,
0000
0000
0000
0000
,
0010
0000
0000
0000
,
0000
0000
0000
0000
,
0100
0000
0000
0000
,
0000
0000
0000
0000
,
1000
0000
0000
0000
,
0001
0000
0000
0000
,
0001
0000
0001
0000
,
0001
0000
0001
0000
,
0002
0000
0003
0000
,
2000
0000
3000
0000
,
1000
0000
1000
0000
,
1000
0000
1000
0000
,
2000
0000
3000
0000
,
0200
0000
0300
0000
,
0001
0000
0000
0000
,
1000
0000
0000
0000
,
0010
0000
0000
0000
,
0010
0000
0000
0000
,
0001
0000
0000
0000
,
0100
0100
0100
0000
,
0100
0000
0000
0000
,
0001
0000
0000
0000
,
0020
0000
0000
0000
,
0031
0000
0000
0000
,
0001
0000
1000
0000
,
0001
0000
1000
0000
,
0001
0001
0001
0000
,
0100
0100
0100
0000
,
2000
0000
3000
0000
,
0020
0000
0030
0000
,
0001
0001
0001
0000
,
0001
0001
0001
0000
,
0001
0000
0001
0000
,
0010
0000
0010
0000
,
1000
1000
1000
0000
,
1000
1000
1000
0000
,
0002
0000
0000
0003
,
0020
0000
0000
0030
,
2000
0000
0000
3000
,
0200
0000
0000
0300
,
0010
0000
0100
0000
,
0001
0000
1000
0000
,
0010
0000
0100
0000
,
0001
0000
1000
0000
,
0001
1000
0001
1000
,
0001
1000
0001
0000
,
0010
0100
0010
0100
,
1001
1001
0110
0000
,
1000
0001
1000
0001
,
1000
0001
1000
0000
,
0010
0100
0010
0100
,
1001
1001
0110
0000
,
0002
0003
0200
0300
,
0020
0030
2000
3000
,
0001
1000
0001
1000
,
0100
0100
0100
0100
,
2000
3000
0002
0003
,
0010
0100
0010
0010
,
0002
0003
2000
3000
,
0100
0010
0100
0100
,
0020
0030
0200
0300
,
1000
0001
1000
0001
,
0200
0300
0020
0030
,
1000
0001
1000
0001
,
0010
0000
1000
0000
,
0100
0000
1000
0000
,
0010
0000
1000
0001
,
1000
0100
1000
0100
,
1000
0001
1000
0000
,
0100
0001
0100
0001
,
0100
0001
1000
0001
,
0010
0000
1000
0001
,
1000
0000
0100
0000
,
2000
0000
3002
0000
,
0203
0000
0302
0000
,
2003
0000
3002
0000
,
1003
1000
0001
0001
,
0010
0010
0100
0100
,
1000
0001
1000
0001
,
1000
0001
1000
0001
,
0110
0000
0000
0000
,
0010
0001
1000
0000
,
0010
0001
1000
0100
,
0001
0100
0010
1000
,
0100
0010
0001
0000
,
0010
1000
0001
0000
,
0010
1000
0001
0100
,
1000
0100
0002
0000
,
0003
0000
1000
0100
,
0001
0010
0100
0001
,
0010
0000
1000
0010
,
0100
0001
0010
1000
,
0010
0000
1000
0100
,
0001
0010
0100
0001
,
0010
0000
1000
0010
,
0100
0001
0010
1000
,
0100
0000
0020
0030
,
0200
0300
0001
0010
,
0100
0000
2000
3000
,
0020
0030
0002
0000
,
1003
0000
0002
0003
,
2000
3000
0001
0010
,
0100
0000
2000
3000
,
0020
0030
0002
0000
,
0013
0000
0001
0000
,
2000
3000
0001
0100
,
0001
0100
0010
1000
,
0001
0000
1000
0100
,
1000
0100
0010
0001
,
1000
0000
1000
0100
,
0001
0010
0100
0001
,
0010
0000
1000
0010
,
0100
0001
0010
1000
,
0100
0000
0010
1000
,
0001
0100
0010
0001
,
0010
0000
1000
0010
,
0001
0010
0001
1000
,
0100
0000
2000
0000
,
3100
0000
2000
0000
,
3100
0000
0002
0000
,
0103
0000
0002
0000
,
0103
0000
2000
0000
,
3100
0000
0002
0000
,
0103
0000
2000
0000
,
3010
0000
0002
0000
,
0013
0000
1000
0000
,
0000
0000
1000
0100
,
0010
0000
0001
0100
,
0010
0000
1000
0100
,
0010
0000
1001
0110
,
1001
0000
0001
0100
,
0010
0000
1000
0100
,
0010
0000
0001
0100
,
0010
0000
1001
0110
,
1001
0000
0200
0000
,
0300
0000
0020
0000
,
0030
0000
2000
0000
,
3000
0000
0001
0010
,
0001
0000
2000
0000
,
3000
0000
0200
0000
,
0300
0000
0020
0000
,
0030
0000
1000
0010
,
1000
0000
0002
0000
,
0013
0000
0002
0000
,
0103
0000
0020
0000
,
1030
0000
0002
0000
,
0013
0000
0200
0000
,
1300
0000
0002
0000
,
1003
0000
0002
0000
,
0013
0000
0002
0000
,
0103
0000
0020
0000
,
0030
0000
1000
0100
,
0010
0000
0001
0100
,
0010
0000
1000
0010
,
0001
0000
0110
1001
,
0110
0000
0001
0010
,
0100
0000
1000
0010
,
0100
0000
0001
1000
,
0100
0000
1001
0110
,
1001
0000
0200
0000
,
0300
0000
0020
0000
,
0030
0000
2000
0000
,
3000
0000
0010
0100
,
0001
0000
2000
0000
,
3000
0000
0200
0000
,
0300
0000
0020
0000
,
0030
0000
0001
0010
,
1000
0000
1001
0100
,
1000
0100
0001
0100
,
1000
0100
0001
0010
,
1000
0010
0001
0100
,
1000
0110
0001
0010
,
1000
0100
0001
0010
,
1000
0100
0001
0010
,
1000
0100
0001
0000
,
0000
1001
1000
0100
,
1000
0110
0001
0010
,
0001
0110
1000
0010
,
0001
0010
1001
0110
,
1001
0000
0100
1000
,
0100
1001
0100
0001
,
0100
1001
1000
0010
,
0001
0010
1001
0110
,
1001
0000
0001
0001
,
0001
0001
0001
0001
,
0001
0000
1000
1000
,
1000
0000
0001
0001
,
0001
0000
1000
0010
,
0001
0010
1000
0010
,
0001
0010
2000
3000
,
0020
0030
0002
0003
,
0200
0300
0010
1001
,
0100
1001
0100
0110
,
0001
0110
1000
0010
,
0001
0110
0001
0010
,
1000
0110
1001
0010
,
0100
0110
1001
0010
,
0100
0110
1000
0100
,
0001
0010
1000
0000
,
0000
0110
1000
0001
,
0010
0110
0001
1000
,
0010
0110
0100
1000
,
0100
0100
0001
0010
,
0001
0001
1000
0010
,
0001
0100
1000
0010
,
0001
0100
1001
0110
,
1001
0110
1001
0110
,
1000
2001
0001
0001
,
0001
0001
3100
0000
;

//---------------dance-single - ----------------
#NOTES:
     dance-single:
     :
     Medium:
     5:
     0.394,0.468,0.190,0.347,0.000:
0000
0000
0000
0000
,
0000
0000
0000
0000
,
0000
0000
0000
0000
,
0000
0000
0000
0000
,
0002
0000
0003
0000
,
0020
0000
0030
0000
,
2000
0000
3000
0000
,
0010
0010
0010
0010
,
0001
0010
1000
0000
0002
0000
0003
0000
,
1000
0010
0001
0000
2000
0000
3000
0000
,
0010
0010
0010
0000
,
0001
1000
1001
0000
,
0001
1000
0100
0000
0002
0000
0003
0000
,
1000
0001
0100
0000
2000
0000
3000
0000
,
0001
0100
1000
0000
,
1000
0100
0001
0000
,
0020
0000
2030
0000
,
3001
0100
0010
1000
,
0020
0000
0230
0000
,
0301
0100
0010
1000
,
0002
0000
0203
0300
,
0100
0100
1000
1000
,
0020
0000
0032
0000
,
1003
0001
1000
0000
,
0002
0000
2003
0000
,
3100
0001
0100
1000
,
0020
0000
0032
0000
,
0013
1000
0100
0001
,
0020
0030
2000
3000
,
0002
0003
2000
3000
,
0001
0001
0001
0000
,
1000
0001
1000
0000
,
0001
0010
1000
0000
0002
0000
0003
0000
,
1000
0100
0001
0000
2000
0000
3000
0000
,
0010
0010
0020
0030
,
1000
0001
2000
3000
,
0001
1000
0001
0000
0200
0000
0300
0000
,
1000
0001
1000
0000
0200
0000
0300
0000
,
0010
0100
0002
0003
,
1000
0010
0200
0300
,
1000
0001
0100
0000
0010
0000
0000
0000
,
1000
0001
0010
0000
0100
0000
0000
0000
,
0010
2000
3100
0001
,
0001
0100
0020
1030
,
0010
0100
1000
0000
0001
0000
0000
0000
,
1000
0001
1000
0000
0100
0100
0100
0000
,
0001
1000
0001
1000
,
0100
0010
0001
0100
,
2000
3001
0200
0310
,
1000
0000
0010
0100
0010
0000
0000
0000
,
0100
0001
0100
0000
0001
0100
0001
0000
,
0110
0110
1001
0000
,
0002
1003
0200
0310
,
0001
0000
0010
0100
0010
0000
0000
0000
,
0100
0010
0100
0000
1000
0100
1000
0000
,
0110
0110
1001
0000
,
0010
1000
0020
0030
,
1000
0100
0020
0030
,
0001
1000
0100
0000
1000
0001
0100
0000
,
0210
0010
0010
0310
,
2000
3000
0001
0100
,
0020
0000
1030
0000
,
0002
0003
2000
3000
,
0200
0300
1000
0001
,
1000
0000
0001
1000
,
0002
0000
0023
0000
,
0230
0000
2300
3000
,
0110
0000
1010
0000
0101
0000
0010
0100
,
0010
0100
0010
0100
,
0010
1000
0100
0010
,
0100
0000
0010
0100
,
0010
0001
0100
0010
,
1000
0000
0001
0001
,
1000
1000
0001
1000
,
0001
0000
0010
0100
,
0010
0000
0010
0000
,
0010
0000
0100
0010
0000
0100
0010
0000
,
0100
0000
0010
0100
0000
0010
0100
0000
,
1000
0000
0001
1000
0000
0001
1000
0000
,
0001
0000
1000
0001
0000
1000
0001
1000
,
0100
0000
1000
0100
0000
0010
0100
0000
,
0010
0000
0001
1000
0000
0001
1000
0000
,
0010
0000
1000
0001
0000
1000
0001
0010
,
0100
0000
1000
0001
0000
1000
0001
1000
,
0001
0000
0001
0100
,
0001
1000
0000
0000
0001
0000
1000
0000
,
0010
0100
0000
0000
0001
0000
0010
0000
,
0100
1000
0002
0000
,
0003
0000
1000
0010
,
1000
0001
0000
0000
1000
0000
0001
0000
,
0100
0010
0000
0000
1000
0000
0100
0000
,
0010
0001
2000
0000
,
3000
0000
0000
0000
0010
0001
0010
0000
,
0001
0100
0010
0000
1000
0000
0001
0001
,
0000
0000
1000
0100
1000
0000
0010
0100
,
0000
0100
0000
0001
0000
1000
0000
0020
,
0000
0000
0030
0000
1000
0100
0010
0000
,
0001
0100
0010
0000
1000
0000
0001
0020
,
0000
0000
0030
0000
0000
0000
0100
0010
,
0001
0100
0010
1000
0000
0010
0000
0000
,
0000
0000
0100
0010
0100
0000
0010
0000
,
0100
0000
0010
0000
0001
0000
0001
1000
,
0000
0000
0002
0000
,
0013
0000
1000
0001
0000
0200
0000
0000
,
0300
0000
0010
0010
,
1000
0000
0100
0000
1000
0000
0010
1000
,
0000
0000
0001
1000
0100
0000
0000
1000
,
0010
0000
1000
1000
0000
0020
0000
0000
,
0000
0000
0030
0000
,
0001
0010
1000
0010
,
1000
0000
0100
0000
1000
0100
1000
0000
,
0001
0100
0001
0000
1000
0000
0100
0000
,
0010
0000
0001
0000
1000
0010
1000
0000
,
0001
0010
0001
0000
1000
0001
0100
0000
,
1000
0001
0100
0000
0001
0000
0100
0100
,
0000
0000
0001
0100
0001
0000
1000
0200
,
0000
2300
0000
3002
0000
0023
0000
0032
,
0000
0003
0000
0000
1000
0010
1000
0000
,
0001
0010
0001
0000
1000
0000
0100
0200
,
0000
0000
0300
0000
0000
0000
1000
0100
,
1000
0001
0010
0002
0000
0200
0000
0000
,
0000
0303
2000
3000
,
0001
0010
0001
0000
0020
0000
0030
0000
,
1000
0010
1000
0000
0200
0000
0300
0000
,
0010
0001
0010
0000
2000
0000
3200
0000
,
0320
0032
2003
3000
,
0001
0010
0001
0000
0020
0000
0030
0000
,
1000
0010
1000
0000
0200
0000
0300
0000
,
0010
0001
0010
0000
2000
0000
3000
0000
,
0100
0010
2002
0000
,
0000
3003
0020
0130
,
0010
0001
0100
0000
0002
0000
0103
0000
,
0010
1000
0100
0000
0002
0000
0103
0000
,
0010
1000
0010
0000
0001
0010
0001
0000
,
1000
0100
1000
0000
0002
0000
0013
0000
,
0100
1000
0001
0000
0200
0000
0310
0000
,
1000
0100
1000
0000
0002
0000
0103
0000
,
0010
1000
0010
0000
0001
0010
0001
0000
,
1000
0010
0100
0000
0001
0000
0100
0000
,
0010
0100
0001
1000
,
0100
0000
1000
0001
,
0010
0001
1000
0100
,
0020
0030
0001
0100
,
0010
0100
0001
1000
,
0100
0000
1000
0001
,
0010
0001
1000
0100
,
0020
0030
0002
0003
,
1000
0010
1000
0000
0002
0000
0003
0000
,
1000
0100
1000
0000
0002
0000
0003
0000
,
0010
0100
1000
0000
0002
0000
0203
0000
,
0320
2030
3002
0003
,
0100
0010
1000
0000
0200
0000
0300
0000
,
1000
0001
0010
0000
0200
0000
0300
0000
,
0001
1000
0010
0000
0200
0000
0300
0000
,
0001
1000
0220
0000
,
0000
0330
0002
0013
,
0100
1000
0100
0000
2000
0000
3010
0000
,
0100
0001
0100
0000
0002
0000
1003
0000
,
0100
0010
0001
0000
1000
0010
1000
0000
,
0001
0010
0001
0000
2000
0000
3100
0000
,
0010
0100
0010
0000
0002
0000
0103
0000
,
0010
1000
0010
0000
0002
0000
0013
0000
,
0100
1000
0001
0000
1000
0010
0100
0000
,
0001
0010
0100
0000
1000
0000
0001
0000
,
0100
0001
1000
0100
,
1000
0000
0001
1000
,
0010
0100
0001
1000
,
0002
0003
1000
0100
,
0010
0001
1000
0100
,
0010
0000
0001
0100
,
0010
1000
0100
1000
,
0020
0030
0010
1001
,
0100
1001
0010
0010
,
1001
0100
0010
0000
1000
0000
0110
0000
,
0001
0110
1000
1000
,
0110
0001
1000
0000
1000
0000
0011
0000
,
1000
0010
0001
0000
0001
0000
1010
0000
,
0001
0010
1000
0000
0002
0000
0013
0000
,
2000
3100
0220
0330
,
0110
1000
0001
0000
0010
0000
1100
0000
,
0010
1100
0010
0101
,
0010
0101
0011
1100
,
0011
1100
1001
0110
,
2002
3003
0010
0101
,
0010
0101
0010
1100
,
0010
1100
1010
0101
,
1010
0000
0101
0000
0010
1000
0001
0100
,
1000
0110
0002
0000
,
0000
0000
2003
0000
,
0000
0000
3020
0030
,
0020
0000
0100
0100
,
0100
0000
0130
0000
0001
0010
1000
0000
,
0001
0100
0001
0000
1000
0010
0001
0000
,
1000
0100
1000
0000
0010
0000
0010
0000
,
0010
0000
0020
0000
0200
0000
0000
0330
,
0000
1001
0110
0000
1000
0000
1000
0000
,
0001
0010
1000
0000
0001
0000
0001
0000
,
1000
0010
0001
0000
0100
0000
1010
0000
,
0100
0011
0002
0010
,
1003
0110
0001
0001
,
1000
0100
0001
0000
1000
0000
1000
0000
,
0001
0100
1000
0000
1100
0000
1001
0000
,
0011
0110
2002
3003
,
0110
1000
0001
0000
2000
0000
3100
0000
,
0002
0103
0101
1100
,
0101
1100
0002
0103
,
2000
3100
0101
1100
,
0101
1100
0010
0010
,
0010
1000
0100
0000
0010
0000
0010
0000
,
0010
0001
0010
0000
1100
0000
0011
0000
,
0101
1010
0110
1001
,
0110
1000
0002
0000
1000
0000
1000
0000
,
1000
1000
0103
0000
;

//---------------dance-single - ----------------
#NOTES:
     dance-single:
     :
     Hard:
     7:
     0.516,0.497,0.182,0.339,0.117: // measure 1
0000
0000
0000
0000
,  // measure 2
0000
0000
0000
0000
,  // measure 3
0000
0000
0000
0000
,  // measure 4
0000
0000
0000
0000
,  // measure 5
0010
0010
0010
0010
,  // measure 6
0001
0010
0001
0010
,  // measure 7
1000
1000
1000
1000
,  // measure 8
0001
0001
1000
0001
,  // measure 9
0001
0010
1000
0000
1000
0100
0001
0000
,  // measure 10
0001
0000
0010
1000
0001
1000
0100
0000
,  // measure 11
0010
0000
0000
0000
0010
0000
0000
0010
0000
0000
0100
0000
0000
0000
0001
0000
,  // measure 12
1000
0000
0000
0000
0100
0000
0000
1000
0000
0000
0001
0000
0000
0000
0000
0000
,  // measure 13
1000
0010
0001
0000
0001
0100
1000
0000
,  // measure 14
0001
0000
1000
0001
0010
1000
0100
0000
,  // measure 15
0010
0000
0000
0000
0010
0000
0000
0010
0000
0000
0100
0000
0000
0000
0001
0000
,  // measure 16
1000
0000
0000
0000
0100
0000
0000
1000
0000
0000
0001
0000
0000
0000
0000
0000
,  // measure 17
0010
0001
1000
0010
,  // measure 18
0001
0010
1000
0100
0002
0000
1003
0000
,  // measure 19
0010
1000
0001
0010
,  // measure 20
1000
0002
2000
3003
,  // measure 21
0002
0000
0103
0000
2000
0100
3100
0000
,  // measure 22
0002
0000
0013
0000
2000
0100
3100
0000
,  // measure 23
0010
1000
0001
0000
0010
1000
0001
0000
,  // measure 24
0010
0001
0200
0300
,  // measure 25
1000
0010
0001
0000
1000
1000
0100
0000
,  // measure 26
0200
0301
0200
1300
,  // measure 27
0001
0010
1000
0000
0001
0001
0100
0000
,  // measure 28
0020
1030
0200
0301
,  // measure 29
1000
0001
1000
0001
,  // measure 30
0200
1300
0200
0301
,  // measure 31
1000
0010
1000
0000
0001
0100
1000
0000
,  // measure 32
1000
0100
0001
0000
0010
0001
0100
0000
,  // measure 33
0010
0001
0100
0000
1000
0100
0001
0000
,  // measure 34
1000
0000
0010
0100
0001
1000
0100
0000
,  // measure 35
0010
0000
0000
0000
0010
0000
0000
0010
0000
0000
0100
0000
0000
0000
0001
0000
,  // measure 36
1000
0000
0000
0000
0100
0000
0000
1000
0000
0000
0001
0000
0000
0000
0000
0000
,  // measure 37
1000
0010
0001
0000
0001
0100
1000
0000
,  // measure 38
0001
0000
1000
0001
0010
1000
0100
0000
,  // measure 39
0010
0000
0000
0000
0010
0000
0000
0010
0000
0000
0100
0000
0000
0000
0001
0000
,  // measure 40
1000
0000
0000
0000
0100
0000
0000
1000
0000
0000
0001
0000
0000
0000
0000
0000
,  // measure 41
1000
0100
1000
0000
0001
0010
0001
0000
,  // measure 42
1000
0000
0001
0100
1000
0100
0001
0000
,  // measure 43
0010
1000
0100
0001
,  // measure 44
0001
0100
0010
1000
,  // measure 45
1000
0001
1000
0001
1000
0001
1000
0001
,  // measure 46
0010
0100
0010
0100
1000
0001
1000
0001
,  // measure 47
0010
0100
0010
0100
0010
0100
0010
0100
,  // measure 48
1000
0001
1000
0001
1000
0001
1000
0000
,  // measure 49
0001
0000
0000
0001
1000
0000
0000
1000
0001
0000
0000
0001
1000
0000
0000
1000
,  // measure 50
0010
0000
0000
0010
0100
0000
0000
0100
0020
0000
0000
0000
0030
0000
0000
0000
,  // measure 51
1000
0000
0000
1000
0001
0000
0000
0001
1000
0000
0000
1000
0001
0000
0000
0001
,  // measure 52
1000
0000
0000
1000
0100
0000
0000
0100
2000
0000
0000
0000
3000
0000
0000
0000
,  // measure 53
0001
0000
0000
0001
1000
0000
0000
1000
0001
0000
0000
0001
1000
0000
0000
1000
,  // measure 54
0010
0000
0000
0010
0100
0000
0000
0100
0020
0000
0000
0000
0030
0000
0000
0000
,  // measure 55
1000
0000
0000
1000
0001
0000
0000
0001
0100
0000
0000
0100
0001
0000
0000
0001
,  // measure 56
1000
0000
0000
1000
0010
0000
0000
0010
0200
0000
0000
0000
0300
0000
0000
0000
,  // measure 57
0002
0003
0002
0003
,  // measure 58
2000
3000
2000
3000
,  // measure 59
0010
0000
0000
0010
1000
0000
0000
1000
0001
0000
0000
0001
0010
0000
0000
0010
,  // measure 60
0001
0000
0000
0001
1000
0000
0000
1000
0010
0000
0000
0010
0100
0000
0000
0000
,  // measure 61
0020
0000
0230
0000
,  // measure 62
0001
1000
0001
1300
,  // measure 63
0110
0000
1000
0001
0000
1000
0001
0000
,  // measure 64
0200
0010
1000
0301
,  // measure 65
0110
0000
0100
0001
0000
0100
0010
0000
,  // measure 66
1000
1010
0001
0101
,  // measure 67
0210
0000
0010
0320
0000
0100
0130
0000
,  // measure 68
0002
0000
1000
0000
0010
0000
1003
0001
,  // measure 69
1000
0002
0010
0013
,  // measure 70
0001
0010
0001
0000
1000
0000
0001
0000
,  // measure 71
1000
0001
1000
0010
,  // measure 72
1000
0010
1000
0000
0001
0000
1000
0000
,  // measure 73
0001
1000
0001
0010
,  // measure 74
0001
0010
0001
0000
1000
0010
1000
0000
,  // measure 75
0001
0010
0001
0000
1000
0010
1000
0000
,  // measure 76
0200
0300
0200
0300
,  // measure 77
1000
0010
1000
0001
0000
1000
0001
1000
,  // measure 78
0001
0010
0001
1000
0000
0001
1000
0001
,  // measure 79
1000
0010
1000
0001
0000
1000
0001
1000
,  // measure 80
0001
0010
0001
1000
0000
0001
1000
0001
,  // measure 81
1000
0010
1000
0010
0000
1000
0001
1000
,  // measure 82
0001
0010
0001
0010
0000
0001
1000
0001
,  // measure 83
1000
0010
1000
0010
0000
1000
0001
1000
,  // measure 84
0001
0010
0001
0010
0000
0100
0010
0100
,  // measure 85
1000
0000
1000
0000
1000
0000
0000
0000
1000
0000
0000
0100
0000
0000
1000
0000
,  // measure 86
0001
0000
0000
0100
0000
0000
0001
0000
1000
0000
0000
0100
0000
0000
1000
0000
,  // measure 87
0001
0000
0000
0100
0000
0000
0001
0000
0010
0000
0000
0100
0000
0000
1000
0000
,  // measure 88
0010
0000
0000
0100
0000
0000
0001
0000
0010
0000
0000
0100
0000
0000
1000
0000
,  // measure 89
0010
0000
0000
0100
0000
0000
0001
0000
1000
0000
0000
0100
0000
0000
1000
0000
,  // measure 90
0001
0000
0000
0100
0000
0000
0001
0000
1000
0000
0000
0100
0000
0000
1000
0000
,  // measure 91
0001
0000
0000
0100
0000
0000
0001
0000
0010
0000
0000
0100
0000
0000
1000
0000
,  // measure 92
0010
0000
0000
0100
0000
0000
0001
0000
2000
0000
0000
0000
0000
0000
0000
0000
,  // measure 93
0000
0000
0000
0000
3000
0000
0000
0000
0002
0000
0000
0000
1003
0000
0000
0100
,  // measure 94
0000
0000
1000
0000
0001
0000
1000
0000
0002
0000
0000
0000
1003
0000
0000
0100
,  // measure 95
0000
0000
1000
0000
0001
0000
1000
0000
0020
0000
0000
0000
0130
0000
0000
0001
,  // measure 96
0000
0000
1000
0000
0100
0000
0010
0000
0002
0000
0000
0000
0103
0000
0000
0001
,  // measure 97
0000
0000
1000
0000
0100
0000
1000
0000
0002
0000
0000
0000
0103
0000
0000
0010
,  // measure 98
0000
0000
1000
0000
0100
0000
0010
0000
0002
0000
0000
0000
0103
0000
0000
0010
,  // measure 99
0000
0000
1000
0000
0100
0000
0010
0000
0002
0000
0000
0000
0103
0000
0000
0001
,  // measure 100
0000
0000
1000
0000
0010
0000
1000
0000
0200
0000
0000
0000
0310
0000
0000
0001
,  // measure 101
0000
0000
0100
0000
0001
0000
0000
0000
2000
0000
0000
0000
0100
0000
0000
0100
,  // measure 102
0000
0000
0000
0000
0000
0000
0000
0000
3002
0000
0000
0000
0100
0000
0000
0100
,  // measure 103
0000
0000
0000
0000
0000
0000
0000
0000
2003
0000
0000
0000
0010
0000
0000
0010
,  // measure 104
0000
0000
0000
0000
0000
0000
0000
0000
3002
0000
0000
0000
0010
0000
0000
0010
,  // measure 105
0000
0000
0000
0000
0000
0000
0000
0000
2003
0000
0000
0000
0010
0000
0000
0100
,  // measure 106
0000
0000
0000
0000
0000
0000
0000
0000
3002
0000
0000
0000
0010
0000
0000
0100
,  // measure 107
0000
0000
0000
0000
0000
0000
0000
0000
2003
0000
0000
0000
0010
0000
0000
0100
,  // measure 108
0000
0000
0000
0000
0000
0000
0000
0000
3020
0000
0000
0000
0001
0000
0000
0100
,  // measure 109
0000
0000
1030
0000
,  // measure 110
0001
0000
0100
0000
0001
0000
1000
0000
0000
0000
0000
0000
0000
0000
0000
0100
0000
0000
0010
0000
0000
0001
0000
0000
,  // measure 111
1000
0100
1000
0010
0000
1000
0100
0010
,  // measure 112
0100
1000
0001
0000
0000
0100
0010
1000
,  // measure 113
0100
1000
0001
0100
0000
0010
0010
0010
,  // measure 114
1000
0000
0100
0000
1000
0000
0000
0000
2000
0000
0000
0000
3100
0000
0000
1000
,  // measure 115
0000
0000
0100
0000
0010
0000
0001
0000
2000
0000
0000
0000
3010
0000
0000
0100
,  // measure 116
0000
0000
0001
0000
1000
0000
0001
0000
2000
0000
0000
0000
3100
0000
0000
1000
,  // measure 117
0000
0000
0100
0000
0010
0000
0001
0000
2000
0000
0000
0000
3001
0000
0000
0100
,  // measure 118
0000
0000
0010
0000
1000
0000
0100
0000
2000
0000
0000
0000
3001
0000
0000
0100
,  // measure 119
0000
0000
0010
0000
1000
0000
0100
0000
2000
0000
0000
0000
3010
0000
0000
0100
,  // measure 120
0000
0000
0001
0000
1000
0000
0100
0000
2000
0000
0000
0000
3001
0000
0000
0100
,  // measure 121
0000
0000
0001
0000
1000
0000
0100
0000
0020
0000
0000
0000
0031
0000
0000
0100
,  // measure 122
0000
0001
0001
0000
1000
0001
1000
0100
,  // measure 123
0020
0001
0031
0000
1000
0001
1000
0001
,  // measure 124
0020
0001
0031
0000
1000
0001
1000
0010
,  // measure 125
2000
0001
3001
0000
0100
0001
0100
0010
,  // measure 126
2000
0001
3001
0000
1000
0100
1000
0100
,  // measure 127
0020
0001
0031
0000
0100
0001
0100
0010
,  // measure 128
2000
0001
3001
0000
1000
0100
1000
0100
,  // measure 129
0020
0001
0031
0000
2000
0000
3000
0000
,  // measure 130
0010
1000
0001
0000
0220
0000
0000
0000
,  // measure 131
0000
0000
0330
0000
2000
0000
3001
0010
,  // measure 132
0001
0100
0010
0000
2000
0000
3001
0010
,  // measure 133
0001
0100
0010
0000
2000
0000
3100
0010
,  // measure 134
0001
0100
0001
0010
0000
1001
0000
0110
,  // measure 135
0000
2002
0000
3003
0020
0000
0130
0010
,  // measure 136
0001
0100
0010
0000
2000
0000
3100
0010
,  // measure 137
0001
0100
0001
0000
2000
0000
3010
1000
,  // measure 138
0100
0010
0001
0100
0000
0110
0000
1001
,  // measure 139
0000
0220
0000
0330
1000
0000
0200
0010
,  // measure 140
0000
0010
0000
0310
0000
0000
0002
0020
,  // measure 141
0000
0033
0000
0000
1000
0000
0020
0100
,  // measure 142
0000
0130
0000
1001
0000
0110
0000
1001
,  // measure 143
0000
0220
0000
0330
0001
0000
0020
0100
,  // measure 144
0000
0100
0000
0130
0000
0000
2000
0002
,  // measure 145
0000
3003
0000
0000
1000
0000
0020
0100
,  // measure 146
0000
0130
0000
1001
0000
0110
0000
1001
,  // measure 147
0000
0220
0000
0330
1000
0001
1000
0100
,  // measure 148
0020
0001
0031
0000
1000
0100
0010
0001
,  // measure 149
0200
0001
0301
0000
0010
0100
1000
0010
,  // measure 150
0100
0001
0010
0000
1000
0100
0010
0001
,  // measure 151
0100
0001
0010
0000
1000
0010
0100
0001
,  // measure 152
0020
0100
0130
0000
1000
0001
0010
0100
,  // measure 153
2000
0001
3001
0000
1000
0010
0100
0001
,  // measure 154
2000
0010
3010
0000
0200
0000
0000
0300
,  // measure 155
0001
0010
0100
0000
2002
0000
0000
0000
,  // measure 156
0000
0000
3003
0000
0020
0000
0130
1000
,  // measure 157
0001
1000
0001
0000
0200
0000
0310
1000
,  // measure 158
0001
1000
0001
0000
0020
0000
0130
1000
,  // measure 159
0001
1000
0001
0100
0000
1001
0000
1100
,  // measure 160
0000
0202
0000
0303
2000
0000
3010
0100
,  // measure 161
0001
1000
0001
0000
0020
0000
0130
1000
,  // measure 162
0001
1000
0010
0000
0200
0000
0301
1000
,  // measure 163
0100
0010
0001
0100
0000
0110
0000
1001
,  // measure 164
0000
0220
0000
0330
1000
0000
0100
0020
,  // measure 165
0000
0001
0000
0100
0030
0000
0002
0200
,  // measure 166
0000
0303
0000
0000
1000
0000
0200
0010
,  // measure 167
0000
0301
0000
0011
0000
1001
0000
1100
,  // measure 168
0000
2002
0000
3003
0010
0000
0200
1000
,  // measure 169
0000
0001
0000
1300
0000
0000
0020
0200
,  // measure 170
0000
0330
0000
0000
0001
0000
1000
0001
,  // measure 171
0000
1000
0000
0110
0000
1100
0000
1001
,  // measure 172
0000
0101
0000
0000
1001
0010
1001
0000
,  // measure 173
0001
0010
0001
0100
1000
0100
1000
0000
,  // measure 174
1000
0100
1000
0000
0101
0000
1010
0000
,  // measure 175
0100
0001
0010
0000
0011
0000
1100
0000
,  // measure 176
0010
0001
1000
0100
0010
1000
0010
0000
,  // measure 177
0010
0001
0010
1000
0001
0010
1000
0000
,  // measure 178
1000
0100
0001
0010
1100
0000
0011
0000
,  // measure 179
1000
0100
0001
0010
0200
0000
0300
0000
,  // measure 180
0000
0000
1000
0100
1000
0000
0000
0000
1000
0000
0010
0000
0001
0000
0000
0000
,  // measure 181
1000
0010
0001
0100
0001
0010
1000
0000
,  // measure 182
0001
0010
1000
0100
0001
0001
0011
0000
,  // measure 183
1000
1000
1100
0000
1001
0000
0110
0000
,  // measure 184
1001
0000
0010
0100
0001
1000
0100
0000
,  // measure 185
1000
0001
0010
0100
0010
0100
0001
0000
,  // measure 186
0010
0100
1000
0000
0110
0000
0110
0000
,  // measure 187
0010
0100
0010
0100
0010
0001
0100
1000
,  // measure 188
0001
0110
2000
3100
,  // measure 189
0002
0103
2000
3100
,  // measure 190
0002
0103
2000
3010
,  // measure 191
0002
0013
1000
1000
,  // measure 192
0010
0100
0010
0100
0010
0000
0000
0000
0001
0000
0010
0000
1000
0000
0000
0000
,  // measure 193
1000
0100
0001
0010
1000
0100
0001
0000
,  // measure 194
0001
0010
1000
0100
0011
0000
1010
0000
,  // measure 195
1100
0101
0110
0000
,  // measure 196
1000
0001
1000
0001
1000
0000
0000
0000
0001
0000
0010
0000
0001
0000
0000
0000
,  // measure 197
0010
0001
1000
0100
1000
0010
1000
0000
,  // measure 198
0010
1000
0001
0100
0010
0000
1100
0000
,  // measure 199
0010
0000
0101
1000
0010
0000
1100
0000
,  // measure 200
0010
1000
0101
0000
1000
0100
0001
0000
,  // measure 201
0001
0010
1000
0000
0010
0001
0100
0000
,  // measure 202
0100
1000
0010
0000
0011
0000
0011
0000
,  // measure 203
1000
0100
1000
0100
0002
0000
0003
0000
,  // measure 204
0000
0000
0100
0010
0100
0000
0000
0000
0001
0000
0010
0000
0100
0000
0000
0000
,  // measure 205
0100
0010
1000
0100
1000
0001
0010
0000
,  // measure 206
0010
1000
0100
0001
0010
1000
0100
0001
,  // measure 207
0010
1000
0100
0000
1010
0000
0101
0000
,  // measure 208
1000
0010
0100
0001
1000
0010
0100
0000
,  // measure 209
0001
0010
0100
0010
1000
0001
0010
0000
,  // measure 210
1000
0001
0010
0100
1000
1000
0010
0000
,  // measure 211
0001
0001
0010
0000
0110
0000
1001
0000
,  // measure 212
0010
0001
0100
0000
0100
1000
0100
0010
,  // measure 213
0001
0010
0001
0100
1000
0000
0000
0000
;
