#TITLE:DupliCity Mix;
#SUBTITLE:(DDR X);
#ARTIST:baconman;
#TITLETRANSLIT:;
#SUBTITLETRANSLIT:;
#ARTISTTRANSLIT:;
#CREDIT:;
#BANNER:DDR X.png;
#BACKGROUND:DDR X-bg.png;
#LYRICSPATH:;
#CDTITLE:./CDTITLES/DanceDanceRevolution X.png;
#MUSIC:DDRX-a.mp3;
#OFFSET:-0.056;
#SAMPLESTART:311.810;
#SAMPLELENGTH:15.000;
#SELECTABLE:YES;
#BPMS:0.000=95.000,112.000=100.000,128.000=103.000,144.000=106.000,224.000=110.000,256.000=120.000,352.000=125.000,384.000=130.000,607.000=222.000,687.000=443.997,698.000=74.000,714.000=222.000,807.000=439.998;
#STOPS:713.667=1.620
;
#BGCHANGES:;

//---------------dance-single - ----------------
#NOTES:
     dance-single:
     :
     Easy:
     3:
     0.253,0.371,0.130,0.140,0.005: // measure 1
0000
0000
0000
0000
,  // measure 2
0000
0000
0000
0000
,  // measure 3
0100
0000
1000
0000
,  // measure 4
0001
0000
0000
0000
,  // measure 5
1000
0000
0001
0001
,  // measure 6
1000
0000
0100
0000
,  // measure 7
1000
0000
0001
0001
,  // measure 8
1001
0000
0000
0000
,  // measure 9
1000
1000
0001
0000
,  // measure 10
0001
0001
0100
0000
,  // measure 11
1000
1000
0001
0000
,  // measure 12
1001
0000
0000
0000
,  // measure 13
0001
0000
0001
0001
,  // measure 14
1000
0000
1000
1000
,  // measure 15
0100
0000
0010
0000
,  // measure 16
0100
0000
0000
0000
,  // measure 17
0001
0100
0001
0000
,  // measure 18
1000
0100
1000
0000
,  // measure 19
0001
1000
0001
0000
,  // measure 20
1001
0000
0000
0000
,  // measure 21
0010
0000
1000
0000
,  // measure 22
0001
0100
0001
0000
,  // measure 23
0010
0000
1000
0000
,  // measure 24
0001
1000
1001
0000
,  // measure 25
2000
3000
2000
3000
,  // measure 26
0002
0003
0002
0003
,  // measure 27
0200
0300
0020
0030
,  // measure 28
0000
0000
0000
0000
,  // measure 29
0001
0001
1000
0000
,  // measure 30
0100
0010
0100
0000
,  // measure 31
1000
1000
0001
0000
,  // measure 32
1001
0000
0000
0000
,  // measure 33
1000
0000
0001
0001
,  // measure 34
1000
0000
0001
0001
,  // measure 35
0100
0000
0010
0010
,  // measure 36
0100
0100
0000
0000
0000
0000
0000
0000
,  // measure 37
0000
0000
0000
0000
,  // measure 38
0001
0001
1000
1000
,  // measure 39
0001
0100
0010
1000
,  // measure 40
0002
0003
2000
3000
,  // measure 41
0001
1000
0100
0100
,  // measure 42
0020
0030
0200
0300
,  // measure 43
0110
0000
0000
1000
,  // measure 44
0001
0100
0001
0100
,  // measure 45
0010
1000
0010
0100
,  // measure 46
0001
1000
0001
1000
,  // measure 47
0020
0030
0200
0300
,  // measure 48
0001
0001
1000
1000
,  // measure 49
0100
0010
0100
0010
,  // measure 50
0001
0001
1001
2000
,  // measure 51
3000
0002
0003
0100
,  // measure 52
0100
0010
0010
1000
,  // measure 53
0001
1000
0000
0100
,  // measure 54
0100
0010
0010
0002
,  // measure 55
0003
2000
3000
0000
,  // measure 56
0110
0000
1001
0000
,  // measure 57
0000
0100
0010
0100
,  // measure 58
0000
0010
0001
0100
,  // measure 59
0000
0010
0100
0010
,  // measure 60
0110
0000
1001
0000
,  // measure 61
0000
0100
0010
0100
,  // measure 62
0000
0010
0001
0100
,  // measure 63
0000
0010
0100
0010
,  // measure 64
0110
0000
1001
0000
,  // measure 65
0000
1000
0000
0001
,  // measure 66
0000
1000
0000
0001
,  // measure 67
0000
1000
0000
0001
,  // measure 68
1000
0100
0010
0001
,  // measure 69
0100
0100
0001
1000
,  // measure 70
0100
0100
1000
0001
,  // measure 71
0010
0010
0001
1000
,  // measure 72
0020
0030
0200
0300
,  // measure 73
0001
0000
0010
0000
,  // measure 74
1000
0000
0010
0000
,  // measure 75
0001
0001
1000
1000
,  // measure 76
0020
0030
0200
0300
,  // measure 77
0000
0001
0100
1000
,  // measure 78
0000
1000
0100
0001
,  // measure 79
0000
0010
1000
0100
,  // measure 80
0110
0000
0010
0100
,  // measure 81
1000
0010
1000
0100
,  // measure 82
0010
0001
0100
0001
,  // measure 83
0010
0100
1000
0001
,  // measure 84
1000
0100
0010
0001
,  // measure 85
0000
0100
0100
0000
,  // measure 86
0100
0001
1000
0001
,  // measure 87
0000
0010
0010
0000
,  // measure 88
0010
0001
1000
0001
,  // measure 89
1000
1000
0000
0001
,  // measure 90
0010
0100
0010
0000
,  // measure 91
1000
1000
0000
0100
,  // measure 92
0001
0100
0010
0000
,  // measure 93
1000
1000
0000
0010
,  // measure 94
1000
0010
0100
0010
,  // measure 95
1000
1000
0001
0001
,  // measure 96
0100
0010
0200
0300
,  // measure 97
0001
0001
0001
0000
,  // measure 98
1000
1000
1000
0100
,  // measure 99
0010
0010
0010
0000
,  // measure 100
0100
0100
0100
1000
,  // measure 101
0001
0001
0100
0000
,  // measure 102
0010
0010
0100
0100
,  // measure 103
2000
0000
0000
3000
,  // measure 104
0002
0000
0000
0003
,  // measure 105
0010
0000
0010
0100
,  // measure 106
0100
0100
1000
0000
,  // measure 107
0010
0000
0010
0100
,  // measure 108
0100
0100
0001
0000
,  // measure 109
0100
0000
0100
0010
,  // measure 110
0010
0010
1000
0001
,  // measure 111
0100
0100
0000
0010
,  // measure 112
0010
0200
0000
0300
,  // measure 113
1000
1001
0000
0001
,  // measure 114
1000
1001
0000
0100
,  // measure 115
0010
0110
0000
0010
,  // measure 116
0100
0110
0000
0100
,  // measure 117
1001
0000
1000
0001
,  // measure 118
1001
0000
0100
0001
,  // measure 119
1001
0000
1000
0100
,  // measure 120
0220
0000
0000
0330
,  // measure 121
1000
1000
0001
1000
,  // measure 122
0010
0010
1000
0010
,  // measure 123
1000
1000
0100
1000
,  // measure 124
0001
0001
0100
0000
,  // measure 125
1001
0000
0100
0001
,  // measure 126
1001
0000
0100
1000
,  // measure 127
1001
1001
1001
0000
,  // measure 128
0200
0000
0000
0300
,  // measure 129
1000
0100
0001
0010
,  // measure 130
1000
0001
1001
0000
,  // measure 131
0010
0010
1001
0001
,  // measure 132
0100
1010
0101
0000
,  // measure 133
0000
0100
0010
0100
,  // measure 134
0000
0010
0001
0100
,  // measure 135
0000
0010
0100
0010
,  // measure 136
0110
0000
1001
0000
,  // measure 137
0000
0100
0010
0100
,  // measure 138
0000
0010
0001
0100
,  // measure 139
0000
0010
0100
0010
,  // measure 140
0110
0000
1001
0000
,  // measure 141
0000
1000
0000
0001
,  // measure 142
0000
1000
0000
0001
,  // measure 143
0000
1000
0000
0001
,  // measure 144
1000
0100
0010
0001
,  // measure 145
0100
0100
0001
1000
,  // measure 146
0100
0100
1000
0001
,  // measure 147
0010
0010
0001
1000
,  // measure 148
0020
0030
0200
0300
,  // measure 149
0001
0000
0010
0000
,  // measure 150
1000
0000
0010
0000
,  // measure 151
0001
0001
1000
1000
,  // measure 152
0020
0030
0200
0300
,  // measure 153
1000
0010
0000
0001
,  // measure 154
0100
0100
0010
0000
,  // measure 155
1000
0100
0100
0010
,  // measure 156
0000
0001
0100
0100
,  // measure 157
0010
0000
1000
0100
,  // measure 158
0100
0010
0000
0001
,  // measure 159
0100
0100
0010
0000
,  // measure 160
1000
0100
0100
0010
,  // measure 161
0000
0001
0100
0100
,  // measure 162
0010
0000
1000
0100
,  // measure 163
0100
0022
0000
0033
,  // measure 164
1100
1100
2020
0000
,  // measure 165
3030
0101
0101
0022
,  // measure 166
0000
0033
1100
1100
,  // measure 167
2020
0000
3030
0101
,  // measure 168
0101
0010
0000
1000
,  // measure 169
0010
0000
0001
0010
,  // measure 170
0000
1000
0001
0100
,  // measure 171
1000
0020
0000
0000
,  // measure 172
0200
0000
0330
2002
,  // measure 173
0000
0000
0000
0000
,  // measure 174
0000
0000
0000
0000
,  // measure 175
0000
3003
0010
0001
,  // measure 176
0100
1000
0010
1000
,  // measure 177
0100
0001
0010
0001
,  // measure 178
1000
0100
0010
0100
,  // measure 179
0001
0001
0001
1000
1000
1000
0001
0000
0000
0000
0000
0000
,  // measure 180
1000
0100
0000
0010
,  // measure 181
0001
0100
0001
0010
,  // measure 182
0000
1000
0100
0000
,  // measure 183
1000
0010
0000
1000
,  // measure 184
0001
0010
0100
2002
,  // measure 185
3003
0100
0001
0000
,  // measure 186
0100
1000
0000
0010
,  // measure 187
1000
0001
0010
0100
,  // measure 188
0000
0010
1000
0000
,  // measure 189
0001
0100
0000
1000
,  // measure 190
0100
0001
0010
2000
,  // measure 191
3000
0100
0010
0010
,  // measure 192
0100
1000
1000
0010
,  // measure 193
0100
0001
1000
0200
,  // measure 194
0300
0001
0010
0010
,  // measure 195
0100
1000
1000
0010
,  // measure 196
0100
0001
0010
1000
,  // measure 197
0100
1000
0002
0003
,  // measure 198
0100
0020
0030
0100
,  // measure 199
1000
0010
0100
0020
,  // measure 200
0030
0100
0002
0003
,  // measure 201
0100
2000
3000
0100
,  // measure 202
1000
0001
0010
2002
,  // measure 203
0000
0000
0000
0000
,  // measure 204
0000
0000
0000
3003
;

//---------------dance-single - ----------------
#NOTES:
     dance-single:
     :
     Medium:
     5:
     0.408,0.477,0.341,0.255,0.027:
0000
0000
0000
0000
,
0000
0000
0000
0000
,
0010
0100
0010
0010
,
0100
0100
0100
0000
2002
0000
3003
0000
,
0100
0000
0010
0000
0100
0000
0001
0001
,
0001
1000
1001
0000
,
0100
0000
1000
0000
0010
0000
1000
1000
,
0100
0100
0000
0000
0000
0000
0000
0000
,
0010
0000
0010
0000
0110
0000
0001
0001
,
0001
0000
0110
0000
1000
1000
1000
1000
,
1000
0000
0010
0000
0110
0000
0001
0001
,
0100
0100
0000
0000
0000
0000
0000
0000
,
1000
0000
0110
0000
0001
0000
1000
1000
,
1000
0000
0110
0000
0001
0000
1000
1000
,
1000
0000
1001
0000
0010
0000
0100
0100
,
0100
0000
0000
0000
,
2000
0000
3100
0000
0010
0010
0010
0000
,
0020
0000
0031
0000
0100
0100
0100
0000
,
2000
3001
0110
1001
,
0010
0010
0010
0010
0100
0100
0100
0000
,
1000
1000
0000
0001
0000
0010
0000
0100
,
1000
1000
0000
0000
0101
0000
0110
0000
,
1000
1000
0000
0010
0000
0100
0000
0001
,
1000
1000
0000
0000
0020
0000
0030
0000
,
1001
1001
0000
0000
0110
0110
0000
0000
,
0101
0101
0000
0000
1100
1100
0000
0000
,
0010
0110
0000
0000
0100
0110
0000
0000
,
0001
0000
1000
0000
0110
0110
0000
0000
,
0200
0000
0301
0000
0020
0000
0130
0100
,
2000
3001
1001
0000
,
0002
0000
1003
0000
0200
0000
0310
0010
,
0001
0001
0000
0000
0100
0000
1001
0000
,
2000
0000
3100
0100
0200
0000
0310
0010
,
0020
0000
0031
0001
0001
0001
0001
0000
,
2000
0000
3010
0010
0020
0000
0130
0000
,
1001
1001
0000
0000
0000
0000
0000
0000
,
1000
0010
0001
0010
,
1000
0000
0100
0000
0001
0001
0001
0000
,
0200
0000
0310
0000
0000
0001
0001
0000
,
0100
0100
1000
0000
0000
0010
0010
0000
,
2000
0000
3001
0000
0000
0100
0100
0000
,
0010
0010
0001
0000
0000
1000
1000
0000
,
0002
0000
0013
0000
0000
1000
0001
0000
,
0010
0001
0100
0000
0000
0100
0010
0000
,
0020
0000
1030
0000
0000
0001
0100
0000
,
0010
0010
0000
0000
0000
0000
0000
0000
,
2200
0000
0000
0300
3000
0001
0001
0000
,
2002
0000
0000
3000
0003
0100
0100
0000
,
0220
0000
0000
0300
0030
1000
1000
0000
,
2002
0000
0000
3003
,
2100
0000
0010
0000
3000
0001
0010
0000
,
0201
0000
0010
0000
0300
0001
0010
0000
,
0102
0000
1000
0000
0003
0100
0010
0000
,
0010
0010
0010
0010
0100
0000
0100
0000
,
2000
3002
2003
3002
,
0203
0320
0230
0320
,
2030
3200
0320
0032
,
1003
1000
0020
0000
0230
0000
0301
0000
,
2001
3002
0023
0031
,
0210
0302
2003
3100
,
1020
0230
0302
1003
,
0010
0010
0000
0000
0000
0000
0000
0000
,
0100
0010
0100
0000
1000
0000
0001
0000
,
0011
0000
1100
0000
1000
0001
1000
0001
,
0100
0110
0010
0110
,
1000
0010
0100
0000
0001
0010
0100
0000
,
1000
1100
0100
1100
,
2002
0000
3003
0110
,
0010
0000
0100
0000
0001
0000
0010
0001
,
0100
0000
0010
0000
1000
0000
0100
1000
,
0010
0000
0001
0000
0100
0000
1000
0100
,
0002
0013
0200
1300
,
0010
0000
0100
0000
0010
0100
0001
0000
,
0010
0000
0100
0000
0010
0100
1000
0000
,
0010
0000
0001
0000
0010
0000
1000
0100
,
0010
0000
0001
0100
0010
0000
1000
0001
,
1001
0000
1000
0000
0000
0100
1000
0000
,
0001
0000
0100
0000
0000
0001
0100
0000
,
0010
0000
1000
0000
0000
0010
1000
0000
,
0001
0000
0010
0000
0100
0000
1000
0001
,
1000
1100
0001
0101
,
1000
0100
1000
0000
0001
0100
0001
0010
,
0010
0011
1000
1010
,
0001
0010
1000
0000
1000
0010
0001
0000
,
0100
0000
0101
0000
0010
1000
0001
0000
,
0010
0000
0011
0000
0100
1000
0001
0000
,
0100
0000
0110
0000
0001
1000
0010
0000
,
0001
0100
1000
0010
,
0100
0010
0100
0000
0010
0000
0100
0000
,
0001
1000
0001
0000
1000
0000
0001
0000
,
0010
0100
0010
0000
0100
0000
0010
0000
,
0100
1000
0100
1000
0001
0100
0001
0100
,
0010
1000
0100
1001
,
0010
0001
0100
1001
,
1000
0010
0100
0000
0001
0010
0100
0000
,
2000
0000
3010
0000
0200
0001
0301
0000
,
1000
0101
1000
0101
,
0010
1000
0001
0000
0100
0001
0010
0001
,
0001
1010
0001
1010
,
0100
0001
1000
0000
0100
1000
0010
0000
,
0100
0000
0101
0000
0010
0001
0100
0000
,
0010
0000
1010
0000
0100
1000
0010
0000
,
0100
0000
1001
0000
0100
1000
0010
0000
,
0102
1003
2100
3001
,
1002
0100
0100
0103
,
2001
0100
0100
3100
,
0120
0001
0001
0031
,
1000
0001
1010
0101
,
1001
0011
1100
1001
,
1010
0100
0011
1100
,
0001
0000
0000
0001
0000
0000
1000
0000
0000
1000
0000
0000
0200
0000
0000
0000
,
0000
0000
0000
0300
,
1000
0101
0002
1003
,
0010
1000
0100
1000
0010
0000
0000
0000
,
0010
1001
2000
3010
,
0100
0010
0001
0010
0100
0000
0000
0000
,
1001
0110
0200
0301
,
1000
0001
0010
0001
1000
0000
0000
0000
,
0101
1010
0020
0130
,
0001
0100
1000
0000
0001
1000
0100
0000
,
1000
1100
1000
0101
,
1000
0100
1000
0000
1000
0100
0001
0000
,
0001
0101
0001
1100
,
0001
0100
0001
0000
0001
0100
1000
0000
,
1000
1100
1010
0110
,
0100
0010
0001
0000
0001
0010
0100
0000
,
0010
0100
0010
0100
0010
0100
0001
1000
,
0020
0000
0000
0030
,
0002
0000
0200
0003
,
2000
0300
0200
3000
,
0002
0300
0200
0003
,
2000
0300
0200
3300
,
1001
0000
0010
0000
0100
0000
1000
1000
,
0100
0000
0010
0000
0001
0000
0100
0100
,
0001
0000
1000
0000
0010
0000
0100
0100
,
0001
0100
0001
0100
0010
1000
0010
1000
,
0001
0001
1000
1000
,
0100
0001
0100
1000
,
0010
0010
0100
0100
,
0001
0010
1000
0010
,
0001
0000
0100
0000
0001
0001
0010
0000
,
0100
0000
1000
0000
0010
0010
1000
0000
,
0100
0000
0010
0000
0001
0001
0100
0000
,
0010
0001
0100
1000
,
0010
0100
0001
0101
,
0010
0100
1000
1100
,
0100
0001
0001
0000
0100
1000
1000
0000
,
1001
0000
0110
0000
,
1000
0000
0010
0000
0100
0000
0001
0001
,
0100
0000
0010
0000
1000
0000
0100
0100
,
1000
0000
0001
0000
0010
0000
0100
0100
,
1000
0001
1000
0001
0100
0010
0100
0000
,
0000
0001
0100
1000
,
0100
0110
0001
0100
,
1000
0100
0110
0001
,
0100
1000
0100
0110
,
0001
0100
1000
0100
,
0110
0001
0100
1000
,
0100
0110
0001
0100
,
1000
0100
0110
0001
,
0100
1000
0100
0110
,
0001
0100
1000
0100
,
0110
1010
0001
0100
,
1001
0100
1010
0001
,
0100
1001
0100
1010
,
0001
0100
1001
0100
,
1010
0001
0100
1001
,
0100
0011
0001
0100
,
1010
1000
0100
0011
,
0001
0100
1010
0101
,
1100
0010
0010
0010
,
0100
0100
0100
2002
,
0000
0000
0000
0000
,
0000
0000
0000
0000
,
0000
0000
0000
3003
0000
0000
0010
0000
0010
1000
0000
1000
,
0100
1000
0001
0100
0000
0000
0010
0000
0010
0100
0000
0100
,
0001
0000
0001
0010
1000
0100
1000
0000
0001
0100
0000
1000
,
0100
0010
0100
0010
0000
0000
0001
0000
1000
0010
0000
0001
,
0010
0010
0010
0100
0100
0100
2000
0000
0000
0010
0000
0000
,
3001
0200
0001
0310
,
1000
0100
1000
0020
,
1000
1030
0200
0010
,
0301
0020
0100
0031
,
1000
0010
0100
2002
,
3003
0100
2000
0010
,
3100
0002
1000
0013
,
0001
1000
0010
0200
,
0010
0310
0002
0010
,
1003
0200
0010
0301
,
0100
1000
0010
2002
,
3003
0100
0010
1000
,
1100
0010
0001
0101
,
0010
1000
0001
0200
,
1000
1300
0010
0001
,
0101
0010
1000
1100
,
0010
1000
0010
1001
,
0100
0001
1100
0010
,
0100
0010
1000
0100
,
0101
0010
0100
0010
,
0001
0100
1010
0001
,
0100
0011
1000
0100
,
0001
1000
0110
2002
,
0000
0000
0000
0000
,
0000
0000
0000
3003
;

//---------------dance-single - ----------------
#NOTES:
     dance-single:
     :
     Hard:
     8:
     0.541,0.768,0.380,0.130,0.179:
0000
0000
0000
0000
,
0000
0000
0000
0000
,
0010
0000
0110
0000
1000
0100
0010
1000
,
0001
1001
0220
0030
,
0301
0000
1000
1000
0100
0100
0010
0010
,
0001
0000
0100
0100
0000
0000
0000
0000
,
1000
0000
0001
0001
0010
0010
0100
0100
,
1001
1001
0000
0000
0000
0000
0000
0000
,
2000
0000
0001
0001
0001
0000
0010
0010
,
3020
0000
0100
0100
0130
0001
0010
0100
,
2000
0000
0001
0001
0001
0000
0010
3010
,
1001
1001
0000
0000
0000
0000
0000
0000
,
0100
0000
1001
0000
0010
1000
1000
0100
,
0010
0000
1001
0000
0100
0001
0001
0100
,
0110
0000
1001
0000
1000
1000
0101
0101
,
0010
0000
0000
0000
,
2000
0000
0010
0000
3001
0101
0010
0010
,
0200
0000
1000
0000
0310
0011
1000
1000
,
0120
0000
1000
0000
0130
0101
0010
0010
,
1001
0000
0001
0000
0010
0000
0100
1000
0100
0000
0010
0000
0100
0000
0110
0000
,
0001
1001
0000
0010
0000
0001
0010
0100
,
1000
1001
0000
0000
0010
0000
0100
0010
,
0011
0011
0000
1000
0000
0001
0100
0010
,
1100
1100
0000
0000
0110
0000
0000
0000
,
0001
0100
0001
0100
0000
0000
0000
0000
1000
0100
1000
0100
0000
0000
0000
0000
,
0001
0010
0001
0010
0000
0000
0000
0000
1000
0010
1000
0010
0000
0000
0000
0000
,
0001
0010
0100
1000
0000
0000
0000
0000
1000
0010
0100
0001
0000
0000
0000
0000
,
1000
0001
0100
0010
1100
0101
0000
0000
,
2001
0000
0010
0001
3010
0100
0010
1000
,
1002
0000
0100
0100
0103
0000
0100
0000
,
0120
0000
1000
0100
1030
0001
0100
0100
,
1001
1001
0000
0000
1000
0010
0001
0100
,
1002
0000
0010
1000
0013
0100
0010
0001
,
2001
0000
0100
0100
3001
0010
0100
0100
,
0120
0000
0001
0100
0031
1000
0100
0010
,
0110
1001
0000
0000
0000
0000
0000
0000
,
1000
0000
0000
1000
0000
0000
1000
0000
0001
0000
0000
0001
0000
0000
0110
0000
,
0000
1001
0000
0100
1000
0010
0100
0001
,
1000
0000
0000
1000
0000
0000
0001
0000
0100
0000
1000
0000
0100
0000
0001
0000
,
2002
0000
3003
0000
0001
0001
1000
1000
,
0100
0010
0011
0000
0100
1000
0001
1000
,
0010
0100
0101
0000
0010
1000
0001
1000
,
0100
0010
1001
0000
0010
0100
1001
0000
,
0110
0000
1001
0000
0001
0001
1000
1000
,
0001
0010
0100
0000
1000
0001
0010
0100
,
1000
0010
0100
0000
0001
1000
0010
0100
,
0001
0001
1000
1000
1001
0000
0000
0000
,
0110
0000
1001
0000
0010
0010
0100
0100
,
1000
0001
0100
0000
0010
1000
0001
0000
,
0100
1000
0100
0001
0010
0000
1001
0000
,
1000
0010
0100
0000
0001
0010
0100
0000
,
1100
0000
0101
0000
0001
0010
0100
1000
,
0001
0000
0100
0000
0010
0000
0010
1000
0000
0000
0001
0000
0100
0000
0100
0000
,
0010
1000
0001
0100
0010
0100
1001
0000
,
1000
0000
0100
0000
0010
0000
0010
0001
0000
0000
1000
0000
0100
0000
0010
0000
,
0110
0000
1001
0000
1000
1000
0001
0001
,
0100
0000
0100
0000
0010
0100
1001
0000
,
0001
0000
0001
0000
1000
0001
0110
0000
,
0010
0000
0010
0000
0100
0010
1001
0000
,
1000
1000
0001
0001
0101
0101
1010
1010
,
1000
0000
0000
1000
0000
0000
0010
0000
0100
0000
0010
0000
1000
0000
1000
0000
,
0001
0000
0000
0001
0000
0000
0100
0000
0010
0000
0100
0000
0001
0000
0001
0000
,
1000
0000
0000
1000
0000
0000
0100
0000
0010
0000
0100
0000
1000
0000
1000
0000
,
0001
0010
0100
0010
0001
0001
1000
1000
,
1000
0000
0000
1000
0010
0000
0000
0000
1000
0000
0000
1000
0010
0000
0000
0000
,
0001
0000
0001
0000
0100
0010
0000
1000
0000
0000
0000
0000
0000
0000
0000
0000
,
0010
0000
0000
0010
0001
0000
0000
0000
0100
0000
0000
0100
1000
0000
0000
0000
,
0001
0000
0001
0000
0100
0010
0000
1000
0000
0000
0001
0000
0010
0000
0000
0000
,
0100
0000
0000
0010
1000
0000
0000
0000
0100
0000
0000
0001
1000
0000
0000
0000
,
0100
0000
0001
0000
0100
0010
0000
1000
0000
0000
0000
0000
0000
0000
0000
0000
,
0010
0000
0000
1000
0000
0000
0101
0000
0000
1010
0000
0000
2002
0000
0000
0000
,
0000
0000
0000
3003
,
0011
0000
0000
0010
0100
0000
0001
0000
0100
0000
0000
0100
0010
0000
0001
0000
,
0100
0000
0100
0000
0001
1000
0000
0110
0000
0000
0000
0000
0000
0000
0000
0000
,
1010
0000
0000
0001
0100
0000
1000
0000
0100
0000
0000
0100
0001
0000
1000
0000
,
0100
0000
0100
0000
1000
0001
0000
0110
0000
0000
0010
0000
1000
0000
0001
0000
,
1001
0000
0000
0010
0100
0000
0100
0000
1000
0000
0000
0100
0010
0000
0010
0000
,
0001
0000
1000
0000
0001
1000
0000
1001
0000
0000
0100
0000
0010
0000
0010
0000
,
1100
0000
0000
0010
0001
0000
0100
0000
0010
0000
0000
0001
0100
0000
1000
0000
,
0001
0001
0100
0010
0001
0000
1001
0000
,
0010
0000
1001
0000
0100
0100
0100
0000
,
0001
1000
0001
0100
0010
1000
0100
0001
,
0100
0000
1010
0000
0001
0001
0001
0000
,
0100
0001
0010
0100
0001
1000
0010
0001
,
1000
0000
1100
0000
0010
0010
0010
0000
,
1000
1000
0001
0100
0010
0001
1000
0000
,
0001
1000
0000
0001
1000
0000
0001
1000
0000
0001
1000
0000
0001
0000
1000
0000
,
0210
0000
0000
0001
0000
0000
0010
0000
0000
1000
0000
0000
0310
0000
0000
0000
,
0001
1000
0010
0100
0001
0010
2000
0001
,
3001
0100
1000
0100
0002
0100
0103
0000
,
0010
1000
0100
1000
0010
0100
0002
1000
,
1003
0010
0001
0010
2000
0100
3100
0000
,
0110
0000
1001
0001
0100
0010
2000
0010
,
3001
0100
0010
0100
0020
1000
1030
0000
,
0001
0001
0100
0010
1000
0001
0200
0010
,
0301
1000
0002
0010
0010
0010
0013
0000
,
1000
1000
1100
0000
0001
0000
1010
0000
,
0100
0100
0101
0000
1000
0010
1000
0000
,
0100
0001
0101
0000
1000
0100
0001
0000
,
0010
0010
0110
0000
1010
0000
0101
0000
,
1000
0100
1100
0000
1000
1000
1100
0000
,
1000
0001
0101
0000
0010
0010
0101
0000
,
0101
0100
0110
0000
0100
0010
1001
0000
,
0010
0100
0000
0010
0100
0000
0010
0100
0000
0010
0100
0000
1001
0000
0000
0000
,
0010
0000
0000
1000
0010
0000
0100
0000
0001
0000
0000
1000
0001
0000
0010
0000
,
0100
0000
0000
0100
1000
0000
0001
0000
0100
0000
0000
0100
0001
0000
1000
0000
,
0010
0000
0000
1000
0100
0000
0100
0000
0010
0000
0000
0001
0100
0000
0100
0000
,
0010
0100
0010
0100
0001
0001
1000
1000
,
0010
0000
0000
1000
0100
0000
0010
0000
0001
0000
0000
0100
0010
0000
1000
0000
,
0001
0000
0000
1000
0100
0000
1000
0000
0001
0000
0000
0010
0001
0000
1000
0000
,
0001
0100
0001
0100
0001
0000
1000
0100
1000
0100
1000
0000
0010
0000
0010
0000
,
0200
0000
0020
0330
,
1100
0000
0001
0100
0010
0000
1000
0000
0001
0010
0100
0000
1000
0000
0100
0000
,
0010
0001
0100
0001
0010
0001
0100
0001
,
0101
0000
0010
1000
0010
0000
0100
0000
0001
0010
0100
0000
1000
0000
0010
0000
,
0100
0001
0100
1000
0100
0001
0100
0010
,
1001
0000
0010
1000
0100
0000
0010
0000
0001
0100
0010
0000
0100
0000
0001
0000
,
0010
0100
1000
0100
0010
0100
1000
0100
,
0011
0000
0000
0100
1000
0000
0000
0010
0100
0000
0000
0001
0010
0000
0001
0000
,
2002
0000
0000
3003
,
0100
0000
0000
0100
0001
0000
0000
0001
0010
0000
0000
0010
0001
0000
0000
0001
,
1000
0000
0000
1000
0010
0000
0000
0010
0100
0000
0001
0000
0010
0000
1000
0000
,
0010
0000
0000
0010
0001
0000
0000
0001
1000
0000
0000
1000
0100
0000
0000
0100
,
0010
0100
1000
0010
0100
0001
0010
0000
,
0001
0000
0000
0001
1000
0000
0000
1000
0010
0000
0000
0010
0100
0000
0000
0100
,
0001
0000
0000
0001
1000
0000
0000
1000
0100
0000
1000
0000
0010
0000
1000
0000
,
0002
0000
2000
3003
,
0110
0000
0000
1100
0000
0000
0101
0000
0000
0011
0000
0000
1100
0000
0000
0000
,
2000
0001
3001
0020
1000
1030
0010
0001
,
1000
0010
0001
0010
2000
0010
3010
0000
,
0200
0001
0301
0020
0100
0130
1000
0001
,
0100
1000
0100
0001
0020
0100
0130
1000
,
0001
0000
0000
0001
0000
0000
0100
0000
0010
0000
0100
0000
0001
0000
0001
0000
,
1000
0000
0000
1000
0000
0000
0010
0000
0100
0000
0010
0000
1000
0000
1000
0000
,
0001
0000
0000
0001
0000
0000
0010
0000
0100
0000
0010
0000
0001
0000
0001
0000
,
1000
0100
0010
0100
1000
1000
0001
0001
,
1000
0000
0000
1000
0000
0000
0010
0000
0100
0000
0010
0000
1000
0000
1000
0000
,
0001
0000
0000
0001
0000
0000
0100
0000
0010
0000
0100
0000
0001
0000
0001
0000
,
1000
0000
0000
1000
0000
0000
0100
0000
0010
0000
0100
0000
1000
0000
1000
0000
,
0001
0010
0100
0010
0001
0001
1000
1000
,
0001
0100
0010
0001
0010
0100
2000
0000
,
3100
0010
1000
0001
0010
0100
1000
0010
,
0100
0001
0101
0000
1000
0100
1100
0000
,
0110
0000
1001
0000
1000
1000
0001
0001
,
1000
0000
0100
0000
0010
0000
0010
0001
0000
0000
1000
0000
0100
0000
0100
0000
,
0010
0100
1000
0010
0100
0010
1001
0000
,
0001
0000
0100
0000
0010
0000
0010
1000
0000
0000
0001
0000
0100
0000
0010
0000
,
0110
0000
1001
0000
1000
0100
0010
0001
,
1000
0000
0010
0000
0100
0000
0001
1000
0000
0000
0001
0000
0100
0000
0100
0000
,
0010
1000
0100
0010
0001
1000
0100
0100
,
1000
0000
0010
0000
0100
0000
0001
1000
0000
0000
0001
0000
0100
0000
0100
0000
,
1001
0000
0110
0000
1000
0100
0010
0000
,
0000
0000
0001
0000
1000
0100
0001
0100
,
1000
0000
1000
0000
0010
0000
1000
0100
,
0001
0100
1000
0000
1000
0000
0010
0000
,
1000
0100
0001
0100
1000
0000
1000
0000
,
0010
0000
1000
0100
0001
0100
1000
0000
,
1000
0000
0010
0000
1000
0100
0001
0100
,
1000
0000
1000
0000
0010
0000
1000
0100
,
0001
0100
1000
0000
1000
0000
0010
0000
,
1000
0100
0001
0100
1000
0000
1000
0000
,
0010
0000
1000
0100
0001
0100
1000
0000
,
1000
0000
0001
0100
0010
1000
0100
0010
,
0100
0000
0100
0000
0001
0100
0010
1000
,
0100
0010
0100
0000
0100
0000
0001
0100
,
0010
1000
0100
0010
0100
0000
0100
0000
,
0001
0100
0010
1000
0100
0010
0100
0000
,
0100
0000
1010
0000
0001
0100
0010
0000
,
0011
0000
1000
0100
0010
0000
1010
0000
,
0001
1000
0100
0000
0011
0000
1100
0000
,
0101
0010
0010
0010
,
0100
0010
0100
0010
0100
0000
2002
0000
,
0000
0000
0000
0000
,
0000
0000
0000
0000
,
0000
0000
0000
3003
0000
0000
0010
0010
0001
0100
0100
0001
,
0100
0001
1000
0200
0000
0000
0310
0010
0100
1000
1000
0010
,
0100
0100
0001
0010
0001
0100
0101
0001
1000
1100
1000
0001
,
0101
0010
0100
1001
0000
0000
1010
0100
0001
0011
0100
1000
,
0010
0000
1000
0000
0100
0000
0010
0000
0100
0000
1000
0000
0001
0000
0000
0000
0000
0000
1000
0000
0000
0100
0000
0000
,
0001
0000
1000
0000
0001
0100
1000
0000
,
1010
1001
0101
2000
,
0100
0000
3100
0000
1000
0000
0001
0100
,
1000
0000
0001
0000
1000
0100
0001
0000
,
0011
0110
1100
0002
,
1000
0000
1003
0000
0010
0000
0001
1000
,
0100
0000
0010
0000
1000
0001
0100
0000
,
1100
0110
0101
0020
,
0100
0000
0130
0000
1000
0000
0001
0010
,
0100
0000
1000
0000
0010
1000
0100
0000
,
0010
0000
0100
0000
1000
0000
0001
0100
,
0010
1000
0100
0010
0001
0000
1000
0100
,
0001
0100
1000
0000
0001
0100
1000
0100
,
0010
1001
0101
2000
,
3100
0010
0100
0000
1000
0000
0001
0100
,
1000
0100
0001
0000
1000
0100
0001
0100
,
0010
1001
1100
0012
,
0100
0000
0013
0000
0101
0000
0010
0100
,
0000
0100
0010
0000
0001
0000
0100
0000
,
1100
0000
0010
0100
0000
0100
0010
0000
,
1000
0000
0100
0000
0011
0000
1000
0100
,
0001
0000
1010
0000
0001
0100
1000
0000
,
0010
1000
0001
0010
0100
0000
2002
0000
,
0000
0000
0000
0000
,
0000
0000
0000
3003
;

//---------------dance-single - ----------------
#NOTES:
     dance-single:
     :
     Challenge:
     8:
     0.548,0.636,0.411,0.242,0.191:
0000
0000
0000
0000
,
0000
0000
0000
0000
,
0010
0000
0110
0000
1000
0100
0010
1000
,
0001
1001
0220
0030
,
0301
0000
1000
1000
0100
0100
0010
0010
,
0001
0000
0100
0100
0000
0000
0000
0000
,
1000
0000
0001
0001
0010
0010
0100
0100
,
1001
1001
0000
0000
0000
0000
0000
0000
,
2000
0000
0001
0001
0001
0000
0010
0010
,
3020
0000
0100
0100
0130
0001
0010
0100
,
2000
0000
0001
0001
0001
0000
0010
3010
,
1001
1001
0000
0000
0000
0000
0000
0000
,
0100
0000
1001
0000
0010
1000
1000
0100
,
0010
0000
1001
0000
0100
0001
0001
0100
,
0110
0000
1001
0000
1000
1000
0101
0101
,
0010
0000
0000
0000
,
2000
0000
0010
0000
3001
0101
0010
0010
,
0200
0000
1000
0000
0310
0011
1000
1000
,
0120
0000
1000
0000
0130
0101
0010
0010
,
1001
0000
0001
0000
0010
0000
0100
1000
0100
0000
0010
0000
0100
0000
0110
0000
,
0001
1001
0000
0010
0000
0001
0010
0100
,
1000
1001
0000
0000
0010
0000
0100
0010
,
0011
0011
0000
1000
0000
0001
0100
0010
,
1100
1100
0000
0000
0110
0000
0000
0000
,
0001
0100
0001
0100
0000
0000
0000
0000
1000
0100
1000
0100
0000
0000
0000
0000
,
0001
0010
0001
0010
0000
0000
0000
0000
1000
0010
1000
0010
0000
0000
0000
0000
,
0001
0010
0100
1000
0000
0000
0000
0000
1000
0010
0100
0001
0000
0000
0000
0000
,
1000
0001
0100
0010
1100
0101
0000
0000
,
2001
0000
0010
0001
3010
0100
0010
1000
,
1002
0000
0100
0100
0103
0000
0100
0000
,
0120
0000
1000
0100
1030
0001
0100
0100
,
1001
1001
0000
0000
1000
0010
0001
0100
,
1002
0000
0010
1000
0013
0100
0010
0001
,
2001
0000
0100
0100
3001
0010
0100
0100
,
0120
0000
0001
0100
0031
1000
0100
0010
,
0110
1001
0000
0000
0000
0000
0000
0000
,
1001
0000
0001
0001
0010
0100
0100
0100
,
1000
0000
0001
0001
0010
0100
0100
0100
,
0001
0000
1000
1000
0100
0010
0010
0010
,
1000
1000
0001
0001
0010
0100
0100
0000
,
1002
0000
0203
0000
0310
1000
1000
0010
,
0120
0000
2030
0000
3001
0100
0100
0010
,
0201
0000
0302
0000
1003
0100
0100
0000
,
1001
0000
1001
0000
1001
0000
0010
0100
0010
1000
0000
0100
0000
0010
0001
0000
,
0100
1000
0100
0100
0001
1000
0010
0010
,
0100
0001
1000
1000
0100
0010
0001
0001
,
0100
0010
1000
1000
0001
0010
0100
0100
,
1001
1001
0010
1000
0100
0010
0001
0000
,
0100
0001
0100
0000
1000
0000
1000
0000
0200
0000
0001
0000
0301
0000
0010
0000
,
0100
1000
0100
0000
1000
0000
0100
0000
0020
0000
0001
0000
0031
0000
1000
0000
,
0100
0010
0100
0000
1000
0000
0010
0000
0200
0000
0001
0000
0301
0000
1000
0000
,
1001
1001
0000
0000
0000
0000
0000
0000
,
2100
0000
3002
0000
0103
0020
0100
1000
,
2030
0000
3200
0000
0310
0002
0010
1000
,
2003
0000
3020
0000
0130
0002
1000
0103
,
0110
1001
0000
0000
0000
0000
0000
0000
,
0012
0000
2003
0000
3010
0200
0010
0001
,
0302
0000
0023
0000
0130
2000
0100
0001
,
3002
0000
0023
0000
0130
0200
0010
1000
,
2300
0000
3020
0000
0130
0001
1000
0000
,
2100
0000
3002
0000
0103
0120
0100
1030
,
2001
0000
3200
0000
0310
0012
0010
1003
,
0110
0000
0000
0110
0000
0000
1000
0000
0100
0000
0010
0000
0001
0000
0001
0000
,
1000
0100
0001
0100
1000
0010
0001
0010
,
1010
0000
1010
0000
0101
0000
0101
1000
,
0100
1000
0001
0100
0010
1000
0100
0000
,
0011
0000
0011
0000
1100
0000
1100
1000
,
0002
0000
0103
0001
2000
0000
3010
1000
,
1000
0010
1000
0001
1000
0010
0101
0000
,
1000
0000
0001
0000
0100
0000
0010
0000
1000
0000
0001
0100
0000
0100
0001
0000
,
1000
0100
1000
0001
1000
0100
0011
0000
,
1001
0000
0000
1001
0000
0000
0000
0000
0110
0000
0000
0110
0000
0000
0000
0000
,
0100
1000
0010
0100
0001
1000
0001
0000
,
0100
0010
1010
0000
0100
0010
0011
0000
,
0001
1000
0100
0001
0100
1000
0010
0100
,
1001
0000
0000
1001
0000
0000
0000
0000
0110
0000
0000
0010
0100
0010
0000
0010
,
2000
0000
0100
0000
0000
3010
0100
0001
,
0002
0000
0010
0000
0000
0103
0010
1000
,
2001
0000
0100
0000
0000
3001
0010
0100
,
1100
0000
0000
1001
0000
0000
0001
0000
0101
0000
0000
1001
0000
0000
1000
0000
,
0010
0000
0100
0000
0001
0000
1000
0010
0000
0010
0100
0000
0001
0000
0001
0000
,
1000
0010
0100
1000
0100
0001
0010
0010
,
0100
0000
1000
0000
0001
0000
0010
0100
0000
0100
1000
0000
0001
0000
0010
0000
,
0011
0000
0000
1001
0000
0000
0010
0000
1010
0000
0000
1001
0000
0000
0010
0000
,
0100
0000
0010
0000
0001
0000
1000
0100
0000
0100
0010
0000
0001
0000
0001
0000
,
1000
0100
0010
1000
0010
0001
1000
1000
,
0010
0000
1000
0000
0001
0000
0100
0010
0000
0010
1000
0000
0001
0000
0100
0000
,
0101
0000
0000
1001
0000
0000
0100
0000
1100
0000
0000
1001
0000
0000
0100
0000
,
0001
0000
0000
0001
0000
0000
1000
0000
0010
0000
0100
0000
0001
0000
0001
0000
,
1000
0000
0000
1000
0000
0000
0001
0000
0010
0000
0100
0000
1000
0000
1000
0000
,
0001
0000
0000
0001
0000
0000
0100
0000
0001
0000
0010
0000
0100
0000
0000
0000
,
0110
1000
0001
1000
0110
0001
1000
0001
,
0110
0000
1000
0000
0100
0010
0100
0000
,
1000
0000
0010
0000
0100
0000
0010
0000
1000
0001
0000
1000
0001
0000
0010
0000
,
0100
0010
0000
0100
0010
0000
0100
0000
1000
0000
0100
0000
0001
0000
0100
0000
,
0010
0000
0000
0010
0000
0000
0010
0000
0100
0000
0000
0100
0000
0000
0100
0000
,
1000
0000
0001
0000
0100
0000
0010
0000
1000
0010
0000
0010
0100
0000
0100
0000
,
0001
0000
0010
0000
0100
0000
1000
0000
0010
1000
0000
1000
0100
0000
0100
0000
,
0010
0000
0001
0000
1000
0000
0100
0000
0010
0001
0000
0001
1000
0000
1000
0000
,
1100
0000
0000
1100
0000
0000
0000
0000
0101
0000
0000
0101
0000
0000
0010
0000
,
1000
0000
0001
0000
0100
0000
0100
0000
0010
1000
0000
0001
0100
0000
0010
0000
,
0100
0000
0001
0000
0010
0000
0010
0000
0100
1000
0000
0001
0010
0000
0100
0000
,
0010
0000
0001
0000
0100
0000
0100
0000
0010
1000
0000
0100
0010
0000
0001
0000
,
0011
0000
0000
1100
0000
0000
0000
0000
1010
0000
0000
0101
0000
0000
0001
0000
,
1000
0100
1000
0000
0100
0000
0100
0000
1000
0000
1000
0000
0100
0000
0010
0000
,
0001
0100
0001
0000
0100
0000
0100
0000
0001
0000
0001
0000
0100
0000
0010
0000
,
1000
0001
1000
0000
0001
0000
0001
0000
1000
0000
1000
0000
0001
0000
1000
0000
,
1001
0100
0010
0100
1001
0100
1001
0100
,
0020
0000
2000
3030
,
0020
0000
0002
0033
,
0110
0000
0000
1001
0000
0000
1010
0000
0000
0101
0000
0000
1001
0000
0000
0000
,
0200
0000
0020
0330
,
1100
0000
0001
0100
0010
0000
1000
0000
0001
0010
0100
0000
1000
0000
0100
0000
,
0010
0001
0100
0001
0010
0001
0100
0001
,
0101
0000
0010
1000
0010
0000
0100
0000
0001
0010
0100
0000
1000
0000
0010
0000
,
0100
0001
0100
1000
0100
0001
0100
0010
,
1001
0000
0010
1000
0100
0000
0010
0000
0001
0100
0010
0000
0100
0000
0001
0000
,
0010
0100
1000
0100
0010
0100
1000
0100
,
0011
0000
0000
0100
1000
0000
0000
0010
0100
0000
0000
0001
0010
0000
0001
0000
,
2002
0000
0000
3003
,
0100
0000
0000
0100
0001
0000
0000
0001
0010
0000
0000
0010
0001
0000
0000
0001
,
1000
0000
0000
1000
0010
0000
0000
0010
0100
0000
0001
0000
0010
0000
1000
0000
,
0010
0000
0000
0010
0001
0000
0000
0001
1000
0000
0000
1000
0100
0000
0000
0100
,
0010
0100
1000
0010
0100
0001
0010
0000
,
0001
0000
0000
0001
1000
0000
0000
1000
0010
0000
0000
0010
0100
0000
0000
0100
,
0001
0000
0000
0001
1000
0000
0000
1000
0100
0000
1000
0000
0010
0000
1000
0000
,
0002
0000
2000
3003
,
0110
0000
0000
1100
0000
0000
0101
0000
0000
0011
0000
0000
1100
0000
0000
0000
,
2000
0001
3001
0020
1000
1030
0010
0001
,
1000
0010
0001
0010
2000
0010
3010
0000
,
0200
0001
0301
0020
0100
0130
1000
0001
,
0100
1000
0100
0001
0020
0100
0130
0000
,
2000
0010
3010
2000
0100
3100
0010
0100
,
1000
0010
0100
0010
0200
0001
0301
0000
,
0010
0001
0100
0000
0010
1000
0100
0010
,
0100
0100
2000
0100
0100
0100
3100
0100
,
0020
0000
0002
0030
,
0200
0003
2000
0300
,
0020
3000
0002
0030
,
0200
0003
2000
3300
,
0001
0000
0010
0000
0011
0000
0000
1000
0100
0000
1000
0000
1010
0000
0000
0000
,
0001
0000
1000
0000
0110
0000
0000
0001
0100
0000
0010
0000
1010
0000
0000
0000
,
0100
0000
0010
0000
0110
0000
0000
0010
0001
0000
0100
0000
1100
0000
0000
0000
,
0020
0000
0200
0330
,
0011
0000
1000
0010
0100
0000
0001
0000
1000
0100
0010
0000
0001
0000
0010
0000
,
0110
0000
1000
0010
0100
0000
0010
0000
1000
0100
0010
0000
0100
0000
1000
0000
,
1010
0000
0100
0001
0100
0000
0010
0000
1000
0100
0010
0000
0001
0000
0100
0000
,
0010
1000
0010
0001
0010
1000
0010
0000
,
1001
0000
0100
0001
0010
0000
0100
0000
1000
0010
0100
0000
0010
0000
1000
0000
,
1100
0000
0010
0001
0100
0000
0010
0000
0100
0001
0010
0000
0100
0000
0010
0000
,
1100
0000
0000
0010
0001
0000
0000
0100
0010
0000
0000
1000
0100
0000
1000
0000
,
1010
0000
0100
0001
0000
1000
0010
0000
0100
0001
0000
0000
0010
0000
0000
0000
,
0000
0000
0010
0000
1000
0100
0001
0100
,
1000
0000
MMMM
0000
0010
0000
1000
0100
,
0001
0100
1000
0000
MMMM
0000
0010
0000
,
1000
0100
0001
0100
1000
0000
MMMM
0000
,
0010
0000
1000
0100
0001
0100
1000
0000
,
MMMM
0000
0010
0000
1000
0100
0001
0100
,
1000
0000
MMMM
0000
0010
0000
1000
0100
,
0001
0100
1000
0000
MMMM
0000
0010
0000
,
1000
0100
0001
0100
1000
0000
MMMM
0000
,
0010
0000
1000
0100
0001
0100
1000
0000
,
MMMM
0000
0001
0100
MMMM
1000
0100
0000
,
0100
0000
0100
0000
0001
0100
MMMM
1000
,
0100
0000
0100
0000
0100
0000
0001
0100
,
MMMM
1000
0100
0000
0100
0000
0100
0000
,
0001
0100
MMMM
1000
0100
0000
0100
0000
,
0100
0000
1010
0000
0001
0100
0010
0000
,
0011
0000
1000
0100
0010
0000
1010
0000
,
0001
1000
0100
0000
0011
0000
MMMM
0000
,
0101
0010
0010
0010
,
0100
0010
0100
0010
0100
0000
2002
0000
,
0000
0000
0000
0000
,
0000
0000
0000
0000
,
0000
0000
0000
3003
0000
0000
0010
0010
0001
0100
0100
0001
,
0100
0001
1000
0200
0000
0000
0310
0010
0100
1000
1000
0010
,
0100
0100
0001
0010
0001
0100
MMMM
0001
1000
MMMM
1000
0001
,
MMMM
0010
0100
MMMM
0000
0000
MMMM
0100
0001
MMMM
0100
1000
,
0010
0000
1000
0000
0100
0000
0010
0000
0100
0000
1000
0000
0001
0000
0000
0000
0000
0000
1000
0000
0000
0100
0000
0000
,
MMMM
0000
1000
0000
0001
0100
MMMM
0000
,
1010
1001
0101
2000
,
0100
0000
3100
0000
1000
0000
0001
0100
,
MMMM
0000
0001
0000
1000
0100
MMMM
0000
,
0011
0110
1100
MMMM
,
1000
0000
1000
0000
0010
0000
MMMM
1000
,
0100
0000
0010
0000
MMMM
0001
0100
0000
,
1100
0110
0101
0020
,
0100
0000
0130
0000
1000
0000
MMMM
0010
,
0100
0000
1000
0000
MMMM
1000
0100
0000
,
0010
0000
0100
0000
1000
0000
0001
0100
,
0010
1000
0100
0010
0001
0000
1000
0100
,
MMMM
0100
1000
0000
0001
0100
MMMM
0100
,
0010
1001
0101
2000
,
3100
0010
0100
0000
1000
0000
0001
0100
,
MMMM
0100
0001
0000
1000
0100
MMMM
0100
,
0010
1001
1100
0012
,
0100
0000
0013
0000
0101
0000
MMMM
0100
,
MMMM
0100
0010
0000
0001
0000
0100
0000
,
1100
0000
MMMM
0100
MMMM
0100
0010
0000
,
1000
0000
0100
0000
0011
0000
1000
0100
,
MMMM
0000
1010
0000
0001
0100
MMMM
0000
,
0010
1000
0001
0010
MMMM
0000
2002
0000
,
0000
0000
0000
0000
,
0000
0000
0000
0000
0000
0000
3003
MMMM
,
MMMM
0000
0000
0000
;
