#TITLE:icy sweet;
#SUBTITLE:;
#ARTIST:GEMS COMPANY;
#TITLETRANSLIT:Icy Sweet;
#SUBTITLETRANSLIT:;
#ARTISTTRANSLIT:Gems Company;
#GENRE:;
#CREDIT:;
#BANNER:;
#BACKGROUND:;
#LYRICSPATH:;
#CDTITLE:;
#MUSIC:icy sweet.ogg;
#OFFSET:-0.000000;
#SAMPLESTART:46.588238;
#SAMPLELENGTH:15.000000;
#SELECTABLE:YES;
#BPMS:0.000000=170.000000
;
#STOPS:
;
#BGCHANGES:;
#KEYSOUNDS:;
#ATTACKS:;

//---------------dance-single - ----------------
#NOTES:
     dance-single:
     :
     Easy:
     5:
     0.127467,0.243808,0.113490,0.442220,0.000000,228.000000,199.000000,29.000000,113.000000,0.000000,0.000000,0.127467,0.243808,0.113490,0.442220,0.000000,228.000000,199.000000,29.000000,113.000000,0.000000,0.000000:
// measure 0
0000
0000
0000
0000
,  // measure 1
0020
0000
0000
0000
,  // measure 2
0000
0000
0000
0000
,  // measure 3
0000
0000
0000
0000
,  // measure 4
0000
0000
0000
0030
,  // measure 5
0200
0000
0000
0000
,  // measure 6
0000
0000
0000
0000
,  // measure 7
0000
0000
0000
0000
,  // measure 8
0000
0000
0000
0300
,  // measure 9
2000
0000
0000
0000
,  // measure 10
0000
0000
0000
3000
,  // measure 11
0002
0000
0000
0000
,  // measure 12
1000
0000
0000
0003
,  // measure 13
0020
0000
0000
0000
,  // measure 14
0000
0000
0000
0030
,  // measure 15
0200
0000
0000
0000
,  // measure 16
0010
0000
0000
0300
,  // measure 17
2000
0000
0000
0000
0001
0000
0001
3000
,  // measure 18
0002
0000
0000
0000
1000
0000
1000
0003
,  // measure 19
0020
0000
0000
0000
0100
0000
0100
0030
,  // measure 20
0200
0000
0000
0000
0010
0000
0010
0300
,  // measure 21
0002
0000
0000
0000
1000
0000
1000
0003
,  // measure 22
2000
0000
0000
0000
0001
0000
0001
3000
,  // measure 23
0200
0000
0000
0000
0010
0000
0010
0300
,  // measure 24
0020
0000
0000
0000
0100
0000
0100
0030
,  // measure 25
0200
0000
0000
0000
,  // measure 26
0010
0000
0000
0000
,  // measure 27
0010
0000
0000
0000
,  // measure 28
0010
0000
0000
0300
,  // measure 29
1000
0000
0000
0100
0000
0000
0010
0000
,  // measure 30
0000
0001
0000
0000
0010
0000
0000
2002
,  // measure 31
0000
0000
0000
0000
,  // measure 32
0000
0000
0000
3003
,  // measure 33
2002
0000
0000
0003
,  // measure 34
0000
0000
0001
3000
,  // measure 35
2002
0000
0000
3000
,  // measure 36
0000
0000
1000
0003
,  // measure 37
0220
0000
0000
0300
,  // measure 38
0000
0000
0100
0030
,  // measure 39
0220
0000
0000
0030
,  // measure 40
0000
0000
0010
0300
,  // measure 41
2002
0000
0000
0003
,  // measure 42
0000
0000
0001
3000
,  // measure 43
2002
0000
0000
3000
,  // measure 44
0000
0000
1000
0003
,  // measure 45
0220
0000
0000
0300
,  // measure 46
0000
0000
0100
0030
,  // measure 47
0220
0000
0000
0030
,  // measure 48
0000
0000
0010
0300
,  // measure 49
0020
0000
0000
0030
,  // measure 50
0100
0000
0010
0000
,  // measure 51
0200
0000
0000
0300
,  // measure 52
0010
0000
0100
0000
,  // measure 53
0002
0000
0000
0003
,  // measure 54
1000
0000
0001
0000
,  // measure 55
2000
0000
0000
3000
,  // measure 56
0001
0000
1000
0000
,  // measure 57
0020
0000
0000
0000
,  // measure 58
0000
0000
0000
0000
,  // measure 59
0000
0000
0000
0000
,  // measure 60
0000
0000
0000
0030
,  // measure 61
0200
0000
0000
0000
,  // measure 62
0000
0000
0000
0000
,  // measure 63
0000
0000
0000
0000
,  // measure 64
0000
0000
0000
0300
,  // measure 65
2000
0000
0000
0000
,  // measure 66
0000
0000
0000
3000
,  // measure 67
0002
0000
0000
0000
,  // measure 68
1000
0000
0000
0003
,  // measure 69
0020
0000
0000
0000
,  // measure 70
0000
0000
0000
0030
,  // measure 71
0200
0000
0000
0000
,  // measure 72
0010
0000
0000
0300
,  // measure 73
2000
0000
0000
0000
0001
0000
0001
3000
,  // measure 74
0002
0000
0000
0000
1000
0000
1000
0003
,  // measure 75
0020
0000
0000
0000
0100
0000
0100
0030
,  // measure 76
0200
0000
0000
0000
0010
0000
0010
0300
,  // measure 77
0002
0000
0000
0000
1000
0000
1000
0003
,  // measure 78
2000
0000
0000
0000
0001
0000
0001
3000
,  // measure 79
0200
0000
0000
0000
0010
0000
0010
0300
,  // measure 80
0020
0000
0000
0000
0100
0000
0100
0030
,  // measure 81
0200
0000
0000
0000
,  // measure 82
0010
0000
0000
0000
,  // measure 83
0010
0000
0000
0000
,  // measure 84
0010
0000
0000
0300
,  // measure 85
1000
0000
0000
0100
0000
0000
0010
0000
,  // measure 86
0000
0001
0000
0000
0010
0000
0000
2002
,  // measure 87
0000
0000
0000
0000
,  // measure 88
0000
0000
0000
3003
,  // measure 89
2002
0000
0000
0003
,  // measure 90
0000
0000
0001
3000
,  // measure 91
2002
0000
0000
3000
,  // measure 92
0000
0000
1000
0003
,  // measure 93
0220
0000
0000
0300
,  // measure 94
0000
0000
0100
0030
,  // measure 95
0220
0000
0000
0030
,  // measure 96
0000
0000
0010
0300
,  // measure 97
2002
0000
0000
0003
,  // measure 98
0000
0000
0001
3000
,  // measure 99
2002
0000
0000
3000
,  // measure 100
0000
0000
1000
0003
,  // measure 101
0220
0000
0000
0300
,  // measure 102
0000
0000
0100
0030
,  // measure 103
0220
0000
0000
0030
,  // measure 104
0000
0000
0010
0300
,  // measure 105
2002
0000
0000
0000
,  // measure 106
0000
0000
0000
0000
,  // measure 107
0000
0000
0000
0000
,  // measure 108
0000
0000
0000
0000
,  // measure 109
0000
0000
0000
0000
,  // measure 110
0000
0000
0000
0000
,  // measure 111
0000
0000
0000
0000
,  // measure 112
0000
0000
0000
3003
,  // measure 113
0020
0000
0000
0000
,  // measure 114
0000
0000
0000
0000
,  // measure 115
0200
0000
0000
0000
,  // measure 116
0000
0000
0000
0330
,  // measure 117
0200
0000
0000
0000
,  // measure 118
0000
0000
0000
0000
,  // measure 119
0020
0000
0000
0000
,  // measure 120
0000
0000
0000
0330
,  // measure 121
0002
0000
0000
0000
,  // measure 122
0000
0000
0000
0000
,  // measure 123
2000
0000
0000
0000
,  // measure 124
0000
0000
0000
3003
,  // measure 125
2000
0000
0000
0000
,  // measure 126
0000
0000
0000
0000
,  // measure 127
0002
0000
0000
0000
,  // measure 128
0000
0000
0000
3003
,  // measure 129
1000
0001
1000
0001
,  // measure 130
2002
0000
0000
0000
,  // measure 131
0000
0000
0000
3003
,  // measure 132
2002
0000
0000
0003
,  // measure 133
0000
0000
0001
3000
,  // measure 134
2002
0000
0000
3000
,  // measure 135
0000
0000
1000
0003
,  // measure 136
0220
0000
0000
0300
,  // measure 137
0000
0000
0100
0030
,  // measure 138
0220
0000
0000
0030
,  // measure 139
0000
0000
0010
0300
,  // measure 140
2002
0000
0000
0003
,  // measure 141
0000
0000
0001
3000
,  // measure 142
2002
0000
0000
3000
,  // measure 143
0000
0000
1000
0003
,  // measure 144
0220
0000
0000
0300
,  // measure 145
0000
0000
0100
0030
,  // measure 146
0220
0000
0000
0030
,  // measure 147
0000
0000
0010
0300
,  // measure 148
0020
0000
0000
0030
,  // measure 149
0100
0000
0010
0000
,  // measure 150
0200
0000
0000
0300
,  // measure 151
0010
0000
0100
0000
,  // measure 152
0002
0000
0000
0003
,  // measure 153
1000
0000
0001
0000
,  // measure 154
2000
0000
0000
3000
,  // measure 155
0001
0000
1000
0000
,  // measure 156
0020
0000
0000
0030
,  // measure 157
0100
0000
0010
0000
,  // measure 158
0200
0000
0000
0300
,  // measure 159
0010
0000
0100
0000
,  // measure 160
0002
0000
0000
0003
,  // measure 161
1000
0000
0001
0000
,  // measure 162
2000
0000
0000
3000
,  // measure 163
0001
0000
1000
0000
,  // measure 164
0020
0000
0000
0030
,  // measure 165
0100
0000
0010
0000
,  // measure 166
0200
0000
0000
0300
,  // measure 167
0010
0000
0100
0000
,  // measure 168
0002
0000
0000
0003
,  // measure 169
1000
0000
0001
0000
,  // measure 170
2000
0000
0000
3000
,  // measure 171
0001
0000
1000
0000
,  // measure 172
0020
0000
0000
0000
,  // measure 173
0100
0000
0000
0000
,  // measure 174
0100
0000
0000
0000
,  // measure 175
0100
0000
0030
2002
,  // measure 176
0000
0000
0000
0000
,  // measure 177
0000
0000
0000
0000
,  // measure 178
3003
0000
0000
0000
;

//---------------dance-single - ----------------
#NOTES:
     dance-single:
     :
     Beginner:
     5:
     0.118522,0.243808,0.113490,0.442220,0.000000,212.000000,183.000000,29.000000,113.000000,0.000000,0.000000,0.118522,0.243808,0.113490,0.442220,0.000000,212.000000,183.000000,29.000000,113.000000,0.000000,0.000000:
0000
0000
0000
0000
,
0020
0000
0000
0000
,
0000
0000
0000
0000
,
0000
0000
0000
0000
,
0000
0000
0000
0030
,
0200
0000
0000
0000
,
0000
0000
0000
0000
,
0000
0000
0000
0000
,
0000
0000
0000
0300
,
2000
0000
0000
0000
,
0000
0000
0000
3000
,
0002
0000
0000
0000
,
1000
0000
0000
0003
,
0020
0000
0000
0000
,
0000
0000
0000
0030
,
0200
0000
0000
0000
,
0010
0000
0000
0300
,
2000
0000
0000
0000
0001
0000
0000
3000
,
0002
0000
0000
0000
1000
0000
0000
0003
,
0020
0000
0000
0000
0100
0000
0000
0030
,
0200
0000
0000
0000
0010
0000
0000
0300
,
0002
0000
0000
0000
1000
0000
0000
0003
,
2000
0000
0000
0000
0001
0000
0000
3000
,
0200
0000
0000
0000
0010
0000
0000
0300
,
0020
0000
0000
0000
0100
0000
0000
0030
,
0200
0000
0000
0000
,
0010
0000
0000
0000
,
0010
0000
0000
0000
,
0010
0000
0000
0300
,
1000
0000
0000
0100
0000
0000
0010
0000
,
0000
0001
0000
0000
0010
0000
0000
2002
,
0000
0000
0000
0000
,
0000
0000
0000
3003
,
2002
0000
0000
0003
,
0000
0000
0001
3000
,
2002
0000
0000
3000
,
0000
0000
1000
0003
,
0220
0000
0000
0300
,
0000
0000
0100
0030
,
0220
0000
0000
0030
,
0000
0000
0010
0300
,
2002
0000
0000
0003
,
0000
0000
0001
3000
,
2002
0000
0000
3000
,
0000
0000
1000
0003
,
0220
0000
0000
0300
,
0000
0000
0100
0030
,
0220
0000
0000
0030
,
0000
0000
0010
0300
,
0020
0000
0000
0030
,
0100
0000
0010
0000
,
0200
0000
0000
0300
,
0010
0000
0100
0000
,
0002
0000
0000
0003
,
1000
0000
0001
0000
,
2000
0000
0000
3000
,
0001
0000
1000
0000
,
0020
0000
0000
0000
,
0000
0000
0000
0000
,
0000
0000
0000
0000
,
0000
0000
0000
0030
,
0200
0000
0000
0000
,
0000
0000
0000
0000
,
0000
0000
0000
0000
,
0000
0000
0000
0300
,
2000
0000
0000
0000
,
0000
0000
0000
3000
,
0002
0000
0000
0000
,
1000
0000
0000
0003
,
0020
0000
0000
0000
,
0000
0000
0000
0030
,
0200
0000
0000
0000
,
0010
0000
0000
0300
,
2000
0000
0000
0000
0001
0000
0000
3000
,
0002
0000
0000
0000
1000
0000
0000
0003
,
0020
0000
0000
0000
0100
0000
0000
0030
,
0200
0000
0000
0000
0010
0000
0000
0300
,
0002
0000
0000
0000
1000
0000
0000
0003
,
2000
0000
0000
0000
0001
0000
0000
3000
,
0200
0000
0000
0000
0010
0000
0000
0300
,
0020
0000
0000
0000
0100
0000
0000
0030
,
0200
0000
0000
0000
,
0010
0000
0000
0000
,
0010
0000
0000
0000
,
0010
0000
0000
0300
,
1000
0000
0000
0100
0000
0000
0010
0000
,
0000
0001
0000
0000
0010
0000
0000
2002
,
0000
0000
0000
0000
,
0000
0000
0000
3003
,
2002
0000
0000
0003
,
0000
0000
0001
3000
,
2002
0000
0000
3000
,
0000
0000
1000
0003
,
0220
0000
0000
0300
,
0000
0000
0100
0030
,
0220
0000
0000
0030
,
0000
0000
0010
0300
,
2002
0000
0000
0003
,
0000
0000
0001
3000
,
2002
0000
0000
3000
,
0000
0000
1000
0003
,
0220
0000
0000
0300
,
0000
0000
0100
0030
,
0220
0000
0000
0030
,
0000
0000
0010
0300
,
2002
0000
0000
0000
,
0000
0000
0000
0000
,
0000
0000
0000
0000
,
0000
0000
0000
0000
,
0000
0000
0000
0000
,
0000
0000
0000
0000
,
0000
0000
0000
0000
,
0000
0000
0000
3003
,
0020
0000
0000
0000
,
0000
0000
0000
0000
,
0200
0000
0000
0000
,
0000
0000
0000
0330
,
0200
0000
0000
0000
,
0000
0000
0000
0000
,
0020
0000
0000
0000
,
0000
0000
0000
0330
,
0002
0000
0000
0000
,
0000
0000
0000
0000
,
2000
0000
0000
0000
,
0000
0000
0000
3003
,
2000
0000
0000
0000
,
0000
0000
0000
0000
,
0002
0000
0000
0000
,
0000
0000
0000
3003
,
1000
0001
1000
0001
,
2002
0000
0000
0000
,
0000
0000
0000
3003
,
2002
0000
0000
0003
,
0000
0000
0001
3000
,
2002
0000
0000
3000
,
0000
0000
1000
0003
,
0220
0000
0000
0300
,
0000
0000
0100
0030
,
0220
0000
0000
0030
,
0000
0000
0010
0300
,
2002
0000
0000
0003
,
0000
0000
0001
3000
,
2002
0000
0000
3000
,
0000
0000
1000
0003
,
0220
0000
0000
0300
,
0000
0000
0100
0030
,
0220
0000
0000
0030
,
0000
0000
0010
0300
,
0020
0000
0000
0030
,
0100
0000
0010
0000
,
0200
0000
0000
0300
,
0010
0000
0100
0000
,
0002
0000
0000
0003
,
1000
0000
0001
0000
,
2000
0000
0000
3000
,
0001
0000
1000
0000
,
0020
0000
0000
0030
,
0100
0000
0010
0000
,
0200
0000
0000
0300
,
0010
0000
0100
0000
,
0002
0000
0000
0003
,
1000
0000
0001
0000
,
2000
0000
0000
3000
,
0001
0000
1000
0000
,
0020
0000
0000
0030
,
0100
0000
0010
0000
,
0200
0000
0000
0300
,
0010
0000
0100
0000
,
0002
0000
0000
0003
,
1000
0000
0001
0000
,
2000
0000
0000
3000
,
0001
0000
1000
0000
,
0020
0000
0000
0000
,
0100
0000
0000
0000
,
0100
0000
0000
0000
,
0100
0000
0030
2002
,
0000
0000
0000
0000
,
0000
0000
0000
0000
,
3003
0000
0000
0000
;

//---------------dance-single - ----------------
#NOTES:
     dance-single:
     :
     Medium:
     5:
     0.139207,0.243808,0.113490,0.457874,0.000000,249.000000,220.000000,29.000000,117.000000,0.000000,0.000000,0.139207,0.243808,0.113490,0.457874,0.000000,249.000000,220.000000,29.000000,117.000000,0.000000,0.000000:
0000
0000
0000
0000
,
0020
0000
0000
0000
,
0000
0000
0000
0000
,
0200
0000
0000
0000
,
0000
0000
0000
0330
,
0200
0000
0000
0000
,
0000
0000
0000
0000
,
0020
0000
0000
0000
,
0000
0000
0000
0330
,
2000
0000
0000
0000
,
0001
0000
0000
3000
,
0002
0000
0000
0000
,
1000
0000
0000
0003
,
0020
0000
0000
0000
,
0100
0000
0000
0030
,
0200
0000
0000
0000
,
0010
0000
0000
0300
,
2000
0000
0000
0000
0001
0000
0001
3000
,
0002
0000
0000
0000
1000
0000
1000
0003
,
0020
0000
0000
0000
0100
0000
0100
0030
,
0200
0000
0000
0000
0010
0000
0010
0300
,
0002
0000
0000
0000
1000
0000
1000
0003
,
2000
0000
0000
0000
0001
0000
0001
3000
,
0200
0000
0000
0000
0010
0000
0010
0300
,
0020
0000
0000
0000
0100
0000
0100
0030
,
0200
0000
0000
0000
,
0010
0000
0000
0000
,
0010
0000
0000
0000
,
0010
0000
0000
0300
,
1000
0000
0000
0100
0000
0000
0010
0000
,
0000
0001
0000
0000
0010
0000
0000
2002
,
0000
0000
0000
0000
,
0000
0000
0000
3003
,
2002
0000
0000
0003
,
0001
0000
0001
3000
,
2002
0000
0000
3000
,
0000
0000
1000
0003
,
0220
0000
0000
0300
,
0100
0000
0100
0030
,
0220
0000
0000
0030
,
0000
0000
0010
0300
,
2002
0000
0000
0003
,
0001
0000
0001
3000
,
2002
0000
0000
3000
,
0000
0000
1000
0003
,
0220
0000
0000
0300
,
0100
0000
0100
0030
,
0220
0000
0000
0030
,
0000
0000
0010
0300
,
0020
0000
0000
0030
,
0100
0000
0010
0000
,
0200
0000
0000
0300
,
0010
0000
0100
0000
,
0002
0000
0000
0003
,
1000
0000
0001
0000
,
2000
0000
0000
3000
,
0001
0000
1000
0000
,
0020
0000
0000
0000
,
0000
0000
0000
0000
,
0200
0000
0000
0000
,
0000
0000
0000
0330
,
0200
0000
0000
0000
,
0000
0000
0000
0000
,
0020
0000
0000
0000
,
0000
0000
0000
0330
,
2000
0000
0000
0000
,
0001
0000
0000
3000
,
0002
0000
0000
0000
,
1000
0000
0000
0003
,
0020
0000
0000
0000
,
0100
0000
0000
0030
,
0200
0000
0000
0000
,
0010
0000
0000
0300
,
2000
0000
0000
0000
0001
0000
0001
3000
,
0002
0000
0000
0000
1000
0000
1000
0003
,
0020
0000
0000
0000
0100
0000
0100
0030
,
0200
0000
0000
0000
0010
0000
0010
0300
,
0002
0000
0000
0000
1000
0000
1000
0003
,
2000
0000
0000
0000
0001
0000
0001
3000
,
0200
0000
0000
0000
0010
0000
0010
0300
,
0020
0000
0000
0000
0100
0000
0100
0030
,
0200
0000
0000
0000
,
0010
0000
0000
0000
,
0010
0000
0000
0000
,
0010
0000
0000
0300
,
1000
0000
0000
0100
0000
0000
0010
0000
,
0000
0001
0000
0000
0010
0000
0000
2002
,
0000
0000
0000
0000
,
0000
0000
0000
3003
,
2002
0000
0000
0003
,
0001
0000
0001
3000
,
2002
0000
0000
3000
,
0000
0000
1000
0003
,
0220
0000
0000
0300
,
0100
0000
0100
0030
,
0220
0000
0000
0030
,
0000
0000
0010
0300
,
2002
0000
0000
0003
,
0001
0000
0001
3000
,
2002
0000
0000
3000
,
0000
0000
1000
0003
,
0220
0000
0000
0300
,
0100
0000
0100
0030
,
0220
0000
0000
0030
,
0000
0000
0010
0300
,
2002
0000
0000
0000
,
0000
0000
0000
0000
,
0000
0000
0000
0000
,
0000
0000
0000
0000
,
0000
0000
0000
0000
,
0000
0000
0000
0000
,
0000
0000
0000
0000
,
0000
0000
0000
3003
,
0020
0000
0000
0000
,
0000
0000
0000
0000
,
0200
0000
0000
0000
,
0000
0000
0000
0330
,
0200
0000
0000
0000
,
0000
0000
0000
0000
,
0020
0000
0000
0000
,
0000
0000
0000
0330
,
0002
0000
0000
0000
,
0000
0000
0000
0000
,
2000
0000
0000
0000
,
0000
0000
0000
3003
,
2000
0000
0000
0000
,
0000
0000
0000
0000
,
0002
0000
0000
0000
,
0000
0000
0000
3003
,
1000
0001
1000
0001
,
2002
0000
0000
0000
,
0000
0000
0000
3003
,
2002
0000
0000
0003
,
0001
0000
0001
3000
,
2002
0000
0000
3000
,
0000
0000
1000
0003
,
0220
0000
0000
0300
,
0100
0000
0100
0030
,
0220
0000
0000
0030
,
0000
0000
0010
0300
,
2002
0000
0000
0003
,
0001
0000
0001
3000
,
2002
0000
0000
3000
,
0000
0000
1000
0003
,
0220
0000
0000
0300
,
0100
0000
0100
0030
,
0220
0000
0000
0030
,
0000
0000
0010
0300
,
0020
0000
0000
0030
,
0100
0000
0010
0000
,
0200
0000
0000
0300
,
0010
0000
0100
0000
,
0002
0000
0000
0003
,
1000
0000
0001
0000
,
2000
0000
0000
3000
,
0001
0000
1000
0000
,
0020
0000
0000
0030
,
0100
0000
0010
0000
,
0200
0000
0000
0300
,
0010
0000
0100
0000
,
0002
0000
0000
0003
,
1000
0000
0001
0000
,
2000
0000
0000
3000
,
0001
0000
1000
0000
,
0020
0000
0000
0030
,
0100
0000
0010
0000
,
0200
0000
0000
0300
,
0010
0000
0100
0000
,
0002
0000
0000
0003
,
1000
0000
0001
0000
,
2000
0000
0000
3000
,
0001
0000
1000
0000
,
0020
0000
0000
0000
,
0100
0000
0000
0000
,
0100
0000
0000
0000
,
0100
0000
0130
2002
,
0000
0000
0000
0000
,
0000
0000
0000
0000
,
3003
0000
0000
0000
;

//---------------dance-single - ----------------
#NOTES:
     dance-single:
     :
     Hard:
     6:
     0.145916,0.243808,0.113490,0.524402,0.000000,261.000000,232.000000,29.000000,134.000000,0.000000,0.000000,0.145916,0.243808,0.113490,0.524402,0.000000,261.000000,232.000000,29.000000,134.000000,0.000000,0.000000:
0000
0000
0000
0000
,
0020
0000
0000
0000
,
0000
0000
0000
0000
,
0200
0000
0000
0000
,
0000
0000
0000
0330
,
0200
0000
0000
0000
,
0000
0000
0000
0000
,
0020
0000
0000
0000
,
0000
0000
0000
0330
,
2000
0000
0000
0000
,
0001
0000
0000
3000
,
0002
0000
0000
0000
,
1000
0000
0000
0003
,
0020
0000
0000
0000
,
0100
0000
0000
0030
,
0200
0000
0000
0000
,
0010
0000
0000
0300
,
2000
0000
0000
0000
0001
0000
0001
3000
,
0002
0000
0000
0000
1000
0000
1000
0003
,
0020
0000
0000
0000
0100
0000
0100
0030
,
0200
0000
0000
0000
0010
0000
0010
0300
,
0002
0000
0000
0000
1000
0000
1000
0003
,
2000
0000
0000
0000
0001
0000
0001
3000
,
0200
0000
0000
0000
0010
0000
0010
0300
,
0020
0000
0000
0000
0100
0000
0100
0030
,
0200
0000
0000
0000
,
0010
0000
0000
0000
,
0010
0000
0000
0000
,
0010
0000
0000
0300
,
1000
0000
0000
0100
0000
0000
0010
0000
,
0000
0001
0000
0000
0010
0000
0000
2002
,
0000
0000
0000
0000
,
0000
0000
0000
3003
,
2002
0000
0000
0003
,
0001
0000
0001
3000
,
2002
0000
0000
3000
,
1000
0000
1000
0003
,
0220
0000
0000
0300
,
0100
0000
0100
0030
,
0220
0000
0000
0030
,
0010
0000
0010
0300
,
2002
0000
0000
0003
,
0001
0000
0001
3000
,
2002
0000
0000
3000
,
1000
0000
1000
0003
,
0220
0000
0000
0300
,
0100
0000
0100
0030
,
0220
0000
0000
0030
,
0010
0000
0010
0300
,
0020
0000
0000
0030
,
0200
0000
0310
0000
,
0200
0000
0000
0300
,
0020
0000
0130
0000
,
0002
0000
0000
0003
,
2000
0000
3001
0000
,
2000
0000
0000
3000
,
0002
0000
1003
0000
,
0020
0000
0000
0000
,
0000
0000
0000
0000
,
0200
0000
0000
0000
,
0000
0000
0000
0330
,
0200
0000
0000
0000
,
0000
0000
0000
0000
,
0020
0000
0000
0000
,
0000
0000
0000
0330
,
2000
0000
0000
0000
,
0001
0000
0000
3000
,
0002
0000
0000
0000
,
1000
0000
0000
0003
,
0020
0000
0000
0000
,
0100
0000
0000
0030
,
0200
0000
0000
0000
,
0010
0000
0000
0300
,
2000
0000
0000
0000
0001
0000
0001
3000
,
0002
0000
0000
0000
1000
0000
1000
0003
,
0020
0000
0000
0000
0100
0000
0100
0030
,
0200
0000
0000
0000
0010
0000
0010
0300
,
0002
0000
0000
0000
1000
0000
1000
0003
,
2000
0000
0000
0000
0001
0000
0001
3000
,
0200
0000
0000
0000
0010
0000
0010
0300
,
0020
0000
0000
0000
0100
0000
0100
0030
,
0200
0000
0000
0000
,
0010
0000
0000
0000
,
0010
0000
0000
0000
,
0010
0000
0000
0300
,
1000
0000
0000
0100
0000
0000
0010
0000
,
0000
0001
0000
0000
0010
0000
0000
2002
,
0000
0000
0000
0000
,
0000
0000
0000
3003
,
2002
0000
0000
0003
,
0001
0000
0001
3000
,
2002
0000
0000
3000
,
1000
0000
1000
0003
,
0220
0000
0000
0300
,
0100
0000
0100
0030
,
0220
0000
0000
0030
,
0010
0000
0010
0300
,
2002
0000
0000
0003
,
0001
0000
0001
3000
,
2002
0000
0000
3000
,
1000
0000
1000
0003
,
0220
0000
0000
0300
,
0100
0000
0100
0030
,
0220
0000
0000
0030
,
0010
0000
0010
0300
,
2002
0000
0000
0000
,
0000
0000
0000
0000
,
0000
0000
0000
0000
,
0000
0000
0000
0000
,
0000
0000
0000
0000
,
0000
0000
0000
0000
,
0000
0000
0000
0000
,
0000
0000
0000
3003
,
0020
0000
0000
0000
,
0000
0000
0000
0000
,
0200
0000
0000
0000
,
0000
0000
0000
0330
,
0200
0000
0000
0000
,
0000
0000
0000
0000
,
0020
0000
0000
0000
,
0000
0000
0000
0330
,
0002
0000
0000
0000
,
0000
0000
0000
0000
,
2000
0000
0000
0000
,
0000
0000
0000
3003
,
2000
0000
0000
0000
,
0000
0000
0000
0000
,
0002
0000
0000
0000
,
0000
0000
0000
3003
,
1000
0001
1000
0001
,
2002
0000
0000
0000
,
0000
0000
0000
3003
,
2002
0000
0000
0003
,
0001
0000
0001
3000
,
2002
0000
0000
3000
,
1000
0000
1000
0003
,
0220
0000
0000
0300
,
0100
0000
0100
0030
,
0220
0000
0000
0030
,
0010
0000
0010
0300
,
2002
0000
0000
0003
,
0001
0000
0001
3000
,
2002
0000
0000
3000
,
1000
0000
1000
0003
,
0220
0000
0000
0300
,
0100
0000
0100
0030
,
0220
0000
0000
0030
,
0010
0000
0010
0300
,
0020
0000
0000
0030
,
0200
0000
0310
0000
,
0200
0000
0000
0300
,
0020
0000
0130
0000
,
0002
0000
0000
0003
,
2000
0000
3001
0000
,
2000
0000
0000
3000
,
0002
0000
1003
0000
,
0020
0000
0000
0030
,
0200
0000
0310
0000
,
0200
0000
0000
0300
,
0020
0000
0130
0000
,
0002
0000
0000
0003
,
2000
0000
3001
0000
,
2000
0000
0000
3000
,
0002
0000
1003
0000
,
0020
0000
0000
0030
,
0200
0000
0310
0000
,
0200
0000
0000
0300
,
0020
0000
0130
0000
,
0002
0000
0000
0003
,
2000
0000
3001
0000
,
2000
0000
0000
3000
,
0002
0000
1003
0000
,
0020
0000
0000
0000
,
0100
0000
0000
0000
,
0100
0000
0000
0000
,
0200
0300
0130
2002
,
0000
0000
0000
0000
,
0000
0000
0000
0000
,
3003
0000
0000
0000
;

//---------------dance-single - ----------------
#NOTES:
     dance-single:
     :
     Challenge:
     6:
     0.150947,0.243808,0.113490,0.532229,0.000000,270.000000,241.000000,29.000000,136.000000,0.000000,0.000000,0.150947,0.243808,0.113490,0.532229,0.000000,270.000000,241.000000,29.000000,136.000000,0.000000,0.000000:
0000
0000
0000
0000
,
0020
0000
0000
0000
,
0100
0000
0000
0000
,
0200
0000
0000
0000
,
0000
0000
0000
0330
,
0200
0000
0000
0000
,
0010
0000
0000
0000
,
0020
0000
0000
0000
,
0000
0000
0000
0330
,
2000
0000
0000
0000
,
0001
0000
0000
3000
,
0002
0000
0000
0000
,
1000
0000
0000
0003
,
0020
0000
0000
0000
,
0100
0000
0000
0030
,
0200
0000
0000
0000
,
0010
0000
0000
0300
,
2000
0000
0000
0000
0001
0000
0001
3000
,
0002
0000
0000
0000
1000
0000
1000
0003
,
0020
0000
0000
0000
0100
0000
0100
0030
,
0200
0000
0000
0000
0010
0000
0010
0300
,
0002
0000
0000
0000
1000
0000
1000
0003
,
2000
0000
0000
0000
0001
0000
0001
3000
,
0200
0000
0000
0000
0010
0000
0010
0300
,
0020
0000
0000
0000
0100
0000
0100
0030
,
0200
0000
0000
0000
,
0010
0000
0000
0000
,
0010
0000
0000
0000
,
0010
0000
0010
0300
,
1000
0000
0000
0100
0000
0000
0010
0000
,
0000
0001
0000
0000
0010
0000
0000
2002
,
0000
0000
0000
0000
,
0000
0000
0000
3003
,
2002
0000
0000
0003
,
0001
0000
0001
3000
,
2002
0000
0000
3000
,
1000
0000
1000
0003
,
0220
0000
0000
0300
,
0100
0000
0100
0030
,
0220
0000
0000
0030
,
0010
0000
0010
0300
,
2002
0000
0000
0003
,
0001
0000
0001
3000
,
2002
0000
0000
3000
,
1000
0000
1000
0003
,
0220
0000
0000
0300
,
0100
0000
0100
0030
,
0220
0000
0000
0030
,
0010
0000
0010
0300
,
0020
0000
0000
0030
,
0200
0000
0310
0000
,
0200
0000
0000
0300
,
0020
0000
0130
0000
,
0002
0000
0000
0003
,
2000
0000
3001
0000
,
2000
0000
0000
3000
,
0002
0000
1003
0000
,
0020
0000
0000
0000
,
0000
0000
0000
0000
,
0200
0000
0000
0000
,
0000
0000
0000
0330
,
0200
0000
0000
0000
,
0000
0000
0000
0000
,
0020
0000
0000
0000
,
0000
0000
0000
0330
,
2000
0000
0000
0000
,
0001
0000
0000
3000
,
0002
0000
0000
0000
,
1000
0000
0000
0003
,
0020
0000
0000
0000
,
0100
0000
0000
0030
,
0200
0000
0000
0000
,
0010
0000
0000
0300
,
2000
0000
0000
0000
0001
0000
0001
3000
,
0002
0000
0000
0000
1000
0000
1000
0003
,
0020
0000
0000
0000
0100
0000
0100
0030
,
0200
0000
0000
0000
0010
0000
0010
0300
,
0002
0000
0000
0000
1000
0000
1000
0003
,
2000
0000
0000
0000
0001
0000
0001
3000
,
0200
0000
0000
0000
0010
0000
0010
0300
,
0020
0000
0000
0000
0100
0000
0100
0030
,
0200
0000
0000
0000
,
0010
0000
0000
0000
,
0010
0000
0000
0000
,
0010
0000
0010
0300
,
1000
0000
0000
0100
0000
0000
0010
0000
,
0000
0001
0000
0000
0010
0000
0000
2002
,
0000
0000
0000
0000
,
0000
0000
0000
3003
,
2002
0000
0000
0003
,
0001
0000
0001
3000
,
2002
0000
0000
3000
,
1000
0000
1000
0003
,
0220
0000
0000
0300
,
0100
0000
0100
0030
,
0220
0000
0000
0030
,
0010
0000
0010
0300
,
2002
0000
0000
0003
,
0001
0000
0001
3000
,
2002
0000
0000
3000
,
1000
0000
1000
0003
,
0220
0000
0000
0300
,
0100
0000
0100
0030
,
0220
0000
0000
0030
,
0010
0000
0010
0300
,
2002
0000
0000
0000
,
0000
0000
0000
0000
,
0000
0000
0000
0000
,
0000
0000
0000
0000
,
0000
0000
0000
0000
,
0000
0000
0000
0000
,
0000
0000
0000
0000
,
0000
0000
0000
3003
,
0020
0000
0000
0000
,
0100
0000
0000
0000
,
0200
0000
0000
0000
,
0000
0000
0000
0330
,
0200
0000
0000
0000
,
0010
0000
0000
0000
,
0020
0000
0000
0000
,
0000
0000
0000
0330
,
0002
0000
0000
0000
,
1000
0000
0000
0000
,
2000
0000
0000
0000
,
0000
0000
0000
3003
,
2000
0000
0000
0000
,
0001
0000
0000
0000
,
0002
0000
0000
0000
,
0000
0000
0000
3003
,
1000
0001
1000
0001
,
2002
0000
0000
0000
,
0000
0000
0000
3003
,
2002
0000
0000
0003
,
0001
0000
0001
3000
,
2002
0000
0000
3000
,
1000
0000
1000
0003
,
0220
0000
0000
0300
,
0100
0000
0100
0030
,
0220
0000
0000
0030
,
0010
0000
0010
0300
,
2002
0000
0000
0003
,
0001
0000
0001
3000
,
2002
0000
0000
3000
,
1000
0000
1000
0003
,
0220
0000
0000
0300
,
0100
0000
0100
0030
,
0220
0000
0000
0030
,
0010
0000
0010
0300
,
0020
0000
0000
0030
,
0200
0000
0310
0000
,
0200
0000
0000
0300
,
0020
0000
0130
0000
,
0002
0000
0000
0003
,
2000
0000
3001
0000
,
2000
0000
0000
3000
,
0002
0000
1003
0000
,
0020
0000
0000
0030
,
0200
0000
0310
0000
,
0200
0000
0000
0300
,
0020
0000
0130
0000
,
0002
0000
0000
0003
,
2000
0000
3001
0000
,
2000
0000
0000
3000
,
0002
0000
1003
0000
,
0020
0000
0000
0030
,
0200
0000
0310
0000
,
0200
0000
0000
0300
,
0020
0000
0130
0000
,
0002
0000
0000
0003
,
2000
0000
3001
0000
,
2000
0000
0000
3000
,
0002
0000
1003
0000
,
0020
0000
0000
0000
,
0100
0000
0000
0000
,
0200
0300
0200
0300
,
0200
0300
0130
2002
,
0000
0000
0000
0000
,
0000
0000
0000
0000
,
3003
0000
0000
0000
;
