#TITLE:You Make Me Feel Like a Natural Girl;
#SUBTITLE:;
#ARTIST:Mara Nell;
#TITLETRANSLIT:;
#SUBTITLETRANSLIT:;
#ARTISTTRANSLIT:;
#GENRE:SUPER EUROBEAT;
#CREDIT:;
#BANNER:;
#BACKGROUND:;
#LYRICSPATH:;
#CDTITLE:;
#MUSIC:You Make Me Feel Like a Natural Girl.ogg;
#OFFSET:-0.090000;
#SAMPLESTART:63.529259;
#SAMPLELENGTH:15.000000;
#SELECTABLE:YES;
#BPMS:0.000000=155.108994
;
#STOPS:
;
#BGCHANGES:;
#KEYSOUNDS:;
#ATTACKS:;

//---------------dance-single - ----------------
#NOTES:
     dance-single:
     :
     Easy:
     6:
     0.214556,0.280231,0.018316,0.103789,0.000000,492.000000,486.000000,6.000000,34.000000,0.000000,0.000000,0.214556,0.280231,0.018316,0.103789,0.000000,492.000000,486.000000,6.000000,34.000000,0.000000,0.000000:
0000
0000
0000
0000
,
0000
0000
0000
0000
,
0000
0000
0000
0000
,
0000
0000
0000
0000
,
0000
0000
0000
0000
,
0000
0000
0000
0000
,
0000
0000
0000
0000
,
0000
0000
0000
0000
,
0010
0000
0010
0000
,
0010
0000
0010
0000
,
0100
0000
0100
0000
,
0100
0000
0100
0000
,
0010
0000
0010
0000
,
0010
0000
0010
0000
,
0100
0000
0100
0000
,
0100
0000
0100
0000
,
1000
0000
1000
0001
,
0100
0000
0010
0100
,
0010
0000
1000
0010
,
0001
0010
0010
0001
,
0001
0000
0001
1000
,
0010
0000
0100
0010
,
0100
0000
0001
0100
,
1000
0100
0100
1000
,
0200
0000
0000
0300
,
0010
0100
0001
0010
,
0200
0000
0000
0300
,
1000
0100
0001
0010
,
0020
0000
0000
0030
,
0100
0010
1000
0100
,
0020
0000
0000
0030
,
0001
0010
1000
0100
,
2000
0000
0000
3000
,
0001
1000
0100
0001
,
2000
0000
0000
3000
,
0010
1000
0100
0001
,
0002
0000
0000
0003
,
1000
0001
0010
1000
,
0002
0000
0000
0003
,
0100
0001
0010
1000
,
1001
0000
1000
0001
,
1000
0000
1000
0000
,
0001
0010
1000
0000
,
1000
0000
0001
0000
,
0100
0010
1000
0000
,
0001
0000
0001
0000
,
1000
0100
0001
0000
,
0001
0000
1000
0000
,
0010
0100
0001
0000
,
0010
0000
0010
0000
,
0100
0001
0010
0000
,
0010
0000
0100
0000
,
1000
0001
0010
0000
,
0100
0000
0100
0000
,
0010
1000
0100
0000
,
0100
0000
0010
0000
,
0001
1000
0100
0000
,
0010
0000
0010
0000
,
0010
0000
0010
0000
,
0100
0000
0100
0000
,
0100
0000
0100
0000
,
0010
0000
0010
0000
,
0010
0000
0010
0000
,
0100
0000
0100
0000
,
0100
0000
0100
0000
,
1000
0000
1000
0001
,
0100
0000
0010
0100
,
0010
0000
1000
0010
,
0001
0010
0010
0001
,
0001
0000
0001
1000
,
0010
0000
0100
0010
,
0100
0000
0001
0100
,
1000
0100
0100
1000
,
0200
0000
0000
0300
,
0010
0100
0001
0010
,
0200
0000
0000
0300
,
1000
0100
0001
0010
,
0020
0000
0000
0030
,
0100
0010
1000
0100
,
0020
0000
0000
0030
,
0001
0010
1000
0100
,
2000
0000
0000
3000
,
0001
1000
0100
0001
,
2000
0000
0000
3000
,
0010
1000
0100
0001
,
0002
0000
0000
0003
,
1000
0001
0010
1000
,
0002
0000
0000
0003
,
0100
0001
0010
1000
,
1001
0000
1000
0001
,
1000
0000
1000
0000
,
0001
0010
1000
0000
,
1000
0000
0001
0000
,
0100
0010
1000
0000
,
0001
0000
0001
0000
,
1000
0100
0001
0000
,
0001
0000
1000
0000
,
0010
0100
0001
0000
,
0010
0000
0010
0000
,
0100
0001
0010
0000
,
0010
0000
0100
0000
,
1000
0001
0010
0000
,
0100
0000
0100
0000
,
0010
1000
0100
0000
,
0100
0000
0010
0000
,
0001
1000
0100
0000
,
1000
0000
1000
0001
,
0100
0000
0010
0100
,
0010
0000
1000
0010
,
0001
0010
0010
0001
,
0001
0000
0001
1000
,
0010
0000
0100
0010
,
0100
0000
0001
0100
,
1000
0100
0100
1000
,
0200
0000
0000
0300
,
0010
0100
0001
0010
,
0200
0000
0000
0300
,
1000
0100
0001
0010
,
0020
0000
0000
0030
,
0100
0010
1000
0100
,
0020
0000
0000
0030
,
0001
0010
1000
0100
,
2000
0000
0000
3000
,
0001
1000
0100
0001
,
2000
0000
0000
3000
,
0010
1000
0100
0001
,
0002
0000
0000
0003
,
1000
0001
0010
1000
,
0002
0000
0000
0003
,
0100
0001
0010
1000
,
1001
0000
1000
0001
,
1000
0000
1000
0000
,
0001
0010
1000
0000
,
1000
0000
0001
0000
,
0100
0010
1000
0000
,
0001
0000
0001
0000
,
1000
0100
0001
0000
,
0001
0000
1000
0000
,
0010
0100
0001
0000
,
0010
0000
0010
0000
,
0100
0001
0010
0000
,
0010
0000
0100
0000
,
1000
0001
0010
0000
,
0100
0000
0100
0000
,
0010
1000
0100
0000
,
0100
0000
0010
0000
,
0001
1000
0100
0000
,
2002
0000
0000
0000
,
0000
0000
0000
0000
,
0000
0000
0000
0000
,
0000
0000
0000
0000
,
0000
0000
0000
0000
,
0000
0000
0000
0000
,
0000
0000
0000
0000
,
0000
0000
0000
3003
,
0010
0000
0010
0000
,
0010
0000
0010
0000
,
0100
0000
0100
0000
,
0100
0000
0100
0000
,
0010
0000
0010
0000
,
0010
0000
0010
0000
,
0100
0000
0100
0000
,
0100
0000
0100
0000
,
0200
0000
0000
0300
,
0010
0100
0001
0010
,
0200
0000
0000
0300
,
1000
0100
0001
0010
,
0020
0000
0000
0030
,
0100
0010
1000
0100
,
0020
0000
0000
0030
,
0001
0010
1000
0100
,
2000
0000
0000
3000
,
0001
1000
0100
0001
,
2000
0000
0000
3000
,
0010
1000
0100
0001
,
0002
0000
0000
0003
,
1000
0001
0010
1000
,
0002
0000
0000
0003
,
0100
0001
0010
1000
,
1001
0000
1000
0001
,
1000
0000
1000
0000
,
0001
0010
1000
0000
,
1000
0000
0001
0000
,
0100
0010
1000
0000
,
0001
0000
0001
0000
,
1000
0100
0001
0000
,
0001
0000
1000
0000
,
0010
0100
0001
0000
,
0010
0000
0010
0000
,
0100
0001
0010
0000
,
0010
0000
0100
0000
,
1000
0001
0010
0000
,
0100
0000
0100
0000
,
0010
1000
0100
0000
,
0100
0000
0010
0000
,
0001
1000
0100
0000
,
1000
0000
1000
0001
,
0100
0000
0010
0100
,
0010
0000
1000
0010
,
0001
0010
0010
0001
,
0001
0000
0001
1000
,
0010
0000
0100
0010
,
0100
0000
0001
0100
,
1000
0100
0100
1000
,
1001
0000
0000
0000
;

//---------------dance-single - ----------------
#NOTES:
     dance-single:
     :
     Beginner:
     5:
     0.205834,0.280231,0.030526,0.103789,0.000000,472.000000,462.000000,10.000000,34.000000,0.000000,0.000000,0.205834,0.280231,0.030526,0.103789,0.000000,472.000000,462.000000,10.000000,34.000000,0.000000,0.000000:
// measure 0
0000
0000
0000
0000
,  // measure 1
0000
0000
0000
0000
,  // measure 2
0000
0000
0000
0000
,  // measure 3
0000
0000
0000
0000
,  // measure 4
0000
0000
0000
0000
,  // measure 5
0000
0000
0000
0000
,  // measure 6
0000
0000
0000
0000
,  // measure 7
0000
0000
0000
0000
,  // measure 8
0010
0000
0000
0000
,  // measure 9
0010
0000
0010
0000
,  // measure 10
0100
0000
0000
0000
,  // measure 11
0100
0000
0100
0000
,  // measure 12
0010
0000
0000
0000
,  // measure 13
0010
0000
0010
0000
,  // measure 14
0100
0000
0000
0000
,  // measure 15
0100
0000
0100
0000
,  // measure 16
1000
0000
1000
0001
,  // measure 17
0100
0000
0010
0100
,  // measure 18
0010
0000
1000
0010
,  // measure 19
0001
0010
0000
0001
,  // measure 20
0001
0000
0001
1000
,  // measure 21
0010
0000
0100
0010
,  // measure 22
0100
0000
0001
0100
,  // measure 23
1000
0100
0000
1000
,  // measure 24
0200
0000
0000
0300
,  // measure 25
0010
0100
0001
0010
,  // measure 26
0200
0000
0000
0300
,  // measure 27
1000
0100
0001
0010
,  // measure 28
0020
0000
0000
0030
,  // measure 29
0100
0010
1000
0100
,  // measure 30
0020
0000
0000
0030
,  // measure 31
0001
0010
1000
0100
,  // measure 32
2000
0000
0000
3000
,  // measure 33
0001
1000
0100
0001
,  // measure 34
2000
0000
0000
3000
,  // measure 35
0010
1000
0100
0001
,  // measure 36
0002
0000
0000
0003
,  // measure 37
1000
0001
0010
1000
,  // measure 38
0002
0000
0000
0003
,  // measure 39
0100
0001
0010
1000
,  // measure 40
1001
0000
1001
0000
,  // measure 41
1000
0000
1000
0000
,  // measure 42
0001
0010
1000
0000
,  // measure 43
1000
0000
0001
0000
,  // measure 44
0100
0010
1000
0000
,  // measure 45
0001
0000
0001
0000
,  // measure 46
1000
0100
0001
0000
,  // measure 47
0001
0000
1000
0000
,  // measure 48
0010
0100
0001
0000
,  // measure 49
0010
0000
0010
0000
,  // measure 50
0100
0001
0010
0000
,  // measure 51
0010
0000
0100
0000
,  // measure 52
1000
0001
0010
0000
,  // measure 53
0100
0000
0100
0000
,  // measure 54
0010
1000
0100
0000
,  // measure 55
0100
0000
0010
0000
,  // measure 56
0001
1000
0100
0000
,  // measure 57
0010
0000
0000
0000
,  // measure 58
0010
0000
0010
0000
,  // measure 59
0100
0000
0000
0000
,  // measure 60
0100
0000
0100
0000
,  // measure 61
0010
0000
0000
0000
,  // measure 62
0010
0000
0010
0000
,  // measure 63
0100
0000
0000
0000
,  // measure 64
0100
0000
0100
0000
,  // measure 65
1000
0000
1000
0001
,  // measure 66
0100
0000
0010
0100
,  // measure 67
0010
0000
1000
0010
,  // measure 68
0001
0010
0000
0001
,  // measure 69
0001
0000
0001
1000
,  // measure 70
0010
0000
0100
0010
,  // measure 71
0100
0000
0001
0100
,  // measure 72
1000
0100
0000
1000
,  // measure 73
0200
0000
0000
0300
,  // measure 74
0010
0100
0001
0010
,  // measure 75
0200
0000
0000
0300
,  // measure 76
1000
0100
0001
0010
,  // measure 77
0020
0000
0000
0030
,  // measure 78
0100
0010
1000
0100
,  // measure 79
0020
0000
0000
0030
,  // measure 80
0001
0010
1000
0100
,  // measure 81
2000
0000
0000
3000
,  // measure 82
0001
1000
0100
0001
,  // measure 83
2000
0000
0000
3000
,  // measure 84
0010
1000
0100
0001
,  // measure 85
0002
0000
0000
0003
,  // measure 86
1000
0001
0010
1000
,  // measure 87
0002
0000
0000
0003
,  // measure 88
0100
0001
0010
1000
,  // measure 89
1001
0000
1001
0000
,  // measure 90
1000
0000
1000
0000
,  // measure 91
0001
0010
1000
0000
,  // measure 92
1000
0000
0001
0000
,  // measure 93
0100
0010
1000
0000
,  // measure 94
0001
0000
0001
0000
,  // measure 95
1000
0100
0001
0000
,  // measure 96
0001
0000
1000
0000
,  // measure 97
0010
0100
0001
0000
,  // measure 98
0010
0000
0010
0000
,  // measure 99
0100
0001
0010
0000
,  // measure 100
0010
0000
0100
0000
,  // measure 101
1000
0001
0010
0000
,  // measure 102
0100
0000
0100
0000
,  // measure 103
0010
1000
0100
0000
,  // measure 104
0100
0000
0010
0000
,  // measure 105
0001
1000
0100
0000
,  // measure 106
1000
0000
1000
0001
,  // measure 107
0100
0000
0010
0100
,  // measure 108
0010
0000
1000
0010
,  // measure 109
0001
0010
0000
0001
,  // measure 110
0001
0000
0001
1000
,  // measure 111
0010
0000
0100
0010
,  // measure 112
0100
0000
0001
0100
,  // measure 113
1000
0100
0000
1000
,  // measure 114
0200
0000
0000
0300
,  // measure 115
0010
0100
0001
0010
,  // measure 116
0200
0000
0000
0300
,  // measure 117
1000
0100
0001
0010
,  // measure 118
0020
0000
0000
0030
,  // measure 119
0100
0010
1000
0100
,  // measure 120
0020
0000
0000
0030
,  // measure 121
0001
0010
1000
0100
,  // measure 122
2000
0000
0000
3000
,  // measure 123
0001
1000
0100
0001
,  // measure 124
2000
0000
0000
3000
,  // measure 125
0010
1000
0100
0001
,  // measure 126
0002
0000
0000
0003
,  // measure 127
1000
0001
0010
1000
,  // measure 128
0002
0000
0000
0003
,  // measure 129
0100
0001
0010
1000
,  // measure 130
1001
0000
1001
0000
,  // measure 131
1000
0000
1000
0000
,  // measure 132
0001
0010
1000
0000
,  // measure 133
1000
0000
0001
0000
,  // measure 134
0100
0010
1000
0000
,  // measure 135
0001
0000
0001
0000
,  // measure 136
1000
0100
0001
0000
,  // measure 137
0001
0000
1000
0000
,  // measure 138
0010
0100
0001
0000
,  // measure 139
0010
0000
0010
0000
,  // measure 140
0100
0001
0010
0000
,  // measure 141
0010
0000
0100
0000
,  // measure 142
1000
0001
0010
0000
,  // measure 143
0100
0000
0100
0000
,  // measure 144
0010
1000
0100
0000
,  // measure 145
0100
0000
0010
0000
,  // measure 146
0001
1000
0100
0000
,  // measure 147
2002
0000
0000
0000
,  // measure 148
0000
0000
0000
0000
,  // measure 149
0000
0000
0000
0000
,  // measure 150
0000
0000
0000
0000
,  // measure 151
0000
0000
0000
0000
,  // measure 152
0000
0000
0000
0000
,  // measure 153
0000
0000
0000
0000
,  // measure 154
0000
0000
0000
3003
,  // measure 155
0010
0000
0000
0000
,  // measure 156
0010
0000
0010
0000
,  // measure 157
0100
0000
0000
0000
,  // measure 158
0100
0000
0100
0000
,  // measure 159
0010
0000
0000
0000
,  // measure 160
0010
0000
0010
0000
,  // measure 161
0100
0000
0000
0000
,  // measure 162
0100
0000
0100
0000
,  // measure 163
0200
0000
0000
0300
,  // measure 164
0010
0100
0001
0010
,  // measure 165
0200
0000
0000
0300
,  // measure 166
1000
0100
0001
0010
,  // measure 167
0020
0000
0000
0030
,  // measure 168
0100
0010
1000
0100
,  // measure 169
0020
0000
0000
0030
,  // measure 170
0001
0010
1000
0100
,  // measure 171
2000
0000
0000
3000
,  // measure 172
0001
1000
0100
0001
,  // measure 173
2000
0000
0000
3000
,  // measure 174
0010
1000
0100
0001
,  // measure 175
0002
0000
0000
0003
,  // measure 176
1000
0001
0010
1000
,  // measure 177
0002
0000
0000
0003
,  // measure 178
0100
0001
0010
1000
,  // measure 179
1001
0000
1001
0000
,  // measure 180
1000
0000
1000
0000
,  // measure 181
0001
0010
1000
0000
,  // measure 182
1000
0000
0001
0000
,  // measure 183
0100
0010
1000
0000
,  // measure 184
0001
0000
0001
0000
,  // measure 185
1000
0100
0001
0000
,  // measure 186
0001
0000
1000
0000
,  // measure 187
0010
0100
0001
0000
,  // measure 188
0010
0000
0010
0000
,  // measure 189
0100
0001
0010
0000
,  // measure 190
0010
0000
0100
0000
,  // measure 191
1000
0001
0010
0000
,  // measure 192
0100
0000
0100
0000
,  // measure 193
0010
1000
0100
0000
,  // measure 194
0100
0000
0010
0000
,  // measure 195
0001
1000
0100
0000
,  // measure 196
1000
0000
1000
0001
,  // measure 197
0100
0000
0010
0100
,  // measure 198
0010
0000
1000
0010
,  // measure 199
0001
0010
0000
0001
,  // measure 200
0001
0000
0001
1000
,  // measure 201
0010
0000
0100
0010
,  // measure 202
0100
0000
0001
0100
,  // measure 203
1000
0100
0000
1000
,  // measure 204
1001
0000
0000
0000
;

//---------------dance-single - ----------------
#NOTES:
     dance-single:
     :
     Medium:
     6:
     0.226766,0.311368,0.018316,0.103789,0.000000,520.000000,514.000000,6.000000,34.000000,0.000000,0.000000,0.226766,0.311368,0.018316,0.103789,0.000000,520.000000,514.000000,6.000000,34.000000,0.000000,0.000000:
0000
0000
0000
0000
,
0000
0000
0000
0000
,
0000
0000
0000
0000
,
0000
0000
0000
0000
,
0000
0000
0000
0000
,
0000
0000
0000
0000
,
0000
0000
0000
0000
,
0000
0000
0000
0000
,
0010
0000
0010
0000
,
0010
0000
0010
0000
,
0100
0000
0100
0000
,
0100
0000
0100
0000
,
0010
0000
0010
0000
,
0010
0000
0010
0000
,
0100
0000
0100
0000
,
0100
0000
0100
0000
,
1000
0001
1000
0001
,
0100
0000
0010
0100
,
0010
0000
1000
0010
,
0001
0010
0010
0001
,
0001
1000
0001
1000
,
0010
0000
0100
0010
,
0100
0000
0001
0100
,
1000
0100
0100
1000
,
0200
0000
0000
0300
,
0010
0100
0001
0010
,
0200
0000
0000
0300
,
1000
0100
0001
0010
,
0020
0000
0000
0030
,
0100
0010
1000
0100
,
0020
0000
0000
0030
,
0001
0010
1000
0100
,
2000
0000
0000
3000
,
0001
1000
0100
0001
,
2000
0000
0000
3000
,
0010
1000
0100
0001
,
0002
0000
0000
0003
,
1000
0001
0010
1000
,
0002
0000
0000
0003
,
0100
0001
0010
1000
,
1001
0000
0000
0000
1000
0001
1000
0000
,
1000
0001
1000
0000
,
0001
0010
1000
0000
,
1000
0000
0001
0000
,
0100
0010
1000
0000
,
0001
1000
0001
0000
,
1000
0100
0001
0000
,
0001
0000
1000
0000
,
0010
0100
0001
0000
,
0010
0100
0010
0000
,
0100
0001
0010
0000
,
0010
0000
0100
0000
,
1000
0001
0010
0000
,
0100
0010
0100
0000
,
0010
1000
0100
0000
,
0100
0000
0010
0000
,
0001
1000
0100
0000
,
0010
0000
0010
0000
,
0010
0000
0010
0000
,
0100
0000
0100
0000
,
0100
0000
0100
0000
,
0010
0000
0010
0000
,
0010
0000
0010
0000
,
0100
0000
0100
0000
,
0100
0000
0100
0000
,
1000
0001
1000
0001
,
0100
0000
0010
0100
,
0010
0000
1000
0010
,
0001
0010
0010
0001
,
0001
1000
0001
1000
,
0010
0000
0100
0010
,
0100
0000
0001
0100
,
1000
0100
0100
1000
,
0200
0000
0000
0300
,
0010
0100
0001
0010
,
0200
0000
0000
0300
,
1000
0100
0001
0010
,
0020
0000
0000
0030
,
0100
0010
1000
0100
,
0020
0000
0000
0030
,
0001
0010
1000
0100
,
2000
0000
0000
3000
,
0001
1000
0100
0001
,
2000
0000
0000
3000
,
0010
1000
0100
0001
,
0002
0000
0000
0003
,
1000
0001
0010
1000
,
0002
0000
0000
0003
,
0100
0001
0010
1000
,
1001
0000
0000
0000
1000
0001
1000
0000
,
1000
0001
1000
0000
,
0001
0010
1000
0000
,
1000
0000
0001
0000
,
0100
0010
1000
0000
,
0001
1000
0001
0000
,
1000
0100
0001
0000
,
0001
0000
1000
0000
,
0010
0100
0001
0000
,
0010
0100
0010
0000
,
0100
0001
0010
0000
,
0010
0000
0100
0000
,
1000
0001
0010
0000
,
0100
0010
0100
0000
,
0010
1000
0100
0000
,
0100
0000
0010
0000
,
0001
1000
0100
0000
,
1000
0001
1000
0001
,
0100
0000
0010
0100
,
0010
0000
1000
0010
,
0001
0010
0010
0001
,
0001
1000
0001
1000
,
0010
0000
0100
0010
,
0100
0000
0001
0100
,
1000
0100
0100
1000
,
0200
0000
0000
0300
,
0010
0100
0001
0010
,
0200
0000
0000
0300
,
1000
0100
0001
0010
,
0020
0000
0000
0030
,
0100
0010
1000
0100
,
0020
0000
0000
0030
,
0001
0010
1000
0100
,
2000
0000
0000
3000
,
0001
1000
0100
0001
,
2000
0000
0000
3000
,
0010
1000
0100
0001
,
0002
0000
0000
0003
,
1000
0001
0010
1000
,
0002
0000
0000
0003
,
0100
0001
0010
1000
,
1001
0000
0000
0000
1000
0001
1000
0000
,
1000
0001
1000
0000
,
0001
0010
1000
0000
,
1000
0000
0001
0000
,
0100
0010
1000
0000
,
0001
1000
0001
0000
,
1000
0100
0001
0000
,
0001
0000
1000
0000
,
0010
0100
0001
0000
,
0010
0100
0010
0000
,
0100
0001
0010
0000
,
0010
0000
0100
0000
,
1000
0001
0010
0000
,
0100
0010
0100
0000
,
0010
1000
0100
0000
,
0100
0000
0010
0000
,
0001
1000
0100
0000
,
2002
0000
0000
0000
,
0000
0000
0000
0000
,
0000
0000
0000
0000
,
0000
0000
0000
0000
,
0000
0000
0000
0000
,
0000
0000
0000
0000
,
0000
0000
0000
0000
,
0000
0000
0000
3003
,
0010
0000
0010
0000
,
0010
0000
0010
0000
,
0100
0000
0100
0000
,
0100
0000
0100
0000
,
0010
0000
0010
0000
,
0010
0000
0010
0000
,
0100
0000
0100
0000
,
0100
0000
0100
0000
,
0200
0000
0000
0300
,
0010
0100
0001
0010
,
0200
0000
0000
0300
,
1000
0100
0001
0010
,
0020
0000
0000
0030
,
0100
0010
1000
0100
,
0020
0000
0000
0030
,
0001
0010
1000
0100
,
2000
0000
0000
3000
,
0001
1000
0100
0001
,
2000
0000
0000
3000
,
0010
1000
0100
0001
,
0002
0000
0000
0003
,
1000
0001
0010
1000
,
0002
0000
0000
0003
,
0100
0001
0010
1000
,
1001
0000
0000
0000
1000
0001
1000
0000
,
1000
0001
1000
0000
,
0001
0010
1000
0000
,
1000
0000
0001
0000
,
0100
0010
1000
0000
,
0001
1000
0001
0000
,
1000
0100
0001
0000
,
0001
0000
1000
0000
,
0010
0100
0001
0000
,
0010
0100
0010
0000
,
0100
0001
0010
0000
,
0010
0000
0100
0000
,
1000
0001
0010
0000
,
0100
0010
0100
0000
,
0010
1000
0100
0000
,
0100
0000
0010
0000
,
0001
1000
0100
0000
,
1000
0001
1000
0001
,
0100
0000
0010
0100
,
0010
0000
1000
0010
,
0001
0010
0010
0001
,
0001
1000
0001
1000
,
0010
0000
0100
0010
,
0100
0000
0001
0100
,
1000
0100
0100
1000
,
1001
0000
0000
0000
;

//---------------dance-single - ----------------
#NOTES:
     dance-single:
     :
     Hard:
     7:
     0.251187,0.342504,0.018316,0.103789,0.000000,576.000000,570.000000,6.000000,34.000000,0.000000,0.000000,0.251187,0.342504,0.018316,0.103789,0.000000,576.000000,570.000000,6.000000,34.000000,0.000000,0.000000:
0000
0000
0000
0000
,
0000
0000
0000
0000
,
0000
0000
0000
0000
,
0000
0000
0000
0000
,
0000
0000
0000
0000
,
0000
0000
0000
0000
,
0000
0000
0000
0000
,
0000
0000
0000
0000
,
0010
0000
0010
0000
,
0010
0000
0010
0010
,
0100
0000
0100
0000
,
0100
0000
0100
0100
,
0010
0000
0010
0000
,
0010
0000
0010
0010
,
0100
0000
0100
0000
,
0100
0000
0100
0100
,
1000
0001
1000
0001
,
0100
0000
0010
0100
,
0010
1000
1000
0010
,
0001
0010
0010
0001
,
0001
1000
0001
1000
,
0010
0000
0100
0010
,
0100
0001
0001
0100
,
1000
0100
0100
1000
,
0200
0000
0010
0300
,
0010
0100
0001
0010
,
0200
0000
0000
0300
,
1000
0100
0001
0010
,
0020
0000
0100
0030
,
0100
0010
1000
0100
,
0020
0000
0000
0030
,
0001
0010
1000
0100
,
2000
0000
0001
3000
,
0001
1000
0100
0001
,
2000
0000
0000
3000
,
0010
1000
0100
0001
,
0002
0000
1000
0003
,
1000
0001
0010
1000
,
0002
0000
0000
0003
,
0100
0001
0010
1000
,
1001
0000
0000
0000
1000
0001
1000
0001
,
1000
0001
1000
0000
,
0001
0010
1000
0010
,
1000
0000
0001
0000
,
0100
0010
1000
0000
,
0001
1000
0001
0000
,
1000
0100
0001
0100
,
0001
0000
1000
0000
,
0010
0100
0001
0000
,
0010
0100
0010
0000
,
0100
0001
0010
0001
,
0010
0000
0100
0000
,
1000
0001
0010
0000
,
0100
0010
0100
0000
,
0010
1000
0100
1000
,
0100
0000
0010
0000
,
0001
1000
0100
0000
,
0010
0000
0010
0000
,
0010
0000
0010
0010
,
0100
0000
0100
0000
,
0100
0000
0100
0100
,
0010
0000
0010
0000
,
0010
0000
0010
0010
,
0100
0000
0100
0000
,
0100
0000
0100
0100
,
1000
0001
1000
0001
,
0100
0000
0010
0100
,
0010
1000
1000
0010
,
0001
0010
0010
0001
,
0001
1000
0001
1000
,
0010
0000
0100
0010
,
0100
0001
0001
0100
,
1000
0100
0100
1000
,
0200
0000
0010
0300
,
0010
0100
0001
0010
,
0200
0000
0000
0300
,
1000
0100
0001
0010
,
0020
0000
0100
0030
,
0100
0010
1000
0100
,
0020
0000
0000
0030
,
0001
0010
1000
0100
,
2000
0000
0001
3000
,
0001
1000
0100
0001
,
2000
0000
0000
3000
,
0010
1000
0100
0001
,
0002
0000
1000
0003
,
1000
0001
0010
1000
,
0002
0000
0000
0003
,
0100
0001
0010
1000
,
1001
0000
0000
0000
1000
0001
1000
0001
,
1000
0001
1000
0000
,
0001
0010
1000
0010
,
1000
0000
0001
0000
,
0100
0010
1000
0000
,
0001
1000
0001
0000
,
1000
0100
0001
0100
,
0001
0000
1000
0000
,
0010
0100
0001
0000
,
0010
0100
0010
0000
,
0100
0001
0010
0001
,
0010
0000
0100
0000
,
1000
0001
0010
0000
,
0100
0010
0100
0000
,
0010
1000
0100
1000
,
0100
0000
0010
0000
,
0001
1000
0100
0000
,
1000
0001
1000
0001
,
0100
0000
0010
0100
,
0010
1000
1000
0010
,
0001
0010
0010
0001
,
0001
1000
0001
1000
,
0010
0000
0100
0010
,
0100
0001
0001
0100
,
1000
0100
0100
1000
,
0200
0000
0010
0300
,
0010
0100
0001
0010
,
0200
0000
0000
0300
,
1000
0100
0001
0010
,
0020
0000
0100
0030
,
0100
0010
1000
0100
,
0020
0000
0000
0030
,
0001
0010
1000
0100
,
2000
0000
0001
3000
,
0001
1000
0100
0001
,
2000
0000
0000
3000
,
0010
1000
0100
0001
,
0002
0000
1000
0003
,
1000
0001
0010
1000
,
0002
0000
0000
0003
,
0100
0001
0010
1000
,
1001
0000
0000
0000
1000
0001
1000
0001
,
1000
0001
1000
0000
,
0001
0010
1000
0010
,
1000
0000
0001
0000
,
0100
0010
1000
0000
,
0001
1000
0001
0000
,
1000
0100
0001
0100
,
0001
0000
1000
0000
,
0010
0100
0001
0000
,
0010
0100
0010
0000
,
0100
0001
0010
0001
,
0010
0000
0100
0000
,
1000
0001
0010
0000
,
0100
0010
0100
0000
,
0010
1000
0100
1000
,
0100
0000
0010
0000
,
0001
1000
0100
0000
,
2002
0000
0000
0000
,
0000
0000
0000
0000
,
0000
0000
0000
0000
,
0000
0000
0000
0000
,
0000
0000
0000
0000
,
0000
0000
0000
0000
,
0000
0000
0000
0000
,
0000
0000
0000
3003
,
0010
0000
0010
0000
,
0010
0000
0010
0010
,
0100
0000
0100
0000
,
0100
0000
0100
0100
,
0010
0000
0010
0000
,
0010
0000
0010
0010
,
0100
0000
0100
0000
,
0100
0000
0100
0100
,
0200
0000
0010
0300
,
0010
0100
0001
0010
,
0200
0000
0000
0300
,
1000
0100
0001
0010
,
0020
0000
0100
0030
,
0100
0010
1000
0100
,
0020
0000
0000
0030
,
0001
0010
1000
0100
,
2000
0000
0001
3000
,
0001
1000
0100
0001
,
2000
0000
0000
3000
,
0010
1000
0100
0001
,
0002
0000
1000
0003
,
1000
0001
0010
1000
,
0002
0000
0000
0003
,
0100
0001
0010
1000
,
1001
0000
0000
0000
1000
0001
1000
0001
,
1000
0001
1000
0000
,
0001
0010
1000
0010
,
1000
0000
0001
0000
,
0100
0010
1000
0000
,
0001
1000
0001
0000
,
1000
0100
0001
0100
,
0001
0000
1000
0000
,
0010
0100
0001
0000
,
0010
0100
0010
0000
,
0100
0001
0010
0001
,
0010
0000
0100
0000
,
1000
0001
0010
0000
,
0100
0010
0100
0000
,
0010
1000
0100
1000
,
0100
0000
0010
0000
,
0001
1000
0100
0000
,
1000
0001
1000
0001
,
0100
0000
0010
0100
,
0010
1000
1000
0010
,
0001
0010
0010
0001
,
0001
1000
0001
1000
,
0010
0000
0100
0010
,
0100
0001
0001
0100
,
1000
0100
0100
1000
,
1001
0000
0000
0000
;

//---------------dance-single - ----------------
#NOTES:
     dance-single:
     :
     Challenge:
     7:
     0.265142,0.342504,0.018316,0.103789,0.000000,608.000000,602.000000,6.000000,34.000000,0.000000,0.000000,0.265142,0.342504,0.018316,0.103789,0.000000,608.000000,602.000000,6.000000,34.000000,0.000000,0.000000:
0000
0000
0000
0000
,
0000
0000
0000
0000
,
0000
0000
0000
0000
,
0000
0000
0000
0000
,
0000
0000
0000
0000
,
0000
0000
0000
0000
,
0000
0000
0000
0000
,
0000
0000
0000
0000
,
0010
0000
0010
0000
,
0010
0000
0010
0010
,
0100
0000
0100
0000
,
0100
0000
0100
0100
,
0010
0000
0010
0000
,
0010
0000
0010
0010
,
0100
0000
0100
0000
,
0100
0000
0100
0100
,
1000
0001
1000
0001
,
0100
0000
0010
0100
,
0010
1000
1000
0010
,
0001
0010
0010
0001
,
0001
1000
0001
1000
,
0010
0000
0100
0010
,
0100
0001
0001
0100
,
1000
0100
0100
1000
,
0200
0000
0010
0300
,
0010
0100
0001
0010
,
0200
0000
0010
0300
,
1000
0100
0001
0010
,
0020
0000
0100
0030
,
0100
0010
1000
0100
,
0020
0000
0100
0030
,
0001
0010
1000
0100
,
2000
0000
0001
3000
,
0001
1000
0100
0001
,
2000
0000
0001
3000
,
0010
1000
0100
0001
,
0002
0000
1000
0003
,
1000
0001
0010
1000
,
0002
0000
1000
0003
,
0100
0001
0010
1000
,
1001
0000
0000
0000
1000
0001
1000
0001
,
1000
0001
1000
0000
,
0001
0010
1000
0010
,
1000
0000
0001
0000
,
0100
0010
1000
0010
,
0001
1000
0001
0000
,
1000
0100
0001
0100
,
0001
0000
1000
0000
,
0010
0100
0001
0100
,
0010
0100
0010
0000
,
0100
0001
0010
0001
,
0010
0000
0100
0000
,
1000
0001
0010
0001
,
0100
0010
0100
0000
,
0010
1000
0100
1000
,
0100
0000
0010
0000
,
0001
1000
0100
1000
,
0010
0000
0010
0000
,
0010
0000
0010
0010
,
0100
0000
0100
0000
,
0100
0000
0100
0100
,
0010
0000
0010
0000
,
0010
0000
0010
0010
,
0100
0000
0100
0000
,
0100
0000
0100
0100
,
1000
0001
1000
0001
,
0100
0000
0010
0100
,
0010
1000
1000
0010
,
0001
0010
0010
0001
,
0001
1000
0001
1000
,
0010
0000
0100
0010
,
0100
0001
0001
0100
,
1000
0100
0100
1000
,
0200
0000
0010
0300
,
0010
0100
0001
0010
,
0200
0000
0010
0300
,
1000
0100
0001
0010
,
0020
0000
0100
0030
,
0100
0010
1000
0100
,
0020
0000
0100
0030
,
0001
0010
1000
0100
,
2000
0000
0001
3000
,
0001
1000
0100
0001
,
2000
0000
0001
3000
,
0010
1000
0100
0001
,
0002
0000
1000
0003
,
1000
0001
0010
1000
,
0002
0000
1000
0003
,
0100
0001
0010
1000
,
1001
0000
0000
0000
1000
0001
1000
0001
,
1000
0001
1000
0000
,
0001
0010
1000
0010
,
1000
0000
0001
0000
,
0100
0010
1000
0010
,
0001
1000
0001
0000
,
1000
0100
0001
0100
,
0001
0000
1000
0000
,
0010
0100
0001
0100
,
0010
0100
0010
0000
,
0100
0001
0010
0001
,
0010
0000
0100
0000
,
1000
0001
0010
0001
,
0100
0010
0100
0000
,
0010
1000
0100
1000
,
0100
0000
0010
0000
,
0001
1000
0100
1000
,
1000
0001
1000
0001
,
0100
0000
0010
0100
,
0010
1000
1000
0010
,
0001
0010
0010
0001
,
0001
1000
0001
1000
,
0010
0000
0100
0010
,
0100
0001
0001
0100
,
1000
0100
0100
1000
,
0200
0000
0010
0300
,
0010
0100
0001
0010
,
0200
0000
0010
0300
,
1000
0100
0001
0010
,
0020
0000
0100
0030
,
0100
0010
1000
0100
,
0020
0000
0100
0030
,
0001
0010
1000
0100
,
2000
0000
0001
3000
,
0001
1000
0100
0001
,
2000
0000
0001
3000
,
0010
1000
0100
0001
,
0002
0000
1000
0003
,
1000
0001
0010
1000
,
0002
0000
1000
0003
,
0100
0001
0010
1000
,
1001
0000
0000
0000
1000
0001
1000
0001
,
1000
0001
1000
0000
,
0001
0010
1000
0010
,
1000
0000
0001
0000
,
0100
0010
1000
0010
,
0001
1000
0001
0000
,
1000
0100
0001
0100
,
0001
0000
1000
0000
,
0010
0100
0001
0100
,
0010
0100
0010
0000
,
0100
0001
0010
0001
,
0010
0000
0100
0000
,
1000
0001
0010
0001
,
0100
0010
0100
0000
,
0010
1000
0100
1000
,
0100
0000
0010
0000
,
0001
1000
0100
1000
,
2002
0000
0000
0000
,
0000
0000
0000
0000
,
0000
0000
0000
0000
,
0000
0000
0000
0000
,
0000
0000
0000
0000
,
0000
0000
0000
0000
,
0000
0000
0000
0000
,
0000
0000
0000
3003
,
0010
0000
0010
0000
,
0010
0000
0010
0010
,
0100
0000
0100
0000
,
0100
0000
0100
0100
,
0010
0000
0010
0000
,
0010
0000
0010
0010
,
0100
0000
0100
0000
,
0100
0000
0100
0100
,
0200
0000
0010
0300
,
0010
0100
0001
0010
,
0200
0000
0010
0300
,
1000
0100
0001
0010
,
0020
0000
0100
0030
,
0100
0010
1000
0100
,
0020
0000
0100
0030
,
0001
0010
1000
0100
,
2000
0000
0001
3000
,
0001
1000
0100
0001
,
2000
0000
0001
3000
,
0010
1000
0100
0001
,
0002
0000
1000
0003
,
1000
0001
0010
1000
,
0002
0000
1000
0003
,
0100
0001
0010
1000
,
1001
0000
0000
0000
1000
0001
1000
0001
,
1000
0001
1000
0000
,
0001
0010
1000
0010
,
1000
0000
0001
0000
,
0100
0010
1000
0010
,
0001
1000
0001
0000
,
1000
0100
0001
0100
,
0001
0000
1000
0000
,
0010
0100
0001
0100
,
0010
0100
0010
0000
,
0100
0001
0010
0001
,
0010
0000
0100
0000
,
1000
0001
0010
0001
,
0100
0010
0100
0000
,
0010
1000
0100
1000
,
0100
0000
0010
0000
,
0001
1000
0100
1000
,
1000
0001
1000
0001
,
0100
0000
0010
0100
,
0010
1000
1000
0010
,
0001
0010
0010
0001
,
0001
1000
0001
1000
,
0010
0000
0100
0010
,
0100
0001
0001
0100
,
1000
0100
0100
1000
,
1001
0000
0000
0000
;
