#VERSION:0.83;
#TITLE:最上級ぱらどっくす;
#SUBTITLE:;
#ARTIST:わーすた;
#TITLETRANSLIT:The Biggest Paradox;
#SUBTITLETRANSLIT:;
#ARTISTTRANSLIT:WorSta;
#GENRE:;
#ORIGIN:;
#CREDIT:;
#BANNER:;
#BACKGROUND:;
#PREVIEWVID:;
#JACKET:;
#CDIMAGE:;
#DISCIMAGE:;
#LYRICSPATH:;
#CDTITLE:;
#MUSIC:The Biggest Paradox.ogg;
#OFFSET:-0.323000;
#SAMPLESTART:48.971653;
#SAMPLELENGTH:15.000000;
#SELECTABLE:YES;
#BPMS:0.000=185.000;
#STOPS:;
#DELAYS:;
#WARPS:;
#TIMESIGNATURES:0.000=4=4;
#TICKCOUNTS:0.000=4;
#COMBOS:0.000=1;
#SPEEDS:0.000=1.000=0.000=0;
#SCROLLS:0.000=1.000;
#FAKES:;
#LABELS:0.000=Song Start;
#BGCHANGES:;
#KEYSOUNDS:;
#ATTACKS:
;

//---------------dance-single - ----------------
#NOTEDATA:;
#CHARTNAME:;
#STEPSTYPE:dance-single;
#DESCRIPTION:;
#CHARTSTYLE:;
#DIFFICULTY:Easy;
#METER:7;
#RADARVALUES:0.228178,0.339671,0.040955,0.405000,0.000000,351.000000,342.000000,9.000000,89.000000,0.000000,0.000000,0.000000,0.000000,0.000000,0.228178,0.339671,0.040955,0.405000,0.000000,351.000000,342.000000,9.000000,89.000000,0.000000,0.000000,0.000000,0.000000,0.000000;
#CREDIT:;
#NOTES:
// measure 0
0000
0000
0000
0000
,  // measure 1
0000
0000
0000
0000
,  // measure 2
0000
0000
0000
0000
,  // measure 3
0000
0000
0000
0000
,  // measure 4
0000
0000
0000
0000
,  // measure 5
0010
0000
0010
0000
,  // measure 6
1000
0100
0001
0000
,  // measure 7
1000
0000
1000
0000
,  // measure 8
0001
0100
0010
0001
,  // measure 9
0100
0000
0100
0000
,  // measure 10
0001
0010
1000
0000
,  // measure 11
0001
0000
0001
0000
,  // measure 12
1000
0010
0100
1000
,  // measure 13
0020
0000
0000
0030
,  // measure 14
0100
0000
1000
0000
,  // measure 15
0020
0000
0000
0030
,  // measure 16
0001
0000
0100
0000
,  // measure 17
0020
0000
0031
0000
,  // measure 18
0200
0000
1300
0000
,  // measure 19
0002
0000
0023
0000
,  // measure 20
0230
0000
0000
0000
2300
0000
0000
3000
,  // measure 21
0200
0000
0000
0300
,  // measure 22
0010
0000
0001
0000
,  // measure 23
0200
0000
0000
0300
,  // measure 24
1000
0000
0010
0000
,  // measure 25
0200
0000
1300
0000
,  // measure 26
0020
0000
0031
0000
,  // measure 27
2000
0000
3200
0000
,  // measure 28
0320
0000
0000
0000
0032
0000
0000
0003
,  // measure 29
1000
0000
0010
0000
,  // measure 30
0001
0000
0100
0000
,  // measure 31
0001
0000
0100
0000
,  // measure 32
1000
0000
0010
0000
,  // measure 33
0100
0100
0100
0000
,  // measure 34
0010
0010
0010
0000
,  // measure 35
1000
0001
1000
0001
,  // measure 36
2002
0000
0000
0000
,  // measure 37
0000
0000
0000
3003
,  // measure 38
0001
0000
0001
0000
,  // measure 39
0100
0010
0001
1000
,  // measure 40
0100
0000
0001
0000
,  // measure 41
0100
0010
1000
0010
,  // measure 42
0200
0000
0302
0000
,  // measure 43
2003
0000
3002
0000
,  // measure 44
0203
0000
0320
0000
,  // measure 45
2030
0000
0000
0000
3002
0000
0000
0003
,  // measure 46
1000
0000
1000
0000
,  // measure 47
0010
0100
1000
0001
,  // measure 48
0010
0000
1000
0000
,  // measure 49
0010
0100
0001
0100
,  // measure 50
0020
0000
2030
0000
,  // measure 51
3002
0000
2003
0000
,  // measure 52
3020
0000
0230
0000
,  // measure 53
0302
0000
0000
0000
2003
0000
0000
3000
,  // measure 54
0010
0000
0010
0000
,  // measure 55
1000
0100
0001
0000
,  // measure 56
1000
0000
1000
0000
,  // measure 57
0001
0100
0010
0001
,  // measure 58
0100
0000
0100
0000
,  // measure 59
0001
0010
1000
0000
,  // measure 60
0001
0000
0001
0000
,  // measure 61
1000
0010
0100
1000
,  // measure 62
0020
0000
0000
0030
,  // measure 63
0100
0000
1000
0000
,  // measure 64
0020
0000
0000
0030
,  // measure 65
0001
0000
0100
0000
,  // measure 66
0020
0000
0031
0000
,  // measure 67
0200
0000
1300
0000
,  // measure 68
0002
0000
0023
0000
,  // measure 69
0230
0000
0000
0000
2300
0000
0000
3000
,  // measure 70
1000
0000
0010
0000
,  // measure 71
0001
0000
0100
0000
,  // measure 72
0001
0000
0100
0000
,  // measure 73
1000
0000
0010
0000
,  // measure 74
0100
0100
0100
0000
,  // measure 75
0010
0010
0010
0000
,  // measure 76
1000
0001
1000
0001
,  // measure 77
2002
0000
0000
0000
,  // measure 78
0000
0000
0000
3003
,  // measure 79
0001
0000
0001
0000
,  // measure 80
0100
0010
0001
1000
,  // measure 81
0100
0000
0001
0000
,  // measure 82
0100
0010
1000
0010
,  // measure 83
0200
0000
0302
0000
,  // measure 84
2003
0000
3002
0000
,  // measure 85
0203
0000
0320
0000
,  // measure 86
2030
0000
0000
0000
3002
0000
0000
0003
,  // measure 87
1000
0000
1000
0000
,  // measure 88
0010
0100
1000
0001
,  // measure 89
0010
0000
1000
0000
,  // measure 90
0010
0100
0001
0100
,  // measure 91
0020
0000
2030
0000
,  // measure 92
3002
0000
2003
0000
,  // measure 93
3020
0000
0230
0000
,  // measure 94
0302
0000
0000
0000
2003
0000
0000
3000
,  // measure 95
0200
0000
0000
0000
,  // measure 96
0000
0000
0000
0300
,  // measure 97
0010
0000
0001
0000
,  // measure 98
0010
0000
1000
0000
,  // measure 99
0010
0000
0010
0000
,  // measure 100
0010
0000
0010
0000
,  // measure 101
0010
0010
0010
0010
,  // measure 102
0220
0000
0000
0330
,  // measure 103
0010
0000
0010
0000
,  // measure 104
1000
0100
0001
0000
,  // measure 105
1000
0000
1000
0000
,  // measure 106
0001
0100
0010
0001
,  // measure 107
0100
0000
0100
0000
,  // measure 108
0001
0010
1000
0000
,  // measure 109
0001
0000
0001
0000
,  // measure 110
1000
0010
0100
1000
,  // measure 111
0001
0100
0001
0000
,  // measure 112
0100
0000
0001
0000
,  // measure 113
0001
1000
0001
0000
,  // measure 114
1000
0000
0001
0000
,  // measure 115
1000
0010
1000
0000
,  // measure 116
0010
0000
1000
0000
,  // measure 117
1000
0001
1000
0000
,  // measure 118
0001
0000
1000
0000
,  // measure 119
0020
0000
0000
0000
,  // measure 120
0200
0000
0000
0000
,  // measure 121
0000
0000
0000
0330
,  // measure 122
2002
0000
0000
0000
,  // measure 123
0000
0000
0000
0000
,  // measure 124
0000
0000
0000
0000
,  // measure 125
0000
0000
0000
0000
,  // measure 126
0000
0000
0000
0000
,  // measure 127
0000
0000
0000
0000
,  // measure 128
0000
0000
0000
0000
,  // measure 129
0000
0000
0000
3003
,  // measure 130
0220
0000
0000
0000
,  // measure 131
0000
0000
0000
0000
,  // measure 132
0000
0000
0000
0000
,  // measure 133
0000
0000
0000
0330
,  // measure 134
1000
0000
0001
0000
,  // measure 135
1000
0000
0001
0000
,  // measure 136
1000
0001
1000
0001
,  // measure 137
2002
0000
0000
3003
,  // measure 138
0001
0000
0001
0000
,  // measure 139
0100
0010
0001
1000
,  // measure 140
0100
0000
0001
0000
,  // measure 141
0100
0010
1000
0010
,  // measure 142
0200
0000
0302
0000
,  // measure 143
2003
0000
3002
0000
,  // measure 144
0203
0000
0320
0000
,  // measure 145
2030
0000
0000
0000
3002
0000
0000
0003
,  // measure 146
1000
0000
1000
0000
,  // measure 147
0010
0100
1000
0001
,  // measure 148
0010
0000
1000
0000
,  // measure 149
0010
0100
0001
0100
,  // measure 150
0020
0000
2030
0000
,  // measure 151
3002
0000
2003
0000
,  // measure 152
3020
0000
0230
0000
,  // measure 153
0302
0000
0000
0000
2003
0000
0000
3000
,  // measure 154
0100
0000
0010
0000
,  // measure 155
1000
0001
1000
0000
,  // measure 156
1000
0000
0001
0000
,  // measure 157
0100
0010
0001
0000
,  // measure 158
0010
0000
0100
0000
,  // measure 159
0001
1000
0001
0000
,  // measure 160
0001
0000
1000
0000
,  // measure 161
0010
0100
1000
0000
,  // measure 162
0001
1000
0001
0000
,  // measure 163
1000
0001
1000
0000
,  // measure 164
1001
0000
0000
0110
0000
0000
0000
2002
,  // measure 165
0000
0000
0000
0000
0000
0000
0000
3003
;

//---------------dance-single - ----------------
#NOTEDATA:;
#CHARTNAME:;
#STEPSTYPE:dance-single;
#DESCRIPTION:;
#CHARTSTYLE:;
#DIFFICULTY:Beginner;
#METER:7;
#RADARVALUES:0.209976,0.301930,0.036405,0.405000,0.000000,323.000000,315.000000,8.000000,89.000000,0.000000,0.000000,0.000000,0.000000,0.000000,0.209976,0.301930,0.036405,0.405000,0.000000,323.000000,315.000000,8.000000,89.000000,0.000000,0.000000,0.000000,0.000000,0.000000;
#CREDIT:;
#NOTES:
// measure 0
0000
0000
0000
0000
,  // measure 1
0000
0000
0000
0000
,  // measure 2
0000
0000
0000
0000
,  // measure 3
0000
0000
0000
0000
,  // measure 4
0000
0000
0000
0000
,  // measure 5
0010
0000
0010
0000
,  // measure 6
1000
0100
0001
0000
,  // measure 7
1000
0000
1000
0000
,  // measure 8
0001
0100
0010
0000
,  // measure 9
0100
0000
0100
0000
,  // measure 10
0001
0010
1000
0000
,  // measure 11
0001
0000
0001
0000
,  // measure 12
1000
0010
0100
0000
,  // measure 13
0020
0000
0000
0030
,  // measure 14
0100
0000
1000
0000
,  // measure 15
0020
0000
0000
0030
,  // measure 16
0001
0000
0100
0000
,  // measure 17
0020
0000
0031
0000
,  // measure 18
0200
0000
1300
0000
,  // measure 19
0002
0000
0023
0000
,  // measure 20
0230
0000
0000
0000
2300
0000
0000
3000
,  // measure 21
0200
0000
0000
0300
,  // measure 22
0010
0000
0001
0000
,  // measure 23
0200
0000
0000
0300
,  // measure 24
1000
0000
0010
0000
,  // measure 25
0200
0000
1300
0000
,  // measure 26
0020
0000
0031
0000
,  // measure 27
2000
0000
3200
0000
,  // measure 28
0320
0000
0000
0000
0032
0000
0000
0003
,  // measure 29
1000
0000
0010
0000
,  // measure 30
0001
0000
0100
0000
,  // measure 31
0001
0000
0100
0000
,  // measure 32
1000
0000
0010
0000
,  // measure 33
0100
0000
0100
0000
,  // measure 34
0010
0000
0010
0000
,  // measure 35
1000
0001
1000
0001
,  // measure 36
2002
0000
0000
0000
,  // measure 37
0000
0000
0000
3003
,  // measure 38
0001
0000
0001
0000
,  // measure 39
0100
0010
0001
0000
,  // measure 40
0100
0000
0001
0000
,  // measure 41
0100
0010
1000
0000
,  // measure 42
0200
0000
0302
0000
,  // measure 43
2003
0000
3002
0000
,  // measure 44
0203
0000
0320
0000
,  // measure 45
2030
0000
0000
0000
3002
0000
0000
0003
,  // measure 46
1000
0000
1000
0000
,  // measure 47
0010
0100
1000
0000
,  // measure 48
0010
0000
1000
0000
,  // measure 49
0010
0100
0001
0000
,  // measure 50
0020
0000
2030
0000
,  // measure 51
3002
0000
2003
0000
,  // measure 52
3020
0000
0230
0000
,  // measure 53
0302
0000
0000
0000
2003
0000
0000
3000
,  // measure 54
0010
0000
0010
0000
,  // measure 55
1000
0100
0001
0000
,  // measure 56
1000
0000
1000
0000
,  // measure 57
0001
0100
0010
0000
,  // measure 58
0100
0000
0100
0000
,  // measure 59
0001
0010
1000
0000
,  // measure 60
0001
0000
0001
0000
,  // measure 61
1000
0010
0100
0000
,  // measure 62
0020
0000
0000
0030
,  // measure 63
0100
0000
1000
0000
,  // measure 64
0020
0000
0000
0030
,  // measure 65
0001
0000
0100
0000
,  // measure 66
0020
0000
0031
0000
,  // measure 67
0200
0000
1300
0000
,  // measure 68
0002
0000
0023
0000
,  // measure 69
0230
0000
0000
0000
2300
0000
0000
3000
,  // measure 70
1000
0000
0010
0000
,  // measure 71
0001
0000
0100
0000
,  // measure 72
0001
0000
0100
0000
,  // measure 73
1000
0000
0010
0000
,  // measure 74
0100
0000
0100
0000
,  // measure 75
0010
0000
0010
0000
,  // measure 76
1000
0001
1000
0001
,  // measure 77
2002
0000
0000
0000
,  // measure 78
0000
0000
0000
3003
,  // measure 79
0001
0000
0001
0000
,  // measure 80
0100
0010
0001
0000
,  // measure 81
0100
0000
0001
0000
,  // measure 82
0100
0010
1000
0000
,  // measure 83
0200
0000
0302
0000
,  // measure 84
2003
0000
3002
0000
,  // measure 85
0203
0000
0320
0000
,  // measure 86
2030
0000
0000
0000
3002
0000
0000
0003
,  // measure 87
1000
0000
1000
0000
,  // measure 88
0010
0100
1000
0000
,  // measure 89
0010
0000
1000
0000
,  // measure 90
0010
0100
0001
0000
,  // measure 91
0020
0000
2030
0000
,  // measure 92
3002
0000
2003
0000
,  // measure 93
3020
0000
0230
0000
,  // measure 94
0302
0000
0000
0000
2003
0000
0000
3000
,  // measure 95
0200
0000
0000
0000
,  // measure 96
0000
0000
0000
0300
,  // measure 97
0010
0000
0001
0000
,  // measure 98
0010
0000
1000
0000
,  // measure 99
0010
0000
0010
0000
,  // measure 100
0010
0000
0010
0000
,  // measure 101
0010
0000
0010
0000
,  // measure 102
0220
0000
0000
0330
,  // measure 103
0010
0000
0010
0000
,  // measure 104
1000
0100
0001
0000
,  // measure 105
1000
0000
1000
0000
,  // measure 106
0001
0100
0010
0000
,  // measure 107
0100
0000
0100
0000
,  // measure 108
0001
0010
1000
0000
,  // measure 109
0001
0000
0001
0000
,  // measure 110
1000
0010
0100
0000
,  // measure 111
0001
0100
0001
0000
,  // measure 112
0100
0000
0001
0000
,  // measure 113
0001
1000
0001
0000
,  // measure 114
1000
0000
0001
0000
,  // measure 115
1000
0010
1000
0000
,  // measure 116
0010
0000
1000
0000
,  // measure 117
1000
0001
1000
0000
,  // measure 118
0001
0000
1000
0000
,  // measure 119
0020
0000
0000
0000
,  // measure 120
0200
0000
0000
0000
,  // measure 121
0000
0000
0000
0330
,  // measure 122
2002
0000
0000
0000
,  // measure 123
0000
0000
0000
0000
,  // measure 124
0000
0000
0000
0000
,  // measure 125
0000
0000
0000
0000
,  // measure 126
0000
0000
0000
0000
,  // measure 127
0000
0000
0000
0000
,  // measure 128
0000
0000
0000
0000
,  // measure 129
0000
0000
0000
3003
,  // measure 130
0220
0000
0000
0000
,  // measure 131
0000
0000
0000
0000
,  // measure 132
0000
0000
0000
0000
,  // measure 133
0000
0000
0000
0330
,  // measure 134
1000
0000
0001
0000
,  // measure 135
1000
0000
0001
0000
,  // measure 136
1000
0000
0001
0000
,  // measure 137
2002
0000
0000
3003
,  // measure 138
0001
0000
0001
0000
,  // measure 139
0100
0010
0001
0000
,  // measure 140
0100
0000
0001
0000
,  // measure 141
0100
0010
1000
0000
,  // measure 142
0200
0000
0302
0000
,  // measure 143
2003
0000
3002
0000
,  // measure 144
0203
0000
0320
0000
,  // measure 145
2030
0000
0000
0000
3002
0000
0000
0003
,  // measure 146
1000
0000
1000
0000
,  // measure 147
0010
0100
1000
0000
,  // measure 148
0010
0000
1000
0000
,  // measure 149
0010
0100
0001
0000
,  // measure 150
0020
0000
2030
0000
,  // measure 151
3002
0000
2003
0000
,  // measure 152
3020
0000
0230
0000
,  // measure 153
0302
0000
0000
0000
2003
0000
0000
3000
,  // measure 154
0100
0000
0010
0000
,  // measure 155
1000
0001
1000
0000
,  // measure 156
1000
0000
0001
0000
,  // measure 157
0100
0010
0001
0000
,  // measure 158
0010
0000
0100
0000
,  // measure 159
0001
1000
0001
0000
,  // measure 160
0001
0000
1000
0000
,  // measure 161
0010
0100
1000
0000
,  // measure 162
0001
1000
0001
0000
,  // measure 163
1000
0001
1000
0000
,  // measure 164
1001
0000
0000
0000
0000
0000
0000
2002
,  // measure 165
0000
0000
0000
0000
0000
0000
0000
3003
;

//---------------dance-single - ----------------
#NOTEDATA:;
#CHARTNAME:;
#STEPSTYPE:dance-single;
#DESCRIPTION:;
#CHARTSTYLE:;
#DIFFICULTY:Medium;
#METER:7;
#RADARVALUES:0.239230,0.339671,0.040955,0.405000,0.000000,368.000000,359.000000,9.000000,89.000000,0.000000,0.000000,0.000000,0.000000,0.000000,0.239230,0.339671,0.040955,0.405000,0.000000,368.000000,359.000000,9.000000,89.000000,0.000000,0.000000,0.000000,0.000000,0.000000;
#CREDIT:;
#NOTES:
// measure 0
0000
0000
0000
0000
,  // measure 1
0000
0000
0000
0000
,  // measure 2
0000
0000
0000
0000
,  // measure 3
0000
0000
0000
0000
,  // measure 4
0000
0000
0000
0000
,  // measure 5
0010
0100
0010
0000
,  // measure 6
1000
0100
0001
0000
,  // measure 7
1000
0000
1000
0000
,  // measure 8
0001
0100
0010
0001
,  // measure 9
0100
0010
0100
0000
,  // measure 10
0001
0010
1000
0000
,  // measure 11
0001
0000
0001
0000
,  // measure 12
1000
0010
0100
1000
,  // measure 13
0020
0000
0000
0030
,  // measure 14
0100
0000
1000
0000
,  // measure 15
0020
0000
0000
0030
,  // measure 16
0001
0000
0100
0000
,  // measure 17
0020
0000
0031
0000
,  // measure 18
0200
0000
1300
0000
,  // measure 19
0002
0000
0023
0000
,  // measure 20
0230
0000
0000
0000
2300
0000
0000
3000
,  // measure 21
0200
0000
0000
0300
,  // measure 22
0010
0000
0001
0000
,  // measure 23
0200
0000
0000
0300
,  // measure 24
1000
0000
0010
0000
,  // measure 25
0200
0000
1300
0000
,  // measure 26
0020
0000
0031
0000
,  // measure 27
2000
0000
3200
0000
,  // measure 28
0320
0000
0000
0000
0032
0000
0000
0003
,  // measure 29
1000
0000
0010
0000
,  // measure 30
0001
0000
0100
0000
,  // measure 31
0001
0000
0100
0000
,  // measure 32
1000
0000
0010
0000
,  // measure 33
0100
0100
0100
0000
,  // measure 34
0010
0010
0010
0000
,  // measure 35
1000
0001
1000
0001
,  // measure 36
2002
0000
0000
0000
,  // measure 37
0000
0000
0000
3003
,  // measure 38
0001
1000
0001
0000
,  // measure 39
0100
0010
0001
1000
,  // measure 40
0100
0000
0001
0000
,  // measure 41
0100
0010
1000
0010
,  // measure 42
0200
0000
0302
0000
,  // measure 43
2003
0000
3002
0000
,  // measure 44
0203
0000
0320
0000
,  // measure 45
2030
0000
0000
0000
3002
0000
0000
0003
,  // measure 46
1000
0001
1000
0000
,  // measure 47
0010
0100
1000
0001
,  // measure 48
0010
0000
1000
0000
,  // measure 49
0010
0100
0001
0100
,  // measure 50
0020
0000
2030
0000
,  // measure 51
3002
0000
2003
0000
,  // measure 52
3020
0000
0230
0000
,  // measure 53
0302
0000
0000
0000
2003
0000
0000
3000
,  // measure 54
0010
0100
0010
0000
,  // measure 55
1000
0100
0001
0000
,  // measure 56
1000
0000
1000
0000
,  // measure 57
0001
0100
0010
0001
,  // measure 58
0100
0010
0100
0000
,  // measure 59
0001
0010
1000
0000
,  // measure 60
0001
0000
0001
0000
,  // measure 61
1000
0010
0100
1000
,  // measure 62
0020
0000
0000
0030
,  // measure 63
0100
0000
1000
0000
,  // measure 64
0020
0000
0000
0030
,  // measure 65
0001
0000
0100
0000
,  // measure 66
0020
0000
0031
0000
,  // measure 67
0200
0000
1300
0000
,  // measure 68
0002
0000
0023
0000
,  // measure 69
0230
0000
0000
0000
2300
0000
0000
3000
,  // measure 70
1000
0000
0010
0000
,  // measure 71
0001
0000
0100
0000
,  // measure 72
0001
0000
0100
0000
,  // measure 73
1000
0000
0010
0000
,  // measure 74
0100
0100
0100
0000
,  // measure 75
0010
0010
0010
0000
,  // measure 76
1000
0001
1000
0001
,  // measure 77
2002
0000
0000
0000
,  // measure 78
0000
0000
0000
3003
,  // measure 79
0001
1000
0001
0000
,  // measure 80
0100
0010
0001
1000
,  // measure 81
0100
0000
0001
0000
,  // measure 82
0100
0010
1000
0010
,  // measure 83
0200
0000
0302
0000
,  // measure 84
2003
0000
3002
0000
,  // measure 85
0203
0000
0320
0000
,  // measure 86
2030
0000
0000
0000
3002
0000
0000
0003
,  // measure 87
1000
0001
1000
0000
,  // measure 88
0010
0100
1000
0001
,  // measure 89
0010
0000
1000
0000
,  // measure 90
0010
0100
0001
0100
,  // measure 91
0020
0000
2030
0000
,  // measure 92
3002
0000
2003
0000
,  // measure 93
3020
0000
0230
0000
,  // measure 94
0302
0000
0000
0000
2003
0000
0000
3000
,  // measure 95
0200
0000
0000
0000
,  // measure 96
0000
0000
0000
0300
,  // measure 97
0010
0010
0001
0000
,  // measure 98
0010
0000
1000
0000
,  // measure 99
0010
0000
0010
0000
,  // measure 100
0010
0000
0010
0000
,  // measure 101
0010
0010
0010
0010
,  // measure 102
0220
0000
0000
0330
,  // measure 103
0010
0100
0010
0000
,  // measure 104
1000
0100
0001
0000
,  // measure 105
1000
0000
1000
0000
,  // measure 106
0001
0100
0010
0001
,  // measure 107
0100
0010
0100
0000
,  // measure 108
0001
0010
1000
0000
,  // measure 109
0001
0000
0001
0000
,  // measure 110
1000
0010
0100
1000
,  // measure 111
0001
0100
0001
0000
,  // measure 112
0100
0000
0001
0000
,  // measure 113
0001
1000
0001
0000
,  // measure 114
1000
0010
0001
0000
,  // measure 115
1000
0010
1000
0000
,  // measure 116
0010
0000
1000
0000
,  // measure 117
1000
0001
1000
0000
,  // measure 118
0001
0100
1000
0000
,  // measure 119
0020
0000
0000
0000
,  // measure 120
0200
0000
0000
0000
,  // measure 121
0000
0000
0000
0330
,  // measure 122
2002
0000
0000
0000
,  // measure 123
0000
0000
0000
0000
,  // measure 124
0000
0000
0000
0000
,  // measure 125
0000
0000
0000
0000
,  // measure 126
0000
0000
0000
0000
,  // measure 127
0000
0000
0000
0000
,  // measure 128
0000
0000
0000
0000
,  // measure 129
0000
0000
0000
3003
,  // measure 130
0220
0000
0000
0000
,  // measure 131
0000
0000
0000
0000
,  // measure 132
0000
0000
0000
0000
,  // measure 133
0000
0000
0000
0330
,  // measure 134
1000
0000
0001
0000
,  // measure 135
1000
0000
0001
0000
,  // measure 136
1000
0001
1000
0001
,  // measure 137
2002
0000
0000
3003
,  // measure 138
0001
1000
0001
0000
,  // measure 139
0100
0010
0001
1000
,  // measure 140
0100
0000
0001
0000
,  // measure 141
0100
0010
1000
0010
,  // measure 142
0200
0000
0302
0000
,  // measure 143
2003
0000
3002
0000
,  // measure 144
0203
0000
0320
0000
,  // measure 145
2030
0000
0000
0000
3002
0000
0000
0003
,  // measure 146
1000
0001
1000
0000
,  // measure 147
0010
0100
1000
0001
,  // measure 148
0010
0000
1000
0000
,  // measure 149
0010
0100
0001
0100
,  // measure 150
0020
0000
2030
0000
,  // measure 151
3002
0000
2003
0000
,  // measure 152
3020
0000
0230
0000
,  // measure 153
0302
0000
0000
0000
2003
0000
0000
3000
,  // measure 154
0100
0100
0010
0000
,  // measure 155
1000
0001
1000
0000
,  // measure 156
1000
0000
0001
0000
,  // measure 157
0100
0010
0001
0000
,  // measure 158
0010
0010
0100
0000
,  // measure 159
0001
1000
0001
0000
,  // measure 160
0001
0000
1000
0000
,  // measure 161
0010
0100
1000
0000
,  // measure 162
0001
1000
0001
0000
,  // measure 163
1000
0001
1000
0000
,  // measure 164
1001
0000
0000
0110
0000
0000
0000
2002
,  // measure 165
0000
0000
0000
0000
0000
0000
0000
3003
;

//---------------dance-single - ----------------
#NOTEDATA:;
#CHARTNAME:;
#STEPSTYPE:dance-single;
#DESCRIPTION:;
#CHARTSTYLE:;
#DIFFICULTY:Hard;
#METER:8;
#RADARVALUES:0.257432,0.377412,0.040955,0.405000,0.000000,396.000000,387.000000,9.000000,89.000000,0.000000,0.000000,0.000000,0.000000,0.000000,0.257432,0.377412,0.040955,0.405000,0.000000,396.000000,387.000000,9.000000,89.000000,0.000000,0.000000,0.000000,0.000000,0.000000;
#CREDIT:;
#NOTES:
// measure 0
0000
0000
0000
0000
,  // measure 1
0000
0000
0000
0000
,  // measure 2
0000
0000
0000
0000
,  // measure 3
0000
0000
0000
0000
,  // measure 4
0000
0000
0000
0000
,  // measure 5
0010
0100
0010
0000
,  // measure 6
1000
0100
0001
0000
,  // measure 7
1000
0001
1000
0000
,  // measure 8
0001
0100
0010
0001
,  // measure 9
0100
0010
0100
0000
,  // measure 10
0001
0010
1000
0000
,  // measure 11
0001
1000
0001
0000
,  // measure 12
1000
0010
0100
1000
,  // measure 13
0020
0000
0100
0030
,  // measure 14
0100
0000
1000
0000
,  // measure 15
0020
0000
0000
0030
,  // measure 16
0001
0000
0100
0000
,  // measure 17
0020
0000
0031
0000
,  // measure 18
0200
0000
1300
0000
,  // measure 19
0002
0000
0023
0000
,  // measure 20
0230
0000
0000
0000
2300
0000
0000
3000
,  // measure 21
0200
0000
0010
0300
,  // measure 22
0010
0000
0001
0000
,  // measure 23
0200
0000
0000
0300
,  // measure 24
1000
0000
0010
0000
,  // measure 25
0200
0000
1300
0000
,  // measure 26
0020
0000
0031
0000
,  // measure 27
2000
0000
3200
0000
,  // measure 28
0320
0000
0000
0000
0032
0000
0000
0003
,  // measure 29
1000
0000
0010
0000
,  // measure 30
0001
0000
0100
0000
,  // measure 31
0001
0000
0100
0000
,  // measure 32
1000
0000
0010
0000
,  // measure 33
0100
0100
0100
0000
,  // measure 34
0010
0010
0010
0000
,  // measure 35
1000
0001
1000
0001
,  // measure 36
2002
0000
0000
0000
,  // measure 37
0000
0000
0000
3003
,  // measure 38
0001
1000
0001
0000
,  // measure 39
0100
0010
0001
1000
,  // measure 40
0100
0010
0001
0000
,  // measure 41
0100
0010
1000
0010
,  // measure 42
0200
0000
0302
0000
,  // measure 43
2003
0000
3002
0000
,  // measure 44
0203
0000
0320
0000
,  // measure 45
2030
0000
0000
0000
3002
0000
1000
0003
,  // measure 46
1000
0001
1000
0000
,  // measure 47
0010
0100
1000
0001
,  // measure 48
0010
0100
1000
0000
,  // measure 49
0010
0100
0001
0100
,  // measure 50
0020
0000
2030
0000
,  // measure 51
3002
0000
2003
0000
,  // measure 52
3020
0000
0230
0000
,  // measure 53
0302
0000
0000
0000
2003
0000
0001
3000
,  // measure 54
0010
0100
0010
0000
,  // measure 55
1000
0100
0001
0000
,  // measure 56
1000
0001
1000
0000
,  // measure 57
0001
0100
0010
0001
,  // measure 58
0100
0010
0100
0000
,  // measure 59
0001
0010
1000
0000
,  // measure 60
0001
1000
0001
0000
,  // measure 61
1000
0010
0100
1000
,  // measure 62
0020
0000
0100
0030
,  // measure 63
0100
0000
1000
0000
,  // measure 64
0020
0000
0000
0030
,  // measure 65
0001
0000
0100
0000
,  // measure 66
0020
0000
0031
0000
,  // measure 67
0200
0000
1300
0000
,  // measure 68
0002
0000
0023
0000
,  // measure 69
0230
0000
0000
0000
2300
0000
0000
3000
,  // measure 70
1000
0000
0010
0000
,  // measure 71
0001
0000
0100
0000
,  // measure 72
0001
0000
0100
0000
,  // measure 73
1000
0000
0010
0000
,  // measure 74
0100
0100
0100
0000
,  // measure 75
0010
0010
0010
0000
,  // measure 76
1000
0001
1000
0001
,  // measure 77
2002
0000
0000
0000
,  // measure 78
0000
0000
0000
3003
,  // measure 79
0001
1000
0001
0000
,  // measure 80
0100
0010
0001
1000
,  // measure 81
0100
0010
0001
0000
,  // measure 82
0100
0010
1000
0010
,  // measure 83
0200
0000
0302
0000
,  // measure 84
2003
0000
3002
0000
,  // measure 85
0203
0000
0320
0000
,  // measure 86
2030
0000
0000
0000
3002
0000
1000
0003
,  // measure 87
1000
0001
1000
0000
,  // measure 88
0010
0100
1000
0001
,  // measure 89
0010
0100
1000
0000
,  // measure 90
0010
0100
0001
0100
,  // measure 91
0020
0000
2030
0000
,  // measure 92
3002
0000
2003
0000
,  // measure 93
3020
0000
0230
0000
,  // measure 94
0302
0000
0000
0000
2003
0000
0001
3000
,  // measure 95
0200
0000
0000
0000
,  // measure 96
0000
0000
0000
0300
,  // measure 97
0010
0010
0001
0000
,  // measure 98
0010
0000
1000
0000
,  // measure 99
0010
0000
0010
0000
,  // measure 100
0010
0010
0010
0000
,  // measure 101
0010
0010
0010
0010
,  // measure 102
0220
0000
0000
0330
,  // measure 103
0010
0100
0010
0000
,  // measure 104
1000
0100
0001
0000
,  // measure 105
1000
0001
1000
0000
,  // measure 106
0001
0100
0010
0001
,  // measure 107
0100
0010
0100
0000
,  // measure 108
0001
0010
1000
0000
,  // measure 109
0001
1000
0001
0000
,  // measure 110
1000
0010
0100
1000
,  // measure 111
0001
0100
0001
0000
,  // measure 112
0100
0000
0001
0000
,  // measure 113
0001
1000
0001
1000
,  // measure 114
1000
0010
0001
0000
,  // measure 115
1000
0010
1000
0000
,  // measure 116
0010
0000
1000
0000
,  // measure 117
1000
0001
1000
0001
,  // measure 118
0001
0100
1000
0000
,  // measure 119
0020
0000
0000
0000
,  // measure 120
0200
0000
0000
0000
,  // measure 121
0000
0000
0000
0330
,  // measure 122
2002
0000
0000
0000
,  // measure 123
0000
0000
0000
0000
,  // measure 124
0000
0000
0000
0000
,  // measure 125
0000
0000
0000
0000
,  // measure 126
0000
0000
0000
0000
,  // measure 127
0000
0000
0000
0000
,  // measure 128
0000
0000
0000
0000
,  // measure 129
0000
0000
0000
3003
,  // measure 130
0220
0000
0000
0000
,  // measure 131
0000
0000
0000
0000
,  // measure 132
0000
0000
0000
0000
,  // measure 133
0000
0000
0000
0330
,  // measure 134
1000
0000
0001
0000
,  // measure 135
1000
0000
0001
0000
,  // measure 136
1000
0001
1000
0001
,  // measure 137
2002
0000
0000
3003
,  // measure 138
0001
1000
0001
0000
,  // measure 139
0100
0010
0001
1000
,  // measure 140
0100
0010
0001
0000
,  // measure 141
0100
0010
1000
0010
,  // measure 142
0200
0000
0302
0000
,  // measure 143
2003
0000
3002
0000
,  // measure 144
0203
0000
0320
0000
,  // measure 145
2030
0000
0000
0000
3002
0000
1000
0003
,  // measure 146
1000
0001
1000
0000
,  // measure 147
0010
0100
1000
0001
,  // measure 148
0010
0100
1000
0000
,  // measure 149
0010
0100
0001
0100
,  // measure 150
0020
0000
2030
0000
,  // measure 151
3002
0000
2003
0000
,  // measure 152
3020
0000
0230
0000
,  // measure 153
0302
0000
0000
0000
2003
0000
0001
3000
,  // measure 154
0100
0100
0010
0010
,  // measure 155
1000
0001
1000
0000
,  // measure 156
1000
0000
0001
0000
,  // measure 157
0100
0010
0001
0000
,  // measure 158
0010
0010
0100
0100
,  // measure 159
0001
1000
0001
0000
,  // measure 160
0001
0000
1000
0000
,  // measure 161
0010
0100
1000
0000
,  // measure 162
0001
1000
0001
1000
,  // measure 163
1000
0001
1000
0001
,  // measure 164
1001
0000
0000
0110
0000
0000
0000
2002
,  // measure 165
0000
0000
0000
0000
0000
0000
0000
3003
;

//---------------dance-single - ----------------
#NOTEDATA:;
#CHARTNAME:;
#STEPSTYPE:dance-single;
#DESCRIPTION:;
#CHARTSTYLE:;
#DIFFICULTY:Challenge;
#METER:8;
#RADARVALUES:0.266533,0.377412,0.040955,0.405000,0.000000,410.000000,401.000000,9.000000,89.000000,0.000000,0.000000,0.000000,0.000000,0.000000,0.266533,0.377412,0.040955,0.405000,0.000000,410.000000,401.000000,9.000000,89.000000,0.000000,0.000000,0.000000,0.000000,0.000000;
#CREDIT:;
#NOTES:
// measure 0
0000
0000
0000
0000
,  // measure 1
0000
0000
0000
0000
,  // measure 2
0000
0000
0000
0000
,  // measure 3
0000
0000
0000
0000
,  // measure 4
0000
0000
0000
0000
,  // measure 5
0010
0100
0010
0000
,  // measure 6
1000
0100
0001
0000
,  // measure 7
1000
0001
1000
0000
,  // measure 8
0001
0100
0010
0001
,  // measure 9
0100
0010
0100
0000
,  // measure 10
0001
0010
1000
0000
,  // measure 11
0001
1000
0001
0000
,  // measure 12
1000
0010
0100
1000
,  // measure 13
0020
0000
0100
0030
,  // measure 14
0100
0000
1000
1000
,  // measure 15
0020
0000
0001
0030
,  // measure 16
0001
0000
0100
0000
,  // measure 17
0020
0000
0031
0000
,  // measure 18
0200
0000
1300
0000
,  // measure 19
0002
0000
0023
0000
,  // measure 20
0230
0000
0000
0000
2300
0000
0000
3000
,  // measure 21
0200
0000
0010
0300
,  // measure 22
0010
0000
0001
0001
,  // measure 23
0200
0000
1000
0300
,  // measure 24
1000
0000
0010
0000
,  // measure 25
0200
0000
1300
0000
,  // measure 26
0020
0000
0031
0000
,  // measure 27
2000
0000
3200
0000
,  // measure 28
0320
0000
0000
0000
0032
0000
0000
0003
,  // measure 29
1000
0000
0010
0000
,  // measure 30
0001
1000
0100
0000
,  // measure 31
0001
0000
0100
0000
,  // measure 32
1000
0001
0010
0000
,  // measure 33
0100
0100
0100
0000
,  // measure 34
0010
0010
0010
0000
,  // measure 35
1000
0001
1000
0001
,  // measure 36
2002
0000
0000
0000
,  // measure 37
0000
0000
0000
3003
,  // measure 38
0001
1000
0001
0000
,  // measure 39
0100
0010
0001
1000
,  // measure 40
0100
0010
0001
0000
,  // measure 41
0100
0010
1000
0010
,  // measure 42
0200
0000
0302
0000
,  // measure 43
2003
0000
3002
0000
,  // measure 44
0203
0000
0320
0000
,  // measure 45
2030
0000
0000
0000
3002
0000
1000
0003
,  // measure 46
1000
0001
1000
0000
,  // measure 47
0010
0100
1000
0001
,  // measure 48
0010
0100
1000
0000
,  // measure 49
0010
0100
0001
0100
,  // measure 50
0020
0000
2030
0000
,  // measure 51
3002
0000
2003
0000
,  // measure 52
3020
0000
0230
0000
,  // measure 53
0302
0000
0000
0000
2003
0000
0001
3000
,  // measure 54
0010
0100
0010
0000
,  // measure 55
1000
0100
0001
0000
,  // measure 56
1000
0001
1000
0000
,  // measure 57
0001
0100
0010
0001
,  // measure 58
0100
0010
0100
0000
,  // measure 59
0001
0010
1000
0000
,  // measure 60
0001
1000
0001
0000
,  // measure 61
1000
0010
0100
1000
,  // measure 62
0020
0000
0100
0030
,  // measure 63
0100
0000
1000
1000
,  // measure 64
0020
0000
0001
0030
,  // measure 65
0001
0000
0100
0000
,  // measure 66
0020
0000
0031
0000
,  // measure 67
0200
0000
1300
0000
,  // measure 68
0002
0000
0023
0000
,  // measure 69
0230
0000
0000
0000
2300
0000
0000
3000
,  // measure 70
1000
0000
0010
0000
,  // measure 71
0001
1000
0100
0000
,  // measure 72
0001
0000
0100
0000
,  // measure 73
1000
0001
0010
0000
,  // measure 74
0100
0100
0100
0000
,  // measure 75
0010
0010
0010
0000
,  // measure 76
1000
0001
1000
0001
,  // measure 77
2002
0000
0000
0000
,  // measure 78
0000
0000
0000
3003
,  // measure 79
0001
1000
0001
0000
,  // measure 80
0100
0010
0001
1000
,  // measure 81
0100
0010
0001
0000
,  // measure 82
0100
0010
1000
0010
,  // measure 83
0200
0000
0302
0000
,  // measure 84
2003
0000
3002
0000
,  // measure 85
0203
0000
0320
0000
,  // measure 86
2030
0000
0000
0000
3002
0000
1000
0003
,  // measure 87
1000
0001
1000
0000
,  // measure 88
0010
0100
1000
0001
,  // measure 89
0010
0100
1000
0000
,  // measure 90
0010
0100
0001
0100
,  // measure 91
0020
0000
2030
0000
,  // measure 92
3002
0000
2003
0000
,  // measure 93
3020
0000
0230
0000
,  // measure 94
0302
0000
0000
0000
2003
0000
0001
3000
,  // measure 95
0200
0000
0000
0000
,  // measure 96
0000
0000
0000
0300
,  // measure 97
0010
0010
0001
0000
,  // measure 98
0010
0010
1000
0000
,  // measure 99
0010
0000
0010
0000
,  // measure 100
0010
0010
0010
0000
,  // measure 101
0010
0010
0010
0010
,  // measure 102
0220
0000
0000
0330
,  // measure 103
0010
0100
0010
0000
,  // measure 104
1000
0100
0001
0000
,  // measure 105
1000
0001
1000
0000
,  // measure 106
0001
0100
0010
0001
,  // measure 107
0100
0010
0100
0000
,  // measure 108
0001
0010
1000
0000
,  // measure 109
0001
1000
0001
0000
,  // measure 110
1000
0010
0100
1000
,  // measure 111
0001
0100
0001
0100
,  // measure 112
0100
0000
0001
0000
,  // measure 113
0001
1000
0001
1000
,  // measure 114
1000
0010
0001
0000
,  // measure 115
1000
0010
1000
0010
,  // measure 116
0010
0000
1000
0000
,  // measure 117
1000
0001
1000
0001
,  // measure 118
0001
0100
1000
0000
,  // measure 119
0020
0000
0000
0000
,  // measure 120
0200
0000
0000
0000
,  // measure 121
0000
0000
0000
0330
,  // measure 122
2002
0000
0000
0000
,  // measure 123
0000
0000
0000
0000
,  // measure 124
0000
0000
0000
0000
,  // measure 125
0000
0000
0000
0000
,  // measure 126
0000
0000
0000
0000
,  // measure 127
0000
0000
0000
0000
,  // measure 128
0000
0000
0000
0000
,  // measure 129
0000
0000
0000
3003
,  // measure 130
0220
0000
0000
0000
,  // measure 131
0000
0000
0000
0000
,  // measure 132
0000
0000
0000
0000
,  // measure 133
0000
0000
0000
0330
,  // measure 134
0001
0000
1000
0000
,  // measure 135
0001
0000
1000
0001
,  // measure 136
1000
0001
1000
0001
,  // measure 137
2002
0000
0000
3003
,  // measure 138
0001
1000
0001
0000
,  // measure 139
0100
0010
0001
1000
,  // measure 140
0100
0010
0001
0000
,  // measure 141
0100
0010
1000
0010
,  // measure 142
0200
0000
0302
0000
,  // measure 143
2003
0000
3002
0000
,  // measure 144
0203
0000
0320
0000
,  // measure 145
2030
0000
0000
0000
3002
0000
1000
0003
,  // measure 146
1000
0001
1000
0000
,  // measure 147
0010
0100
1000
0001
,  // measure 148
0010
0100
1000
0000
,  // measure 149
0010
0100
0001
0100
,  // measure 150
0020
0000
2030
0000
,  // measure 151
3002
0000
2003
0000
,  // measure 152
3020
0000
0230
0000
,  // measure 153
0302
0000
0000
0000
2003
0000
0001
3000
,  // measure 154
0100
0100
0010
0010
,  // measure 155
1000
0001
1000
0000
,  // measure 156
1000
0000
0001
0000
,  // measure 157
0100
0010
0001
0000
,  // measure 158
0010
0010
0100
0100
,  // measure 159
0001
1000
0001
0000
,  // measure 160
0001
0000
1000
0000
,  // measure 161
0010
0100
1000
0000
,  // measure 162
0001
1000
0001
1000
,  // measure 163
1000
0001
1000
0001
,  // measure 164
1001
0000
0000
0110
0000
0000
0000
2002
,  // measure 165
0000
0000
0000
0000
0000
0000
0000
3003
;

//---------------dance-single - Hell----------------
#NOTEDATA:;
#CHARTNAME:Hell;
#STEPSTYPE:dance-single;
#DESCRIPTION:Hell;
#CHARTSTYLE:;
#DIFFICULTY:Edit;
#METER:18;
#RADARVALUES:1.113588,1.245461,0.377697,0.564270,1.196798,1713.000000,1630.000000,83.000000,124.000000,0.000000,0.000000,0.000000,0.000000,0.000000,1.113588,1.245461,0.377697,0.564270,1.196798,1713.000000,1630.000000,83.000000,124.000000,0.000000,0.000000,0.000000,0.000000,0.000000;
#CREDIT:;
#NOTES:
// measure 0
0000
0000
0000
0000
,  // measure 1
0000
0000
0000
0000
,  // measure 2
0000
0000
0000
0000
,  // measure 3
0000
0000
0000
0000
,  // measure 4
0000
0000
0000
0000
,  // measure 5
0010
1000
0010
1000
0010
0000
0100
0000
0001
0000
0010
0000
0110
0000
1000
0000
,  // measure 6
0001
0010
0100
1000
0100
0000
0100
0000
0110
0000
0001
0000
0010
0000
1000
0000
,  // measure 7
0020
0230
2300
3002
0023
0230
0302
2003
,  // measure 8
3200
0000
0320
0000
0230
0000
0310
0000
0010
0100
0010
0100
0010
0100
0010
0100
,  // measure 9
0100
0001
0100
0001
0100
0000
0010
0000
1000
0000
0100
0000
0110
0000
0001
0000
,  // measure 10
1000
0100
0010
0001
0010
0000
0010
0000
0110
0000
1000
0000
0100
0000
0001
0000
,  // measure 11
0200
0320
0032
2003
3200
0320
2030
3002
,  // measure 12
0023
0000
0230
0000
0320
0000
0130
0000
0100
0010
0100
0010
0100
0010
0100
0010
,  // measure 13
1001
1000
1010
0010
0011
0001
1001
1000
,  // measure 14
0020
0030
0020
0030
0200
0300
0200
0300
,  // measure 15
1001
0001
0101
0100
1100
1000
1001
0001
,  // measure 16
0200
0300
0200
0300
0020
0030
0020
0030
,  // measure 17
1000
0100
0010
0001
0100
1000
0100
0000
0010
0000
0000
0000
0010
0000
0000
0000
,  // measure 18
0001
0010
0100
1000
0010
0001
0010
0000
0100
0000
0000
0000
0100
0000
0000
0000
,  // measure 19
1010
0100
0101
0010
0110
0010
1100
0100
,  // measure 20
1000
0010
0100
0010
0100
0001
0010
0100
0001
1000
0010
0100
,  // measure 21
1001
0001
0101
0100
1100
1000
1001
0001
,  // measure 22
0200
0300
0200
0300
0020
0030
0020
0030
,  // measure 23
1001
1000
1010
0010
0011
0001
1001
1000
,  // measure 24
0020
0030
0020
0030
0200
0300
0200
0300
,  // measure 25
0001
0010
0100
1000
0010
0001
0010
0000
0100
0000
0000
0000
0100
0000
0000
0000
,  // measure 26
1000
0100
0010
0001
0100
1000
0100
0000
0010
0000
0000
0000
0010
0000
0000
0000
,  // measure 27
0101
0010
1010
0100
0110
0100
0011
0010
,  // measure 28
0001
0100
0010
0100
0010
1000
0100
0010
1000
0001
0100
0010
,  // measure 29
0100
1000
0000
1000
0100
0000
0010
0100
0000
0001
0010
0000
,  // measure 30
1000
0100
0001
0100
0010
0001
0010
1000
0100
0010
0001
0010
,  // measure 31
0010
0001
0000
0001
0010
0000
0100
0010
0000
1000
0100
0000
,  // measure 32
0001
0010
1000
0010
0100
1000
0100
0001
0010
0100
1000
0100
,  // measure 33
0010
0000
0010
0000
0010
0100
0010
0100
0010
0100
0000
0000
0000
0000
0000
0000
,  // measure 34
0100
0000
0100
0000
0100
0010
0100
0010
0100
0010
0000
0000
0000
0000
0000
0000
,  // measure 35
1000
0001
1000
0001
1000
0001
1000
0001
,  // measure 36
1000
0001
1000
0001
1000
0001
1000
0001
1000
0001
1000
0001
1000
0001
1000
0001
,  // measure 37
2002
0000
0000
0000
0000
0000
0000
3003
,  // measure 38
0010
0000
0100
0000
0010
0100
1000
0000
0100
0000
0010
0000
0001
0010
0001
0000
,  // measure 39
0100
1000
0100
1000
0100
0010
0100
0010
0001
1000
0001
1000
0010
0100
1000
0100
,  // measure 40
0100
0000
0010
0000
0100
0010
0001
0000
0010
0000
0100
0000
1000
0100
1000
0000
,  // measure 41
0010
0001
0010
0001
0010
0100
0010
0100
1000
0001
1000
0001
0100
0010
0001
0010
,  // measure 42
0001
0000
1000
0000
0001
1000
0010
0000
1000
0000
0001
0000
0100
0001
0100
0000
,  // measure 43
1000
0010
1000
0010
1000
0001
1000
0001
0100
0010
0100
0010
0001
1000
0010
1000
,  // measure 44
1000
0000
0001
0000
1000
0001
0100
0000
0001
0000
1000
0000
0010
1000
0010
0000
,  // measure 45
0001
0100
0001
0100
0001
1000
0001
1000
0010
0100
0010
0100
1000
0001
0100
0001
,  // measure 46
0100
0000
0010
0000
0100
0010
0001
0000
0010
0000
0100
0000
1000
0100
1000
0000
,  // measure 47
0010
0001
0010
0001
0010
0100
0010
0100
1000
0001
1000
0001
0100
0010
0001
0010
,  // measure 48
0010
0000
0100
0000
0010
0100
1000
0000
0100
0000
0010
0000
0001
0010
0001
0000
,  // measure 49
0100
1000
0100
1000
0100
0010
0100
0010
0001
1000
0001
1000
0010
0100
1000
0100
,  // measure 50
1000
0000
0001
0000
1000
0001
0100
0000
0001
0000
1000
0000
0010
1000
0010
0000
,  // measure 51
0001
0100
0001
0100
0001
1000
0001
1000
0010
0100
0010
0100
1000
0001
0100
0001
,  // measure 52
0001
0000
1000
0000
0001
1000
0010
0000
1000
0000
0001
0000
0100
0001
0100
0000
,  // measure 53
1000
0010
1000
0010
1000
0001
1000
0001
0100
0010
0100
0010
0001
1000
0010
1000
,  // measure 54
0010
1000
0010
1000
0010
0000
0100
0000
0001
0000
0010
0000
0110
0000
1000
0000
,  // measure 55
0001
0010
0100
1000
0100
0000
0100
0000
0110
0000
0001
0000
0010
0000
1000
0000
,  // measure 56
0020
0230
2300
3002
0023
0230
0302
2003
,  // measure 57
3200
0000
0320
0000
0230
0000
0310
0000
0010
0100
0010
0100
0010
0100
0010
0100
,  // measure 58
0100
0001
0100
0001
0100
0000
0010
0000
1000
0000
0100
0000
0110
0000
0001
0000
,  // measure 59
1000
0100
0010
0001
0010
0000
0010
0000
0110
0000
1000
0000
0100
0000
0001
0000
,  // measure 60
0200
0320
0032
2003
3200
0320
2030
3002
,  // measure 61
0023
0000
0230
0000
0320
0000
0130
0000
0100
0010
0100
0010
0100
0010
0100
0010
,  // measure 62
1001
1000
1010
0010
0011
0001
1001
1000
,  // measure 63
0020
0030
0020
0030
0200
0300
0200
0300
,  // measure 64
1001
0001
0101
0100
1100
1000
1001
0001
,  // measure 65
0200
0300
0200
0300
0020
0030
0020
0030
,  // measure 66
1000
0100
0010
0001
0100
1000
0100
0000
0010
0000
0000
0000
0010
0000
0000
0000
,  // measure 67
0001
0010
0100
1000
0010
0001
0010
0000
0100
0000
0000
0000
0100
0000
0000
0000
,  // measure 68
1010
0100
0101
0010
0110
0010
1100
0100
,  // measure 69
1000
0010
0100
0010
0100
0001
0010
0100
0001
1000
0010
0100
,  // measure 70
0010
0001
0000
0001
0010
0000
0100
0010
0000
1000
0100
0000
,  // measure 71
0001
0010
1000
0010
0100
1000
0100
0001
0010
0100
1000
0100
,  // measure 72
0100
1000
0000
1000
0100
0000
0010
0100
0000
0001
0010
0000
,  // measure 73
1000
0100
0001
0100
0010
0001
0010
1000
0100
0010
0001
0010
,  // measure 74
0100
0000
0100
0000
0100
0010
0100
0010
0100
0010
0000
0000
0000
0000
0000
0000
,  // measure 75
0010
0000
0010
0000
0010
0100
0010
0100
0010
0100
0000
0000
0000
0000
0000
0000
,  // measure 76
0001
1000
0001
1000
0001
1000
0001
1000
,  // measure 77
0001
1000
0001
1000
0001
1000
0001
1000
0001
1000
0001
1000
0001
1000
0001
1000
,  // measure 78
2002
0000
0000
0000
0000
0000
0000
3003
,  // measure 79
0010
0000
0100
0000
0010
0100
1000
0000
0100
0000
0010
0000
0001
0010
0001
0000
,  // measure 80
0100
1000
0100
1000
0100
0010
0100
0010
0001
1000
0001
1000
0010
0100
1000
0100
,  // measure 81
0100
0000
0010
0000
0100
0010
0001
0000
0010
0000
0100
0000
1000
0100
1000
0000
,  // measure 82
0010
0001
0010
0001
0010
0100
0010
0100
1000
0001
1000
0001
0100
0010
0001
0010
,  // measure 83
0001
0000
1000
0000
0001
1000
0010
0000
1000
0000
0001
0000
0100
0001
0100
0000
,  // measure 84
1000
0010
1000
0010
1000
0001
1000
0001
0100
0010
0100
0010
0001
1000
0010
1000
,  // measure 85
1000
0000
0001
0000
1000
0001
0100
0000
0001
0000
1000
0000
0010
1000
0010
0000
,  // measure 86
0001
0100
0001
0100
0001
1000
0001
1000
0010
0100
0010
0100
1000
0001
0100
0001
,  // measure 87
0100
0000
0010
0000
0100
0010
0001
0000
0010
0000
0100
0000
1000
0100
1000
0000
,  // measure 88
0010
0001
0010
0001
0010
0100
0010
0100
1000
0001
1000
0001
0100
0010
0001
0010
,  // measure 89
0010
0000
0100
0000
0010
0100
1000
0000
0100
0000
0010
0000
0001
0010
0001
0000
,  // measure 90
0100
1000
0100
1000
0100
0010
0100
0010
0001
1000
0001
1000
0010
0100
1000
0100
,  // measure 91
1000
0000
0001
0000
1000
0001
0100
0000
0001
0000
1000
0000
0010
1000
0010
0000
,  // measure 92
0001
0100
0001
0100
0001
1000
0001
1000
0010
0100
0010
0100
1000
0001
0100
0001
,  // measure 93
0001
0000
1000
0000
0001
1000
0010
0000
1000
0000
0001
0000
0100
0001
0100
0000
,  // measure 94
1000
0010
1000
0010
1000
0001
1000
0001
0100
0010
0100
0010
0001
1000
0010
1000
,  // measure 95
0110
0000
0010
0000
0110
0000
0100
0000
1000
0010
1000
0000
0001
0100
0001
0000
,  // measure 96
1000
0100
0010
0001
1000
0100
0010
0001
1000
0100
0010
0001
1000
0100
0010
0001
,  // measure 97
0110
0000
0100
0000
0110
0000
0010
0000
0001
0100
0001
0000
1000
0010
1000
0000
,  // measure 98
0001
0010
0100
1000
0001
0010
0100
1000
0001
0010
0100
1000
0001
0010
0100
1000
,  // measure 99
0010
0100
0010
1000
0100
1000
0100
0001
,  // measure 100
0100
0010
0100
0001
0010
0001
0010
0100
,  // measure 101
1000
0100
0010
0001
0001
0010
0100
1000
1000
0100
0010
0001
0001
0010
0100
1000
,  // measure 102
0010
0100
0010
0100
0010
0100
0010
0100
0010
0000
0100
0000
0220
0000
0330
0000
,  // measure 103
0010
1000
0010
1000
0010
0000
0100
0000
0001
0000
0010
0000
0110
0000
1000
0000
,  // measure 104
0001
0010
0100
1000
0100
0000
0100
0000
0110
0000
0001
0000
0010
0000
1000
0000
,  // measure 105
0020
0230
2300
3002
0023
0230
0302
2003
,  // measure 106
3200
0000
0320
0000
0230
0000
0310
0000
0010
0100
0010
0100
0010
0100
0010
0100
,  // measure 107
0100
0001
0100
0001
0100
0000
0010
0000
1000
0000
0100
0000
0110
0000
0001
0000
,  // measure 108
1000
0100
0010
0001
0010
0000
0010
0000
0110
0000
1000
0000
0100
0000
0001
0000
,  // measure 109
0200
0320
0032
2003
3200
0320
2030
3002
,  // measure 110
0023
0000
0230
0000
0320
0000
0130
0000
0100
0010
0100
0010
0100
0010
0100
0010
,  // measure 111
1000
0100
0001
0000
0001
0010
1000
0000
0100
0001
0100
0000
0001
0010
1000
0000
,  // measure 112
0001
0010
1000
0000
1000
0100
0001
0000
0010
1000
0010
0000
1000
0100
0001
0000
,  // measure 113
0010
1000
0100
0000
0100
0001
0010
0000
1000
0100
1000
0000
0100
0001
0010
0000
,  // measure 114
0100
0001
0010
0000
0010
1000
0100
0000
0001
0010
0001
0000
0010
1000
0100
0000
,  // measure 115
0001
0010
1000
0010
0001
0010
0100
0010
1000
0100
0001
0100
1000
0100
0010
0100
,  // measure 116
0100
0001
0010
0001
0100
0001
1000
0001
0010
1000
0100
1000
0010
1000
0001
1000
,  // measure 117
0020
0000
0000
0000
0000
0000
0130
0010
0100
0010
0100
0010
,  // measure 118
1000
0100
0010
0001
1000
0100
0010
0001
1000
0100
0010
0001
,  // measure 119
0020
0000
0000
0000
0000
0000
0130
0010
0100
0000
0010
0000
0110
0000
1001
0000
,  // measure 120
2002
0000
0000
0000
,  // measure 121
3003
0000
0000
0000
,  // measure 122
0020
0000
0000
0000
0100
0000
0000
0030
,  // measure 123
0100
0010
0001
0010
1000
0010
0100
0010
,  // measure 124
0200
0000
0000
0000
0010
0000
0000
0300
,  // measure 125
0010
0100
1000
0100
0001
0100
0010
0100
,  // measure 126
0002
0000
0000
0000
1000
0000
0000
0003
,  // measure 127
1000
0001
0100
0001
0010
0001
1000
0001
,  // measure 128
2000
0000
0000
0000
0001
0000
0000
3000
,  // measure 129
0001
1000
0010
1000
0100
1000
0001
1000
,  // measure 130
0200
0000
0000
0000
0010
0000
0000
0300
,  // measure 131
0010
0100
1000
0100
0001
0100
0010
0100
,  // measure 132
0020
0000
0000
0000
0100
0000
0000
0030
,  // measure 133
0100
0010
0001
0010
1000
0010
0100
0010
,  // measure 134
1000
0001
1000
0001
1000
0001
1000
0001
,  // measure 135
1000
0001
1000
0001
1000
0001
1000
0001
,  // measure 136
1000
0001
1000
0001
1000
0001
1000
0001
1000
0001
1000
0001
1000
0001
1000
0001
,  // measure 137
1000
0001
1000
0001
1000
0001
1000
0001
2002
0000
0000
0000
0000
0000
3003
0000
,  // measure 138
0010
0000
0100
0000
0010
0100
1000
0000
0100
0000
0010
0000
0001
0010
0001
0000
,  // measure 139
0100
1000
0100
1000
0100
0010
0100
0010
0001
1000
0001
1000
0010
0100
1000
0100
,  // measure 140
0100
0000
0010
0000
0100
0010
0001
0000
0010
0000
0100
0000
1000
0100
1000
0000
,  // measure 141
0010
0001
0010
0001
0010
0100
0010
0100
1000
0001
1000
0001
0100
0010
0001
0010
,  // measure 142
0001
0000
1000
0000
0001
1000
0010
0000
1000
0000
0001
0000
0100
0001
0100
0000
,  // measure 143
1000
0010
1000
0010
1000
0001
1000
0001
0100
0010
0100
0010
0001
1000
0010
1000
,  // measure 144
1000
0000
0001
0000
1000
0001
0100
0000
0001
0000
1000
0000
0010
1000
0010
0000
,  // measure 145
0001
0100
0001
0100
0001
1000
0001
1000
0010
0100
0010
0100
1000
0001
0100
0001
,  // measure 146
0100
0000
0010
0000
0100
0010
0001
0000
0010
0000
0100
0000
1000
0100
1000
0000
,  // measure 147
0010
0001
0010
0001
0010
0100
0010
0100
1000
0001
1000
0001
0100
0010
0001
0010
,  // measure 148
0010
0000
0100
0000
0010
0100
1000
0000
0100
0000
0010
0000
0001
0010
0001
0000
,  // measure 149
0100
1000
0100
1000
0100
0010
0100
0010
0001
1000
0001
1000
0010
0100
1000
0100
,  // measure 150
1000
0000
0001
0000
1000
0001
0100
0000
0001
0000
1000
0000
0010
1000
0010
0000
,  // measure 151
0001
0100
0001
0100
0001
1000
0001
1000
0010
0100
0010
0100
1000
0001
0100
0001
,  // measure 152
0001
0000
1000
0000
0001
1000
0010
0000
1000
0000
0001
0000
0100
0001
0100
0000
,  // measure 153
1000
0010
1000
0010
1000
0001
1000
0001
0100
0010
0100
0010
0001
1000
0010
1000
,  // measure 154
0002
0203
0302
2003
3002
0023
0230
0300
,  // measure 155
0001
0010
0001
0010
0100
0010
0100
0010
1000
0100
1000
0100
1001
0000
1001
0000
,  // measure 156
0110
0010
0011
0001
0011
0010
0110
1001
,  // measure 157
1000
0100
0001
0100
1000
0010
0100
0001
0100
0010
1000
0100
0010
0100
1000
0001
,  // measure 158
2000
3020
2030
3002
2003
3200
0320
0030
,  // measure 159
1000
0100
1000
0100
0010
0100
0010
0100
0001
0010
0001
0010
1001
0000
1001
0000
,  // measure 160
0110
0100
1100
1000
1100
0100
0110
1001
,  // measure 161
0001
0010
1000
0010
0001
0100
0010
1000
0010
0100
0001
0010
0100
0010
0001
1000
,  // measure 162
0110
0001
0110
1000
0110
0001
0110
1000
,  // measure 163
1000
0100
0001
0100
0010
0100
0001
0100
,  // measure 164
1010
0100
0000
0000
0000
0000
0110
1000
0000
0000
1001
0000
0110
1000
0011
0000
,  // measure 165
2002
0000
0000
0000
0000
0000
0000
3003
;
