#VERSION:0.83;
#TITLE:Swamp!;
#SUBTITLE:;
#ARTIST:Beverly;
#TITLETRANSLIT:;
#SUBTITLETRANSLIT:;
#ARTISTTRANSLIT:;
#GENRE:;
#ORIGIN:;
#CREDIT:;
#BANNER:;
#BACKGROUND:;
#PREVIEWVID:;
#JACKET:;
#CDIMAGE:;
#DISCIMAGE:;
#LYRICSPATH:;
#CDTITLE:;
#MUSIC:Swamp!.ogg;
#OFFSET:0.421000;
#SAMPLESTART:43.775429;
#SAMPLELENGTH:15.000000;
#SELECTABLE:YES;
#BPMS:0.000=112.000;
#STOPS:;
#DELAYS:;
#WARPS:;
#TIMESIGNATURES:0.000=4=4;
#TICKCOUNTS:0.000=4;
#COMBOS:0.000=1;
#SPEEDS:0.000=1.000=0.000=0;
#SCROLLS:0.000=1.000;
#FAKES:;
#LABELS:0.000=Song Start;
#BGCHANGES:;
#KEYSOUNDS:;
#ATTACKS:
;

//---------------dance-single - ----------------
#NOTEDATA:;
#CHARTNAME:;
#STEPSTYPE:dance-single;
#DESCRIPTION:;
#CHARTSTYLE:;
#DIFFICULTY:Easy;
#METER:3;
#RADARVALUES:0.063740,0.114703,0.143115,0.092604,0.000000,106.000000,72.000000,34.000000,22.000000,104.000000,0.000000,0.000000,0.000000,0.000000,0.063740,0.114703,0.143115,0.092604,0.000000,106.000000,72.000000,34.000000,22.000000,104.000000,0.000000,0.000000,0.000000,0.000000;
#CREDIT:;
#NOTES:
// measure 0
0000
0000
0000
0000
,  // measure 1
0000
0000
0000
0000
,  // measure 2
0000
0000
0000
0000
,  // measure 3
1000
0000
0001
0000
,  // measure 4
MMMM
0000
0000
0000
,  // measure 5
0011
0000
0000
0000
,  // measure 6
0010
0000
0000
0000
,  // measure 7
1100
0000
0000
0000
,  // measure 8
0100
0000
0000
0000
,  // measure 9
0101
0000
0000
0000
,  // measure 10
0001
0000
0000
0000
,  // measure 11
1010
0000
0000
0000
,  // measure 12
1000
0000
0000
0000
,  // measure 13
0020
0000
0000
0000
,  // measure 14
0000
0000
0000
0030
,  // measure 15
0200
0000
0000
0000
,  // measure 16
0000
0000
0000
0300
,  // measure 17
0002
0000
0000
0000
,  // measure 18
0000
0000
0000
0003
,  // measure 19
2000
0000
0000
0000
,  // measure 20
0000
0000
0000
3000
,  // measure 21
MMMM
0000
0000
0000
,  // measure 22
1010
0000
0000
0000
,  // measure 23
MMMM
0000
0000
0000
,  // measure 24
0101
0000
0000
0000
,  // measure 25
MMMM
0000
0000
0000
,  // measure 26
0011
0000
0000
0000
,  // measure 27
MMMM
0000
0000
0000
,  // measure 28
1100
0000
0000
0000
,  // measure 29
MMMM
0000
0000
0000
,  // measure 30
1010
0000
0000
0000
,  // measure 31
MMMM
0000
0000
0000
,  // measure 32
0101
0000
0000
0000
,  // measure 33
MMMM
0000
0000
0000
,  // measure 34
0011
0000
0000
0000
,  // measure 35
MMMM
0000
0000
0000
,  // measure 36
1100
0000
0000
0000
,  // measure 37
0020
0000
0000
0000
,  // measure 38
0200
0000
0000
0330
,  // measure 39
0200
0000
0000
0000
,  // measure 40
0020
0000
0000
0330
,  // measure 41
0002
0000
0000
0000
,  // measure 42
2000
0000
0000
3003
,  // measure 43
2000
0000
0000
0000
,  // measure 44
0002
0000
0000
3003
,  // measure 45
0011
0000
0000
0000
,  // measure 46
0010
0000
0000
0000
,  // measure 47
1100
0000
0000
0000
,  // measure 48
0100
0000
0000
0000
,  // measure 49
0101
0000
0000
0000
,  // measure 50
0001
0000
0000
0000
,  // measure 51
1010
0000
0000
0000
,  // measure 52
1000
0000
0000
0000
,  // measure 53
0020
0000
0000
0000
,  // measure 54
0000
0000
0000
0030
,  // measure 55
0200
0000
0000
0000
,  // measure 56
0000
0000
0000
0300
,  // measure 57
0002
0000
0000
0000
,  // measure 58
0000
0000
0000
0003
,  // measure 59
2000
0000
0000
0000
,  // measure 60
0000
0000
0000
3000
,  // measure 61
MMMM
0000
0000
0000
,  // measure 62
1010
0000
0000
0000
,  // measure 63
MMMM
0000
0000
0000
,  // measure 64
0101
0000
0000
0000
,  // measure 65
MMMM
0000
0000
0000
,  // measure 66
0011
0000
0000
0000
,  // measure 67
MMMM
0000
0000
0000
,  // measure 68
1100
0000
0000
0000
,  // measure 69
MMMM
0000
0000
0000
,  // measure 70
1010
0000
0000
0000
,  // measure 71
MMMM
0000
0000
0000
,  // measure 72
0101
0000
0000
0000
,  // measure 73
MMMM
0000
0000
0000
,  // measure 74
0011
0000
0000
0000
,  // measure 75
MMMM
0000
0000
0000
,  // measure 76
1100
0000
0000
0000
,  // measure 77
2000
0000
0000
0000
,  // measure 78
0010
0000
0000
3000
,  // measure 79
0002
0000
0000
0000
,  // measure 80
0100
0000
0000
0003
,  // measure 81
0020
0000
0000
0000
,  // measure 82
0001
0000
0000
0030
,  // measure 83
0200
0000
0000
0000
,  // measure 84
1000
0000
0000
0300
,  // measure 85
1010
0000
0000
0000
,  // measure 86
0010
0000
0000
0000
,  // measure 87
0101
0000
0000
0000
,  // measure 88
0100
0000
0000
0000
,  // measure 89
MMMM
0000
0000
0000
,  // measure 90
1010
0000
0000
0000
,  // measure 91
MMMM
0000
0000
0000
,  // measure 92
0101
0000
0000
0000
,  // measure 93
MMMM
0000
0000
0000
,  // measure 94
0011
0000
0000
0000
,  // measure 95
MMMM
0000
0000
0000
,  // measure 96
1100
0000
0000
0000
,  // measure 97
MMMM
0000
0000
0000
,  // measure 98
1010
0000
0000
0000
,  // measure 99
MMMM
0000
0000
0000
,  // measure 100
0101
0000
0000
0000
,  // measure 101
MMMM
0000
0000
0000
,  // measure 102
0011
0000
0000
0000
,  // measure 103
MMMM
0000
0000
0000
,  // measure 104
1100
0000
0000
0000
,  // measure 105
0020
0000
0000
0000
,  // measure 106
0000
0000
0000
0030
,  // measure 107
0200
0000
0000
0000
,  // measure 108
0000
0000
0000
0300
,  // measure 109
MMMM
0000
0000
0000
;

//---------------dance-single - ----------------
#NOTEDATA:;
#CHARTNAME:;
#STEPSTYPE:dance-single;
#DESCRIPTION:;
#CHARTSTYLE:;
#DIFFICULTY:Beginner;
#METER:2;
#RADARVALUES:0.043295,0.091762,0.046302,0.092604,0.000000,72.000000,61.000000,11.000000,22.000000,104.000000,0.000000,0.000000,0.000000,0.000000,0.043295,0.091762,0.046302,0.092604,0.000000,72.000000,61.000000,11.000000,22.000000,104.000000,0.000000,0.000000,0.000000,0.000000;
#CREDIT:;
#NOTES:
// measure 0
0000
0000
0000
0000
,  // measure 1
0000
0000
0000
0000
,  // measure 2
0000
0000
0000
0000
,  // measure 3
1001
0000
0000
0000
,  // measure 4
MMMM
0000
0000
0000
,  // measure 5
0011
0000
0000
0000
,  // measure 6
0000
0000
0000
0000
,  // measure 7
1100
0000
0000
0000
,  // measure 8
0000
0000
0000
0000
,  // measure 9
0101
0000
0000
0000
,  // measure 10
0000
0000
0000
0000
,  // measure 11
1010
0000
0000
0000
,  // measure 12
0000
0000
0000
0000
,  // measure 13
0020
0000
0000
0000
,  // measure 14
0000
0000
0000
0030
,  // measure 15
0200
0000
0000
0000
,  // measure 16
0000
0000
0000
0300
,  // measure 17
0002
0000
0000
0000
,  // measure 18
0000
0000
0000
0003
,  // measure 19
2000
0000
0000
0000
,  // measure 20
0000
0000
0000
3000
,  // measure 21
MMMM
0000
0000
0000
,  // measure 22
1000
0000
0000
0000
,  // measure 23
MMMM
0000
0000
0000
,  // measure 24
0001
0000
0000
0000
,  // measure 25
MMMM
0000
0000
0000
,  // measure 26
0010
0000
0000
0000
,  // measure 27
MMMM
0000
0000
0000
,  // measure 28
0100
0000
0000
0000
,  // measure 29
MMMM
0000
0000
0000
,  // measure 30
1000
0000
0000
0000
,  // measure 31
MMMM
0000
0000
0000
,  // measure 32
0001
0000
0000
0000
,  // measure 33
MMMM
0000
0000
0000
,  // measure 34
0010
0000
0000
0000
,  // measure 35
MMMM
0000
0000
0000
,  // measure 36
0100
0000
0000
0000
,  // measure 37
0020
0000
0000
0000
,  // measure 38
0200
0000
0000
0330
,  // measure 39
0200
0000
0000
0000
,  // measure 40
0020
0000
0000
0330
,  // measure 41
0002
0000
0000
0000
,  // measure 42
2000
0000
0000
3003
,  // measure 43
2000
0000
0000
0000
,  // measure 44
0002
0000
0000
3003
,  // measure 45
0011
0000
0000
0000
,  // measure 46
0000
0000
0000
0000
,  // measure 47
1100
0000
0000
0000
,  // measure 48
0000
0000
0000
0000
,  // measure 49
0101
0000
0000
0000
,  // measure 50
0000
0000
0000
0000
,  // measure 51
1010
0000
0000
0000
,  // measure 52
0000
0000
0000
0000
,  // measure 53
0020
0000
0000
0000
,  // measure 54
0000
0000
0000
0030
,  // measure 55
0200
0000
0000
0000
,  // measure 56
0000
0000
0000
0300
,  // measure 57
0002
0000
0000
0000
,  // measure 58
0000
0000
0000
0003
,  // measure 59
2000
0000
0000
0000
,  // measure 60
0000
0000
0000
3000
,  // measure 61
MMMM
0000
0000
0000
,  // measure 62
1000
0000
0000
0000
,  // measure 63
MMMM
0000
0000
0000
,  // measure 64
0001
0000
0000
0000
,  // measure 65
MMMM
0000
0000
0000
,  // measure 66
0010
0000
0000
0000
,  // measure 67
MMMM
0000
0000
0000
,  // measure 68
0100
0000
0000
0000
,  // measure 69
MMMM
0000
0000
0000
,  // measure 70
1000
0000
0000
0000
,  // measure 71
MMMM
0000
0000
0000
,  // measure 72
0001
0000
0000
0000
,  // measure 73
MMMM
0000
0000
0000
,  // measure 74
0010
0000
0000
0000
,  // measure 75
MMMM
0000
0000
0000
,  // measure 76
0100
0000
0000
0000
,  // measure 77
2000
0000
0000
0000
,  // measure 78
0010
0000
0000
3000
,  // measure 79
0002
0000
0000
0000
,  // measure 80
0100
0000
0000
0003
,  // measure 81
0020
0000
0000
0000
,  // measure 82
0001
0000
0000
0030
,  // measure 83
0200
0000
0000
0000
,  // measure 84
1000
0000
0000
0300
,  // measure 85
1010
0000
0000
0000
,  // measure 86
0000
0000
0000
0000
,  // measure 87
0101
0000
0000
0000
,  // measure 88
0000
0000
0000
0000
,  // measure 89
MMMM
0000
0000
0000
,  // measure 90
1000
0000
0000
0000
,  // measure 91
MMMM
0000
0000
0000
,  // measure 92
0001
0000
0000
0000
,  // measure 93
MMMM
0000
0000
0000
,  // measure 94
0010
0000
0000
0000
,  // measure 95
MMMM
0000
0000
0000
,  // measure 96
0100
0000
0000
0000
,  // measure 97
MMMM
0000
0000
0000
,  // measure 98
1000
0000
0000
0000
,  // measure 99
MMMM
0000
0000
0000
,  // measure 100
0001
0000
0000
0000
,  // measure 101
MMMM
0000
0000
0000
,  // measure 102
0010
0000
0000
0000
,  // measure 103
MMMM
0000
0000
0000
,  // measure 104
0100
0000
0000
0000
,  // measure 105
0020
0000
0000
0000
,  // measure 106
0000
0000
0000
0030
,  // measure 107
0200
0000
0000
0000
,  // measure 108
0000
0000
0000
0300
,  // measure 109
MMMM
0000
0000
0000
;

//---------------dance-single - ----------------
#NOTEDATA:;
#CHARTNAME:;
#STEPSTYPE:dance-single;
#DESCRIPTION:;
#CHARTSTYLE:;
#DIFFICULTY:Medium;
#METER:3;
#RADARVALUES:0.071558,0.137643,0.143115,0.092604,0.000000,119.000000,85.000000,34.000000,22.000000,104.000000,0.000000,0.000000,0.000000,0.000000,0.071558,0.137643,0.143115,0.092604,0.000000,119.000000,85.000000,34.000000,22.000000,104.000000,0.000000,0.000000,0.000000,0.000000;
#CREDIT:;
#NOTES:
// measure 0
0000
0000
0000
0000
,  // measure 1
0000
0000
0000
0000
,  // measure 2
0000
0000
0000
0000
,  // measure 3
1000
0000
0001
0000
,  // measure 4
MMMM
0000
0000
0000
,  // measure 5
0011
0000
0000
0000
,  // measure 6
0010
0000
0010
0000
,  // measure 7
1100
0000
0000
0000
,  // measure 8
0100
0000
0000
0000
,  // measure 9
0101
0000
0000
0000
,  // measure 10
0001
0000
0001
0000
,  // measure 11
1010
0000
0000
0000
,  // measure 12
1000
0000
0000
0000
,  // measure 13
0020
0000
0000
0000
,  // measure 14
0100
0000
0000
0030
,  // measure 15
0200
0000
0000
0000
,  // measure 16
0010
0000
0000
0300
,  // measure 17
0002
0000
0000
0000
,  // measure 18
1000
0000
0000
0003
,  // measure 19
2000
0000
0000
0000
,  // measure 20
0001
0000
0000
3000
,  // measure 21
MMMM
0000
0000
0000
,  // measure 22
1010
0000
0000
0000
,  // measure 23
MMMM
0000
0000
0000
,  // measure 24
0101
0000
0000
0000
,  // measure 25
MMMM
0000
0000
0000
,  // measure 26
0011
0000
0000
0000
,  // measure 27
MMMM
0000
0000
0000
,  // measure 28
1100
0000
0000
0000
,  // measure 29
MMMM
0000
0000
0000
,  // measure 30
1010
0000
0000
0000
,  // measure 31
MMMM
0000
0000
0000
,  // measure 32
0101
0000
0000
0000
,  // measure 33
MMMM
0000
0000
0000
,  // measure 34
0011
0000
0000
0000
,  // measure 35
MMMM
0000
0000
0000
,  // measure 36
1100
0000
0000
0000
,  // measure 37
0020
0000
0000
0000
,  // measure 38
0200
0000
0000
0330
,  // measure 39
0200
0000
0000
0000
,  // measure 40
0020
0000
0000
0330
,  // measure 41
0002
0000
0000
0000
,  // measure 42
2000
0000
0000
3003
,  // measure 43
2000
0000
0000
0000
,  // measure 44
0002
0000
0000
3003
,  // measure 45
0011
0000
0000
0000
,  // measure 46
0010
0000
0010
0000
,  // measure 47
1100
0000
0000
0000
,  // measure 48
0100
0000
0000
0000
,  // measure 49
0101
0000
0000
0000
,  // measure 50
0001
0000
0001
0000
,  // measure 51
1010
0000
0000
0000
,  // measure 52
1000
0000
0000
0000
,  // measure 53
0020
0000
0000
0000
,  // measure 54
0100
0000
0000
0030
,  // measure 55
0200
0000
0000
0000
,  // measure 56
0010
0000
0000
0300
,  // measure 57
0002
0000
0000
0000
,  // measure 58
1000
0000
0000
0003
,  // measure 59
2000
0000
0000
0000
,  // measure 60
0001
0000
0000
3000
,  // measure 61
MMMM
0000
0000
0000
,  // measure 62
1010
0000
0000
0000
,  // measure 63
MMMM
0000
0000
0000
,  // measure 64
0101
0000
0000
0000
,  // measure 65
MMMM
0000
0000
0000
,  // measure 66
0011
0000
0000
0000
,  // measure 67
MMMM
0000
0000
0000
,  // measure 68
1100
0000
0000
0000
,  // measure 69
MMMM
0000
0000
0000
,  // measure 70
1010
0000
0000
0000
,  // measure 71
MMMM
0000
0000
0000
,  // measure 72
0101
0000
0000
0000
,  // measure 73
MMMM
0000
0000
0000
,  // measure 74
0011
0000
0000
0000
,  // measure 75
MMMM
0000
0000
0000
,  // measure 76
1100
0000
0000
0000
,  // measure 77
2000
0000
0000
0000
,  // measure 78
0010
0000
0000
3000
,  // measure 79
0002
0000
0000
0000
,  // measure 80
0100
0000
0000
0003
,  // measure 81
0020
0000
0000
0000
,  // measure 82
0001
0000
0000
0030
,  // measure 83
0200
0000
0000
0000
,  // measure 84
1000
0000
0000
0300
,  // measure 85
1010
0000
0000
0000
,  // measure 86
0010
0000
0010
0000
,  // measure 87
0101
0000
0000
0000
,  // measure 88
0100
0000
0000
0000
,  // measure 89
MMMM
0000
0000
0000
,  // measure 90
1010
0000
0000
0000
,  // measure 91
MMMM
0000
0000
0000
,  // measure 92
0101
0000
0000
0000
,  // measure 93
MMMM
0000
0000
0000
,  // measure 94
0011
0000
0000
0000
,  // measure 95
MMMM
0000
0000
0000
,  // measure 96
1100
0000
0000
0000
,  // measure 97
MMMM
0000
0000
0000
,  // measure 98
1010
0000
0000
0000
,  // measure 99
MMMM
0000
0000
0000
,  // measure 100
0101
0000
0000
0000
,  // measure 101
MMMM
0000
0000
0000
,  // measure 102
0011
0000
0000
0000
,  // measure 103
MMMM
0000
0000
0000
,  // measure 104
1100
0000
0000
0000
,  // measure 105
0020
0000
0000
0000
,  // measure 106
0000
0000
0000
0030
,  // measure 107
0200
0000
0000
0000
,  // measure 108
0000
0000
0000
0300
,  // measure 109
MMMM
0000
0000
0000
;

//---------------dance-single - ----------------
#NOTEDATA:;
#CHARTNAME:;
#STEPSTYPE:dance-single;
#DESCRIPTION:;
#CHARTSTYLE:;
#DIFFICULTY:Hard;
#METER:3;
#RADARVALUES:0.081780,0.137643,0.143115,0.092604,0.000000,136.000000,102.000000,34.000000,22.000000,104.000000,0.000000,0.000000,0.000000,0.000000,0.081780,0.137643,0.143115,0.092604,0.000000,136.000000,102.000000,34.000000,22.000000,104.000000,0.000000,0.000000,0.000000,0.000000;
#CREDIT:;
#NOTES:
// measure 0
0000
0000
0000
0000
,  // measure 1
0000
0000
0000
0000
,  // measure 2
0000
0000
0000
0000
,  // measure 3
1000
0000
0001
0000
,  // measure 4
MMMM
0000
0000
0000
,  // measure 5
0011
0000
0000
0000
,  // measure 6
0010
0000
0010
0000
,  // measure 7
1100
0000
0000
0000
,  // measure 8
0100
0000
0100
0000
,  // measure 9
0101
0000
0000
0000
,  // measure 10
0001
0000
0001
0000
,  // measure 11
1010
0000
0000
0000
,  // measure 12
1000
0000
1000
0000
,  // measure 13
0020
0000
0000
0000
,  // measure 14
0100
0000
0000
0030
,  // measure 15
0200
0000
0000
0000
,  // measure 16
0010
0000
0000
0300
,  // measure 17
0002
0000
0000
0000
,  // measure 18
1000
0000
0000
0003
,  // measure 19
2000
0000
0000
0000
,  // measure 20
0001
0000
0000
3000
,  // measure 21
MMMM
0000
0000
0000
,  // measure 22
1010
0000
0001
0000
,  // measure 23
MMMM
0000
0000
0000
,  // measure 24
0101
0000
0000
0000
,  // measure 25
MMMM
0000
0000
0000
,  // measure 26
0011
0000
0100
0000
,  // measure 27
MMMM
0000
0000
0000
,  // measure 28
1100
0000
0000
0000
,  // measure 29
MMMM
0000
0000
0000
,  // measure 30
1010
0000
0001
0000
,  // measure 31
MMMM
0000
0000
0000
,  // measure 32
0101
0000
0000
0000
,  // measure 33
MMMM
0000
0000
0000
,  // measure 34
0011
0000
0100
0000
,  // measure 35
MMMM
0000
0000
0000
,  // measure 36
1100
0000
0000
0000
,  // measure 37
0020
0000
0000
0000
,  // measure 38
0200
0000
0000
0330
,  // measure 39
0200
0000
0000
0000
,  // measure 40
0020
0000
0000
0330
,  // measure 41
0002
0000
0000
0000
,  // measure 42
2000
0000
0000
3003
,  // measure 43
2000
0000
0000
0000
,  // measure 44
0002
0000
0000
3003
,  // measure 45
0011
0000
0000
0000
,  // measure 46
0010
0000
0010
0000
,  // measure 47
1100
0000
0000
0000
,  // measure 48
0100
0000
0100
0000
,  // measure 49
0101
0000
0000
0000
,  // measure 50
0001
0000
0001
0000
,  // measure 51
1010
0000
0000
0000
,  // measure 52
1000
0000
1000
0000
,  // measure 53
0020
0000
0000
0000
,  // measure 54
0100
0000
0000
0030
,  // measure 55
0200
0000
0000
0000
,  // measure 56
0010
0000
0000
0300
,  // measure 57
0002
0000
0000
0000
,  // measure 58
1000
0000
0000
0003
,  // measure 59
2000
0000
0000
0000
,  // measure 60
0001
0000
0000
3000
,  // measure 61
MMMM
0000
0000
0000
,  // measure 62
1010
0000
0001
0000
,  // measure 63
MMMM
0000
0000
0000
,  // measure 64
0101
0000
0000
0000
,  // measure 65
MMMM
0000
0000
0000
,  // measure 66
0011
0000
0100
0000
,  // measure 67
MMMM
0000
0000
0000
,  // measure 68
1100
0000
0000
0000
,  // measure 69
MMMM
0000
0000
0000
,  // measure 70
1010
0000
0001
0000
,  // measure 71
MMMM
0000
0000
0000
,  // measure 72
0101
0000
0000
0000
,  // measure 73
MMMM
0000
0000
0000
,  // measure 74
0011
0000
0100
0000
,  // measure 75
MMMM
0000
0000
0000
,  // measure 76
1100
0000
0000
0000
,  // measure 77
2000
0000
0000
0000
,  // measure 78
0010
0000
0000
3000
,  // measure 79
0002
0000
0000
0000
,  // measure 80
0100
0000
0000
0003
,  // measure 81
0020
0000
0000
0000
,  // measure 82
0001
0000
0000
0030
,  // measure 83
0200
0000
0000
0000
,  // measure 84
1000
0000
0000
0300
,  // measure 85
1010
0000
0000
0000
,  // measure 86
0010
0000
0010
0000
,  // measure 87
0101
0000
0000
0000
,  // measure 88
0100
0000
0100
0000
,  // measure 89
MMMM
0000
0000
0000
,  // measure 90
1010
0000
0001
0000
,  // measure 91
MMMM
0000
0000
0000
,  // measure 92
0101
0000
0000
0000
,  // measure 93
MMMM
0000
0000
0000
,  // measure 94
0011
0000
0100
0000
,  // measure 95
MMMM
0000
0000
0000
,  // measure 96
1100
0000
0000
0000
,  // measure 97
MMMM
0000
0000
0000
,  // measure 98
1010
0000
0001
0000
,  // measure 99
MMMM
0000
0000
0000
,  // measure 100
0101
0000
0000
0000
,  // measure 101
MMMM
0000
0000
0000
,  // measure 102
0011
0000
0100
0000
,  // measure 103
MMMM
0000
0000
0000
,  // measure 104
1100
0000
0000
0000
,  // measure 105
0020
0000
0000
0000
,  // measure 106
0000
0000
0000
0030
,  // measure 107
0200
0000
0000
0000
,  // measure 108
0000
0000
0000
0300
,  // measure 109
MMMM
0000
0000
0000
;

//---------------dance-single - ----------------
#NOTEDATA:;
#CHARTNAME:;
#STEPSTYPE:dance-single;
#DESCRIPTION:;
#CHARTSTYLE:;
#DIFFICULTY:Challenge;
#METER:3;
#RADARVALUES:0.088996,0.137643,0.143115,0.092604,0.000000,148.000000,114.000000,34.000000,22.000000,104.000000,0.000000,0.000000,0.000000,0.000000,0.088996,0.137643,0.143115,0.092604,0.000000,148.000000,114.000000,34.000000,22.000000,104.000000,0.000000,0.000000,0.000000,0.000000;
#CREDIT:;
#NOTES:
// measure 0
0000
0000
0000
0000
,  // measure 1
0000
0000
0000
0000
,  // measure 2
0000
0000
0000
0000
,  // measure 3
1000
0000
0001
0000
,  // measure 4
MMMM
0000
0000
0000
,  // measure 5
0011
0000
0000
0000
,  // measure 6
0010
0000
0010
0000
,  // measure 7
1100
0000
0000
0000
,  // measure 8
0100
0000
0100
0000
,  // measure 9
0101
0000
0000
0000
,  // measure 10
0001
0000
0001
0000
,  // measure 11
1010
0000
0000
0000
,  // measure 12
1000
0000
1000
0000
,  // measure 13
0020
0000
0000
0000
,  // measure 14
0100
0000
0000
0030
,  // measure 15
0200
0000
0000
0000
,  // measure 16
0010
0000
0000
0300
,  // measure 17
0002
0000
0000
0000
,  // measure 18
1000
0000
0000
0003
,  // measure 19
2000
0000
0000
0000
,  // measure 20
0001
0000
0000
3000
,  // measure 21
MMMM
0000
0000
0000
,  // measure 22
1010
0000
0001
0000
,  // measure 23
MMMM
0000
0000
0000
,  // measure 24
0101
0000
1000
0000
,  // measure 25
MMMM
0000
0000
0000
,  // measure 26
0011
0000
0100
0000
,  // measure 27
MMMM
0000
0000
0000
,  // measure 28
1100
0000
0010
0000
,  // measure 29
MMMM
0000
0000
0000
,  // measure 30
1010
0000
0001
0000
,  // measure 31
MMMM
0000
0000
0000
,  // measure 32
0101
0000
1000
0000
,  // measure 33
MMMM
0000
0000
0000
,  // measure 34
0011
0000
0100
0000
,  // measure 35
MMMM
0000
0000
0000
,  // measure 36
1100
0000
0010
0000
,  // measure 37
0020
0000
0000
0000
,  // measure 38
0200
0000
0000
0330
,  // measure 39
0200
0000
0000
0000
,  // measure 40
0020
0000
0000
0330
,  // measure 41
0002
0000
0000
0000
,  // measure 42
2000
0000
0000
3003
,  // measure 43
2000
0000
0000
0000
,  // measure 44
0002
0000
0000
3003
,  // measure 45
0011
0000
0000
0000
,  // measure 46
0010
0000
0010
0000
,  // measure 47
1100
0000
0000
0000
,  // measure 48
0100
0000
0100
0000
,  // measure 49
0101
0000
0000
0000
,  // measure 50
0001
0000
0001
0000
,  // measure 51
1010
0000
0000
0000
,  // measure 52
1000
0000
1000
0000
,  // measure 53
0020
0000
0000
0000
,  // measure 54
0100
0000
0000
0030
,  // measure 55
0200
0000
0000
0000
,  // measure 56
0010
0000
0000
0300
,  // measure 57
0002
0000
0000
0000
,  // measure 58
1000
0000
0000
0003
,  // measure 59
2000
0000
0000
0000
,  // measure 60
0001
0000
0000
3000
,  // measure 61
MMMM
0000
0000
0000
,  // measure 62
1010
0000
0001
0000
,  // measure 63
MMMM
0000
0000
0000
,  // measure 64
0101
0000
1000
0000
,  // measure 65
MMMM
0000
0000
0000
,  // measure 66
0011
0000
0100
0000
,  // measure 67
MMMM
0000
0000
0000
,  // measure 68
1100
0000
0010
0000
,  // measure 69
MMMM
0000
0000
0000
,  // measure 70
1010
0000
0001
0000
,  // measure 71
MMMM
0000
0000
0000
,  // measure 72
0101
0000
1000
0000
,  // measure 73
MMMM
0000
0000
0000
,  // measure 74
0011
0000
0100
0000
,  // measure 75
MMMM
0000
0000
0000
,  // measure 76
1100
0000
0010
0000
,  // measure 77
2000
0000
0000
0000
,  // measure 78
0010
0000
0000
3000
,  // measure 79
0002
0000
0000
0000
,  // measure 80
0100
0000
0000
0003
,  // measure 81
0020
0000
0000
0000
,  // measure 82
0001
0000
0000
0030
,  // measure 83
0200
0000
0000
0000
,  // measure 84
1000
0000
0000
0300
,  // measure 85
1010
0000
0000
0000
,  // measure 86
0010
0000
0010
0000
,  // measure 87
0101
0000
0000
0000
,  // measure 88
0100
0000
0100
0000
,  // measure 89
MMMM
0000
0000
0000
,  // measure 90
1010
0000
0001
0000
,  // measure 91
MMMM
0000
0000
0000
,  // measure 92
0101
0000
1000
0000
,  // measure 93
MMMM
0000
0000
0000
,  // measure 94
0011
0000
0100
0000
,  // measure 95
MMMM
0000
0000
0000
,  // measure 96
1100
0000
0010
0000
,  // measure 97
MMMM
0000
0000
0000
,  // measure 98
1010
0000
0001
0000
,  // measure 99
MMMM
0000
0000
0000
,  // measure 100
0101
0000
1000
0000
,  // measure 101
MMMM
0000
0000
0000
,  // measure 102
0011
0000
0100
0000
,  // measure 103
MMMM
0000
0000
0000
,  // measure 104
1100
0000
0010
0000
,  // measure 105
0020
0000
0000
0000
,  // measure 106
0000
0000
0000
0030
,  // measure 107
0200
0000
0000
0000
,  // measure 108
0000
0000
0000
0300
,  // measure 109
MMMM
0000
0000
0000
;

//---------------dance-single - Casual----------------
#NOTEDATA:;
#CHARTNAME:Casual;
#STEPSTYPE:dance-single;
#DESCRIPTION:Casual;
#CHARTSTYLE:;
#DIFFICULTY:Edit;
#METER:2;
#RADARVALUES:0.038485,0.091762,0.029465,0.092604,0.000000,64.000000,57.000000,7.000000,22.000000,104.000000,0.000000,0.000000,0.000000,0.000000,0.038485,0.091762,0.029465,0.092604,0.000000,64.000000,57.000000,7.000000,22.000000,104.000000,0.000000,0.000000,0.000000,0.000000;
#CREDIT:;
#NOTES:
// measure 0
0000
0000
0000
0000
,  // measure 1
0000
0000
0000
0000
,  // measure 2
0000
0000
0000
0000
,  // measure 3
1001
0000
0000
0000
,  // measure 4
MMMM
0000
0000
0000
,  // measure 5
0001
0000
0000
0000
,  // measure 6
0000
0000
0000
0000
,  // measure 7
1100
0000
0000
0000
,  // measure 8
0000
0000
0000
0000
,  // measure 9
0100
0000
0000
0000
,  // measure 10
0000
0000
0000
0000
,  // measure 11
1010
0000
0000
0000
,  // measure 12
0000
0000
0000
0000
,  // measure 13
0020
0000
0000
0000
,  // measure 14
0000
0000
0000
0030
,  // measure 15
0200
0000
0000
0000
,  // measure 16
0000
0000
0000
0300
,  // measure 17
0002
0000
0000
0000
,  // measure 18
0000
0000
0000
0003
,  // measure 19
2000
0000
0000
0000
,  // measure 20
0000
0000
0000
3000
,  // measure 21
MMMM
0000
0000
0000
,  // measure 22
1000
0000
0000
0000
,  // measure 23
MMMM
0000
0000
0000
,  // measure 24
0001
0000
0000
0000
,  // measure 25
MMMM
0000
0000
0000
,  // measure 26
0010
0000
0000
0000
,  // measure 27
MMMM
0000
0000
0000
,  // measure 28
0100
0000
0000
0000
,  // measure 29
MMMM
0000
0000
0000
,  // measure 30
1000
0000
0000
0000
,  // measure 31
MMMM
0000
0000
0000
,  // measure 32
0001
0000
0000
0000
,  // measure 33
MMMM
0000
0000
0000
,  // measure 34
0010
0000
0000
0000
,  // measure 35
MMMM
0000
0000
0000
,  // measure 36
0100
0000
0000
0000
,  // measure 37
0020
0000
0000
0000
,  // measure 38
0200
0000
0000
0330
,  // measure 39
0200
0000
0000
0000
,  // measure 40
0020
0000
0000
0330
,  // measure 41
0002
0000
0000
0000
,  // measure 42
2000
0000
0000
3003
,  // measure 43
2000
0000
0000
0000
,  // measure 44
0002
0000
0000
3003
,  // measure 45
0001
0000
0000
0000
,  // measure 46
0000
0000
0000
0000
,  // measure 47
1100
0000
0000
0000
,  // measure 48
0000
0000
0000
0000
,  // measure 49
0100
0000
0000
0000
,  // measure 50
0000
0000
0000
0000
,  // measure 51
1010
0000
0000
0000
,  // measure 52
0000
0000
0000
0000
,  // measure 53
0020
0000
0000
0000
,  // measure 54
0000
0000
0000
0030
,  // measure 55
0200
0000
0000
0000
,  // measure 56
0000
0000
0000
0300
,  // measure 57
0002
0000
0000
0000
,  // measure 58
0000
0000
0000
0003
,  // measure 59
2000
0000
0000
0000
,  // measure 60
0000
0000
0000
3000
,  // measure 61
MMMM
0000
0000
0000
,  // measure 62
1000
0000
0000
0000
,  // measure 63
MMMM
0000
0000
0000
,  // measure 64
0001
0000
0000
0000
,  // measure 65
MMMM
0000
0000
0000
,  // measure 66
0010
0000
0000
0000
,  // measure 67
MMMM
0000
0000
0000
,  // measure 68
0100
0000
0000
0000
,  // measure 69
MMMM
0000
0000
0000
,  // measure 70
1000
0000
0000
0000
,  // measure 71
MMMM
0000
0000
0000
,  // measure 72
0001
0000
0000
0000
,  // measure 73
MMMM
0000
0000
0000
,  // measure 74
0010
0000
0000
0000
,  // measure 75
MMMM
0000
0000
0000
,  // measure 76
0100
0000
0000
0000
,  // measure 77
2000
0000
0000
0000
,  // measure 78
0000
0000
0000
3000
,  // measure 79
0002
0000
0000
0000
,  // measure 80
0000
0000
0000
0003
,  // measure 81
0020
0000
0000
0000
,  // measure 82
0000
0000
0000
0030
,  // measure 83
0200
0000
0000
0000
,  // measure 84
0000
0000
0000
0300
,  // measure 85
1010
0000
0000
0000
,  // measure 86
0000
0000
0000
0000
,  // measure 87
0101
0000
0000
0000
,  // measure 88
0000
0000
0000
0000
,  // measure 89
MMMM
0000
0000
0000
,  // measure 90
1000
0000
0000
0000
,  // measure 91
MMMM
0000
0000
0000
,  // measure 92
0001
0000
0000
0000
,  // measure 93
MMMM
0000
0000
0000
,  // measure 94
0010
0000
0000
0000
,  // measure 95
MMMM
0000
0000
0000
,  // measure 96
0100
0000
0000
0000
,  // measure 97
MMMM
0000
0000
0000
,  // measure 98
1000
0000
0000
0000
,  // measure 99
MMMM
0000
0000
0000
,  // measure 100
0001
0000
0000
0000
,  // measure 101
MMMM
0000
0000
0000
,  // measure 102
0010
0000
0000
0000
,  // measure 103
MMMM
0000
0000
0000
,  // measure 104
0100
0000
0000
0000
,  // measure 105
0020
0000
0000
0000
,  // measure 106
0000
0000
0000
0030
,  // measure 107
0200
0000
0000
0000
,  // measure 108
0000
0000
0000
0300
,  // measure 109
MMMM
0000
0000
0000
;

//---------------dance-single - Deluxe----------------
#NOTEDATA:;
#CHARTNAME:Deluxe;
#STEPSTYPE:dance-single;
#DESCRIPTION:Deluxe;
#CHARTSTYLE:;
#DIFFICULTY:Edit;
#METER:4;
#RADARVALUES:0.096212,0.160584,0.151534,0.092604,0.000000,160.000000,124.000000,36.000000,22.000000,104.000000,0.000000,0.000000,0.000000,0.000000,0.096212,0.160584,0.151534,0.092604,0.000000,160.000000,124.000000,36.000000,22.000000,104.000000,0.000000,0.000000,0.000000,0.000000;
#CREDIT:;
#NOTES:
// measure 0
0000
0000
0000
0000
,  // measure 1
0000
0000
0000
0000
,  // measure 2
0000
0000
0000
0000
,  // measure 3
1001
0000
1001
0000
,  // measure 4
MMMM
0000
0000
0000
,  // measure 5
0011
0000
1000
0000
,  // measure 6
0010
0000
0010
0000
,  // measure 7
1100
0000
0001
0000
,  // measure 8
0100
0000
0100
0000
,  // measure 9
0101
0000
0010
0000
,  // measure 10
0001
0000
0001
0000
,  // measure 11
1010
0000
0100
0000
,  // measure 12
1000
0000
1000
0000
,  // measure 13
0020
0000
0000
0000
,  // measure 14
0100
0000
0000
0030
,  // measure 15
0200
0000
0000
0000
,  // measure 16
0010
0000
0000
0300
,  // measure 17
0002
0000
0000
0000
,  // measure 18
1000
0000
0000
0003
,  // measure 19
2000
0000
0000
0000
,  // measure 20
0001
0000
0000
3000
,  // measure 21
MMMM
0000
0000
0000
,  // measure 22
1010
0000
0001
0000
,  // measure 23
MMMM
0000
0000
0000
,  // measure 24
0101
0000
1000
0000
,  // measure 25
MMMM
0000
0000
0000
,  // measure 26
0011
0000
0100
0000
,  // measure 27
MMMM
0000
0000
0000
,  // measure 28
1100
0000
0010
0000
,  // measure 29
MMMM
0000
0000
0000
,  // measure 30
1010
0000
0001
0000
,  // measure 31
MMMM
0000
0000
0000
,  // measure 32
0101
0000
1000
0000
,  // measure 33
MMMM
0000
0000
0000
,  // measure 34
0011
0000
0100
0000
,  // measure 35
MMMM
0000
0000
0000
,  // measure 36
1100
0000
0010
0000
,  // measure 37
0020
0000
0000
0000
,  // measure 38
0200
0000
0000
0330
,  // measure 39
0200
0000
0000
0000
,  // measure 40
0020
0000
0000
0330
,  // measure 41
0002
0000
0000
0000
,  // measure 42
2000
0000
0000
3003
,  // measure 43
2000
0000
0000
0000
,  // measure 44
0002
0000
0000
3003
,  // measure 45
0011
0000
1000
0000
,  // measure 46
0010
0000
0010
0000
,  // measure 47
1100
0000
0001
0000
,  // measure 48
0100
0000
0100
0000
,  // measure 49
0101
0000
0010
0000
,  // measure 50
0001
0000
0001
0000
,  // measure 51
1010
0000
0100
0000
,  // measure 52
1000
0000
1000
0000
,  // measure 53
0020
0000
0000
0000
,  // measure 54
0100
0000
0000
0030
,  // measure 55
0200
0000
0000
0000
,  // measure 56
0010
0000
0000
0300
,  // measure 57
0002
0000
0000
0000
,  // measure 58
1000
0000
0000
0003
,  // measure 59
2000
0000
0000
0000
,  // measure 60
0001
0000
0000
3000
,  // measure 61
MMMM
0000
0000
0000
,  // measure 62
1010
0000
0001
0000
,  // measure 63
MMMM
0000
0000
0000
,  // measure 64
0101
0000
1000
0000
,  // measure 65
MMMM
0000
0000
0000
,  // measure 66
0011
0000
0100
0000
,  // measure 67
MMMM
0000
0000
0000
,  // measure 68
1100
0000
0010
0000
,  // measure 69
MMMM
0000
0000
0000
,  // measure 70
1010
0000
0001
0000
,  // measure 71
MMMM
0000
0000
0000
,  // measure 72
0101
0000
1000
0000
,  // measure 73
MMMM
0000
0000
0000
,  // measure 74
0011
0000
0100
0000
,  // measure 75
MMMM
0000
0000
0000
,  // measure 76
1100
0000
0010
0000
,  // measure 77
2000
0000
0000
0000
,  // measure 78
0010
0000
0000
3000
,  // measure 79
0002
0000
0000
0000
,  // measure 80
0100
0000
0000
0003
,  // measure 81
0020
0000
0000
0000
,  // measure 82
0001
0000
0000
0030
,  // measure 83
0200
0000
0000
0000
,  // measure 84
1000
0000
0000
0300
,  // measure 85
1010
0000
0001
0000
,  // measure 86
0010
0000
0010
0000
,  // measure 87
0101
0000
1000
0000
,  // measure 88
0100
0000
0100
0000
,  // measure 89
MMMM
0000
0000
0000
,  // measure 90
1010
0000
0001
0000
,  // measure 91
MMMM
0000
0000
0000
,  // measure 92
0101
0000
1000
0000
,  // measure 93
MMMM
0000
0000
0000
,  // measure 94
0011
0000
0100
0000
,  // measure 95
MMMM
0000
0000
0000
,  // measure 96
1100
0000
0010
0000
,  // measure 97
MMMM
0000
0000
0000
,  // measure 98
1010
0000
0001
0000
,  // measure 99
MMMM
0000
0000
0000
,  // measure 100
0101
0000
1000
0000
,  // measure 101
MMMM
0000
0000
0000
,  // measure 102
0011
0000
0100
0000
,  // measure 103
MMMM
0000
0000
0000
,  // measure 104
1100
0000
0010
0000
,  // measure 105
0020
0000
0000
0000
,  // measure 106
0000
0000
0000
0030
,  // measure 107
0200
0000
0000
0000
,  // measure 108
0000
0000
0000
0300
,  // measure 109
MMMM
0000
0000
0000
;
