#VERSION:0.83;
#TITLE:Star Mine;
#SUBTITLE:;
#ARTIST:Da-iCE;
#TITLETRANSLIT:;
#SUBTITLETRANSLIT:;
#ARTISTTRANSLIT:;
#GENRE:;
#ORIGIN:;
#CREDIT:;
#BANNER:;
#BACKGROUND:;
#PREVIEWVID:;
#JACKET:;
#CDIMAGE:;
#DISCIMAGE:;
#LYRICSPATH:;
#CDTITLE:;
#MUSIC:Star Mine.ogg;
#OFFSET:-0.847000;
#SAMPLESTART:124.028816;
#SAMPLELENGTH:15.000000;
#SELECTABLE:YES;
#BPMS:0.000=132.000,
96.000=66.000,
112.000=132.000,
224.000=66.000,
240.000=132.000,
336.000=66.000,
352.000=132.000;
#STOPS:;
#DELAYS:;
#WARPS:;
#TIMESIGNATURES:0.000=4=4;
#TICKCOUNTS:0.000=4;
#COMBOS:0.000=1;
#SPEEDS:0.000=1.000=0.000=0;
#SCROLLS:0.000=1.000;
#FAKES:;
#LABELS:0.000=Song Start;
#BGCHANGES:;
#KEYSOUNDS:;
#ATTACKS:
;

//---------------dance-single - ----------------
#NOTEDATA:;
#CHARTNAME:;
#STEPSTYPE:dance-single;
#DESCRIPTION:;
#CHARTSTYLE:;
#DIFFICULTY:Easy;
#METER:3;
#RADARVALUES:0.107914,0.169087,0.008784,0.052702,0.000000,172.000000,170.000000,2.000000,12.000000,0.000000,0.000000,0.000000,0.000000,0.000000,0.107914,0.169087,0.008784,0.052702,0.000000,172.000000,170.000000,2.000000,12.000000,0.000000,0.000000,0.000000,0.000000,0.000000;
#CREDIT:;
#NOTES:
// measure 0
0000
0000
0000
0000
,  // measure 1
0000
0000
0000
0000
,  // measure 2
0000
0000
0000
0000
,  // measure 3
0000
0000
0000
0000
,  // measure 4
0000
0000
0000
0000
,  // measure 5
0000
0000
0000
0000
,  // measure 6
0000
0000
0000
0000
,  // measure 7
0000
0000
0000
0000
,  // measure 8
1000
0000
1000
0000
,  // measure 9
0001
0000
0010
0000
,  // measure 10
0001
0000
0001
0000
,  // measure 11
1000
0000
0100
0000
,  // measure 12
0010
0000
0010
0000
,  // measure 13
0100
0000
0001
0000
,  // measure 14
0100
0000
0100
0000
,  // measure 15
2002
0000
0000
3003
,  // measure 16
0001
0000
0000
0000
,  // measure 17
1000
0000
0001
0000
,  // measure 18
1000
0000
0000
0000
,  // measure 19
0001
0000
1000
0000
,  // measure 20
0100
0000
0000
0000
,  // measure 21
0010
0000
0100
0000
,  // measure 22
0010
0000
0000
0000
,  // measure 23
0100
0000
0010
0000
,  // measure 24
0200
0000
0000
0300
,  // measure 25
0020
0000
0000
0030
,  // measure 26
2000
0000
0000
3000
,  // measure 27
0002
0000
0000
0003
,  // measure 28
1000
0000
1000
0000
,  // measure 29
1000
0000
0000
0000
,  // measure 30
0001
0000
0001
0000
,  // measure 31
0001
0000
0000
0000
,  // measure 32
0100
0000
0100
0000
,  // measure 33
0100
0000
0000
0000
,  // measure 34
0010
0000
0010
0000
,  // measure 35
0010
0000
0000
0000
,  // measure 36
1000
0000
0001
0000
,  // measure 37
0010
0000
0001
0000
,  // measure 38
0001
0000
1000
0000
,  // measure 39
0100
0000
1000
0000
,  // measure 40
0010
0000
0100
0000
,  // measure 41
0001
0000
0100
0000
,  // measure 42
0100
0000
0010
0000
,  // measure 43
1000
0000
0010
0000
,  // measure 44
0010
0000
0000
0000
,  // measure 45
0010
0000
0000
0000
,  // measure 46
0010
0000
0000
0000
,  // measure 47
0010
0000
0000
0000
,  // measure 48
1000
0000
0000
0000
,  // measure 49
0001
0000
1000
0000
,  // measure 50
0001
0000
0000
0000
,  // measure 51
1000
0000
0001
0000
,  // measure 52
0010
0000
0000
0000
,  // measure 53
0100
0000
0010
0000
,  // measure 54
0100
0000
0000
0000
,  // measure 55
0010
0000
0100
0000
,  // measure 56
0020
0000
0000
0030
,  // measure 57
0200
0000
0000
0300
,  // measure 58
0002
0000
0000
0003
,  // measure 59
2000
0000
0000
3000
,  // measure 60
0001
0000
0001
0000
,  // measure 61
0001
0000
0000
0000
,  // measure 62
1000
0000
1000
0000
,  // measure 63
1000
0000
0000
0000
,  // measure 64
0010
0000
0010
0000
,  // measure 65
0010
0000
0000
0000
,  // measure 66
0100
0000
0100
0000
,  // measure 67
0100
0000
0000
0000
,  // measure 68
0001
0000
1000
0000
,  // measure 69
0100
0000
1000
0000
,  // measure 70
1000
0000
0001
0000
,  // measure 71
0010
0000
0001
0000
,  // measure 72
0100
0000
0010
0000
,  // measure 73
1000
0000
0010
0000
,  // measure 74
0010
0000
0100
0000
,  // measure 75
0001
0000
0100
0000
,  // measure 76
0100
0000
0000
0000
,  // measure 77
0100
0000
0000
0000
,  // measure 78
0100
0000
0000
0000
,  // measure 79
0100
0000
0000
0000
,  // measure 80
0010
0000
0000
0000
,  // measure 81
0010
0000
0000
0000
,  // measure 82
0010
0000
0000
0000
,  // measure 83
0010
0000
0000
0000
,  // measure 84
0020
0000
0000
0030
,  // measure 85
0010
0010
0010
0000
,  // measure 86
0200
0000
0000
0300
,  // measure 87
0100
0100
0100
0000
,  // measure 88
1000
0000
0001
0000
,  // measure 89
0010
0000
0001
0000
,  // measure 90
0001
0000
1000
0000
,  // measure 91
0100
0000
1000
0000
,  // measure 92
0010
0000
0100
0000
,  // measure 93
0001
0000
0100
0000
,  // measure 94
0100
0000
0010
0000
,  // measure 95
1000
0000
0010
0000
,  // measure 96
0001
0000
1000
0000
,  // measure 97
0100
0000
1000
0000
,  // measure 98
1000
0000
0001
0000
,  // measure 99
0010
0000
0001
0000
,  // measure 100
0100
0000
0010
0000
,  // measure 101
1000
0000
0010
0000
,  // measure 102
0010
0000
0100
0000
,  // measure 103
0001
0000
0100
0000
,  // measure 104
0010
0000
0010
0010
,  // measure 105
0100
0000
0100
0100
,  // measure 106
1000
0000
1000
0000
,  // measure 107
0001
0000
0010
0000
,  // measure 108
0001
0000
0001
0000
,  // measure 109
1000
0000
0100
0000
,  // measure 110
1001
0000
0000
0000
;

//---------------dance-single - ----------------
#NOTEDATA:;
#CHARTNAME:;
#STEPSTYPE:dance-single;
#DESCRIPTION:;
#CHARTSTYLE:;
#DIFFICULTY:Beginner;
#METER:2;
#RADARVALUES:0.082818,0.120776,0.008784,0.052702,0.000000,132.000000,130.000000,2.000000,12.000000,0.000000,0.000000,0.000000,0.000000,0.000000,0.082818,0.120776,0.008784,0.052702,0.000000,132.000000,130.000000,2.000000,12.000000,0.000000,0.000000,0.000000,0.000000,0.000000;
#CREDIT:;
#NOTES:
0000
0000
0000
0000
,
0000
0000
0000
0000
,
0000
0000
0000
0000
,
0000
0000
0000
0000
,
0000
0000
0000
0000
,
0000
0000
0000
0000
,
0000
0000
0000
0000
,
0000
0000
0000
0000
,
1000
0000
0000
0000
,
0001
0000
0010
0000
,
0001
0000
0000
0000
,
1000
0000
0100
0000
,
0010
0000
0000
0000
,
0100
0000
0001
0000
,
0100
0000
0000
0000
,
2002
0000
0000
3003
,
0001
0000
0000
0000
,
1000
0000
0001
0000
,
1000
0000
0000
0000
,
0001
0000
1000
0000
,
0100
0000
0000
0000
,
0010
0000
0100
0000
,
0010
0000
0000
0000
,
0100
0000
0010
0000
,
0200
0000
0000
0300
,
0020
0000
0000
0030
,
2000
0000
0000
3000
,
0002
0000
0000
0003
,
1000
0000
0000
0000
,
1000
0000
0000
0000
,
0001
0000
0000
0000
,
0001
0000
0000
0000
,
0100
0000
0000
0000
,
0100
0000
0000
0000
,
0010
0000
0000
0000
,
0010
0000
0000
0000
,
1000
0000
0000
0000
,
0010
0000
0001
0000
,
0001
0000
0000
0000
,
0100
0000
1000
0000
,
0010
0000
0000
0000
,
0001
0000
0100
0000
,
0100
0000
0000
0000
,
1000
0000
0010
0000
,
0010
0000
0000
0000
,
0000
0000
0000
0000
,
0010
0000
0000
0000
,
0000
0000
0000
0000
,
1000
0000
0000
0000
,
0001
0000
1000
0000
,
0001
0000
0000
0000
,
1000
0000
0001
0000
,
0010
0000
0000
0000
,
0100
0000
0010
0000
,
0100
0000
0000
0000
,
0010
0000
0100
0000
,
0020
0000
0000
0030
,
0200
0000
0000
0300
,
0002
0000
0000
0003
,
2000
0000
0000
3000
,
0001
0000
0000
0000
,
0001
0000
0000
0000
,
1000
0000
0000
0000
,
1000
0000
0000
0000
,
0010
0000
0000
0000
,
0010
0000
0000
0000
,
0100
0000
0000
0000
,
0100
0000
0000
0000
,
0001
0000
0000
0000
,
0100
0000
1000
0000
,
1000
0000
0000
0000
,
0010
0000
0001
0000
,
0100
0000
0000
0000
,
1000
0000
0010
0000
,
0010
0000
0000
0000
,
0001
0000
0100
0000
,
0100
0000
0000
0000
,
0000
0000
0000
0000
,
0100
0000
0000
0000
,
0000
0000
0000
0000
,
0010
0000
0000
0000
,
0000
0000
0000
0000
,
0010
0000
0000
0000
,
0000
0000
0000
0000
,
0020
0000
0000
0030
,
0010
0000
0010
0000
,
0200
0000
0000
0300
,
0100
0000
0100
0000
,
1000
0000
0000
0000
,
0010
0000
0001
0000
,
0001
0000
0000
0000
,
0100
0000
1000
0000
,
0010
0000
0000
0000
,
0001
0000
0100
0000
,
0100
0000
0000
0000
,
1000
0000
0010
0000
,
0001
0000
0000
0000
,
0100
0000
1000
0000
,
1000
0000
0000
0000
,
0010
0000
0001
0000
,
0100
0000
0000
0000
,
1000
0000
0010
0000
,
0010
0000
0000
0000
,
0001
0000
0100
0000
,
0010
0000
0010
0000
,
0100
0000
0100
0000
,
1000
0000
0000
0000
,
0001
0000
0010
0000
,
0001
0000
0000
0000
,
1000
0000
0100
0000
,
1001
0000
0000
0000
;

//---------------dance-single - ----------------
#NOTEDATA:;
#CHARTNAME:;
#STEPSTYPE:dance-single;
#DESCRIPTION:;
#CHARTSTYLE:;
#DIFFICULTY:Medium;
#METER:4;
#RADARVALUES:0.124854,0.217397,0.008784,0.061486,0.000000,199.000000,197.000000,2.000000,14.000000,0.000000,0.000000,0.000000,0.000000,0.000000,0.124854,0.217397,0.008784,0.061486,0.000000,199.000000,197.000000,2.000000,14.000000,0.000000,0.000000,0.000000,0.000000,0.000000;
#CREDIT:;
#NOTES:
0000
0000
0000
0000
,
0000
0000
0000
0000
,
0000
0000
0000
0000
,
0000
0000
0000
0000
,
0000
0000
0000
0000
,
0000
0000
0000
0000
,
0000
0000
0000
0000
,
0000
0000
0000
0000
,
1000
0000
1000
0000
,
0001
0000
0010
0000
,
0001
0000
0001
0000
,
1000
0000
0100
0100
,
0010
0000
0010
0000
,
0100
0000
0001
0000
,
0100
0000
0100
0000
,
2002
0000
0000
3003
,
0001
0000
0001
0000
,
1000
0000
0001
0000
,
1000
0000
1000
0000
,
0001
0000
1000
0000
,
0100
0000
0100
0000
,
0010
0000
0100
0000
,
0010
0000
0010
0000
,
0100
0000
0010
0000
,
0200
0000
0000
0300
,
0020
0000
0000
0030
,
2000
0000
0000
3000
,
0002
0000
2000
3003
,
1000
0000
1000
0000
,
1000
0000
1000
0000
,
0001
0000
0001
0000
,
0001
0000
0001
0000
,
0100
0000
0100
0000
,
0100
0000
0100
0000
,
0010
0000
0010
0000
,
0010
0000
0010
0000
,
1000
0000
0001
0000
,
0010
0000
0001
0000
,
0001
0000
1000
0000
,
0100
0000
1000
0000
,
0010
0000
0100
0000
,
0001
0000
0100
0000
,
0100
0000
0010
0000
,
1000
0000
0010
0000
,
0010
0000
0000
0000
,
0010
0000
0000
0000
,
0010
0000
0000
0000
,
0010
0000
0010
0000
,
1000
0000
1000
0000
,
0001
0000
1000
0000
,
0001
0000
0001
0000
,
1000
0000
0001
0000
,
0010
0000
0010
0000
,
0100
0000
0010
0000
,
0100
0000
0100
0000
,
0010
0000
0100
0000
,
0020
0000
0000
0030
,
0200
0000
0000
0300
,
0002
0000
0000
0003
,
2000
0000
0002
3003
,
0001
0000
0001
0000
,
0001
0000
0001
0000
,
1000
0000
1000
0000
,
1000
0000
1000
0000
,
0010
0000
0010
0000
,
0010
0000
0010
0000
,
0100
0000
0100
0000
,
0100
0000
0100
0000
,
0001
0000
1000
0000
,
0100
0000
1000
0000
,
1000
0000
0001
0000
,
0010
0000
0001
0000
,
0100
0000
0010
0000
,
1000
0000
0010
0000
,
0010
0000
0100
0000
,
0001
0000
0100
0000
,
0100
0000
0000
0000
,
0100
0000
0000
0000
,
0100
0000
0000
0000
,
0100
0000
0100
0000
,
0010
0000
0000
0000
,
0010
0000
0000
0000
,
0010
0000
0000
0000
,
0010
0000
0010
0000
,
0020
0000
0000
0030
,
0010
0010
0010
0010
,
0200
0000
0000
0300
,
0100
0100
0100
0100
,
1000
0000
0001
0000
,
0010
0000
0001
0000
,
0001
0000
1000
0000
,
0100
0000
1000
0000
,
0010
0000
0100
0000
,
0001
0000
0100
0000
,
0100
0000
0010
0000
,
1000
0000
0010
0000
,
0001
0000
1000
0000
,
0100
0000
1000
0000
,
1000
0000
0001
0000
,
0010
0000
0001
0000
,
0100
0000
0010
0000
,
1000
0000
0010
0000
,
0010
0000
0100
0000
,
0001
0000
0100
0000
,
0010
0010
0010
0010
,
0100
0100
0100
0100
,
1000
0000
1000
0000
,
0001
0000
0010
0000
,
0001
0000
0001
0000
,
1000
0000
0100
0100
,
1001
0000
0000
0000
;

//---------------dance-single - ----------------
#NOTEDATA:;
#CHARTNAME:;
#STEPSTYPE:dance-single;
#DESCRIPTION:;
#CHARTSTYLE:;
#DIFFICULTY:Hard;
#METER:4;
#RADARVALUES:0.146186,0.217397,0.008784,0.061486,0.000000,233.000000,231.000000,2.000000,14.000000,0.000000,0.000000,0.000000,0.000000,0.000000,0.146186,0.217397,0.008784,0.061486,0.000000,233.000000,231.000000,2.000000,14.000000,0.000000,0.000000,0.000000,0.000000,0.000000;
#CREDIT:;
#NOTES:
0000
0000
0000
0000
,
0000
0000
0000
0000
,
0000
0000
0000
0000
,
0000
0000
0000
0000
,
0000
0000
0000
0000
,
0000
0000
0000
0000
,
0000
0000
0000
0000
,
0000
0000
0000
0000
,
1000
0000
1000
0000
,
0001
0000
0010
0010
,
0001
0000
0001
0000
,
1000
0000
0100
0100
,
0010
0000
0010
0000
,
0100
0000
0001
0001
,
0100
0000
0100
0000
,
2002
0000
0000
3003
,
0001
0000
0001
0000
,
1000
0000
0001
0000
,
1000
0000
1000
0000
,
0001
0000
1000
1000
,
0100
0000
0100
0000
,
0010
0000
0100
0000
,
0010
0000
0010
0000
,
0100
0000
0010
0010
,
0200
0000
0010
0300
,
0020
0000
0000
0030
,
2000
0000
0000
3000
,
0002
0000
2000
3003
,
1000
0000
1000
0000
,
1000
0000
1000
1000
,
0001
0000
0001
0000
,
0001
0000
0001
0000
,
0100
0000
0100
0000
,
0100
0000
0100
0000
,
0010
0000
0010
0000
,
0010
0000
0010
0010
,
1000
0010
0001
0000
,
0010
0000
0001
0000
,
0001
0100
1000
0000
,
0100
0000
1000
0000
,
0010
0001
0100
0000
,
0001
0000
0100
0000
,
0100
1000
0010
0000
,
1000
0000
0010
0000
,
0010
0000
0000
0000
,
0010
0000
0000
0000
,
0010
0000
0010
0000
,
0010
0000
0010
0000
,
1000
0000
1000
0000
,
0001
0000
1000
0000
,
0001
0000
0001
0000
,
1000
0000
0001
0001
,
0010
0000
0010
0000
,
0100
0000
0010
0000
,
0100
0000
0100
0000
,
0010
0000
0100
0100
,
0020
0000
0100
0030
,
0200
0000
0000
0300
,
0002
0000
0000
0003
,
2000
0000
0002
3003
,
0001
0000
0001
0000
,
0001
0000
0001
0001
,
1000
0000
1000
0000
,
1000
0000
1000
0000
,
0010
0000
0010
0000
,
0010
0000
0010
0000
,
0100
0000
0100
0000
,
0100
0000
0100
0100
,
0001
0100
1000
0000
,
0100
0000
1000
0000
,
1000
0010
0001
0000
,
0010
0000
0001
0000
,
0100
1000
0010
0000
,
1000
0000
0010
0000
,
0010
0001
0100
0000
,
0001
0000
0100
0000
,
0100
0000
0000
0000
,
0100
0000
0000
0000
,
0100
0000
0100
0000
,
0100
0000
0100
0000
,
0010
0000
0000
0000
,
0010
0000
0000
0000
,
0010
0000
0010
0000
,
0010
0000
0010
0000
,
0020
0000
0100
0030
,
0010
0010
0010
0010
,
0200
0000
0010
0300
,
0100
0100
0100
0100
,
1000
0010
0001
0000
,
0010
0000
0001
0000
,
0001
0100
1000
0000
,
0100
0000
1000
0000
,
0010
0001
0100
0000
,
0001
0000
0100
0000
,
0100
1000
0010
0000
,
1000
0000
0010
0000
,
0001
0100
1000
0000
,
0100
0000
1000
0000
,
1000
0010
0001
0000
,
0010
0000
0001
0000
,
0100
1000
0010
0000
,
1000
0000
0010
0000
,
0010
0001
0100
0000
,
0001
0000
0100
0000
,
0010
0010
0010
0010
,
0100
0100
0100
0100
,
1000
0000
1000
0000
,
0001
0000
0010
0010
,
0001
0000
0001
0000
,
1000
0000
0100
0100
,
1001
0000
0000
0000
;

//---------------dance-single - ----------------
#NOTEDATA:;
#CHARTNAME:;
#STEPSTYPE:dance-single;
#DESCRIPTION:;
#CHARTSTYLE:;
#DIFFICULTY:Challenge;
#METER:4;
#RADARVALUES:0.166263,0.289863,0.043919,0.061486,0.000000,265.000000,255.000000,10.000000,14.000000,0.000000,0.000000,0.000000,0.000000,0.000000,0.166263,0.289863,0.043919,0.061486,0.000000,265.000000,255.000000,10.000000,14.000000,0.000000,0.000000,0.000000,0.000000,0.000000;
#CREDIT:;
#NOTES:
0000
0000
0000
0000
,
0000
0000
0000
0000
,
0000
0000
0000
0000
,
0000
0000
0000
0000
,
0000
0000
0000
0000
,
0000
0000
0000
0000
,
0000
0000
0000
0000
,
0000
0000
0000
0000
,
1001
0000
1000
0000
,
0001
0000
0010
0010
,
1001
0000
0001
0000
,
1000
0000
0100
0100
,
0110
0000
0010
0000
,
0100
0000
0001
0001
,
0110
0000
0100
0000
,
2002
0000
0000
3003
,
0001
0000
0001
0000
,
1000
0000
0001
0001
,
1000
0000
1000
0000
,
0001
0000
1000
1000
,
0100
0000
0100
0000
,
0010
0000
0100
0100
,
0010
0000
0010
0000
,
0100
0000
0010
0010
,
0200
0000
0010
0300
,
0020
0000
0000
0030
,
2000
0000
0001
3000
,
0002
0000
2000
3003
,
1000
0000
1000
0000
,
1000
0000
1000
1000
,
0001
0000
0001
0000
,
0001
0000
0001
0001
,
0100
0000
0100
0000
,
0100
0000
0100
0100
,
0010
0000
0010
0000
,
0010
0000
0010
0010
,
1000
0010
0001
0000
,
0010
0000
0001
0001
,
0001
0100
1000
0000
,
0100
0000
1000
0000
,
0010
0001
0100
0000
,
0001
0000
0100
0100
,
0100
1000
0010
0000
,
1000
0000
0010
0000
,
0010
0000
0010
0000
,
0010
0000
0010
0000
,
0010
0000
0010
0000
,
0010
0000
0010
0000
,
1000
0000
1000
0000
,
0001
0000
1000
1000
,
0001
0000
0001
0000
,
1000
0000
0001
0001
,
0010
0000
0010
0000
,
0100
0000
0010
0010
,
0100
0000
0100
0000
,
0010
0000
0100
0100
,
0020
0000
0100
0030
,
0200
0000
0000
0300
,
0002
0000
1000
0003
,
2000
0000
0002
3003
,
0001
0000
0001
0000
,
0001
0000
0001
0001
,
1000
0000
1000
0000
,
1000
0000
1000
1000
,
0010
0000
0010
0000
,
0010
0000
0010
0010
,
0100
0000
0100
0000
,
0100
0000
0100
0100
,
0001
0100
1000
0000
,
0100
0000
1000
1000
,
1000
0010
0001
0000
,
0010
0000
0001
0000
,
0100
1000
0010
0000
,
1000
0000
0010
0010
,
0010
0001
0100
0000
,
0001
0000
0100
0000
,
0100
0000
0100
0000
,
0100
0000
0100
0000
,
0100
0000
0100
0000
,
0100
0000
0100
0000
,
0010
0000
0010
0000
,
0010
0000
0010
0000
,
0010
0000
0010
0000
,
0010
0000
0010
0000
,
0020
0000
0100
0030
,
0010
0010
0010
0010
,
0200
0000
0010
0300
,
0100
0100
0100
0100
,
1000
0010
0001
0000
,
0010
0000
0001
0001
,
0001
0100
1000
0000
,
0100
0000
1000
0000
,
0010
0001
0100
0000
,
0001
0000
0100
0100
,
0100
1000
0010
0000
,
1000
0000
0010
0000
,
0001
0100
1000
0000
,
0100
0000
1000
1000
,
1000
0010
0001
0000
,
0010
0000
0001
0000
,
0100
1000
0010
0000
,
1000
0000
0010
0010
,
0010
0001
0100
0000
,
0001
0000
0100
0000
,
0010
0010
0010
0110
,
0100
0100
0100
0110
,
1001
0000
1000
0000
,
0001
0000
0010
0010
,
1001
0000
0001
0000
,
1000
0000
0100
0100
,
1001
0000
0000
0000
;
