#VERSION:0.83;
#TITLE:Space Harrier Main Theme;
#SUBTITLE:(form Space Harrier);
#ARTIST:SEGA;
#TITLETRANSLIT:;
#SUBTITLETRANSLIT:;
#ARTISTTRANSLIT:;
#GENRE:;
#ORIGIN:;
#CREDIT:;
#BANNER:;
#BACKGROUND:;
#PREVIEWVID:;
#JACKET:;
#CDIMAGE:;
#DISCIMAGE:;
#LYRICSPATH:;
#CDTITLE:;
#MUSIC:Space Harrier Main Theme.ogg;
#OFFSET:0.000000;
#SAMPLESTART:24.778669;
#SAMPLELENGTH:15.000000;
#SELECTABLE:YES;
#BPMS:0.000=154.972;
#STOPS:;
#DELAYS:;
#WARPS:;
#TIMESIGNATURES:0.000=4=4;
#TICKCOUNTS:0.000=4;
#COMBOS:0.000=1;
#SPEEDS:0.000=1.000=0.000=0;
#SCROLLS:0.000=1.000;
#FAKES:;
#LABELS:0.000=Song Start;
#BGCHANGES:;
#KEYSOUNDS:;
#ATTACKS:
;

//---------------dance-single - ----------------
#NOTEDATA:;
#CHARTNAME:;
#STEPSTYPE:dance-single;
#DESCRIPTION:;
#CHARTSTYLE:;
#DIFFICULTY:Easy;
#METER:6;
#RADARVALUES:0.188566,0.252591,0.100861,0.359591,0.000000,301.000000,278.000000,23.000000,82.000000,0.000000,0.000000,0.000000,0.000000,0.000000,0.188566,0.252591,0.100861,0.359591,0.000000,301.000000,278.000000,23.000000,82.000000,0.000000,0.000000,0.000000,0.000000,0.000000;
#CREDIT:;
#NOTES:
// measure 0
0020
0000
0000
0030
,  // measure 1
0010
0000
0010
0000
,  // measure 2
0200
0000
0000
0300
,  // measure 3
0100
0000
0100
0000
,  // measure 4
0002
0000
0000
0003
,  // measure 5
0001
0000
0001
0000
,  // measure 6
2000
0000
0000
3000
,  // measure 7
1000
0000
1000
0000
,  // measure 8
0020
0000
0000
0030
,  // measure 9
1000
0001
0100
0100
,  // measure 10
0200
0000
0000
0300
,  // measure 11
0001
1000
0010
0010
,  // measure 12
0002
0000
0000
0003
,  // measure 13
0010
0100
1000
1000
,  // measure 14
0010
0000
0010
0000
0000
0010
0000
0100
,  // measure 15
0000
1000
0001
1000
,  // measure 16
0020
0000
0030
0100
,  // measure 17
0001
0000
0010
0100
,  // measure 18
0200
0000
0300
0010
,  // measure 19
1000
0000
0100
0010
,  // measure 20
0002
0000
0003
1000
,  // measure 21
0100
0000
0001
1000
,  // measure 22
2000
0000
3000
0001
,  // measure 23
0010
0000
1000
0001
,  // measure 24
0200
0000
0300
0010
,  // measure 25
1000
0000
0100
0010
,  // measure 26
0020
0000
0030
0100
,  // measure 27
0001
0000
0010
0100
,  // measure 28
2000
0000
3000
0001
,  // measure 29
0010
0000
1000
0001
,  // measure 30
0002
0000
0003
1000
,  // measure 31
0100
0000
0001
1000
,  // measure 32
0020
0000
0000
0000
,  // measure 33
0030
1000
0001
1000
,  // measure 34
0002
0000
0003
0010
,  // measure 35
0020
0000
0000
0000
0030
1000
0000
0000
,  // measure 36
0002
0000
0203
0000
,  // measure 37
0302
0000
2003
0000
,  // measure 38
3002
0000
0003
0001
,  // measure 39
2002
0000
0000
3003
,  // measure 40
0020
0000
0000
0000
,  // measure 41
0030
1000
0001
1000
,  // measure 42
0002
0000
0003
0010
,  // measure 43
1000
0100
0010
0001
,  // measure 44
0020
0000
0000
1000
,  // measure 45
2030
0000
0000
0000
,  // measure 46
3002
0000
0000
0003
,  // measure 47
2002
0000
0000
3003
,  // measure 48
0020
0000
0030
0100
,  // measure 49
0001
0000
0010
0100
,  // measure 50
0200
0000
0300
0010
,  // measure 51
1000
0000
0100
0010
,  // measure 52
0002
0000
0003
1000
,  // measure 53
0100
0000
0001
1000
,  // measure 54
2000
0000
3000
0001
,  // measure 55
0010
0000
1000
0001
,  // measure 56
0200
0000
0300
0010
,  // measure 57
1000
0000
0100
0010
,  // measure 58
0020
0000
0030
0100
,  // measure 59
0001
0000
0010
0100
,  // measure 60
2000
0000
3000
0001
,  // measure 61
0010
0000
1000
0001
,  // measure 62
0002
0000
0003
1000
,  // measure 63
0100
0000
0001
1000
,  // measure 64
0020
0000
0000
0000
,  // measure 65
0030
1000
0001
1000
,  // measure 66
0002
0000
0003
0010
,  // measure 67
0020
0000
0000
0000
0030
1000
0000
0000
,  // measure 68
0002
0000
0203
0000
,  // measure 69
0302
0000
2003
0000
,  // measure 70
3002
0000
0003
0001
,  // measure 71
2002
0000
0000
3003
,  // measure 72
0200
0000
0000
0000
,  // measure 73
0300
0001
1000
0001
,  // measure 74
2000
0000
3000
0010
,  // measure 75
1000
0100
0010
0001
,  // measure 76
0020
0000
0000
1000
,  // measure 77
2030
0000
0000
0000
,  // measure 78
3002
0000
0000
0003
,  // measure 79
2002
0000
0000
3003
,  // measure 80
0110
0000
0000
0000
,  // measure 81
0010
0000
0000
0000
,  // measure 82
1010
0000
0000
0000
,  // measure 83
1000
0000
0000
0000
,  // measure 84
0110
0000
0000
0000
,  // measure 85
0100
0000
0000
0000
,  // measure 86
0101
0000
0000
0000
,  // measure 87
0001
0000
0000
0000
,  // measure 88
1001
0000
0000
0000
,  // measure 89
0001
0000
0000
0000
,  // measure 90
0011
0000
0000
0000
,  // measure 91
0010
0000
0000
0000
,  // measure 92
1001
0000
0000
0000
,  // measure 93
1000
0000
0000
0000
,  // measure 94
1100
0000
0000
0000
,  // measure 95
0100
0000
0000
0000
,  // measure 96
0110
0000
0000
0000
,  // measure 97
0010
0000
0000
0000
,  // measure 98
1010
0000
0000
0000
,  // measure 99
1000
0000
0000
0000
,  // measure 100
0110
0000
0000
0000
,  // measure 101
0100
0000
0000
0000
,  // measure 102
0101
0000
0000
0000
,  // measure 103
0001
0000
0000
0000
,  // measure 104
1001
0000
0000
0000
,  // measure 105
0001
0000
0000
0000
,  // measure 106
0011
0000
0000
0000
,  // measure 107
0010
0000
0000
0000
,  // measure 108
1001
0000
0000
0000
,  // measure 109
1000
0000
0000
0000
,  // measure 110
1100
0000
0000
0000
,  // measure 111
0100
0000
0010
0000
,  // measure 112
0020
0000
0030
0100
,  // measure 113
0001
0000
0010
0100
,  // measure 114
0200
0000
0300
0010
,  // measure 115
1000
0000
0100
0010
,  // measure 116
0002
0000
0003
1000
,  // measure 117
0100
0000
0001
1000
,  // measure 118
2000
0000
3000
0001
,  // measure 119
0010
0000
1000
0001
,  // measure 120
0200
0000
0300
0010
,  // measure 121
1000
0000
0100
0010
,  // measure 122
0200
0000
0300
0010
,  // measure 123
1000
0000
0100
0010
,  // measure 124
0002
0000
0003
1000
,  // measure 125
0100
0000
0001
1000
,  // measure 126
2000
0000
3000
0001
,  // measure 127
0010
0000
1000
0001
,  // measure 128
0020
0000
0000
0000
,  // measure 129
0030
1000
0001
1000
,  // measure 130
0002
0000
0003
0010
,  // measure 131
0020
0000
0000
0000
0030
1000
0000
0000
,  // measure 132
0002
0000
0203
0000
,  // measure 133
0302
0000
2003
0000
,  // measure 134
3002
0000
0003
0001
,  // measure 135
2002
0000
0000
3003
,  // measure 136
0020
0000
0000
0000
,  // measure 137
0030
1000
0001
1000
,  // measure 138
0002
0000
0003
0010
,  // measure 139
1000
0100
0010
0001
,  // measure 140
0020
0000
0000
1000
,  // measure 141
2030
0000
0000
0000
,  // measure 142
3002
0000
0000
0003
,  // measure 143
2002
0000
0000
3003
,  // measure 144
1001
0000
0000
0000
;

//---------------dance-single - ----------------
#NOTEDATA:;
#CHARTNAME:;
#STEPSTYPE:dance-single;
#DESCRIPTION:;
#CHARTSTYLE:;
#DIFFICULTY:Beginner;
#METER:6;
#RADARVALUES:0.176037,0.221017,0.100861,0.359591,0.000000,281.000000,258.000000,23.000000,82.000000,0.000000,0.000000,0.000000,0.000000,0.000000,0.176037,0.221017,0.100861,0.359591,0.000000,281.000000,258.000000,23.000000,82.000000,0.000000,0.000000,0.000000,0.000000,0.000000;
#CREDIT:;
#NOTES:
// measure 0
0020
0000
0000
0030
,  // measure 1
0010
0000
0010
0000
,  // measure 2
0200
0000
0000
0300
,  // measure 3
0100
0000
0100
0000
,  // measure 4
0002
0000
0000
0003
,  // measure 5
0001
0000
0001
0000
,  // measure 6
2000
0000
0000
3000
,  // measure 7
1000
0000
1000
0000
,  // measure 8
0020
0000
0000
0030
,  // measure 9
1000
0001
0100
0000
,  // measure 10
0200
0000
0000
0300
,  // measure 11
0001
1000
0010
0000
,  // measure 12
0002
0000
0000
0003
,  // measure 13
0010
0100
1000
0000
,  // measure 14
0010
0000
0000
0000
0000
0010
0000
0100
,  // measure 15
0000
1000
0001
1000
,  // measure 16
0020
0000
0030
0100
,  // measure 17
0001
0000
0010
0100
,  // measure 18
0200
0000
0300
0010
,  // measure 19
1000
0000
0100
0010
,  // measure 20
0002
0000
0003
1000
,  // measure 21
0100
0000
0001
1000
,  // measure 22
2000
0000
3000
0001
,  // measure 23
0010
0000
1000
0001
,  // measure 24
0200
0000
0300
0010
,  // measure 25
1000
0000
0100
0010
,  // measure 26
0020
0000
0030
0100
,  // measure 27
0001
0000
0010
0100
,  // measure 28
2000
0000
3000
0001
,  // measure 29
0010
0000
1000
0001
,  // measure 30
0002
0000
0003
1000
,  // measure 31
0100
0000
0001
1000
,  // measure 32
0020
0000
0000
0000
,  // measure 33
0030
1000
0001
1000
,  // measure 34
0002
0000
0003
0010
,  // measure 35
0020
0000
0000
0000
0030
1000
0000
0000
,  // measure 36
0002
0000
0203
0000
,  // measure 37
0302
0000
2003
0000
,  // measure 38
3002
0000
0003
0001
,  // measure 39
2002
0000
0000
3003
,  // measure 40
0020
0000
0000
0000
,  // measure 41
0030
1000
0001
1000
,  // measure 42
0002
0000
0003
0010
,  // measure 43
1000
0100
0010
0001
,  // measure 44
0020
0000
0000
1000
,  // measure 45
2030
0000
0000
0000
,  // measure 46
3002
0000
0000
0003
,  // measure 47
2002
0000
0000
3003
,  // measure 48
0020
0000
0030
0100
,  // measure 49
0001
0000
0010
0100
,  // measure 50
0200
0000
0300
0010
,  // measure 51
1000
0000
0100
0010
,  // measure 52
0002
0000
0003
1000
,  // measure 53
0100
0000
0001
1000
,  // measure 54
2000
0000
3000
0001
,  // measure 55
0010
0000
1000
0001
,  // measure 56
0200
0000
0300
0010
,  // measure 57
1000
0000
0100
0010
,  // measure 58
0020
0000
0030
0100
,  // measure 59
0001
0000
0010
0100
,  // measure 60
2000
0000
3000
0001
,  // measure 61
0010
0000
1000
0001
,  // measure 62
0002
0000
0003
1000
,  // measure 63
0100
0000
0001
1000
,  // measure 64
0020
0000
0000
0000
,  // measure 65
0030
1000
0001
1000
,  // measure 66
0002
0000
0003
0010
,  // measure 67
0020
0000
0000
0000
0030
1000
0000
0000
,  // measure 68
0002
0000
0203
0000
,  // measure 69
0302
0000
2003
0000
,  // measure 70
3002
0000
0003
0001
,  // measure 71
2002
0000
0000
3003
,  // measure 72
0200
0000
0000
0000
,  // measure 73
0300
0001
1000
0001
,  // measure 74
2000
0000
3000
0010
,  // measure 75
1000
0100
0010
0001
,  // measure 76
0020
0000
0000
1000
,  // measure 77
2030
0000
0000
0000
,  // measure 78
3002
0000
0000
0003
,  // measure 79
2002
0000
0000
3003
,  // measure 80
0110
0000
0000
0000
,  // measure 81
0000
0000
0000
0000
,  // measure 82
1010
0000
0000
0000
,  // measure 83
0000
0000
0000
0000
,  // measure 84
0110
0000
0000
0000
,  // measure 85
0000
0000
0000
0000
,  // measure 86
0101
0000
0000
0000
,  // measure 87
0000
0000
0000
0000
,  // measure 88
1001
0000
0000
0000
,  // measure 89
0000
0000
0000
0000
,  // measure 90
0011
0000
0000
0000
,  // measure 91
0000
0000
0000
0000
,  // measure 92
1001
0000
0000
0000
,  // measure 93
0000
0000
0000
0000
,  // measure 94
1100
0000
0000
0000
,  // measure 95
0000
0000
0000
0000
,  // measure 96
0110
0000
0000
0000
,  // measure 97
0000
0000
0000
0000
,  // measure 98
1010
0000
0000
0000
,  // measure 99
0000
0000
0000
0000
,  // measure 100
0110
0000
0000
0000
,  // measure 101
0000
0000
0000
0000
,  // measure 102
0101
0000
0000
0000
,  // measure 103
0000
0000
0000
0000
,  // measure 104
1001
0000
0000
0000
,  // measure 105
0000
0000
0000
0000
,  // measure 106
0011
0000
0000
0000
,  // measure 107
0000
0000
0000
0000
,  // measure 108
1001
0000
0000
0000
,  // measure 109
0000
0000
0000
0000
,  // measure 110
1100
0000
0000
0000
,  // measure 111
0010
0000
0000
0000
,  // measure 112
0020
0000
0030
0100
,  // measure 113
0001
0000
0010
0100
,  // measure 114
0200
0000
0300
0010
,  // measure 115
1000
0000
0100
0010
,  // measure 116
0002
0000
0003
1000
,  // measure 117
0100
0000
0001
1000
,  // measure 118
2000
0000
3000
0001
,  // measure 119
0010
0000
1000
0001
,  // measure 120
0200
0000
0300
0010
,  // measure 121
1000
0000
0100
0010
,  // measure 122
0200
0000
0300
0010
,  // measure 123
1000
0000
0100
0010
,  // measure 124
0002
0000
0003
1000
,  // measure 125
0100
0000
0001
1000
,  // measure 126
2000
0000
3000
0001
,  // measure 127
0010
0000
1000
0001
,  // measure 128
0020
0000
0000
0000
,  // measure 129
0030
1000
0001
1000
,  // measure 130
0002
0000
0003
0010
,  // measure 131
0020
0000
0000
0000
0030
1000
0000
0000
,  // measure 132
0002
0000
0203
0000
,  // measure 133
0302
0000
2003
0000
,  // measure 134
3002
0000
0003
0001
,  // measure 135
2002
0000
0000
3003
,  // measure 136
0020
0000
0000
0000
,  // measure 137
0030
1000
0001
1000
,  // measure 138
0002
0000
0003
0010
,  // measure 139
1000
0100
0010
0001
,  // measure 140
0020
0000
0000
1000
,  // measure 141
2030
0000
0000
0000
,  // measure 142
3002
0000
0000
0003
,  // measure 143
2002
0000
0000
3003
,  // measure 144
1001
0000
0000
0000
;

//---------------dance-single - ----------------
#NOTEDATA:;
#CHARTNAME:;
#STEPSTYPE:dance-single;
#DESCRIPTION:;
#CHARTSTYLE:;
#DIFFICULTY:Medium;
#METER:6;
#RADARVALUES:0.197963,0.252591,0.100861,0.359591,0.000000,316.000000,293.000000,23.000000,82.000000,0.000000,0.000000,0.000000,0.000000,0.000000,0.197963,0.252591,0.100861,0.359591,0.000000,316.000000,293.000000,23.000000,82.000000,0.000000,0.000000,0.000000,0.000000,0.000000;
#CREDIT:;
#NOTES:
// measure 0
0020
0000
0000
0030
,  // measure 1
0010
0000
0010
0000
,  // measure 2
0200
0000
0000
0300
,  // measure 3
0100
0000
0100
0100
,  // measure 4
0002
0000
0000
0003
,  // measure 5
0001
0000
0001
0000
,  // measure 6
2000
0000
0000
3000
,  // measure 7
1000
0000
1000
1000
,  // measure 8
0020
0000
0000
0030
,  // measure 9
1000
0001
0100
0100
,  // measure 10
0200
0000
0000
0300
,  // measure 11
0001
1000
0010
0010
,  // measure 12
0002
0000
0000
0003
,  // measure 13
0010
0100
1000
1000
,  // measure 14
0010
0000
0010
0000
0000
0010
0000
0100
,  // measure 15
0000
1000
0001
1000
,  // measure 16
0020
0000
0030
0100
,  // measure 17
0001
1000
0010
0100
,  // measure 18
0200
0000
0300
0010
,  // measure 19
1000
0000
0100
0010
,  // measure 20
0002
0000
0003
1000
,  // measure 21
0100
0010
0001
1000
,  // measure 22
2000
0000
3000
0001
,  // measure 23
0010
0000
1000
0001
,  // measure 24
0200
0000
0300
0010
,  // measure 25
1000
0001
0100
0010
,  // measure 26
0020
0000
0030
0100
,  // measure 27
0001
0000
0010
0100
,  // measure 28
2000
0000
3000
0001
,  // measure 29
0010
0100
1000
0001
,  // measure 30
0002
0000
0003
1000
,  // measure 31
0100
0000
0001
1000
,  // measure 32
0020
0000
0000
0000
,  // measure 33
0030
1000
0001
1000
,  // measure 34
0002
0000
0003
0010
,  // measure 35
0020
0000
0000
0000
0030
1000
0000
0000
,  // measure 36
0002
0000
0203
0000
,  // measure 37
0302
0000
2003
0000
,  // measure 38
3002
0000
0003
0001
,  // measure 39
2002
0000
0000
3003
,  // measure 40
0020
0000
0000
0000
,  // measure 41
0030
1000
0001
1000
,  // measure 42
0002
0000
0003
0010
,  // measure 43
1000
0100
0010
0001
,  // measure 44
0020
0000
0000
1000
,  // measure 45
2030
0000
0000
0000
,  // measure 46
3002
0000
0000
0003
,  // measure 47
2002
0000
0000
3003
,  // measure 48
0020
0000
0030
0100
,  // measure 49
0001
1000
0010
0100
,  // measure 50
0200
0000
0300
0010
,  // measure 51
1000
0000
0100
0010
,  // measure 52
0002
0000
0003
1000
,  // measure 53
0100
0010
0001
1000
,  // measure 54
2000
0000
3000
0001
,  // measure 55
0010
0000
1000
0001
,  // measure 56
0200
0000
0300
0010
,  // measure 57
1000
0001
0100
0010
,  // measure 58
0020
0000
0030
0100
,  // measure 59
0001
0000
0010
0100
,  // measure 60
2000
0000
3000
0001
,  // measure 61
0010
0100
1000
0001
,  // measure 62
0002
0000
0003
1000
,  // measure 63
0100
0000
0001
1000
,  // measure 64
0020
0000
0000
0000
,  // measure 65
0030
1000
0001
1000
,  // measure 66
0002
0000
0003
0010
,  // measure 67
0020
0000
0000
0000
0030
1000
0000
0000
,  // measure 68
0002
0000
0203
0000
,  // measure 69
0302
0000
2003
0000
,  // measure 70
3002
0000
0003
0001
,  // measure 71
2002
0000
0000
3003
,  // measure 72
0200
0000
0000
0000
,  // measure 73
0300
0001
1000
0001
,  // measure 74
2000
0000
3000
0010
,  // measure 75
1000
0100
0010
0001
,  // measure 76
0020
0000
0000
1000
,  // measure 77
2030
0000
0000
0000
,  // measure 78
3002
0000
0000
0003
,  // measure 79
2002
0000
0000
3003
,  // measure 80
0110
0000
0000
0000
,  // measure 81
0010
0000
0000
0000
,  // measure 82
1010
0000
0000
0000
,  // measure 83
1000
0000
0000
0000
,  // measure 84
0110
0000
0000
0000
,  // measure 85
0100
0000
0000
0000
,  // measure 86
0101
0000
0000
0000
,  // measure 87
0001
0000
0000
0000
,  // measure 88
1001
0000
0000
0000
,  // measure 89
0001
0000
0000
0000
,  // measure 90
0011
0000
0000
0000
,  // measure 91
0010
0000
0000
0000
,  // measure 92
1001
0000
0000
0000
,  // measure 93
1000
0000
0000
0000
,  // measure 94
1100
0000
0000
0000
,  // measure 95
0100
0000
0000
0000
,  // measure 96
0110
0000
0000
0000
,  // measure 97
0010
0000
0000
0000
,  // measure 98
1010
0000
0000
0000
,  // measure 99
1000
0000
0000
0000
,  // measure 100
0110
0000
0000
0000
,  // measure 101
0100
0000
0000
0000
,  // measure 102
0101
0000
0000
0000
,  // measure 103
0001
0000
0000
0000
,  // measure 104
1001
0000
0000
0000
,  // measure 105
0001
0000
0000
0000
,  // measure 106
0011
0000
0000
0000
,  // measure 107
0010
0000
0000
0000
,  // measure 108
1001
0000
0000
0000
,  // measure 109
1000
0000
0000
0000
,  // measure 110
1100
0000
0000
0000
,  // measure 111
0100
0000
0010
0010
,  // measure 112
0020
0000
0030
0100
,  // measure 113
0001
1000
0010
0100
,  // measure 114
0200
0000
0300
0010
,  // measure 115
1000
0000
0100
0010
,  // measure 116
0002
0000
0003
1000
,  // measure 117
0100
0010
0001
1000
,  // measure 118
2000
0000
3000
0001
,  // measure 119
0010
0000
1000
0001
,  // measure 120
0200
0000
0300
0010
,  // measure 121
1000
0001
0100
0010
,  // measure 122
0200
0000
0300
0010
,  // measure 123
1000
0000
0100
0010
,  // measure 124
0002
0000
0003
1000
,  // measure 125
0100
0010
0001
1000
,  // measure 126
2000
0000
3000
0001
,  // measure 127
0010
0000
1000
0001
,  // measure 128
0020
0000
0000
0000
,  // measure 129
0030
1000
0001
1000
,  // measure 130
0002
0000
0003
0010
,  // measure 131
0020
0000
0000
0000
0030
1000
0000
0000
,  // measure 132
0002
0000
0203
0000
,  // measure 133
0302
0000
2003
0000
,  // measure 134
3002
0000
0003
0001
,  // measure 135
2002
0000
0000
3003
,  // measure 136
0020
0000
0000
0000
,  // measure 137
0030
1000
0001
1000
,  // measure 138
0002
0000
0003
0010
,  // measure 139
1000
0100
0010
0001
,  // measure 140
0020
0000
0000
1000
,  // measure 141
2030
0000
0000
0000
,  // measure 142
3002
0000
0000
0003
,  // measure 143
2002
0000
0000
3003
,  // measure 144
1001
0000
0000
0000
;

//---------------dance-single - ----------------
#NOTEDATA:;
#CHARTNAME:;
#STEPSTYPE:dance-single;
#DESCRIPTION:;
#CHARTSTYLE:;
#DIFFICULTY:Hard;
#METER:7;
#RADARVALUES:0.207986,0.284164,0.100861,0.359591,0.000000,332.000000,309.000000,23.000000,82.000000,0.000000,0.000000,0.000000,0.000000,0.000000,0.207986,0.284164,0.100861,0.359591,0.000000,332.000000,309.000000,23.000000,82.000000,0.000000,0.000000,0.000000,0.000000,0.000000;
#CREDIT:;
#NOTES:
// measure 0
0020
0000
0000
0030
,  // measure 1
0010
0000
0010
0000
,  // measure 2
0200
0000
0000
0300
,  // measure 3
0100
0000
0100
0100
,  // measure 4
0002
0000
0000
0003
,  // measure 5
0001
0000
0001
0000
,  // measure 6
2000
0000
0000
3000
,  // measure 7
1000
0000
1000
1000
,  // measure 8
0020
0000
0000
0030
,  // measure 9
1000
0001
0100
0100
,  // measure 10
0200
0000
0000
0300
,  // measure 11
0001
1000
0010
0010
,  // measure 12
0002
0000
0000
0003
,  // measure 13
0010
0100
1000
1000
,  // measure 14
0010
0000
0010
0100
0000
0010
0000
0100
,  // measure 15
0000
1000
0001
1000
,  // measure 16
0020
0000
0030
0100
,  // measure 17
0001
1000
0010
0100
,  // measure 18
0200
0000
0300
0010
,  // measure 19
1000
0001
0100
0010
,  // measure 20
0002
0000
0003
1000
,  // measure 21
0100
0010
0001
1000
,  // measure 22
2000
0000
3000
0001
,  // measure 23
0010
0100
1000
0001
,  // measure 24
0200
0000
0300
0010
,  // measure 25
1000
0001
0100
0010
,  // measure 26
0020
0000
0030
0100
,  // measure 27
0001
1000
0010
0100
,  // measure 28
2000
0000
3000
0001
,  // measure 29
0010
0100
1000
0001
,  // measure 30
0002
0000
0003
1000
,  // measure 31
0100
0010
0001
1000
,  // measure 32
0020
0000
0000
0000
,  // measure 33
0030
1000
0001
1000
,  // measure 34
0002
0000
0003
0010
,  // measure 35
0020
0000
0000
0000
0030
1000
0000
1000
,  // measure 36
0002
0000
0203
0000
,  // measure 37
0302
0000
2003
0000
,  // measure 38
3002
0000
0003
0001
,  // measure 39
2002
0000
0000
3003
,  // measure 40
0020
0000
0000
0000
,  // measure 41
0030
1000
0001
1000
,  // measure 42
0002
0000
0003
0010
,  // measure 43
1000
0100
0010
0001
,  // measure 44
0020
0000
0000
1000
,  // measure 45
2030
0000
0000
0000
,  // measure 46
3002
0000
0000
0003
,  // measure 47
2002
0000
0000
3003
,  // measure 48
0020
0000
0030
0100
,  // measure 49
0001
1000
0010
0100
,  // measure 50
0200
0000
0300
0010
,  // measure 51
1000
0001
0100
0010
,  // measure 52
0002
0000
0003
1000
,  // measure 53
0100
0010
0001
1000
,  // measure 54
2000
0000
3000
0001
,  // measure 55
0010
0100
1000
0001
,  // measure 56
0200
0000
0300
0010
,  // measure 57
1000
0001
0100
0010
,  // measure 58
0020
0000
0030
0100
,  // measure 59
0001
1000
0010
0100
,  // measure 60
2000
0000
3000
0001
,  // measure 61
0010
0100
1000
0001
,  // measure 62
0002
0000
0003
1000
,  // measure 63
0100
0010
0001
1000
,  // measure 64
0020
0000
0000
0000
,  // measure 65
0030
1000
0001
1000
,  // measure 66
0002
0000
0003
0010
,  // measure 67
0020
0000
0000
0000
0030
1000
0000
1000
,  // measure 68
0002
0000
0203
0000
,  // measure 69
0302
0000
2003
0000
,  // measure 70
3002
0000
0003
0001
,  // measure 71
2002
0000
0000
3003
,  // measure 72
0200
0000
0000
0000
,  // measure 73
0300
0001
1000
0001
,  // measure 74
2000
0000
3000
0010
,  // measure 75
1000
0100
0010
0001
,  // measure 76
0020
0000
0000
1000
,  // measure 77
2030
0000
0000
0000
,  // measure 78
3002
0000
0000
0003
,  // measure 79
2002
0000
0000
3003
,  // measure 80
0110
0000
0000
0000
,  // measure 81
0010
0000
0000
0000
,  // measure 82
1010
0000
0000
0000
,  // measure 83
1000
0000
0000
0000
,  // measure 84
0110
0000
0000
0000
,  // measure 85
0100
0000
0000
0000
,  // measure 86
0101
0000
0000
0000
,  // measure 87
0001
0000
0000
0000
,  // measure 88
1001
0000
0000
0000
,  // measure 89
0001
0000
0000
0000
,  // measure 90
0011
0000
0000
0000
,  // measure 91
0010
0000
0000
0000
,  // measure 92
1001
0000
0000
0000
,  // measure 93
1000
0000
0000
0000
,  // measure 94
1100
0000
0000
0000
,  // measure 95
0100
0000
0000
0000
,  // measure 96
0110
0000
0000
0000
,  // measure 97
0010
0000
0000
0000
,  // measure 98
1010
0000
0000
0000
,  // measure 99
1000
0000
0000
0000
,  // measure 100
0110
0000
0000
0000
,  // measure 101
0100
0000
0000
0000
,  // measure 102
0101
0000
0000
0000
,  // measure 103
0001
0000
0000
0000
,  // measure 104
1001
0000
0000
0000
,  // measure 105
0001
0000
0000
0000
,  // measure 106
0011
0000
0000
0000
,  // measure 107
0010
0000
0000
0000
,  // measure 108
1001
0000
0000
0000
,  // measure 109
1000
0000
0000
0000
,  // measure 110
1100
0000
0000
0000
,  // measure 111
0100
0000
0010
0010
,  // measure 112
0020
0000
0030
0100
,  // measure 113
0001
1000
0010
0100
,  // measure 114
0200
0000
0300
0010
,  // measure 115
1000
0001
0100
0010
,  // measure 116
0002
0000
0003
1000
,  // measure 117
0100
0010
0001
1000
,  // measure 118
2000
0000
3000
0001
,  // measure 119
0010
0100
1000
0001
,  // measure 120
0200
0000
0300
0010
,  // measure 121
1000
0001
0100
0010
,  // measure 122
0200
0000
0300
0010
,  // measure 123
1000
0001
0100
0010
,  // measure 124
0002
0000
0003
1000
,  // measure 125
0100
0010
0001
1000
,  // measure 126
2000
0000
3000
0001
,  // measure 127
0010
0100
1000
0001
,  // measure 128
0020
0000
0000
0000
,  // measure 129
0030
1000
0001
1000
,  // measure 130
0002
0000
0003
0010
,  // measure 131
0020
0000
0000
0000
0030
1000
0000
1000
,  // measure 132
0002
0000
0203
0000
,  // measure 133
0302
0000
2003
0000
,  // measure 134
3002
0000
0003
0001
,  // measure 135
2002
0000
0000
3003
,  // measure 136
0020
0000
0000
0000
,  // measure 137
0030
1000
0001
1000
,  // measure 138
0002
0000
0003
0010
,  // measure 139
1000
0100
0010
0001
,  // measure 140
0020
0000
0000
1000
,  // measure 141
2030
0000
0000
0000
,  // measure 142
3002
0000
0000
0003
,  // measure 143
2002
0000
0000
3003
,  // measure 144
1001
0000
0000
0000
;

//---------------dance-single - ----------------
#NOTEDATA:;
#CHARTNAME:;
#STEPSTYPE:dance-single;
#DESCRIPTION:;
#CHARTSTYLE:;
#DIFFICULTY:Challenge;
#METER:7;
#RADARVALUES:0.223648,0.284164,0.100861,0.359591,0.000000,357.000000,334.000000,23.000000,82.000000,0.000000,0.000000,0.000000,0.000000,0.000000,0.223648,0.284164,0.100861,0.359591,0.000000,357.000000,334.000000,23.000000,82.000000,0.000000,0.000000,0.000000,0.000000,0.000000;
#CREDIT:;
#NOTES:
// measure 0
0020
0000
0000
0030
,  // measure 1
0010
0000
0010
0010
,  // measure 2
0200
0000
0000
0300
,  // measure 3
0100
0000
0100
0100
,  // measure 4
0002
0000
0000
0003
,  // measure 5
0001
0000
0001
0001
,  // measure 6
2000
0000
0000
3000
,  // measure 7
1000
0000
1000
1000
,  // measure 8
0020
0000
0000
0030
,  // measure 9
1000
0001
0100
0100
,  // measure 10
0200
0000
0000
0300
,  // measure 11
0001
1000
0010
0010
,  // measure 12
0002
0000
0000
0003
,  // measure 13
0010
0100
1000
1000
,  // measure 14
0010
0000
0010
0100
0000
0010
0000
0100
,  // measure 15
0000
1000
0001
1000
,  // measure 16
0020
0100
0030
0100
,  // measure 17
0001
1000
0010
0100
,  // measure 18
0200
0000
0300
0010
,  // measure 19
1000
0001
0100
0010
,  // measure 20
0002
1000
0003
1000
,  // measure 21
0100
0010
0001
1000
,  // measure 22
2000
0000
3000
0001
,  // measure 23
0010
0100
1000
0001
,  // measure 24
0200
0010
0300
0010
,  // measure 25
1000
0001
0100
0010
,  // measure 26
0020
0000
0030
0100
,  // measure 27
0001
1000
0010
0100
,  // measure 28
2000
0001
3000
0001
,  // measure 29
0010
0100
1000
0001
,  // measure 30
0002
0000
0003
1000
,  // measure 31
0100
0010
0001
1000
,  // measure 32
0020
0000
0000
0000
,  // measure 33
0030
1000
0001
1000
,  // measure 34
0002
0000
0003
0010
,  // measure 35
0020
0000
0000
0000
0030
1000
0000
1000
,  // measure 36
0002
0100
0203
0000
,  // measure 37
0302
0000
2003
0000
,  // measure 38
3002
0000
0003
0001
,  // measure 39
2002
0000
0000
3003
,  // measure 40
0020
0000
0000
0000
,  // measure 41
0030
1000
0001
1000
,  // measure 42
0002
0000
0003
0010
,  // measure 43
1000
0100
0010
0001
,  // measure 44
0020
0000
0000
1000
,  // measure 45
2030
0000
0000
0000
,  // measure 46
3002
0000
0000
0003
,  // measure 47
2002
0000
0000
3003
,  // measure 48
0020
0100
0030
0100
,  // measure 49
0001
1000
0010
0100
,  // measure 50
0200
0000
0300
0010
,  // measure 51
1000
0001
0100
0010
,  // measure 52
0002
1000
0003
1000
,  // measure 53
0100
0010
0001
1000
,  // measure 54
2000
0000
3000
0001
,  // measure 55
0010
0100
1000
0001
,  // measure 56
0200
0010
0300
0010
,  // measure 57
1000
0001
0100
0010
,  // measure 58
0020
0000
0030
0100
,  // measure 59
0001
1000
0010
0100
,  // measure 60
2000
0001
3000
0001
,  // measure 61
0010
0100
1000
0001
,  // measure 62
0002
0000
0003
1000
,  // measure 63
0100
0010
0001
1000
,  // measure 64
0020
0000
0000
0000
,  // measure 65
0030
1000
0001
1000
,  // measure 66
0002
0000
0003
0010
,  // measure 67
0020
0000
0000
0000
0030
1000
0000
1000
,  // measure 68
0002
0100
0203
0000
,  // measure 69
0302
0000
2003
0000
,  // measure 70
3002
0000
0003
0001
,  // measure 71
2002
0000
0000
3003
,  // measure 72
0200
0000
0000
0000
,  // measure 73
0300
0001
1000
0001
,  // measure 74
2000
0000
3000
0010
,  // measure 75
1000
0100
0010
0001
,  // measure 76
0020
0000
0000
1000
,  // measure 77
2030
0000
0000
0000
,  // measure 78
3002
0000
0000
0003
,  // measure 79
2002
0000
0000
3003
,  // measure 80
0110
0000
0000
0000
,  // measure 81
0010
0000
0010
0000
,  // measure 82
1010
0000
0000
0000
,  // measure 83
1000
0000
0000
0000
,  // measure 84
0110
0000
0000
0000
,  // measure 85
0100
0000
0100
0000
,  // measure 86
0101
0000
0000
0000
,  // measure 87
0001
0000
0000
0000
,  // measure 88
1001
0000
0000
0000
,  // measure 89
0001
0000
0001
0000
,  // measure 90
0011
0000
0000
0000
,  // measure 91
0010
0000
0000
0000
,  // measure 92
1001
0000
0000
0000
,  // measure 93
1000
0000
1000
0000
,  // measure 94
1100
0000
0000
0000
,  // measure 95
0100
0000
0000
0000
,  // measure 96
0110
0000
0000
0000
,  // measure 97
0010
0000
0010
0000
,  // measure 98
1010
0000
0000
0000
,  // measure 99
1000
0000
0000
0000
,  // measure 100
0110
0000
0000
0000
,  // measure 101
0100
0000
0100
0000
,  // measure 102
0101
0000
0000
0000
,  // measure 103
0001
0000
0000
0000
,  // measure 104
1001
0000
0000
0000
,  // measure 105
0001
0000
0001
0000
,  // measure 106
0011
0000
0000
0000
,  // measure 107
0010
0000
0000
0000
,  // measure 108
1001
0000
0000
0000
,  // measure 109
1000
0000
1000
0000
,  // measure 110
1100
0000
0000
0000
,  // measure 111
0100
0000
0010
0010
,  // measure 112
0020
0100
0030
0100
,  // measure 113
0001
1000
0010
0100
,  // measure 114
0200
0000
0300
0010
,  // measure 115
1000
0001
0100
0010
,  // measure 116
0002
1000
0003
1000
,  // measure 117
0100
0010
0001
1000
,  // measure 118
2000
0000
3000
0001
,  // measure 119
0010
0100
1000
0001
,  // measure 120
0200
0010
0300
0010
,  // measure 121
1000
0001
0100
0010
,  // measure 122
0200
0000
0300
0010
,  // measure 123
1000
0001
0100
0010
,  // measure 124
0002
1000
0003
1000
,  // measure 125
0100
0010
0001
1000
,  // measure 126
2000
0000
3000
0001
,  // measure 127
0010
0100
1000
0001
,  // measure 128
0020
0000
0000
0000
,  // measure 129
0030
1000
0001
1000
,  // measure 130
0002
0000
0003
0010
,  // measure 131
0020
0000
0000
0000
0030
1000
0000
1000
,  // measure 132
0002
0100
0203
0000
,  // measure 133
0302
0000
2003
0000
,  // measure 134
3002
0000
0003
0001
,  // measure 135
2002
0000
0000
3003
,  // measure 136
0020
0000
0000
0000
,  // measure 137
0030
1000
0001
1000
,  // measure 138
0002
0000
0003
0010
,  // measure 139
1000
0100
0010
0001
,  // measure 140
0020
0000
0000
1000
,  // measure 141
2030
0000
0000
0000
,  // measure 142
3002
0000
0000
0003
,  // measure 143
2002
0000
0000
3003
,  // measure 144
1001
0000
0000
0000
;
