#TITLE:Cherry;
#SUBTITLE:;
#ARTIST:Ai Otsuka;
#TITLETRANSLIT:;
#SUBTITLETRANSLIT:;
#ARTISTTRANSLIT:;
#GENRE:;
#CREDIT:;
#BANNER:;
#BACKGROUND:;
#LYRICSPATH:;
#CDTITLE:;
#MUSIC:Sakuranbo.ogg;
#OFFSET:-0.490000;
#SAMPLESTART:53.443016;
#SAMPLELENGTH:15.000000;
#SELECTABLE:YES;
#BPMS:0.000000=169.962006
;
#STOPS:
;
#BGCHANGES:;
#KEYSOUNDS:;
#ATTACKS:;

//---------------dance-single - ----------------
#NOTES:
     dance-single:
     :
     Easy:
     6:
     0.221222,0.277200,0.064167,0.136889,0.000000,362.000000,347.000000,15.000000,32.000000,0.000000,0.000000,0.221222,0.277200,0.064167,0.136889,0.000000,362.000000,347.000000,15.000000,32.000000,0.000000,0.000000:
// measure 0
0000
0000
0000
0000
,  // measure 1
0000
0000
0000
0000
,  // measure 2
0000
0000
0000
0000
,  // measure 3
0000
0000
0000
0000
,  // measure 4
0000
0000
0000
0000
,  // measure 5
0000
0000
0000
0000
,  // measure 6
0000
0000
0000
0000
,  // measure 7
0000
0000
0000
0000
,  // measure 8
1000
0000
1000
0000
,  // measure 9
0010
0000
0010
0000
,  // measure 10
0001
0000
0001
0000
,  // measure 11
0100
0000
0100
0000
,  // measure 12
0010
0000
0010
0000
,  // measure 13
0001
0000
0001
0000
,  // measure 14
0100
0000
0100
0000
,  // measure 15
1000
0000
1000
0000
,  // measure 16
0002
0000
0000
0003
,  // measure 17
1000
0010
0001
0000
,  // measure 18
2000
0000
0000
3000
,  // measure 19
0001
0100
1000
0000
,  // measure 20
0200
0000
0000
0300
,  // measure 21
0010
0001
0100
0000
,  // measure 22
0020
0000
0000
0030
,  // measure 23
0100
1000
0010
0000
,  // measure 24
2000
0000
0000
3000
,  // measure 25
0001
0100
1000
0000
,  // measure 26
0002
0000
0000
0003
,  // measure 27
1000
0010
0001
0000
,  // measure 28
0020
0000
0000
0030
,  // measure 29
0100
1000
0010
0000
,  // measure 30
0200
0000
0000
0300
,  // measure 31
0010
0001
0100
0000
,  // measure 32
1010
0000
0010
0000
,  // measure 33
0001
0000
1000
0000
,  // measure 34
0101
0000
0100
0000
,  // measure 35
1000
0000
0001
0000
,  // measure 36
2002
0000
0000
0000
,  // measure 37
0000
0000
0000
3003
,  // measure 38
0001
0000
0001
0000
,  // measure 39
0100
0001
1000
0100
,  // measure 40
1000
0000
1000
0000
,  // measure 41
0010
1000
0001
0010
,  // measure 42
0100
0000
0100
0000
,  // measure 43
1000
0100
0010
1000
,  // measure 44
0010
0000
0010
0000
,  // measure 45
0001
0010
0100
0001
,  // measure 46
0001
0000
0001
0000
,  // measure 47
0100
0001
1000
0100
,  // measure 48
1000
0000
1000
0000
,  // measure 49
0010
1000
0001
0010
,  // measure 50
0100
0000
0100
0000
,  // measure 51
1000
0100
0010
1000
,  // measure 52
2002
0000
0000
3003
,  // measure 53
1000
0000
1000
0000
,  // measure 54
0010
0000
0010
0000
,  // measure 55
0001
0000
0001
0000
,  // measure 56
0100
0000
0100
0000
,  // measure 57
0010
0000
0010
0000
,  // measure 58
0001
0000
0001
0000
,  // measure 59
0100
0000
0100
0000
,  // measure 60
1000
0000
1000
0000
,  // measure 61
0002
0000
0000
0003
,  // measure 62
1000
0010
0001
0000
,  // measure 63
2000
0000
0000
3000
,  // measure 64
0001
0100
1000
0000
,  // measure 65
0200
0000
0000
0300
,  // measure 66
0010
0001
0100
0000
,  // measure 67
0020
0000
0000
0030
,  // measure 68
0100
1000
0010
0000
,  // measure 69
2000
0000
0000
3000
,  // measure 70
0001
0100
1000
0000
,  // measure 71
0002
0000
0000
0003
,  // measure 72
1000
0010
0001
0000
,  // measure 73
0020
0000
0000
0030
,  // measure 74
0100
1000
0010
0000
,  // measure 75
0200
0000
0000
0300
,  // measure 76
0010
0001
0100
0000
,  // measure 77
1010
0000
0010
0000
,  // measure 78
0001
0000
1000
0000
,  // measure 79
0101
0000
0100
0000
,  // measure 80
1000
0000
0001
0000
,  // measure 81
2002
0000
0000
0000
,  // measure 82
0000
0000
0000
3003
,  // measure 83
0001
0000
0001
0000
,  // measure 84
0100
0001
1000
0100
,  // measure 85
1000
0000
1000
0000
,  // measure 86
0010
1000
0001
0010
,  // measure 87
0100
0000
0100
0000
,  // measure 88
1000
0100
0010
1000
,  // measure 89
0010
0000
0010
0000
,  // measure 90
0001
0010
0100
0001
,  // measure 91
0001
0000
0001
0000
,  // measure 92
0100
0001
1000
0100
,  // measure 93
1000
0000
1000
0000
,  // measure 94
0010
1000
0001
0010
,  // measure 95
0100
0000
0100
0000
,  // measure 96
1000
0100
0010
1000
,  // measure 97
2002
0000
0000
3003
,  // measure 98
0001
0000
0001
0000
,  // measure 99
0001
0000
0001
1000
,  // measure 100
1000
0000
1000
0000
,  // measure 101
1000
0000
1000
0001
,  // measure 102
0100
0000
0100
0000
,  // measure 103
0100
0000
0100
0010
,  // measure 104
0010
0000
0010
0000
,  // measure 105
0010
0000
0010
0100
,  // measure 106
0001
0000
0001
0000
,  // measure 107
0100
0001
1000
0100
,  // measure 108
1000
0000
1000
0000
,  // measure 109
0010
1000
0001
0010
,  // measure 110
0100
0000
0100
0000
,  // measure 111
1000
0100
0010
1000
,  // measure 112
0010
0000
0010
0000
,  // measure 113
0001
0010
0100
0001
,  // measure 114
0001
0000
0001
0000
,  // measure 115
0100
0001
1000
0100
,  // measure 116
1000
0000
1000
0000
,  // measure 117
0010
1000
0001
0010
,  // measure 118
0100
0000
0100
0000
,  // measure 119
1000
0100
0010
1000
,  // measure 120
2002
0000
0000
3003
,  // measure 121
1001
0000
1001
0000
,  // measure 122
2002
0000
0000
3003
,  // measure 123
0001
0000
0001
0000
,  // measure 124
0100
0001
1000
0100
,  // measure 125
1000
0000
1000
0000
,  // measure 126
0010
1000
0001
0010
,  // measure 127
0100
0000
0100
0000
,  // measure 128
1000
0100
0010
1000
,  // measure 129
0010
0000
0010
0000
,  // measure 130
0001
0010
0100
0001
,  // measure 131
0001
0000
0001
0000
,  // measure 132
0100
0001
1000
0100
,  // measure 133
1000
0000
1000
0000
,  // measure 134
0010
1000
0001
0010
,  // measure 135
0100
0000
0100
0000
,  // measure 136
1000
0100
0010
1000
,  // measure 137
2002
0000
0000
3003
,  // measure 138
0220
0000
0000
0000
,  // measure 139
0000
0000
0000
0330
,  // measure 140
0001
0000
0000
0000
,  // measure 141
0001
0000
1000
0000
,  // measure 142
1000
0000
0000
0000
,  // measure 143
1000
0000
0001
0000
,  // measure 144
0100
0000
0000
0000
,  // measure 145
0100
0000
0010
0000
,  // measure 146
0010
0000
0000
0000
,  // measure 147
0010
0000
0100
0000
,  // measure 148
1000
0000
0000
0000
,  // measure 149
1000
0000
0001
0000
,  // measure 150
0001
0000
0000
0000
,  // measure 151
0001
0000
1000
0000
,  // measure 152
0010
0000
0000
0000
,  // measure 153
0010
0000
0100
0000
,  // measure 154
0100
0000
0000
0000
,  // measure 155
0100
0000
0010
0000
,  // measure 156
1000
0000
1000
0000
,  // measure 157
0010
0000
0010
0000
,  // measure 158
0001
0000
0001
0000
,  // measure 159
0100
0000
0100
0000
,  // measure 160
0010
0000
0010
0000
,  // measure 161
0001
0000
0001
0000
,  // measure 162
1001
0000
0000
0000
;

//---------------dance-single - Casual----------------
#NOTES:
     dance-single:
     Casual:
     Edit:
     5:
     0.187000,0.277200,0.064167,0.136889,0.000000,306.000000,291.000000,15.000000,32.000000,0.000000,0.000000,0.187000,0.277200,0.064167,0.136889,0.000000,306.000000,291.000000,15.000000,32.000000,0.000000,0.000000:
// measure 0
0000
0000
0000
0000
,  // measure 1
0000
0000
0000
0000
,  // measure 2
0000
0000
0000
0000
,  // measure 3
0000
0000
0000
0000
,  // measure 4
0000
0000
0000
0000
,  // measure 5
0000
0000
0000
0000
,  // measure 6
0000
0000
0000
0000
,  // measure 7
0000
0000
0000
0000
,  // measure 8
1000
0000
1000
0000
,  // measure 9
0010
0000
0010
0000
,  // measure 10
0001
0000
0001
0000
,  // measure 11
0100
0000
0100
0000
,  // measure 12
0010
0000
0010
0000
,  // measure 13
0001
0000
0001
0000
,  // measure 14
0100
0000
0100
0000
,  // measure 15
1000
0000
1000
0000
,  // measure 16
0002
0000
0000
0003
,  // measure 17
1000
0000
0001
0000
,  // measure 18
2000
0000
0000
3000
,  // measure 19
0001
0000
1000
0000
,  // measure 20
0200
0000
0000
0300
,  // measure 21
0010
0000
0100
0000
,  // measure 22
0020
0000
0000
0030
,  // measure 23
0100
0000
0010
0000
,  // measure 24
2000
0000
0000
3000
,  // measure 25
0001
0000
1000
0000
,  // measure 26
0002
0000
0000
0003
,  // measure 27
1000
0000
0001
0000
,  // measure 28
0020
0000
0000
0030
,  // measure 29
0100
0000
0010
0000
,  // measure 30
0200
0000
0000
0300
,  // measure 31
0010
0000
0100
0000
,  // measure 32
1010
0000
0010
0000
,  // measure 33
0001
0000
1000
0000
,  // measure 34
0101
0000
0100
0000
,  // measure 35
1000
0000
0001
0000
,  // measure 36
2002
0000
0000
0000
,  // measure 37
0000
0000
0000
3003
,  // measure 38
0001
0000
0001
0000
,  // measure 39
0100
0001
1000
0000
,  // measure 40
1000
0000
1000
0000
,  // measure 41
0010
1000
0001
0000
,  // measure 42
0100
0000
0100
0000
,  // measure 43
1000
0100
0010
0000
,  // measure 44
0010
0000
0010
0000
,  // measure 45
0001
0010
0100
0000
,  // measure 46
0001
0000
0001
0000
,  // measure 47
0100
0001
1000
0000
,  // measure 48
1000
0000
1000
0000
,  // measure 49
0010
1000
0001
0000
,  // measure 50
0100
0000
0100
0000
,  // measure 51
1000
0100
0010
0000
,  // measure 52
2002
0000
0000
3003
,  // measure 53
1000
0000
1000
0000
,  // measure 54
0010
0000
0010
0000
,  // measure 55
0001
0000
0001
0000
,  // measure 56
0100
0000
0100
0000
,  // measure 57
0010
0000
0010
0000
,  // measure 58
0001
0000
0001
0000
,  // measure 59
0100
0000
0100
0000
,  // measure 60
1000
0000
1000
0000
,  // measure 61
0002
0000
0000
0003
,  // measure 62
1000
0000
0001
0000
,  // measure 63
2000
0000
0000
3000
,  // measure 64
0001
0000
1000
0000
,  // measure 65
0200
0000
0000
0300
,  // measure 66
0010
0000
0100
0000
,  // measure 67
0020
0000
0000
0030
,  // measure 68
0100
0000
0010
0000
,  // measure 69
2000
0000
0000
3000
,  // measure 70
0001
0000
1000
0000
,  // measure 71
0002
0000
0000
0003
,  // measure 72
1000
0000
0001
0000
,  // measure 73
0020
0000
0000
0030
,  // measure 74
0100
0000
0010
0000
,  // measure 75
0200
0000
0000
0300
,  // measure 76
0010
0000
0100
0000
,  // measure 77
1010
0000
0010
0000
,  // measure 78
0001
0000
1000
0000
,  // measure 79
0101
0000
0100
0000
,  // measure 80
1000
0000
0001
0000
,  // measure 81
2002
0000
0000
0000
,  // measure 82
0000
0000
0000
3003
,  // measure 83
0001
0000
0001
0000
,  // measure 84
0100
0001
1000
0000
,  // measure 85
1000
0000
1000
0000
,  // measure 86
0010
1000
0001
0000
,  // measure 87
0100
0000
0100
0000
,  // measure 88
1000
0100
0010
0000
,  // measure 89
0010
0000
0010
0000
,  // measure 90
0001
0010
0100
0000
,  // measure 91
0001
0000
0001
0000
,  // measure 92
0100
0001
1000
0000
,  // measure 93
1000
0000
1000
0000
,  // measure 94
0010
1000
0001
0000
,  // measure 95
0100
0000
0100
0000
,  // measure 96
1000
0100
0010
0000
,  // measure 97
2002
0000
0000
3003
,  // measure 98
0001
0000
0001
0000
,  // measure 99
0001
0000
0001
0000
,  // measure 100
1000
0000
1000
0000
,  // measure 101
1000
0000
1000
0000
,  // measure 102
0100
0000
0100
0000
,  // measure 103
0100
0000
0100
0000
,  // measure 104
0010
0000
0010
0000
,  // measure 105
0010
0000
0010
0000
,  // measure 106
0001
0000
0001
0000
,  // measure 107
0100
0001
1000
0000
,  // measure 108
1000
0000
1000
0000
,  // measure 109
0010
1000
0001
0000
,  // measure 110
0100
0000
0100
0000
,  // measure 111
1000
0100
0010
0000
,  // measure 112
0010
0000
0010
0000
,  // measure 113
0001
0010
0100
0000
,  // measure 114
0001
0000
0001
0000
,  // measure 115
0100
0001
1000
0000
,  // measure 116
1000
0000
1000
0000
,  // measure 117
0010
1000
0001
0000
,  // measure 118
0100
0000
0100
0000
,  // measure 119
1000
0100
0010
0000
,  // measure 120
2002
0000
0000
3003
,  // measure 121
1001
0000
1001
0000
,  // measure 122
2002
0000
0000
3003
,  // measure 123
0001
0000
0001
0000
,  // measure 124
0100
0001
1000
0000
,  // measure 125
1000
0000
1000
0000
,  // measure 126
0010
1000
0001
0000
,  // measure 127
0100
0000
0100
0000
,  // measure 128
1000
0100
0010
0000
,  // measure 129
0010
0000
0010
0000
,  // measure 130
0001
0010
0100
0000
,  // measure 131
0001
0000
0001
0000
,  // measure 132
0100
0001
1000
0000
,  // measure 133
1000
0000
1000
0000
,  // measure 134
0010
1000
0001
0000
,  // measure 135
0100
0000
0100
0000
,  // measure 136
1000
0100
0010
0000
,  // measure 137
2002
0000
0000
3003
,  // measure 138
0220
0000
0000
0000
,  // measure 139
0000
0000
0000
0330
,  // measure 140
0001
0000
0000
0000
,  // measure 141
0001
0000
0000
0000
,  // measure 142
1000
0000
0000
0000
,  // measure 143
1000
0000
0000
0000
,  // measure 144
0100
0000
0000
0000
,  // measure 145
0100
0000
0000
0000
,  // measure 146
0010
0000
0000
0000
,  // measure 147
0010
0000
0000
0000
,  // measure 148
1000
0000
0000
0000
,  // measure 149
1000
0000
0000
0000
,  // measure 150
0001
0000
0000
0000
,  // measure 151
0001
0000
0000
0000
,  // measure 152
0010
0000
0000
0000
,  // measure 153
0010
0000
0000
0000
,  // measure 154
0100
0000
0000
0000
,  // measure 155
0100
0000
0000
0000
,  // measure 156
1000
0000
1000
0000
,  // measure 157
0010
0000
0010
0000
,  // measure 158
0001
0000
0001
0000
,  // measure 159
0100
0000
0100
0000
,  // measure 160
0010
0000
0010
0000
,  // measure 161
0001
0000
0001
0000
,  // measure 162
1001
0000
0000
0000
;

//---------------dance-single - ----------------
#NOTES:
     dance-single:
     :
     Medium:
     6:
     0.237722,0.277200,0.064167,0.136889,0.000000,389.000000,374.000000,15.000000,32.000000,0.000000,0.000000,0.237722,0.277200,0.064167,0.136889,0.000000,389.000000,374.000000,15.000000,32.000000,0.000000,0.000000:
// measure 0
0000
0000
0000
0000
,  // measure 1
0000
0000
0000
0000
,  // measure 2
0000
0000
0000
0000
,  // measure 3
0000
0000
0000
0000
,  // measure 4
0000
0000
0000
0000
,  // measure 5
0000
0000
0000
0000
,  // measure 6
0000
0000
0000
0000
,  // measure 7
0000
0000
0000
0000
,  // measure 8
1000
0000
1000
0000
,  // measure 9
0010
1000
0010
0000
,  // measure 10
0001
0000
0001
0000
,  // measure 11
0100
0001
0100
0000
,  // measure 12
0010
0000
0010
0000
,  // measure 13
0001
0010
0001
0000
,  // measure 14
0100
0000
0100
0000
,  // measure 15
1000
0100
1000
0000
,  // measure 16
0002
0000
0000
0003
,  // measure 17
1000
0010
0001
0000
,  // measure 18
2000
0000
0000
3000
,  // measure 19
0001
0100
1000
0000
,  // measure 20
0200
0000
0000
0300
,  // measure 21
0010
0001
0100
0000
,  // measure 22
0020
0000
0000
0030
,  // measure 23
0100
1000
0010
0000
,  // measure 24
2000
0000
0000
3000
,  // measure 25
0001
0100
1000
0000
,  // measure 26
0002
0000
0000
0003
,  // measure 27
1000
0010
0001
0000
,  // measure 28
0020
0000
0000
0030
,  // measure 29
0100
1000
0010
0000
,  // measure 30
0200
0000
0000
0300
,  // measure 31
0010
0001
0100
0000
,  // measure 32
1010
0000
0010
0000
,  // measure 33
0001
0010
1000
0000
,  // measure 34
0101
0000
0100
0000
,  // measure 35
1000
0100
0001
0000
,  // measure 36
2002
0000
0000
0000
,  // measure 37
0000
0000
0000
3003
,  // measure 38
0001
0000
0001
0000
,  // measure 39
0100
0001
1000
0100
,  // measure 40
1000
0000
1000
0000
,  // measure 41
0010
1000
0001
0010
,  // measure 42
0100
0000
0100
0000
,  // measure 43
1000
0100
0010
1000
,  // measure 44
0010
0000
0010
0000
,  // measure 45
0001
0010
0100
0001
,  // measure 46
0001
0000
0001
0000
,  // measure 47
0100
0001
1000
0100
,  // measure 48
1000
0000
1000
0000
,  // measure 49
0010
1000
0001
0010
,  // measure 50
0100
0000
0100
0000
,  // measure 51
1000
0100
0010
1000
,  // measure 52
2002
0000
0000
3003
,  // measure 53
1000
0000
1000
0000
,  // measure 54
0010
1000
0010
0000
,  // measure 55
0001
0000
0001
0000
,  // measure 56
0100
0001
0100
0000
,  // measure 57
0010
0000
0010
0000
,  // measure 58
0001
0010
0001
0000
,  // measure 59
0100
0000
0100
0000
,  // measure 60
1000
0100
1000
0000
,  // measure 61
0002
0000
0000
0003
,  // measure 62
1000
0010
0001
0000
,  // measure 63
2000
0000
0000
3000
,  // measure 64
0001
0100
1000
0000
,  // measure 65
0200
0000
0000
0300
,  // measure 66
0010
0001
0100
0000
,  // measure 67
0020
0000
0000
0030
,  // measure 68
0100
1000
0010
0000
,  // measure 69
2000
0000
0000
3000
,  // measure 70
0001
0100
1000
0000
,  // measure 71
0002
0000
0000
0003
,  // measure 72
1000
0010
0001
0000
,  // measure 73
0020
0000
0000
0030
,  // measure 74
0100
1000
0010
0000
,  // measure 75
0200
0000
0000
0300
,  // measure 76
0010
0001
0100
0000
,  // measure 77
1010
0000
0010
0000
,  // measure 78
0001
0010
1000
0000
,  // measure 79
0101
0000
0100
0000
,  // measure 80
1000
0100
0001
0000
,  // measure 81
2002
0000
0000
0000
,  // measure 82
0000
0000
0000
3003
,  // measure 83
0001
0000
0001
0000
,  // measure 84
0100
0001
1000
0100
,  // measure 85
1000
0000
1000
0000
,  // measure 86
0010
1000
0001
0010
,  // measure 87
0100
0000
0100
0000
,  // measure 88
1000
0100
0010
1000
,  // measure 89
0010
0000
0010
0000
,  // measure 90
0001
0010
0100
0001
,  // measure 91
0001
0000
0001
0000
,  // measure 92
0100
0001
1000
0100
,  // measure 93
1000
0000
1000
0000
,  // measure 94
0010
1000
0001
0010
,  // measure 95
0100
0000
0100
0000
,  // measure 96
1000
0100
0010
1000
,  // measure 97
2002
0000
0000
3003
,  // measure 98
0001
1000
0001
0000
,  // measure 99
0001
0000
0001
1000
,  // measure 100
1000
0001
1000
0000
,  // measure 101
1000
0000
1000
0001
,  // measure 102
0100
0010
0100
0000
,  // measure 103
0100
0000
0100
0010
,  // measure 104
0010
0100
0010
0000
,  // measure 105
0010
0000
0010
0100
,  // measure 106
0001
0000
0001
0000
,  // measure 107
0100
0001
1000
0100
,  // measure 108
1000
0000
1000
0000
,  // measure 109
0010
1000
0001
0010
,  // measure 110
0100
0000
0100
0000
,  // measure 111
1000
0100
0010
1000
,  // measure 112
0010
0000
0010
0000
,  // measure 113
0001
0010
0100
0001
,  // measure 114
0001
0000
0001
0000
,  // measure 115
0100
0001
1000
0100
,  // measure 116
1000
0000
1000
0000
,  // measure 117
0010
1000
0001
0010
,  // measure 118
0100
0000
0100
0000
,  // measure 119
1000
0100
0010
1000
,  // measure 120
2002
0000
0000
3003
,  // measure 121
1001
0000
1001
0000
,  // measure 122
2002
0000
0000
3003
,  // measure 123
0001
0000
0001
0000
,  // measure 124
0100
0001
1000
0100
,  // measure 125
1000
0000
1000
0000
,  // measure 126
0010
1000
0001
0010
,  // measure 127
0100
0000
0100
0000
,  // measure 128
1000
0100
0010
1000
,  // measure 129
0010
0000
0010
0000
,  // measure 130
0001
0010
0100
0001
,  // measure 131
0001
0000
0001
0000
,  // measure 132
0100
0001
1000
0100
,  // measure 133
1000
0000
1000
0000
,  // measure 134
0010
1000
0001
0010
,  // measure 135
0100
0000
0100
0000
,  // measure 136
1000
0100
0010
1000
,  // measure 137
2002
0000
0000
3003
,  // measure 138
0220
0000
0000
0000
,  // measure 139
0000
0000
0000
0330
,  // measure 140
0001
0000
0001
0000
,  // measure 141
0001
0000
1000
0000
,  // measure 142
1000
0000
1000
0000
,  // measure 143
1000
0000
0001
0000
,  // measure 144
0100
0000
0100
0000
,  // measure 145
0100
0000
0010
0000
,  // measure 146
0010
0000
0010
0000
,  // measure 147
0010
0000
0100
0000
,  // measure 148
1000
0000
1000
0000
,  // measure 149
1000
0000
0001
0000
,  // measure 150
0001
0000
0001
0000
,  // measure 151
0001
0000
1000
0000
,  // measure 152
0010
0000
0010
0000
,  // measure 153
0010
0000
0100
0000
,  // measure 154
0100
0000
0100
0000
,  // measure 155
0100
0000
0010
0000
,  // measure 156
1000
0000
1000
0000
,  // measure 157
0010
1000
0010
0000
,  // measure 158
0001
0000
0001
0000
,  // measure 159
0100
0001
0100
0000
,  // measure 160
0010
0000
0010
0000
,  // measure 161
0001
0010
0001
0000
,  // measure 162
1001
0000
0000
0000
;

//---------------dance-single - ----------------
#NOTES:
     dance-single:
     :
     Hard:
     7:
     0.254834,0.311850,0.064167,0.136889,0.000000,417.000000,402.000000,15.000000,32.000000,0.000000,0.000000,0.254834,0.311850,0.064167,0.136889,0.000000,417.000000,402.000000,15.000000,32.000000,0.000000,0.000000:
// measure 0
0000
0000
0000
0000
,  // measure 1
0000
0000
0000
0000
,  // measure 2
0000
0000
0000
0000
,  // measure 3
0000
0000
0000
0000
,  // measure 4
0000
0000
0000
0000
,  // measure 5
0000
0000
0000
0000
,  // measure 6
0000
0000
0000
0000
,  // measure 7
0000
0000
0000
0000
,  // measure 8
1000
0000
1000
0000
,  // measure 9
0010
1000
0010
0000
,  // measure 10
0001
0000
0001
0000
,  // measure 11
0100
0001
0100
0000
,  // measure 12
0010
0000
0010
0000
,  // measure 13
0001
0010
0001
0000
,  // measure 14
0100
0000
0100
0000
,  // measure 15
1000
0100
1000
0000
,  // measure 16
0002
0000
0000
0003
,  // measure 17
1000
0010
0001
0000
,  // measure 18
2000
0000
0000
3000
,  // measure 19
0001
0100
1000
0000
,  // measure 20
0200
0000
0000
0300
,  // measure 21
0010
0001
0100
0000
,  // measure 22
0020
0000
0000
0030
,  // measure 23
0100
1000
0010
0000
,  // measure 24
2000
0000
0000
3000
,  // measure 25
0001
0100
1000
0000
,  // measure 26
0002
0000
0000
0003
,  // measure 27
1000
0010
0001
0000
,  // measure 28
0020
0000
0000
0030
,  // measure 29
0100
1000
0010
0000
,  // measure 30
0200
0000
0000
0300
,  // measure 31
0010
0001
0100
0000
,  // measure 32
1010
0000
0010
0000
,  // measure 33
0001
0010
1000
0000
,  // measure 34
0101
0000
0100
0000
,  // measure 35
1000
0100
0001
0000
,  // measure 36
2002
0000
0000
0000
,  // measure 37
0000
0000
0000
3003
,  // measure 38
0001
0100
0001
0000
,  // measure 39
0100
0001
1000
0100
,  // measure 40
1000
0010
1000
0000
,  // measure 41
0010
1000
0001
0010
,  // measure 42
0100
1000
0100
0000
,  // measure 43
1000
0100
0010
1000
,  // measure 44
0010
0001
0010
0000
,  // measure 45
0001
0010
0100
0001
,  // measure 46
0001
0100
0001
0000
,  // measure 47
0100
0001
1000
0100
,  // measure 48
1000
0010
1000
0000
,  // measure 49
0010
1000
0001
0010
,  // measure 50
0100
1000
0100
0000
,  // measure 51
1000
0100
0010
1000
,  // measure 52
2002
0000
0000
3003
,  // measure 53
1000
0000
1000
0000
,  // measure 54
0010
1000
0010
0000
,  // measure 55
0001
0000
0001
0000
,  // measure 56
0100
0001
0100
0000
,  // measure 57
0010
0000
0010
0000
,  // measure 58
0001
0010
0001
0000
,  // measure 59
0100
0000
0100
0000
,  // measure 60
1000
0100
1000
0000
,  // measure 61
0002
0000
0000
0003
,  // measure 62
1000
0010
0001
0000
,  // measure 63
2000
0000
0000
3000
,  // measure 64
0001
0100
1000
0000
,  // measure 65
0200
0000
0000
0300
,  // measure 66
0010
0001
0100
0000
,  // measure 67
0020
0000
0000
0030
,  // measure 68
0100
1000
0010
0000
,  // measure 69
2000
0000
0000
3000
,  // measure 70
0001
0100
1000
0000
,  // measure 71
0002
0000
0000
0003
,  // measure 72
1000
0010
0001
0000
,  // measure 73
0020
0000
0000
0030
,  // measure 74
0100
1000
0010
0000
,  // measure 75
0200
0000
0000
0300
,  // measure 76
0010
0001
0100
0000
,  // measure 77
1010
0000
0010
0000
,  // measure 78
0001
0010
1000
0000
,  // measure 79
0101
0000
0100
0000
,  // measure 80
1000
0100
0001
0000
,  // measure 81
2002
0000
0000
0000
,  // measure 82
0000
0000
0000
3003
,  // measure 83
0001
0100
0001
0000
,  // measure 84
0100
0001
1000
0100
,  // measure 85
1000
0010
1000
0000
,  // measure 86
0010
1000
0001
0010
,  // measure 87
0100
1000
0100
0000
,  // measure 88
1000
0100
0010
1000
,  // measure 89
0010
0001
0010
0000
,  // measure 90
0001
0010
0100
0001
,  // measure 91
0001
0100
0001
0000
,  // measure 92
0100
0001
1000
0100
,  // measure 93
1000
0010
1000
0000
,  // measure 94
0010
1000
0001
0010
,  // measure 95
0100
1000
0100
0000
,  // measure 96
1000
0100
0010
1000
,  // measure 97
2002
0000
0000
3003
,  // measure 98
0001
1000
0001
0000
,  // measure 99
0001
0000
0001
1000
,  // measure 100
1000
0001
1000
0000
,  // measure 101
1000
0000
1000
0001
,  // measure 102
0100
0010
0100
0000
,  // measure 103
0100
0000
0100
0010
,  // measure 104
0010
0100
0010
0000
,  // measure 105
0010
0000
0010
0100
,  // measure 106
0001
0100
0001
0000
,  // measure 107
0100
0001
1000
0100
,  // measure 108
1000
0010
1000
0000
,  // measure 109
0010
1000
0001
0010
,  // measure 110
0100
1000
0100
0000
,  // measure 111
1000
0100
0010
1000
,  // measure 112
0010
0001
0010
0000
,  // measure 113
0001
0010
0100
0001
,  // measure 114
0001
0100
0001
0000
,  // measure 115
0100
0001
1000
0100
,  // measure 116
1000
0010
1000
0000
,  // measure 117
0010
1000
0001
0010
,  // measure 118
0100
1000
0100
0000
,  // measure 119
1000
0100
0010
1000
,  // measure 120
2002
0000
0000
3003
,  // measure 121
1001
0000
1001
0000
,  // measure 122
2002
0000
0000
3003
,  // measure 123
0001
0100
0001
0000
,  // measure 124
0100
0001
1000
0100
,  // measure 125
1000
0010
1000
0000
,  // measure 126
0010
1000
0001
0010
,  // measure 127
0100
1000
0100
0000
,  // measure 128
1000
0100
0010
1000
,  // measure 129
0010
0001
0010
0000
,  // measure 130
0001
0010
0100
0001
,  // measure 131
0001
0100
0001
0000
,  // measure 132
0100
0001
1000
0100
,  // measure 133
1000
0010
1000
0000
,  // measure 134
0010
1000
0001
0010
,  // measure 135
0100
1000
0100
0000
,  // measure 136
1000
0100
0010
1000
,  // measure 137
2002
0000
0000
3003
,  // measure 138
0220
0000
0000
0000
,  // measure 139
0000
0000
0000
0330
,  // measure 140
0001
0000
0001
0000
,  // measure 141
0001
0000
1000
0000
,  // measure 142
1000
0000
1000
0000
,  // measure 143
1000
0000
0001
0000
,  // measure 144
0100
0000
0100
0000
,  // measure 145
0100
0000
0010
0000
,  // measure 146
0010
0000
0010
0000
,  // measure 147
0010
0000
0100
0000
,  // measure 148
1000
0000
1000
0000
,  // measure 149
1000
0000
0001
0000
,  // measure 150
0001
0000
0001
0000
,  // measure 151
0001
0000
1000
0000
,  // measure 152
0010
0000
0010
0000
,  // measure 153
0010
0000
0100
0000
,  // measure 154
0100
0000
0100
0000
,  // measure 155
0100
0000
0010
0000
,  // measure 156
1000
0000
1000
0000
,  // measure 157
0010
1000
0010
0000
,  // measure 158
0001
0000
0001
0000
,  // measure 159
0100
0001
0100
0000
,  // measure 160
0010
0000
0010
0000
,  // measure 161
0001
0010
0001
0000
,  // measure 162
1001
0000
0000
0000
;

//---------------dance-single - ----------------
#NOTES:
     dance-single:
     :
     Challenge:
     7:
     0.264000,0.311850,0.064167,0.136889,0.000000,432.000000,417.000000,15.000000,32.000000,0.000000,0.000000,0.264000,0.311850,0.064167,0.136889,0.000000,432.000000,417.000000,15.000000,32.000000,0.000000,0.000000:
// measure 0
0000
0000
0000
0000
,  // measure 1
0000
0000
0000
0000
,  // measure 2
0000
0000
0000
0000
,  // measure 3
0000
0000
0000
0000
,  // measure 4
0000
0000
0000
0000
,  // measure 5
0000
0000
0000
0000
,  // measure 6
0000
0000
0000
0000
,  // measure 7
0000
0000
0000
0000
,  // measure 8
1000
0010
1000
0000
,  // measure 9
0010
1000
0010
0000
,  // measure 10
0001
0100
0001
0000
,  // measure 11
0100
0001
0100
0000
,  // measure 12
0010
0001
0010
0000
,  // measure 13
0001
0010
0001
0000
,  // measure 14
0100
1000
0100
0000
,  // measure 15
1000
0100
1000
0000
,  // measure 16
0002
0000
0000
0003
,  // measure 17
1000
0010
0001
0000
,  // measure 18
2000
0000
0000
3000
,  // measure 19
0001
0100
1000
0000
,  // measure 20
0200
0000
0000
0300
,  // measure 21
0010
0001
0100
0000
,  // measure 22
0020
0000
0000
0030
,  // measure 23
0100
1000
0010
0000
,  // measure 24
2000
0000
0000
3000
,  // measure 25
0001
0100
1000
0000
,  // measure 26
0002
0000
0000
0003
,  // measure 27
1000
0010
0001
0000
,  // measure 28
0020
0000
0000
0030
,  // measure 29
0100
1000
0010
0000
,  // measure 30
0200
0000
0000
0300
,  // measure 31
0010
0001
0100
0000
,  // measure 32
1010
0000
0010
0000
,  // measure 33
0001
0010
1000
0000
,  // measure 34
0101
0000
0100
0000
,  // measure 35
1000
0100
0001
0000
,  // measure 36
2002
0000
0000
0000
,  // measure 37
0000
0000
0000
3003
,  // measure 38
0001
0100
0001
0000
,  // measure 39
0100
0001
1000
0100
,  // measure 40
1000
0010
1000
0000
,  // measure 41
0010
1000
0001
0010
,  // measure 42
0100
1000
0100
0000
,  // measure 43
1000
0100
0010
1000
,  // measure 44
0010
0001
0010
0000
,  // measure 45
0001
0010
0100
0001
,  // measure 46
0001
0100
0001
0000
,  // measure 47
0100
0001
1000
0100
,  // measure 48
1000
0010
1000
0000
,  // measure 49
0010
1000
0001
0010
,  // measure 50
0100
1000
0100
0000
,  // measure 51
1000
0100
0010
1000
,  // measure 52
2002
0000
0000
3003
,  // measure 53
1000
0010
1000
0000
,  // measure 54
0010
1000
0010
0000
,  // measure 55
0001
0100
0001
0000
,  // measure 56
0100
0001
0100
0000
,  // measure 57
0010
0001
0010
0000
,  // measure 58
0001
0010
0001
0000
,  // measure 59
0100
1000
0100
0000
,  // measure 60
1000
0100
1000
0000
,  // measure 61
0002
0000
0000
0003
,  // measure 62
1000
0010
0001
0000
,  // measure 63
2000
0000
0000
3000
,  // measure 64
0001
0100
1000
0000
,  // measure 65
0200
0000
0000
0300
,  // measure 66
0010
0001
0100
0000
,  // measure 67
0020
0000
0000
0030
,  // measure 68
0100
1000
0010
0000
,  // measure 69
2000
0000
0000
3000
,  // measure 70
0001
0100
1000
0000
,  // measure 71
0002
0000
0000
0003
,  // measure 72
1000
0010
0001
0000
,  // measure 73
0020
0000
0000
0030
,  // measure 74
0100
1000
0010
0000
,  // measure 75
0200
0000
0000
0300
,  // measure 76
0010
0001
0100
0000
,  // measure 77
1010
0000
0010
0000
,  // measure 78
0001
0010
1000
0000
,  // measure 79
0101
0000
0100
0000
,  // measure 80
1000
0100
0001
0000
,  // measure 81
2002
0000
0000
0000
,  // measure 82
0000
0000
0000
3003
,  // measure 83
0001
0100
0001
0000
,  // measure 84
0100
0001
1000
0100
,  // measure 85
1000
0010
1000
0000
,  // measure 86
0010
1000
0001
0010
,  // measure 87
0100
1000
0100
0000
,  // measure 88
1000
0100
0010
1000
,  // measure 89
0010
0001
0010
0000
,  // measure 90
0001
0010
0100
0001
,  // measure 91
0001
0100
0001
0000
,  // measure 92
0100
0001
1000
0100
,  // measure 93
1000
0010
1000
0000
,  // measure 94
0010
1000
0001
0010
,  // measure 95
0100
1000
0100
0000
,  // measure 96
1000
0100
0010
1000
,  // measure 97
2002
0000
0000
3003
,  // measure 98
0001
1000
0001
0000
,  // measure 99
0001
1000
0001
1000
,  // measure 100
1000
0001
1000
0000
,  // measure 101
1000
0001
1000
0001
,  // measure 102
0100
0010
0100
0000
,  // measure 103
0100
0010
0100
0010
,  // measure 104
0010
0100
0010
0000
,  // measure 105
0010
0100
0010
0100
,  // measure 106
0001
0100
0001
0000
,  // measure 107
0100
0001
1000
0100
,  // measure 108
1000
0010
1000
0000
,  // measure 109
0010
1000
0001
0010
,  // measure 110
0100
1000
0100
0000
,  // measure 111
1000
0100
0010
1000
,  // measure 112
0010
0001
0010
0000
,  // measure 113
0001
0010
0100
0001
,  // measure 114
0001
0100
0001
0000
,  // measure 115
0100
0001
1000
0100
,  // measure 116
1000
0010
1000
0000
,  // measure 117
0010
1000
0001
0010
,  // measure 118
0100
1000
0100
0000
,  // measure 119
1000
0100
0010
1000
,  // measure 120
2002
0000
0000
3003
,  // measure 121
1001
0000
1001
0000
,  // measure 122
2002
0000
0000
3003
,  // measure 123
0001
0100
0001
0000
,  // measure 124
0100
0001
1000
0100
,  // measure 125
1000
0010
1000
0000
,  // measure 126
0010
1000
0001
0010
,  // measure 127
0100
1000
0100
0000
,  // measure 128
1000
0100
0010
1000
,  // measure 129
0010
0001
0010
0000
,  // measure 130
0001
0010
0100
0001
,  // measure 131
0001
0100
0001
0000
,  // measure 132
0100
0001
1000
0100
,  // measure 133
1000
0010
1000
0000
,  // measure 134
0010
1000
0001
0010
,  // measure 135
0100
1000
0100
0000
,  // measure 136
1000
0100
0010
1000
,  // measure 137
2002
0000
0000
3003
,  // measure 138
0220
0000
0000
0000
,  // measure 139
0000
0000
0000
0330
,  // measure 140
0001
0000
0001
0000
,  // measure 141
0001
0000
1000
0000
,  // measure 142
1000
0000
1000
0000
,  // measure 143
1000
0000
0001
0000
,  // measure 144
0100
0000
0100
0000
,  // measure 145
0100
0000
0010
0000
,  // measure 146
0010
0000
0010
0000
,  // measure 147
0010
0000
0100
0000
,  // measure 148
1000
0000
1000
0000
,  // measure 149
1000
0000
0001
0000
,  // measure 150
0001
0000
0001
0000
,  // measure 151
0001
0000
1000
0000
,  // measure 152
0010
0000
0010
0000
,  // measure 153
0010
0000
0100
0000
,  // measure 154
0100
0000
0100
0000
,  // measure 155
0100
0000
0010
0000
,  // measure 156
1000
0010
1000
0000
,  // measure 157
0010
1000
0010
0000
,  // measure 158
0001
0100
0001
0000
,  // measure 159
0100
0001
0100
0000
,  // measure 160
0010
0001
0010
0000
,  // measure 161
0001
0010
0001
0000
,  // measure 162
1001
0000
0000
0000
;

//---------------dance-single - ----------------
#NOTES:
     dance-single:
     :
     Beginner:
     5:
     0.201667,0.277200,0.064167,0.136889,0.000000,330.000000,315.000000,15.000000,32.000000,0.000000,0.000000,0.201667,0.277200,0.064167,0.136889,0.000000,330.000000,315.000000,15.000000,32.000000,0.000000,0.000000:
0000
0000
0000
0000
,
0000
0000
0000
0000
,
0000
0000
0000
0000
,
0000
0000
0000
0000
,
0000
0000
0000
0000
,
0000
0000
0000
0000
,
0000
0000
0000
0000
,
0000
0000
0000
0000
,
1000
0000
1000
0000
,
0010
0000
0010
0000
,
0001
0000
0001
0000
,
0100
0000
0100
0000
,
0010
0000
0010
0000
,
0001
0000
0001
0000
,
0100
0000
0100
0000
,
1000
0000
1000
0000
,
0002
0000
0000
0003
,
1000
0010
0001
0000
,
2000
0000
0000
3000
,
0001
0100
1000
0000
,
0200
0000
0000
0300
,
0010
0001
0100
0000
,
0020
0000
0000
0030
,
0100
1000
0010
0000
,
2000
0000
0000
3000
,
0001
0100
1000
0000
,
0002
0000
0000
0003
,
1000
0010
0001
0000
,
0020
0000
0000
0030
,
0100
1000
0010
0000
,
0200
0000
0000
0300
,
0010
0001
0100
0000
,
1010
0000
0010
0000
,
0001
0000
1000
0000
,
0101
0000
0100
0000
,
1000
0000
0001
0000
,
2002
0000
0000
0000
,
0000
0000
0000
3003
,
0001
0000
0001
0000
,
0100
0001
1000
0000
,
1000
0000
1000
0000
,
0010
1000
0001
0000
,
0100
0000
0100
0000
,
1000
0100
0010
0000
,
0010
0000
0010
0000
,
0001
0010
0100
0000
,
0001
0000
0001
0000
,
0100
0001
1000
0000
,
1000
0000
1000
0000
,
0010
1000
0001
0000
,
0100
0000
0100
0000
,
1000
0100
0010
0000
,
2002
0000
0000
3003
,
1000
0000
1000
0000
,
0010
0000
0010
0000
,
0001
0000
0001
0000
,
0100
0000
0100
0000
,
0010
0000
0010
0000
,
0001
0000
0001
0000
,
0100
0000
0100
0000
,
1000
0000
1000
0000
,
0002
0000
0000
0003
,
1000
0010
0001
0000
,
2000
0000
0000
3000
,
0001
0100
1000
0000
,
0200
0000
0000
0300
,
0010
0001
0100
0000
,
0020
0000
0000
0030
,
0100
1000
0010
0000
,
2000
0000
0000
3000
,
0001
0100
1000
0000
,
0002
0000
0000
0003
,
1000
0010
0001
0000
,
0020
0000
0000
0030
,
0100
1000
0010
0000
,
0200
0000
0000
0300
,
0010
0001
0100
0000
,
1010
0000
0010
0000
,
0001
0000
1000
0000
,
0101
0000
0100
0000
,
1000
0000
0001
0000
,
2002
0000
0000
0000
,
0000
0000
0000
3003
,
0001
0000
0001
0000
,
0100
0001
1000
0000
,
1000
0000
1000
0000
,
0010
1000
0001
0000
,
0100
0000
0100
0000
,
1000
0100
0010
0000
,
0010
0000
0010
0000
,
0001
0010
0100
0000
,
0001
0000
0001
0000
,
0100
0001
1000
0000
,
1000
0000
1000
0000
,
0010
1000
0001
0000
,
0100
0000
0100
0000
,
1000
0100
0010
0000
,
2002
0000
0000
3003
,
0001
0000
0001
0000
,
0001
0000
0001
0000
,
1000
0000
1000
0000
,
1000
0000
1000
0000
,
0100
0000
0100
0000
,
0100
0000
0100
0000
,
0010
0000
0010
0000
,
0010
0000
0010
0000
,
0001
0000
0001
0000
,
0100
0001
1000
0000
,
1000
0000
1000
0000
,
0010
1000
0001
0000
,
0100
0000
0100
0000
,
1000
0100
0010
0000
,
0010
0000
0010
0000
,
0001
0010
0100
0000
,
0001
0000
0001
0000
,
0100
0001
1000
0000
,
1000
0000
1000
0000
,
0010
1000
0001
0000
,
0100
0000
0100
0000
,
1000
0100
0010
0000
,
2002
0000
0000
3003
,
1001
0000
1001
0000
,
2002
0000
0000
3003
,
0001
0000
0001
0000
,
0100
0001
1000
0000
,
1000
0000
1000
0000
,
0010
1000
0001
0000
,
0100
0000
0100
0000
,
1000
0100
0010
0000
,
0010
0000
0010
0000
,
0001
0010
0100
0000
,
0001
0000
0001
0000
,
0100
0001
1000
0000
,
1000
0000
1000
0000
,
0010
1000
0001
0000
,
0100
0000
0100
0000
,
1000
0100
0010
0000
,
2002
0000
0000
3003
,
0220
0000
0000
0000
,
0000
0000
0000
0330
,
0001
0000
0000
0000
,
0001
0000
1000
0000
,
1000
0000
0000
0000
,
1000
0000
0001
0000
,
0100
0000
0000
0000
,
0100
0000
0010
0000
,
0010
0000
0000
0000
,
0010
0000
0100
0000
,
1000
0000
0000
0000
,
1000
0000
0001
0000
,
0001
0000
0000
0000
,
0001
0000
1000
0000
,
0010
0000
0000
0000
,
0010
0000
0100
0000
,
0100
0000
0000
0000
,
0100
0000
0010
0000
,
1000
0000
1000
0000
,
0010
0000
0010
0000
,
0001
0000
0001
0000
,
0100
0000
0100
0000
,
0010
0000
0010
0000
,
0001
0000
0001
0000
,
1001
0000
0000
0000
;
