#VERSION:0.83;
#TITLE:さくら;
#SUBTITLE:;
#ARTIST:ケツメイシ;
#TITLETRANSLIT:Sakura;
#SUBTITLETRANSLIT:;
#ARTISTTRANSLIT:Ketsumeishi;
#GENRE:;
#ORIGIN:;
#CREDIT:;
#BANNER:;
#BACKGROUND:;
#PREVIEWVID:;
#JACKET:;
#CDIMAGE:;
#DISCIMAGE:;
#LYRICSPATH:;
#CDTITLE:;
#MUSIC:Sakura.ogg;
#OFFSET:-0.380000;
#SAMPLESTART:15.630000;
#SAMPLELENGTH:15.000000;
#SELECTABLE:YES;
#BPMS:0.000=120.000;
#STOPS:;
#DELAYS:;
#WARPS:;
#TIMESIGNATURES:0.000=4=4;
#TICKCOUNTS:0.000=4;
#COMBOS:0.000=1;
#SPEEDS:0.000=1.000=0.000=0;
#SCROLLS:0.000=1.000;
#FAKES:;
#LABELS:0.000=Song Start;
#BGCHANGES:;
#KEYSOUNDS:;
#ATTACKS:
;

//---------------dance-single - ----------------
#NOTEDATA:;
#CHARTNAME:;
#STEPSTYPE:dance-single;
#DESCRIPTION:;
#CHARTSTYLE:;
#DIFFICULTY:Easy;
#METER:3;
#RADARVALUES:0.086328,0.099345,0.009492,0.126554,0.000000,191.000000,188.000000,3.000000,40.000000,0.000000,0.000000,0.000000,0.000000,0.000000,0.086328,0.099345,0.009492,0.126554,0.000000,191.000000,188.000000,3.000000,40.000000,0.000000,0.000000,0.000000,0.000000,0.000000;
#CREDIT:;
#NOTES:
0000
0000
0000
0000
,
0000
0000
0000
0000
,
0000
0000
0000
0000
,
0000
0000
0000
0000
,
1000
0000
0000
0000
,
0001
0000
0000
0000
,
1000
0000
0000
0000
,
1001
0000
0000
0000
,
1000
0000
0000
0000
,
1000
0000
1000
0000
,
0001
0000
0000
0000
,
0001
0000
0001
0000
,
0010
0000
0000
0000
,
0010
0000
0010
0000
,
0100
0000
0000
0000
,
0100
0000
0100
0000
,
1000
0000
0000
0000
,
1000
0000
1000
0000
,
0001
0000
0000
0000
,
0001
0000
0001
0000
,
0010
0000
0000
0000
,
0010
0000
0010
0000
,
0100
0000
0000
0000
,
0100
0000
0100
0000
,
0020
0000
0030
0000
,
0020
0000
0030
0000
,
0200
0000
0300
0000
,
0200
0000
0300
0000
,
0002
0000
0003
0000
,
0002
0000
0003
0000
,
2000
0000
3000
0000
,
2000
0000
3000
0000
,
0100
0000
0000
0000
,
1000
0000
0001
0000
,
0010
0000
0000
0000
,
0001
0000
1000
0000
,
1000
0000
0000
0000
,
0010
0000
0100
0000
,
0001
0000
0000
0000
,
0100
0000
0010
0000
,
0100
0000
0000
0000
,
1000
0000
0001
0000
,
0010
0000
0000
0000
,
0001
0000
1000
0000
,
1000
0000
0000
0000
,
0010
0000
0100
0000
,
0001
0000
0000
0000
,
0100
0000
0010
0000
,
0200
0000
0000
0300
,
0100
0000
0000
0000
,
0020
0000
0000
0030
,
0010
0000
0000
0000
,
2000
0000
0000
3000
,
1000
0000
0000
0000
,
0002
0000
0000
0003
,
0001
0000
0000
0000
,
0100
0000
0000
0000
,
1000
0000
0001
0000
,
0010
0000
0000
0000
,
0001
0000
1000
0000
,
1000
0000
0000
0000
,
0010
0000
0100
0000
,
0001
0000
0000
0000
,
0100
0000
0010
0000
,
0100
0000
0000
0000
,
1000
0000
0001
0000
,
0010
0000
0000
0000
,
0001
0000
1000
0000
,
1000
0000
0000
0000
,
0010
0000
0100
0000
,
0001
0000
0000
0000
,
0100
0000
0010
0000
,
1000
0000
0000
0000
,
1000
0000
1000
0000
,
0001
0000
0000
0000
,
0001
0000
0001
0000
,
0010
0000
0000
0000
,
0010
0000
0010
0000
,
0100
0000
0000
0000
,
0100
0000
0100
0000
,
1000
0000
0000
0000
,
1000
0000
1000
0000
,
0001
0000
0000
0000
,
0001
0000
0001
0000
,
0010
0000
0000
0000
,
0010
0000
0010
0000
,
0100
0000
0000
0000
,
0100
0000
0100
0000
,
0020
0000
0030
0000
,
0020
0000
0030
0000
,
0200
0000
0300
0000
,
0200
0000
0300
0000
,
2000
0000
0000
0000
,
0000
0000
0000
0000
,
0001
0000
0000
0000
,
0000
0000
0000
3000
,
0002
0000
0000
0000
,
0000
0000
0000
0000
,
1000
0000
0000
0000
,
0000
0000
0000
0003
,
1000
0000
0000
0000
,
0001
0000
0000
0000
,
1000
0000
0000
0000
,
0001
0000
0000
0000
,
1000
0000
0000
0000
,
0001
0000
0000
0000
,
1001
0000
0000
0000
,
1000
0000
0000
0000
,
1000
0000
1000
0000
,
0001
0000
0000
0000
,
0001
0000
0001
0000
,
0010
0000
0000
0000
,
0010
0000
0010
0000
,
0100
0000
0000
0000
,
0100
0000
0100
0000
,
1000
0000
0000
0000
,
1000
0000
1000
0000
,
0001
0000
0000
0000
,
0001
0000
0001
0000
,
0010
0000
0000
0000
,
0010
0000
0010
0000
,
0100
0000
0000
0000
,
0100
0000
0100
0000
,
0020
0000
0030
0000
,
0020
0000
0030
0000
,
0200
0000
0300
0000
,
0200
0000
0300
0000
,
0002
0000
0003
0000
,
0002
0000
0003
0000
,
2000
0000
3000
0000
,
2000
0000
3000
0000
,
0200
0000
0000
0300
,
0100
0000
0000
0000
,
0020
0000
0000
0030
,
0010
0000
0000
0000
,
2000
0000
0000
3000
,
1000
0000
0000
0000
,
0002
0000
0000
0003
,
0001
0000
0000
0000
,
0200
0000
0000
0300
,
0100
0000
0000
0000
,
0020
0000
0000
0030
,
0010
0000
0000
0000
,
2000
0000
0000
3000
,
1000
0000
0000
0000
,
0002
0000
0000
0003
,
0001
0000
0000
0000
,
0200
0000
0000
0300
,
0100
0000
0000
0000
,
0020
0000
0000
0030
,
0010
0000
0000
0000
,
2000
0000
0000
3000
,
1000
0000
0000
0000
,
0002
0000
0000
0003
,
0001
0000
0000
0000
,
2002
0000
0000
0000
,
0000
0000
0000
0000
,
3003
0000
0000
0000
;

//---------------dance-single - ----------------
#NOTEDATA:;
#CHARTNAME:;
#STEPSTYPE:dance-single;
#DESCRIPTION:;
#CHARTSTYLE:;
#DIFFICULTY:Beginner;
#METER:3;
#RADARVALUES:0.076385,0.099345,0.003164,0.126554,0.000000,169.000000,168.000000,1.000000,40.000000,0.000000,0.000000,0.000000,0.000000,0.000000,0.076385,0.099345,0.003164,0.126554,0.000000,169.000000,168.000000,1.000000,40.000000,0.000000,0.000000,0.000000,0.000000,0.000000;
#CREDIT:;
#NOTES:
// measure 0
0000
0000
0000
0000
,  // measure 1
0000
0000
0000
0000
,  // measure 2
0000
0000
0000
0000
,  // measure 3
0000
0000
0000
0000
,  // measure 4
1000
0000
0000
0000
,  // measure 5
0001
0000
0000
0000
,  // measure 6
1000
0000
0000
0000
,  // measure 7
0001
0000
0000
0000
,  // measure 8
1000
0000
0000
0000
,  // measure 9
1000
0000
0000
0000
,  // measure 10
0001
0000
0000
0000
,  // measure 11
0001
0000
0001
0000
,  // measure 12
0010
0000
0000
0000
,  // measure 13
0010
0000
0000
0000
,  // measure 14
0100
0000
0000
0000
,  // measure 15
0100
0000
0100
0000
,  // measure 16
1000
0000
0000
0000
,  // measure 17
1000
0000
0000
0000
,  // measure 18
0001
0000
0000
0000
,  // measure 19
0001
0000
0001
0000
,  // measure 20
0010
0000
0000
0000
,  // measure 21
0010
0000
0000
0000
,  // measure 22
0100
0000
0000
0000
,  // measure 23
0100
0000
0100
0000
,  // measure 24
0020
0000
0030
0000
,  // measure 25
0020
0000
0030
0000
,  // measure 26
0200
0000
0300
0000
,  // measure 27
0200
0000
0300
0000
,  // measure 28
0002
0000
0003
0000
,  // measure 29
0002
0000
0003
0000
,  // measure 30
2000
0000
3000
0000
,  // measure 31
2000
0000
3000
0000
,  // measure 32
0100
0000
0000
0000
,  // measure 33
1000
0000
0000
0000
,  // measure 34
0010
0000
0000
0000
,  // measure 35
0001
0000
1000
0000
,  // measure 36
1000
0000
0000
0000
,  // measure 37
0010
0000
0000
0000
,  // measure 38
0001
0000
0000
0000
,  // measure 39
0100
0000
0010
0000
,  // measure 40
0100
0000
0000
0000
,  // measure 41
1000
0000
0000
0000
,  // measure 42
0010
0000
0000
0000
,  // measure 43
0001
0000
1000
0000
,  // measure 44
1000
0000
0000
0000
,  // measure 45
0010
0000
0000
0000
,  // measure 46
0001
0000
0000
0000
,  // measure 47
0100
0000
0010
0000
,  // measure 48
0200
0000
0000
0300
,  // measure 49
0100
0000
0000
0000
,  // measure 50
0020
0000
0000
0030
,  // measure 51
0010
0000
0000
0000
,  // measure 52
2000
0000
0000
3000
,  // measure 53
1000
0000
0000
0000
,  // measure 54
0002
0000
0000
0003
,  // measure 55
0001
0000
0000
0000
,  // measure 56
0100
0000
0000
0000
,  // measure 57
1000
0000
0000
0000
,  // measure 58
0010
0000
0000
0000
,  // measure 59
0001
0000
1000
0000
,  // measure 60
1000
0000
0000
0000
,  // measure 61
0010
0000
0000
0000
,  // measure 62
0001
0000
0000
0000
,  // measure 63
0100
0000
0010
0000
,  // measure 64
0100
0000
0000
0000
,  // measure 65
1000
0000
0000
0000
,  // measure 66
0010
0000
0000
0000
,  // measure 67
0001
0000
1000
0000
,  // measure 68
1000
0000
0000
0000
,  // measure 69
0010
0000
0000
0000
,  // measure 70
0001
0000
0000
0000
,  // measure 71
0100
0000
0010
0000
,  // measure 72
1000
0000
0000
0000
,  // measure 73
1000
0000
0000
0000
,  // measure 74
0001
0000
0000
0000
,  // measure 75
0001
0000
0001
0000
,  // measure 76
0010
0000
0000
0000
,  // measure 77
0010
0000
0000
0000
,  // measure 78
0100
0000
0000
0000
,  // measure 79
0100
0000
0100
0000
,  // measure 80
1000
0000
0000
0000
,  // measure 81
1000
0000
0000
0000
,  // measure 82
0001
0000
0000
0000
,  // measure 83
0001
0000
0001
0000
,  // measure 84
0010
0000
0000
0000
,  // measure 85
0010
0000
0000
0000
,  // measure 86
0100
0000
0000
0000
,  // measure 87
0100
0000
0100
0000
,  // measure 88
0020
0000
0030
0000
,  // measure 89
0020
0000
0030
0000
,  // measure 90
0200
0000
0300
0000
,  // measure 91
0200
0000
0300
0000
,  // measure 92
2000
0000
0000
0000
,  // measure 93
0000
0000
0000
0000
,  // measure 94
0001
0000
0000
0000
,  // measure 95
0000
0000
0000
3000
,  // measure 96
0002
0000
0000
0000
,  // measure 97
0000
0000
0000
0000
,  // measure 98
1000
0000
0000
0000
,  // measure 99
0000
0000
0000
0003
,  // measure 100
1000
0000
0000
0000
,  // measure 101
0001
0000
0000
0000
,  // measure 102
1000
0000
0000
0000
,  // measure 103
0001
0000
0000
0000
,  // measure 104
1000
0000
0000
0000
,  // measure 105
0001
0000
0000
0000
,  // measure 106
1000
0000
0000
0000
,  // measure 107
1000
0000
0000
0000
,  // measure 108
1000
0000
0000
0000
,  // measure 109
0001
0000
0000
0000
,  // measure 110
0001
0000
0001
0000
,  // measure 111
0010
0000
0000
0000
,  // measure 112
0010
0000
0000
0000
,  // measure 113
0100
0000
0000
0000
,  // measure 114
0100
0000
0100
0000
,  // measure 115
1000
0000
0000
0000
,  // measure 116
1000
0000
0000
0000
,  // measure 117
0001
0000
0000
0000
,  // measure 118
0001
0000
0001
0000
,  // measure 119
0010
0000
0000
0000
,  // measure 120
0010
0000
0000
0000
,  // measure 121
0100
0000
0000
0000
,  // measure 122
0100
0000
0100
0000
,  // measure 123
0020
0000
0030
0000
,  // measure 124
0020
0000
0030
0000
,  // measure 125
0200
0000
0300
0000
,  // measure 126
0200
0000
0300
0000
,  // measure 127
0002
0000
0003
0000
,  // measure 128
0002
0000
0003
0000
,  // measure 129
2000
0000
3000
0000
,  // measure 130
2000
0000
3000
0000
,  // measure 131
0200
0000
0000
0300
,  // measure 132
0100
0000
0000
0000
,  // measure 133
0020
0000
0000
0030
,  // measure 134
0010
0000
0000
0000
,  // measure 135
2000
0000
0000
3000
,  // measure 136
1000
0000
0000
0000
,  // measure 137
0002
0000
0000
0003
,  // measure 138
0001
0000
0000
0000
,  // measure 139
0200
0000
0000
0300
,  // measure 140
0100
0000
0000
0000
,  // measure 141
0020
0000
0000
0030
,  // measure 142
0010
0000
0000
0000
,  // measure 143
2000
0000
0000
3000
,  // measure 144
1000
0000
0000
0000
,  // measure 145
0002
0000
0000
0003
,  // measure 146
0001
0000
0000
0000
,  // measure 147
0200
0000
0000
0300
,  // measure 148
0100
0000
0000
0000
,  // measure 149
0020
0000
0000
0030
,  // measure 150
0010
0000
0000
0000
,  // measure 151
2000
0000
0000
3000
,  // measure 152
1000
0000
0000
0000
,  // measure 153
0002
0000
0000
0003
,  // measure 154
0001
0000
0000
0000
,  // measure 155
2002
0000
0000
0000
,  // measure 156
0000
0000
0000
0000
,  // measure 157
3003
0000
0000
0000
;

//---------------dance-single - ----------------
#NOTEDATA:;
#CHARTNAME:;
#STEPSTYPE:dance-single;
#DESCRIPTION:;
#CHARTSTYLE:;
#DIFFICULTY:Medium;
#METER:3;
#RADARVALUES:0.097628,0.124181,0.009492,0.177176,0.000000,216.000000,213.000000,3.000000,56.000000,0.000000,0.000000,0.000000,0.000000,0.000000,0.097628,0.124181,0.009492,0.177176,0.000000,216.000000,213.000000,3.000000,56.000000,0.000000,0.000000,0.000000,0.000000,0.000000;
#CREDIT:;
#NOTES:
0000
0000
0000
0000
,
0000
0000
0000
0000
,
0000
0000
0000
0000
,
0000
0000
0000
0000
,
1000
0000
0000
0000
,
0001
0000
0000
0000
,
1000
0000
0000
0000
,
1001
0000
0000
0000
,
1000
0000
0001
0000
,
1000
0000
1000
0000
,
0001
0000
0000
0000
,
0001
0000
0001
0000
,
0010
0000
0100
0000
,
0010
0000
0010
0000
,
0100
0000
0000
0000
,
0100
0000
0100
0000
,
1000
0000
0001
0000
,
1000
0000
1000
0000
,
0001
0000
0000
0000
,
0001
0000
0001
0000
,
0010
0000
0100
0000
,
0010
0000
0010
0000
,
0100
0000
0000
0000
,
0100
0000
0100
0000
,
0020
0000
0030
0000
,
0020
0000
0030
0000
,
0200
0000
0300
0000
,
0200
0000
0300
0100
,
0002
0000
0003
0000
,
0002
0000
0003
0000
,
2000
0000
3000
0000
,
2000
0000
3000
1000
,
0200
0000
0000
0000
,
1300
0000
0001
0000
,
0020
0000
0000
0000
,
0031
0000
1000
0000
,
2000
0000
0000
0000
,
3010
0000
0100
0000
,
0002
0000
0000
0000
,
0103
0000
0010
0000
,
0200
0000
0000
0000
,
1300
0000
0001
0000
,
0020
0000
0000
0000
,
0031
0000
1000
0000
,
2000
0000
0000
0000
,
3010
0000
0100
0000
,
0002
0000
0000
0000
,
0103
0000
0010
0000
,
0200
0000
0000
0300
,
0100
0000
0000
0000
,
0020
0000
0000
0030
,
0010
0000
0010
0000
,
2000
0000
0000
3000
,
1000
0000
0000
0000
,
0002
0000
0000
0003
,
0001
0000
0001
0000
,
0200
0000
0000
0000
,
1300
0000
0001
0000
,
0020
0000
0000
0000
,
0031
0000
1000
0000
,
2000
0000
0000
0000
,
3010
0000
0100
0000
,
0002
0000
0000
0000
,
0103
0000
0010
0000
,
0200
0000
0000
0000
,
1300
0000
0001
0000
,
0020
0000
0000
0000
,
0031
0000
1000
0000
,
2000
0000
0000
0000
,
3010
0000
0100
0000
,
0002
0000
0000
0000
,
0103
0000
0010
0000
,
1000
0000
0001
0000
,
1000
0000
1000
0000
,
0001
0000
0000
0000
,
0001
0000
0001
0000
,
0010
0000
0100
0000
,
0010
0000
0010
0000
,
0100
0000
0000
0000
,
0100
0000
0100
0000
,
1000
0000
0001
0000
,
1000
0000
1000
0000
,
0001
0000
0000
0000
,
0001
0000
0001
0000
,
0010
0000
0100
0000
,
0010
0000
0010
0000
,
0100
0000
0000
0000
,
0100
0000
0100
0000
,
0020
0000
0030
0000
,
0020
0000
0030
0000
,
0200
0000
0300
0000
,
0200
0000
0300
0100
,
2000
0000
0000
0000
,
0000
0000
0000
0000
,
0001
0000
0000
0000
,
0000
0000
0000
3000
,
0002
0000
0000
0000
,
0000
0000
0000
0000
,
1000
0000
0000
0000
,
0000
0000
0000
0003
,
1000
0000
0000
0000
,
0001
0000
0000
0000
,
1000
0000
0000
0000
,
0001
0000
0000
0000
,
1000
0000
0000
0000
,
0001
0000
0000
0000
,
1001
0000
0000
0000
,
1000
0000
0001
0000
,
1000
0000
1000
0000
,
0001
0000
0000
0000
,
0001
0000
0001
0000
,
0010
0000
0100
0000
,
0010
0000
0010
0000
,
0100
0000
0000
0000
,
0100
0000
0100
0000
,
1000
0000
0001
0000
,
1000
0000
1000
0000
,
0001
0000
0000
0000
,
0001
0000
0001
0000
,
0010
0000
0100
0000
,
0010
0000
0010
0000
,
0100
0000
0000
0000
,
0100
0000
0100
0000
,
0020
0000
0030
0000
,
0020
0000
0030
0000
,
0200
0000
0300
0000
,
0200
0000
0300
0100
,
0002
0000
0003
0000
,
0002
0000
0003
0000
,
2000
0000
3000
0000
,
2000
0000
3000
1000
,
0200
0000
0000
0300
,
0100
0000
0000
0000
,
0020
0000
0000
0030
,
0010
0000
0010
0000
,
2000
0000
0000
3000
,
1000
0000
0000
0000
,
0002
0000
0000
0003
,
0001
0000
0001
0000
,
0200
0000
0000
0300
,
0100
0000
0000
0000
,
0020
0000
0000
0030
,
0010
0000
0010
0000
,
2000
0000
0000
3000
,
1000
0000
0000
0000
,
0002
0000
0000
0003
,
0001
0000
0001
0000
,
0200
0000
0000
0300
,
0100
0000
0000
0000
,
0020
0000
0000
0030
,
0010
0000
0010
0000
,
2000
0000
0000
3000
,
1000
0000
0000
0000
,
0002
0000
0000
0003
,
0001
0000
0001
0000
,
2002
0000
0000
0000
,
0000
0000
0000
0000
,
3003
0000
0000
0000
;

//---------------dance-single - ----------------
#NOTEDATA:;
#CHARTNAME:;
#STEPSTYPE:dance-single;
#DESCRIPTION:;
#CHARTSTYLE:;
#DIFFICULTY:Hard;
#METER:4;
#RADARVALUES:0.114351,0.149018,0.009492,0.177176,0.000000,253.000000,250.000000,3.000000,56.000000,0.000000,0.000000,0.000000,0.000000,0.000000,0.114351,0.149018,0.009492,0.177176,0.000000,253.000000,250.000000,3.000000,56.000000,0.000000,0.000000,0.000000,0.000000,0.000000;
#CREDIT:;
#NOTES:
0000
0000
0000
0000
,
0000
0000
0000
0000
,
0000
0000
0000
0000
,
0000
0000
0000
0000
,
1000
0000
0000
0000
,
0001
0000
0000
0000
,
1000
0000
0000
0000
,
1001
0000
0100
0000
,
1000
0000
0001
0000
,
1000
0000
1000
0000
,
0001
0000
1000
0000
,
0001
0000
0001
0000
,
0010
0000
0100
0000
,
0010
0000
0010
0000
,
0100
0000
0010
0000
,
0100
0000
0100
0000
,
1000
0000
0001
0000
,
1000
0000
1000
0000
,
0001
0000
1000
0000
,
0001
0000
0001
0000
,
0010
0000
0100
0000
,
0010
0000
0010
0000
,
0100
0000
0010
0000
,
0100
0000
0100
0000
,
0020
0000
0030
0000
,
0020
0000
0030
0010
,
0200
0000
0300
0000
,
0200
0000
0300
0100
,
0002
0000
0003
0000
,
0002
0000
0003
0001
,
2000
0000
3000
0000
,
2000
0000
3000
1000
,
0200
0000
0000
0000
,
1300
0000
0001
1000
,
0020
0000
0000
0000
,
0031
0000
1000
0000
,
2000
0000
0000
0000
,
3010
0000
0100
0010
,
0002
0000
0000
0000
,
0103
0000
0010
0000
,
0200
0000
0000
0000
,
1300
0000
0001
1000
,
0020
0000
0000
0000
,
0031
0000
1000
0000
,
2000
0000
0000
0000
,
3010
0000
0100
0010
,
0002
0000
0000
0000
,
0103
0000
0010
0000
,
0200
0000
0000
0300
,
0100
0000
0100
0000
,
0020
0000
0000
0030
,
0010
0000
0010
0000
,
2000
0000
0000
3000
,
1000
0000
1000
0000
,
0002
0000
0000
0003
,
0001
0000
0001
0000
,
0200
0000
0000
0000
,
1300
0000
0001
1000
,
0020
0000
0000
0000
,
0031
0000
1000
0000
,
2000
0000
0000
0000
,
3010
0000
0100
0010
,
0002
0000
0000
0000
,
0103
0000
0010
0000
,
0200
0000
0000
0000
,
1300
0000
0001
1000
,
0020
0000
0000
0000
,
0031
0000
1000
0000
,
2000
0000
0000
0000
,
3010
0000
0100
0010
,
0002
0000
0000
0000
,
0103
0000
0010
0000
,
1000
0000
0001
0000
,
1000
0000
1000
0000
,
0001
0000
1000
0000
,
0001
0000
0001
0000
,
0010
0000
0100
0000
,
0010
0000
0010
0000
,
0100
0000
0010
0000
,
0100
0000
0100
0000
,
1000
0000
0001
0000
,
1000
0000
1000
0000
,
0001
0000
1000
0000
,
0001
0000
0001
0000
,
0010
0000
0100
0000
,
0010
0000
0010
0000
,
0100
0000
0010
0000
,
0100
0000
0100
0000
,
0020
0000
0030
0000
,
0020
0000
0030
0010
,
0200
0000
0300
0000
,
0200
0000
0300
0100
,
2000
0000
0000
0000
,
0000
0000
0000
0000
,
0001
0000
0000
0000
,
0001
0000
0000
3000
,
0002
0000
0000
0000
,
0000
0000
0000
0000
,
1000
0000
0000
0000
,
1000
0000
0000
0003
,
1000
0000
0000
0000
,
0001
0000
0000
0000
,
1000
0000
0000
0000
,
0001
0000
0000
0000
,
1000
0000
0000
0000
,
0001
0000
0000
0000
,
1001
0000
0010
0000
,
1000
0000
0001
0000
,
1000
0000
1000
0000
,
0001
0000
1000
0000
,
0001
0000
0001
0000
,
0010
0000
0100
0000
,
0010
0000
0010
0000
,
0100
0000
0010
0000
,
0100
0000
0100
0000
,
1000
0000
0001
0000
,
1000
0000
1000
0000
,
0001
0000
1000
0000
,
0001
0000
0001
0000
,
0010
0000
0100
0000
,
0010
0000
0010
0000
,
0100
0000
0010
0000
,
0100
0000
0100
0000
,
0020
0000
0030
0000
,
0020
0000
0030
0010
,
0200
0000
0300
0000
,
0200
0000
0300
0100
,
0002
0000
0003
0000
,
0002
0000
0003
0001
,
2000
0000
3000
0000
,
2000
0000
3000
1000
,
0200
0000
0000
0300
,
0100
0000
0100
0000
,
0020
0000
0000
0030
,
0010
0000
0010
0000
,
2000
0000
0000
3000
,
1000
0000
1000
0000
,
0002
0000
0000
0003
,
0001
0000
0001
0000
,
0200
0000
0000
0300
,
0100
0000
0100
0000
,
0020
0000
0000
0030
,
0010
0000
0010
0000
,
2000
0000
0000
3000
,
1000
0000
1000
0000
,
0002
0000
0000
0003
,
0001
0000
0001
0000
,
0200
0000
0000
0300
,
0100
0000
0100
0000
,
0020
0000
0000
0030
,
0010
0000
0010
0000
,
2000
0000
0000
3000
,
1000
0000
1000
0000
,
0002
0000
0000
0003
,
0001
0000
0001
0000
,
2002
0000
0000
0000
,
0000
0000
0000
0000
,
3003
0000
0000
0000
;

//---------------dance-single - ----------------
#NOTEDATA:;
#CHARTNAME:;
#STEPSTYPE:dance-single;
#DESCRIPTION:;
#CHARTSTYLE:;
#DIFFICULTY:Challenge;
#METER:4;
#RADARVALUES:0.122486,0.149018,0.009492,0.177176,0.000000,271.000000,268.000000,3.000000,56.000000,0.000000,0.000000,0.000000,0.000000,0.000000,0.122486,0.149018,0.009492,0.177176,0.000000,271.000000,268.000000,3.000000,56.000000,0.000000,0.000000,0.000000,0.000000,0.000000;
#CREDIT:;
#NOTES:
0000
0000
0000
0000
,
0000
0000
0000
0000
,
0000
0000
0000
0000
,
0000
0000
0000
0000
,
1000
0000
0000
0000
,
0001
0000
0000
0000
,
1000
0000
0000
0000
,
1001
0000
0100
0000
,
1000
0000
0001
0000
,
1000
0000
1000
0000
,
0001
0000
1000
0000
,
0001
0000
0001
0000
,
0010
0000
0100
0000
,
0010
0000
0010
0000
,
0100
0000
0010
0000
,
0100
0000
0100
0000
,
1000
0000
0001
0000
,
1000
0000
1000
0000
,
0001
0000
1000
0000
,
0001
0000
0001
0000
,
0010
0000
0100
0000
,
0010
0000
0010
0000
,
0100
0000
0010
0000
,
0100
0000
0100
0000
,
0020
0000
0030
0010
,
0020
0000
0030
0010
,
0200
0000
0300
0100
,
0200
0000
0300
0100
,
0002
0000
0003
0001
,
0002
0000
0003
0001
,
2000
0000
3000
1000
,
2000
0000
3000
1000
,
0200
0000
0000
0000
,
1300
0000
0001
1000
,
0020
0000
0000
0000
,
0031
0000
1000
0001
,
2000
0000
0000
0000
,
3010
0000
0100
0010
,
0002
0000
0000
0000
,
0103
0000
0010
0100
,
0200
0000
0000
0000
,
1300
0000
0001
1000
,
0020
0000
0000
0000
,
0031
0000
1000
0001
,
2000
0000
0000
0000
,
3010
0000
0100
0010
,
0002
0000
0000
0000
,
0103
0000
0010
0100
,
0200
0000
0000
0300
,
0100
0000
0100
0000
,
0020
0000
0000
0030
,
0010
0000
0010
0000
,
2000
0000
0000
3000
,
1000
0000
1000
0000
,
0002
0000
0000
0003
,
0001
0000
0001
0000
,
0200
0000
0000
0000
,
1300
0000
0001
1000
,
0020
0000
0000
0000
,
0031
0000
1000
0001
,
2000
0000
0000
0000
,
3010
0000
0100
0010
,
0002
0000
0000
0000
,
0103
0000
0010
0100
,
0200
0000
0000
0000
,
1300
0000
0001
1000
,
0020
0000
0000
0000
,
0031
0000
1000
0001
,
2000
0000
0000
0000
,
3010
0000
0100
0010
,
0002
0000
0000
0000
,
0103
0000
0010
0100
,
1000
0000
0001
0000
,
1000
0000
1000
0000
,
0001
0000
1000
0000
,
0001
0000
0001
0000
,
0010
0000
0100
0000
,
0010
0000
0010
0000
,
0100
0000
0010
0000
,
0100
0000
0100
0000
,
1000
0000
0001
0000
,
1000
0000
1000
0000
,
0001
0000
1000
0000
,
0001
0000
0001
0000
,
0010
0000
0100
0000
,
0010
0000
0010
0000
,
0100
0000
0010
0000
,
0100
0000
0100
0000
,
0020
0000
0030
0010
,
0020
0000
0030
0010
,
0200
0000
0300
0100
,
0200
0000
0300
0100
,
2000
0000
0000
0000
,
0000
0000
0000
0000
,
0001
0000
0000
0000
,
0001
0000
0000
3000
,
0002
0000
0000
0000
,
0000
0000
0000
0000
,
1000
0000
0000
0000
,
1000
0000
0000
0003
,
1000
0000
0000
0000
,
0001
0000
0000
0000
,
1000
0000
0000
0000
,
0001
0000
0000
0000
,
1000
0000
0000
0000
,
0001
0000
0000
0000
,
1001
0000
0010
0000
,
1000
0000
0001
0000
,
1000
0000
1000
0000
,
0001
0000
1000
0000
,
0001
0000
0001
0000
,
0010
0000
0100
0000
,
0010
0000
0010
0000
,
0100
0000
0010
0000
,
0100
0000
0100
0000
,
1000
0000
0001
0000
,
1000
0000
1000
0000
,
0001
0000
1000
0000
,
0001
0000
0001
0000
,
0010
0000
0100
0000
,
0010
0000
0010
0000
,
0100
0000
0010
0000
,
0100
0000
0100
0000
,
0020
0000
0030
0010
,
0020
0000
0030
0010
,
0200
0000
0300
0100
,
0200
0000
0300
0100
,
0002
0000
0003
0001
,
0002
0000
0003
0001
,
2000
0000
3000
1000
,
2000
0000
3000
1000
,
0200
0000
0000
0300
,
0100
0000
0100
0000
,
0020
0000
0000
0030
,
0010
0000
0010
0000
,
2000
0000
0000
3000
,
1000
0000
1000
0000
,
0002
0000
0000
0003
,
0001
0000
0001
0000
,
0200
0000
0000
0300
,
0100
0000
0100
0000
,
0020
0000
0000
0030
,
0010
0000
0010
0000
,
2000
0000
0000
3000
,
1000
0000
1000
0000
,
0002
0000
0000
0003
,
0001
0000
0001
0000
,
0200
0000
0000
0300
,
0100
0000
0100
0000
,
0020
0000
0000
0030
,
0010
0000
0010
0000
,
2000
0000
0000
3000
,
1000
0000
1000
0000
,
0002
0000
0000
0003
,
0001
0000
0001
0000
,
2002
0000
0000
0000
,
0000
0000
0000
0000
,
3003
0000
0000
0000
;
