#TITLE:SMILY;
#SUBTITLE:;
#ARTIST:大塚愛;
#TITLETRANSLIT:Smily;
#SUBTITLETRANSLIT:;
#ARTISTTRANSLIT:Ai Otsuka;
#GENRE:;
#CREDIT:;
#BANNER:;
#BACKGROUND:;
#LYRICSPATH:;
#CDTITLE:;
#MUSIC:SMILY.ogg;
#OFFSET:-0.577000;
#SAMPLESTART:46.851509;
#SAMPLELENGTH:15.000000;
#SELECTABLE:YES;
#BPMS:0.000000=153.000000
;
#STOPS:
;
#BGCHANGES:;
#KEYSOUNDS:;
#ATTACKS:;

//---------------dance-single - ----------------
#NOTES:
     dance-single:
     :
     Easy:
     5:
     0.184041,0.218819,0.071045,0.047364,0.000000,272.000000,257.000000,15.000000,10.000000,0.000000,0.000000,0.184041,0.218819,0.071045,0.047364,0.000000,272.000000,257.000000,15.000000,10.000000,0.000000,0.000000:
// measure 0
0000
0000
0000
0000
,  // measure 1
0000
0000
0000
0000
,  // measure 2
0000
0000
0000
0000
,  // measure 3
0000
0000
0000
0000
,  // measure 4
1000
0000
0000
0000
,  // measure 5
0001
0000
1000
0000
,  // measure 6
0001
0000
0000
0000
,  // measure 7
1001
0000
0000
0000
,  // measure 8
0001
0000
0000
0000
,  // measure 9
1000
0000
0001
0000
,  // measure 10
1000
0000
0000
0000
,  // measure 11
1001
0000
0000
0000
,  // measure 12
1001
0000
0000
0000
,  // measure 13
1000
0000
1000
0000
,  // measure 14
0010
0000
0100
0000
,  // measure 15
0001
0000
0001
0000
,  // measure 16
0100
0000
0010
0000
,  // measure 17
0010
0000
0010
0000
,  // measure 18
0001
0000
1000
0000
,  // measure 19
0100
0000
0100
0000
,  // measure 20
1000
0000
0001
0000
,  // measure 21
2000
0000
0000
3000
,  // measure 22
0001
1000
0001
0000
,  // measure 23
0002
0000
0000
0003
,  // measure 24
1000
0001
1000
0000
,  // measure 25
0020
0000
0000
0030
,  // measure 26
0100
0010
0100
0000
,  // measure 27
0200
0000
0000
0300
,  // measure 28
0010
0100
0010
0000
,  // measure 29
0110
0000
0000
0000
,  // measure 30
1000
0000
1000
0000
,  // measure 31
1000
0010
1000
0000
,  // measure 32
0001
0000
0001
0000
,  // measure 33
0001
0100
0001
0000
,  // measure 34
0010
0000
0010
0000
,  // measure 35
0010
0001
0010
0000
,  // measure 36
0100
0000
0100
0000
,  // measure 37
0100
1000
0100
0000
,  // measure 38
1000
0000
1000
0000
,  // measure 39
1000
0010
1000
0000
,  // measure 40
0001
0000
0001
0000
,  // measure 41
0001
0100
0001
0000
,  // measure 42
0010
0000
0010
0000
,  // measure 43
0010
0001
0010
0000
,  // measure 44
0100
0000
0100
0000
,  // measure 45
0100
1000
0100
0000
,  // measure 46
1000
0000
0000
0000
,  // measure 47
0001
0000
1000
0000
,  // measure 48
0001
0000
0000
0000
,  // measure 49
1001
0000
0000
0000
,  // measure 50
0001
0000
0000
0000
,  // measure 51
1000
0000
0001
0000
,  // measure 52
1000
0000
0000
0000
,  // measure 53
1001
0000
0000
0000
,  // measure 54
1001
0000
0000
0000
,  // measure 55
1000
0000
1000
0000
,  // measure 56
0010
0000
0100
0000
,  // measure 57
0001
0000
0001
0000
,  // measure 58
0100
0000
0010
0000
,  // measure 59
0010
0000
0010
0000
,  // measure 60
0001
0000
1000
0000
,  // measure 61
0100
0000
0100
0000
,  // measure 62
1000
0000
0001
0000
,  // measure 63
2000
0000
0000
3000
,  // measure 64
0001
1000
0001
0000
,  // measure 65
0002
0000
0000
0003
,  // measure 66
1000
0001
1000
0000
,  // measure 67
0020
0000
0000
0030
,  // measure 68
0100
0010
0100
0000
,  // measure 69
0200
0000
0000
0300
,  // measure 70
0010
0100
0010
0000
,  // measure 71
0110
0000
0000
0000
,  // measure 72
1000
0000
1000
0000
,  // measure 73
1000
0010
1000
0000
,  // measure 74
0001
0000
0001
0000
,  // measure 75
0001
0100
0001
0000
,  // measure 76
0010
0000
0010
0000
,  // measure 77
0010
0001
0010
0000
,  // measure 78
0100
0000
0100
0000
,  // measure 79
0100
1000
0100
0000
,  // measure 80
1000
0000
1000
0000
,  // measure 81
1000
0010
1000
0000
,  // measure 82
0001
0000
0001
0000
,  // measure 83
0001
0100
0001
0000
,  // measure 84
0010
0000
0010
0000
,  // measure 85
0010
0001
0010
0000
,  // measure 86
0100
0000
0100
0000
,  // measure 87
0100
1000
0100
0000
,  // measure 88
1001
0000
0000
0000
,  // measure 89
1001
0000
0000
0000
,  // measure 90
1001
0000
0000
0000
,  // measure 91
0110
0000
0000
0000
,  // measure 92
1000
0000
1000
0000
,  // measure 93
1000
0010
1000
0000
,  // measure 94
0001
0000
0001
0000
,  // measure 95
0001
0100
0001
0000
,  // measure 96
0010
0000
0010
0000
,  // measure 97
0010
0001
0010
0000
,  // measure 98
0100
0000
0100
0000
,  // measure 99
0100
1000
0100
0000
,  // measure 100
1000
0000
1000
0000
,  // measure 101
1000
0010
1000
0000
,  // measure 102
0001
0000
0001
0000
,  // measure 103
0001
0100
0001
0000
,  // measure 104
0010
0000
0010
0000
,  // measure 105
0010
0001
0010
0000
,  // measure 106
0100
0000
0100
0000
,  // measure 107
0100
1000
0100
0000
,  // measure 108
1000
0000
0001
0000
,  // measure 109
0100
0001
1000
0000
,  // measure 110
0001
0000
1000
0000
,  // measure 111
0010
1000
0001
0000
,  // measure 112
0010
0000
0100
0000
,  // measure 113
1000
0100
0010
0000
,  // measure 114
0100
0000
0010
0000
,  // measure 115
0001
0010
0100
0000
,  // measure 116
1000
0000
0001
0000
,  // measure 117
0100
0001
1000
0000
,  // measure 118
0001
0000
1000
0000
,  // measure 119
0010
1000
0001
0000
,  // measure 120
0010
0000
0100
0000
,  // measure 121
1000
0100
0010
0000
,  // measure 122
0100
0000
0010
0000
,  // measure 123
0001
0010
0100
0000
,  // measure 124
1001
0000
0000
0000
,  // measure 125
1000
0000
0000
0000
,  // measure 126
1001
0000
0000
0000
,  // measure 127
0001
0000
0000
0000
,  // measure 128
2002
0000
0000
0000
,  // measure 129
0000
0000
0000
0000
,  // measure 130
0000
0000
0000
0000
,  // measure 131
0000
0000
0000
0000
,  // measure 132
3003
0000
0000
0000
;

//---------------dance-single - ----------------
#NOTES:
     dance-single:
     :
     Beginner:
     4:
     0.162389,0.187560,0.071045,0.047364,0.000000,240.000000,225.000000,15.000000,10.000000,0.000000,0.000000,0.162389,0.187560,0.071045,0.047364,0.000000,240.000000,225.000000,15.000000,10.000000,0.000000,0.000000:
// measure 0
0000
0000
0000
0000
,  // measure 1
0000
0000
0000
0000
,  // measure 2
0000
0000
0000
0000
,  // measure 3
0000
0000
0000
0000
,  // measure 4
1000
0000
0000
0000
,  // measure 5
0001
0000
1000
0000
,  // measure 6
0001
0000
0000
0000
,  // measure 7
1001
0000
0000
0000
,  // measure 8
0001
0000
0000
0000
,  // measure 9
1000
0000
0001
0000
,  // measure 10
1000
0000
0000
0000
,  // measure 11
1001
0000
0000
0000
,  // measure 12
1001
0000
0000
0000
,  // measure 13
1000
0000
1000
0000
,  // measure 14
0010
0000
0100
0000
,  // measure 15
0001
0000
0001
0000
,  // measure 16
0100
0000
0010
0000
,  // measure 17
0010
0000
0010
0000
,  // measure 18
0001
0000
1000
0000
,  // measure 19
0100
0000
0100
0000
,  // measure 20
1000
0000
0001
0000
,  // measure 21
2000
0000
0000
3000
,  // measure 22
0001
1000
0001
0000
,  // measure 23
0002
0000
0000
0003
,  // measure 24
1000
0001
1000
0000
,  // measure 25
0020
0000
0000
0030
,  // measure 26
0100
0010
0100
0000
,  // measure 27
0200
0000
0000
0300
,  // measure 28
0010
0100
0010
0000
,  // measure 29
0110
0000
0000
0000
,  // measure 30
1000
0000
1000
0000
,  // measure 31
1000
0000
1000
0000
,  // measure 32
0001
0000
0001
0000
,  // measure 33
0001
0000
0001
0000
,  // measure 34
0010
0000
0010
0000
,  // measure 35
0010
0000
0010
0000
,  // measure 36
0100
0000
0100
0000
,  // measure 37
0100
0000
0100
0000
,  // measure 38
1000
0000
1000
0000
,  // measure 39
1000
0000
1000
0000
,  // measure 40
0001
0000
0001
0000
,  // measure 41
0001
0000
0001
0000
,  // measure 42
0010
0000
0010
0000
,  // measure 43
0010
0000
0010
0000
,  // measure 44
0100
0000
0100
0000
,  // measure 45
0100
0000
0100
0000
,  // measure 46
1000
0000
0000
0000
,  // measure 47
0001
0000
1000
0000
,  // measure 48
0001
0000
0000
0000
,  // measure 49
1001
0000
0000
0000
,  // measure 50
0001
0000
0000
0000
,  // measure 51
1000
0000
0001
0000
,  // measure 52
1000
0000
0000
0000
,  // measure 53
1001
0000
0000
0000
,  // measure 54
1001
0000
0000
0000
,  // measure 55
1000
0000
1000
0000
,  // measure 56
0010
0000
0100
0000
,  // measure 57
0001
0000
0001
0000
,  // measure 58
0100
0000
0010
0000
,  // measure 59
0010
0000
0010
0000
,  // measure 60
0001
0000
1000
0000
,  // measure 61
0100
0000
0100
0000
,  // measure 62
1000
0000
0001
0000
,  // measure 63
2000
0000
0000
3000
,  // measure 64
0001
1000
0001
0000
,  // measure 65
0002
0000
0000
0003
,  // measure 66
1000
0001
1000
0000
,  // measure 67
0020
0000
0000
0030
,  // measure 68
0100
0010
0100
0000
,  // measure 69
0200
0000
0000
0300
,  // measure 70
0010
0100
0010
0000
,  // measure 71
0110
0000
0000
0000
,  // measure 72
1000
0000
1000
0000
,  // measure 73
1000
0000
1000
0000
,  // measure 74
0001
0000
0001
0000
,  // measure 75
0001
0000
0001
0000
,  // measure 76
0010
0000
0010
0000
,  // measure 77
0010
0000
0010
0000
,  // measure 78
0100
0000
0100
0000
,  // measure 79
0100
0000
0100
0000
,  // measure 80
1000
0000
1000
0000
,  // measure 81
1000
0000
1000
0000
,  // measure 82
0001
0000
0001
0000
,  // measure 83
0001
0000
0001
0000
,  // measure 84
0010
0000
0010
0000
,  // measure 85
0010
0000
0010
0000
,  // measure 86
0100
0000
0100
0000
,  // measure 87
0100
0000
0100
0000
,  // measure 88
1001
0000
0000
0000
,  // measure 89
1001
0000
0000
0000
,  // measure 90
1001
0000
0000
0000
,  // measure 91
0110
0000
0000
0000
,  // measure 92
1000
0000
1000
0000
,  // measure 93
1000
0000
1000
0000
,  // measure 94
0001
0000
0001
0000
,  // measure 95
0001
0000
0001
0000
,  // measure 96
0010
0000
0010
0000
,  // measure 97
0010
0000
0010
0000
,  // measure 98
0100
0000
0100
0000
,  // measure 99
0100
0000
0100
0000
,  // measure 100
1000
0000
1000
0000
,  // measure 101
1000
0000
1000
0000
,  // measure 102
0001
0000
0001
0000
,  // measure 103
0001
0000
0001
0000
,  // measure 104
0010
0000
0010
0000
,  // measure 105
0010
0000
0010
0000
,  // measure 106
0100
0000
0100
0000
,  // measure 107
0100
0000
0100
0000
,  // measure 108
1000
0000
0001
0000
,  // measure 109
0100
0000
1000
0000
,  // measure 110
0001
0000
1000
0000
,  // measure 111
0010
0000
0001
0000
,  // measure 112
0010
0000
0100
0000
,  // measure 113
1000
0000
0010
0000
,  // measure 114
0100
0000
0010
0000
,  // measure 115
0001
0000
0100
0000
,  // measure 116
1000
0000
0001
0000
,  // measure 117
0100
0000
1000
0000
,  // measure 118
0001
0000
1000
0000
,  // measure 119
0010
0000
0001
0000
,  // measure 120
0010
0000
0100
0000
,  // measure 121
1000
0000
0010
0000
,  // measure 122
0100
0000
0010
0000
,  // measure 123
0001
0000
0100
0000
,  // measure 124
1001
0000
0000
0000
,  // measure 125
1000
0000
0000
0000
,  // measure 126
1001
0000
0000
0000
,  // measure 127
0001
0000
0000
0000
,  // measure 128
2002
0000
0000
0000
,  // measure 129
0000
0000
0000
0000
,  // measure 130
0000
0000
0000
0000
,  // measure 131
0000
0000
0000
0000
,  // measure 132
3003
0000
0000
0000
;

//---------------dance-single - ----------------
#NOTES:
     dance-single:
     :
     Medium:
     5:
     0.204340,0.218819,0.071045,0.047364,0.000000,302.000000,287.000000,15.000000,10.000000,0.000000,0.000000,0.204340,0.218819,0.071045,0.047364,0.000000,302.000000,287.000000,15.000000,10.000000,0.000000,0.000000:
// measure 0
0000
0000
0000
0000
,  // measure 1
0000
0000
0000
0000
,  // measure 2
0000
0000
0000
0000
,  // measure 3
0000
0000
0000
0000
,  // measure 4
1000
0000
1000
0000
,  // measure 5
0001
0000
1000
0000
,  // measure 6
0001
0000
0000
0000
,  // measure 7
1001
0000
0000
0000
,  // measure 8
0001
0000
0001
0000
,  // measure 9
1000
0000
0001
0000
,  // measure 10
1000
0000
0000
0000
,  // measure 11
1001
0000
0000
0000
,  // measure 12
1001
0000
0000
0000
,  // measure 13
1000
0000
1000
0000
,  // measure 14
0010
0010
0100
0000
,  // measure 15
0001
0000
0001
0000
,  // measure 16
0100
0100
0010
0000
,  // measure 17
0010
0000
0010
0000
,  // measure 18
0001
0001
1000
0000
,  // measure 19
0100
0000
0100
0000
,  // measure 20
1000
1000
0001
0000
,  // measure 21
2000
0000
0000
3000
,  // measure 22
0001
1000
0001
0000
,  // measure 23
0002
0000
0000
0003
,  // measure 24
1000
0001
1000
0000
,  // measure 25
0020
0000
0000
0030
,  // measure 26
0100
0010
0100
0000
,  // measure 27
0200
0000
0000
0300
,  // measure 28
0010
0100
0010
0000
,  // measure 29
0110
0000
0000
0000
,  // measure 30
1000
0010
1000
0000
,  // measure 31
1000
0010
1000
0000
,  // measure 32
0001
0000
0001
0000
,  // measure 33
0001
0100
0001
0000
,  // measure 34
0010
0001
0010
0000
,  // measure 35
0010
0001
0010
0000
,  // measure 36
0100
0000
0100
0000
,  // measure 37
0100
1000
0100
0000
,  // measure 38
1000
0010
1000
0000
,  // measure 39
1000
0010
1000
0000
,  // measure 40
0001
0000
0001
0000
,  // measure 41
0001
0100
0001
0000
,  // measure 42
0010
0001
0010
0000
,  // measure 43
0010
0001
0010
0000
,  // measure 44
0100
0000
0100
0000
,  // measure 45
0100
1000
0100
0000
,  // measure 46
1000
0000
1000
0000
,  // measure 47
0001
0000
1000
0000
,  // measure 48
0001
0000
0000
0000
,  // measure 49
1001
0000
0000
0000
,  // measure 50
0001
0000
0001
0000
,  // measure 51
1000
0000
0001
0000
,  // measure 52
1000
0000
0000
0000
,  // measure 53
1001
0000
0000
0000
,  // measure 54
1001
0000
0000
0000
,  // measure 55
1000
0000
1000
0000
,  // measure 56
0010
0010
0100
0000
,  // measure 57
0001
0000
0001
0000
,  // measure 58
0100
0100
0010
0000
,  // measure 59
0010
0000
0010
0000
,  // measure 60
0001
0001
1000
0000
,  // measure 61
0100
0000
0100
0000
,  // measure 62
1000
1000
0001
0000
,  // measure 63
2000
0000
0000
3000
,  // measure 64
0001
1000
0001
0000
,  // measure 65
0002
0000
0000
0003
,  // measure 66
1000
0001
1000
0000
,  // measure 67
0020
0000
0000
0030
,  // measure 68
0100
0010
0100
0000
,  // measure 69
0200
0000
0000
0300
,  // measure 70
0010
0100
0010
0000
,  // measure 71
0110
0000
0000
0000
,  // measure 72
1000
0010
1000
0000
,  // measure 73
1000
0010
1000
0000
,  // measure 74
0001
0000
0001
0000
,  // measure 75
0001
0100
0001
0000
,  // measure 76
0010
0001
0010
0000
,  // measure 77
0010
0001
0010
0000
,  // measure 78
0100
0000
0100
0000
,  // measure 79
0100
1000
0100
0000
,  // measure 80
1000
0010
1000
0000
,  // measure 81
1000
0010
1000
0000
,  // measure 82
0001
0000
0001
0000
,  // measure 83
0001
0100
0001
0000
,  // measure 84
0010
0001
0010
0000
,  // measure 85
0010
0001
0010
0000
,  // measure 86
0100
0000
0100
0000
,  // measure 87
0100
1000
0100
0000
,  // measure 88
1001
0000
0000
0000
,  // measure 89
1001
0000
0000
0000
,  // measure 90
1001
0000
0000
0000
,  // measure 91
0110
0000
0000
0000
,  // measure 92
1000
0010
1000
0000
,  // measure 93
1000
0010
1000
0000
,  // measure 94
0001
0000
0001
0000
,  // measure 95
0001
0100
0001
0000
,  // measure 96
0010
0001
0010
0000
,  // measure 97
0010
0001
0010
0000
,  // measure 98
0100
0000
0100
0000
,  // measure 99
0100
1000
0100
0000
,  // measure 100
1000
0010
1000
0000
,  // measure 101
1000
0010
1000
0000
,  // measure 102
0001
0000
0001
0000
,  // measure 103
0001
0100
0001
0000
,  // measure 104
0010
0001
0010
0000
,  // measure 105
0010
0001
0010
0000
,  // measure 106
0100
0000
0100
0000
,  // measure 107
0100
1000
0100
0000
,  // measure 108
1000
0100
0001
0000
,  // measure 109
0100
0001
1000
0000
,  // measure 110
0001
0000
1000
0000
,  // measure 111
0010
1000
0001
0000
,  // measure 112
0010
1000
0100
0000
,  // measure 113
1000
0100
0010
0000
,  // measure 114
0100
0000
0010
0000
,  // measure 115
0001
0010
0100
0000
,  // measure 116
1000
0100
0001
0000
,  // measure 117
0100
0001
1000
0000
,  // measure 118
0001
0000
1000
0000
,  // measure 119
0010
1000
0001
0000
,  // measure 120
0010
1000
0100
0000
,  // measure 121
1000
0100
0010
0000
,  // measure 122
0100
0000
0010
0000
,  // measure 123
0001
0010
0100
0000
,  // measure 124
1001
0000
0000
0000
,  // measure 125
1000
0000
0001
0000
,  // measure 126
1001
0000
0000
0000
,  // measure 127
0001
0000
1000
0000
,  // measure 128
2002
0000
0000
0000
,  // measure 129
0000
0000
0000
0000
,  // measure 130
0000
0000
0000
0000
,  // measure 131
0000
0000
0000
0000
,  // measure 132
3003
0000
0000
0000
;

//---------------dance-single - ----------------
#NOTES:
     dance-single:
     :
     Hard:
     5:
     0.218549,0.250079,0.071045,0.047364,0.000000,323.000000,308.000000,15.000000,10.000000,0.000000,0.000000,0.218549,0.250079,0.071045,0.047364,0.000000,323.000000,308.000000,15.000000,10.000000,0.000000,0.000000:
// measure 0
0000
0000
0000
0000
,  // measure 1
0000
0000
0000
0000
,  // measure 2
0000
0000
0000
0000
,  // measure 3
0000
0000
0000
0000
,  // measure 4
1000
0000
1000
0000
,  // measure 5
0001
0000
1000
0000
,  // measure 6
0001
0000
0000
0000
,  // measure 7
1001
0000
0000
0000
,  // measure 8
0001
0000
0001
0000
,  // measure 9
1000
0000
0001
0000
,  // measure 10
1000
0000
0000
0000
,  // measure 11
1001
0000
0000
0000
,  // measure 12
1001
0000
0010
0000
,  // measure 13
1000
0000
1000
0000
,  // measure 14
0010
0010
0100
0000
,  // measure 15
0001
0000
0001
0000
,  // measure 16
0100
0100
0010
0000
,  // measure 17
0010
0000
0010
0000
,  // measure 18
0001
0001
1000
0000
,  // measure 19
0100
0000
0100
0000
,  // measure 20
1000
1000
0001
0000
,  // measure 21
2000
0000
0000
3000
,  // measure 22
0001
1000
0001
0000
,  // measure 23
0002
0000
0000
0003
,  // measure 24
1000
0001
1000
0000
,  // measure 25
0020
0000
0000
0030
,  // measure 26
0100
0010
0100
0000
,  // measure 27
0200
0000
0000
0300
,  // measure 28
0010
0100
0010
0000
,  // measure 29
0110
0000
0100
0000
,  // measure 30
1000
0010
1000
0000
,  // measure 31
1000
0010
1000
0000
,  // measure 32
0001
0100
0001
0000
,  // measure 33
0001
0100
0001
0000
,  // measure 34
0010
0001
0010
0000
,  // measure 35
0010
0001
0010
0000
,  // measure 36
0100
1000
0100
0000
,  // measure 37
0100
1000
0100
0000
,  // measure 38
1000
0010
1000
0000
,  // measure 39
1000
0010
1000
0000
,  // measure 40
0001
0100
0001
0000
,  // measure 41
0001
0100
0001
0000
,  // measure 42
0010
0001
0010
0000
,  // measure 43
0010
0001
0010
0000
,  // measure 44
0100
1000
0100
0000
,  // measure 45
0100
1000
0100
0000
,  // measure 46
1000
0000
1000
0000
,  // measure 47
0001
0000
1000
0000
,  // measure 48
0001
0000
0000
0000
,  // measure 49
1001
0000
0000
0000
,  // measure 50
0001
0000
0001
0000
,  // measure 51
1000
0000
0001
0000
,  // measure 52
1000
0000
0000
0000
,  // measure 53
1001
0000
0000
0000
,  // measure 54
1001
0000
0010
0000
,  // measure 55
1000
0000
1000
0000
,  // measure 56
0010
0010
0100
0000
,  // measure 57
0001
0000
0001
0000
,  // measure 58
0100
0100
0010
0000
,  // measure 59
0010
0000
0010
0000
,  // measure 60
0001
0001
1000
0000
,  // measure 61
0100
0000
0100
0000
,  // measure 62
1000
1000
0001
0000
,  // measure 63
2000
0000
0000
3000
,  // measure 64
0001
1000
0001
0000
,  // measure 65
0002
0000
0000
0003
,  // measure 66
1000
0001
1000
0000
,  // measure 67
0020
0000
0000
0030
,  // measure 68
0100
0010
0100
0000
,  // measure 69
0200
0000
0000
0300
,  // measure 70
0010
0100
0010
0000
,  // measure 71
0110
0000
0100
0000
,  // measure 72
1000
0010
1000
0000
,  // measure 73
1000
0010
1000
0000
,  // measure 74
0001
0100
0001
0000
,  // measure 75
0001
0100
0001
0000
,  // measure 76
0010
0001
0010
0000
,  // measure 77
0010
0001
0010
0000
,  // measure 78
0100
1000
0100
0000
,  // measure 79
0100
1000
0100
0000
,  // measure 80
1000
0010
1000
0000
,  // measure 81
1000
0010
1000
0000
,  // measure 82
0001
0100
0001
0000
,  // measure 83
0001
0100
0001
0000
,  // measure 84
0010
0001
0010
0000
,  // measure 85
0010
0001
0010
0000
,  // measure 86
0100
1000
0100
0000
,  // measure 87
0100
1000
0100
0000
,  // measure 88
1001
0000
0000
0000
,  // measure 89
1001
0000
0000
0000
,  // measure 90
1001
0000
0000
0000
,  // measure 91
0110
0000
0100
0000
,  // measure 92
1000
0010
1000
0000
,  // measure 93
1000
0010
1000
0000
,  // measure 94
0001
0100
0001
0000
,  // measure 95
0001
0100
0001
0000
,  // measure 96
0010
0001
0010
0000
,  // measure 97
0010
0001
0010
0000
,  // measure 98
0100
1000
0100
0000
,  // measure 99
0100
1000
0100
0000
,  // measure 100
1000
0010
1000
0000
,  // measure 101
1000
0010
1000
0000
,  // measure 102
0001
0100
0001
0000
,  // measure 103
0001
0100
0001
0000
,  // measure 104
0010
0001
0010
0000
,  // measure 105
0010
0001
0010
0000
,  // measure 106
0100
1000
0100
0000
,  // measure 107
0100
1000
0100
0000
,  // measure 108
1000
0100
0001
0000
,  // measure 109
0100
0001
1000
0000
,  // measure 110
0001
0010
1000
0000
,  // measure 111
0010
1000
0001
0000
,  // measure 112
0010
1000
0100
0000
,  // measure 113
1000
0100
0010
0000
,  // measure 114
0100
0001
0010
0000
,  // measure 115
0001
0010
0100
0000
,  // measure 116
1000
0100
0001
0000
,  // measure 117
0100
0001
1000
0000
,  // measure 118
0001
0010
1000
0000
,  // measure 119
0010
1000
0001
0000
,  // measure 120
0010
1000
0100
0000
,  // measure 121
1000
0100
0010
0000
,  // measure 122
0100
0001
0010
0000
,  // measure 123
0001
0010
0100
0000
,  // measure 124
1001
0000
0000
0000
,  // measure 125
1000
0000
0001
0000
,  // measure 126
1001
0000
0000
0000
,  // measure 127
0001
0000
1000
0000
,  // measure 128
2002
0000
0000
0000
,  // measure 129
0000
0000
0000
0000
,  // measure 130
0000
0000
0000
0000
,  // measure 131
0000
0000
0000
0000
,  // measure 132
3003
0000
0000
0000
;

//---------------dance-single - ----------------
#NOTES:
     dance-single:
     :
     Challenge:
     6:
     0.230728,0.250079,0.071045,0.047364,0.000000,341.000000,326.000000,15.000000,10.000000,0.000000,0.000000,0.230728,0.250079,0.071045,0.047364,0.000000,341.000000,326.000000,15.000000,10.000000,0.000000,0.000000:
// measure 0
0000
0000
0000
0000
,  // measure 1
0000
0000
0000
0000
,  // measure 2
0000
0000
0000
0000
,  // measure 3
0000
0000
0000
0000
,  // measure 4
1000
0000
1000
0000
,  // measure 5
0001
0000
1000
0000
,  // measure 6
0001
0000
0000
0000
,  // measure 7
1001
0000
0000
0000
,  // measure 8
0001
0000
0001
0000
,  // measure 9
1000
0000
0001
0000
,  // measure 10
1000
0000
0000
0000
,  // measure 11
1001
0000
0000
0000
,  // measure 12
1001
0000
0010
0000
,  // measure 13
1000
0010
1000
0000
,  // measure 14
0010
0010
0100
0000
,  // measure 15
0001
0100
0001
0000
,  // measure 16
0100
0100
0010
0000
,  // measure 17
0010
0001
0010
0000
,  // measure 18
0001
0001
1000
0000
,  // measure 19
0100
1000
0100
0000
,  // measure 20
1000
1000
0001
0000
,  // measure 21
2000
0000
0001
3000
,  // measure 22
0001
1000
0001
0000
,  // measure 23
0002
0000
1000
0003
,  // measure 24
1000
0001
1000
0000
,  // measure 25
0020
0000
0100
0030
,  // measure 26
0100
0010
0100
0000
,  // measure 27
0200
0000
0010
0300
,  // measure 28
0010
0100
0010
0000
,  // measure 29
0110
0000
0100
0000
,  // measure 30
1000
0010
1000
0000
,  // measure 31
1000
0010
1000
0000
,  // measure 32
0001
0100
0001
0000
,  // measure 33
0001
0100
0001
0000
,  // measure 34
0010
0001
0010
0000
,  // measure 35
0010
0001
0010
0000
,  // measure 36
0100
1000
0100
0000
,  // measure 37
0100
1000
0100
0000
,  // measure 38
1000
0010
1000
0000
,  // measure 39
1000
0010
1000
0000
,  // measure 40
0001
0100
0001
0000
,  // measure 41
0001
0100
0001
0000
,  // measure 42
0010
0001
0010
0000
,  // measure 43
0010
0001
0010
0000
,  // measure 44
0100
1000
0100
0000
,  // measure 45
0100
1000
0100
0000
,  // measure 46
1000
0000
1000
0000
,  // measure 47
0001
0000
1000
0000
,  // measure 48
0001
0000
0000
0000
,  // measure 49
1001
0000
0000
0000
,  // measure 50
0001
0000
0001
0000
,  // measure 51
1000
0000
0001
0000
,  // measure 52
1000
0000
0000
0000
,  // measure 53
1001
0000
0000
0000
,  // measure 54
1001
0000
0010
0000
,  // measure 55
1000
0010
1000
0000
,  // measure 56
0010
0010
0100
0000
,  // measure 57
0001
0100
0001
0000
,  // measure 58
0100
0100
0010
0000
,  // measure 59
0010
0001
0010
0000
,  // measure 60
0001
0001
1000
0000
,  // measure 61
0100
1000
0100
0000
,  // measure 62
1000
1000
0001
0000
,  // measure 63
2000
0000
0001
3000
,  // measure 64
0001
1000
0001
0000
,  // measure 65
0002
0000
1000
0003
,  // measure 66
1000
0001
1000
0000
,  // measure 67
0020
0000
0100
0030
,  // measure 68
0100
0010
0100
0000
,  // measure 69
0200
0000
0010
0300
,  // measure 70
0010
0100
0010
0000
,  // measure 71
0110
0000
0100
0000
,  // measure 72
1000
0010
1000
0000
,  // measure 73
1000
0010
1000
0000
,  // measure 74
0001
0100
0001
0000
,  // measure 75
0001
0100
0001
0000
,  // measure 76
0010
0001
0010
0000
,  // measure 77
0010
0001
0010
0000
,  // measure 78
0100
1000
0100
0000
,  // measure 79
0100
1000
0100
0000
,  // measure 80
1000
0010
1000
0000
,  // measure 81
1000
0010
1000
0000
,  // measure 82
0001
0100
0001
0000
,  // measure 83
0001
0100
0001
0000
,  // measure 84
0010
0001
0010
0000
,  // measure 85
0010
0001
0010
0000
,  // measure 86
0100
1000
0100
0000
,  // measure 87
0100
1000
0100
0000
,  // measure 88
1001
0000
0000
0000
,  // measure 89
1001
0000
0000
0000
,  // measure 90
1001
0000
0000
0000
,  // measure 91
0110
0000
0100
0000
,  // measure 92
1000
0010
1000
0000
,  // measure 93
1000
0010
1000
0000
,  // measure 94
0001
0100
0001
0000
,  // measure 95
0001
0100
0001
0000
,  // measure 96
0010
0001
0010
0000
,  // measure 97
0010
0001
0010
0000
,  // measure 98
0100
1000
0100
0000
,  // measure 99
0100
1000
0100
0000
,  // measure 100
1000
0010
1000
0000
,  // measure 101
1000
0010
1000
0000
,  // measure 102
0001
0100
0001
0000
,  // measure 103
0001
0100
0001
0000
,  // measure 104
0010
0001
0010
0000
,  // measure 105
0010
0001
0010
0000
,  // measure 106
0100
1000
0100
0000
,  // measure 107
0100
1000
0100
0000
,  // measure 108
1000
0100
0001
0000
,  // measure 109
0100
0001
1000
0000
,  // measure 110
0001
0010
1000
0000
,  // measure 111
0010
1000
0001
0000
,  // measure 112
0010
1000
0100
0000
,  // measure 113
1000
0100
0010
0000
,  // measure 114
0100
0001
0010
0000
,  // measure 115
0001
0010
0100
0000
,  // measure 116
1000
0100
0001
0000
,  // measure 117
0100
0001
1000
0000
,  // measure 118
0001
0010
1000
0000
,  // measure 119
0010
1000
0001
0000
,  // measure 120
0010
1000
0100
0000
,  // measure 121
1000
0100
0010
0000
,  // measure 122
0100
0001
0010
0000
,  // measure 123
0001
0010
0100
0000
,  // measure 124
1001
0000
0010
0000
,  // measure 125
1000
0000
0001
0000
,  // measure 126
1001
0000
0100
0000
,  // measure 127
0001
0000
1000
0000
,  // measure 128
2002
0000
0000
0000
,  // measure 129
0000
0000
0000
0000
,  // measure 130
0000
0000
0000
0000
,  // measure 131
0000
0000
0000
0000
,  // measure 132
3003
0000
0000
0000
;
