#VERSION:0.83;
#TITLE:プリティー☆チャンネル;
#SUBTITLE:;
#ARTIST:わーすた;
#TITLETRANSLIT:Pretty☆Channel;
#SUBTITLETRANSLIT:;
#ARTISTTRANSLIT:WorSta;
#GENRE:;
#ORIGIN:;
#CREDIT:;
#BANNER:;
#BACKGROUND:;
#PREVIEWVID:;
#JACKET:;
#CDIMAGE:;
#DISCIMAGE:;
#LYRICSPATH:;
#CDTITLE:;
#MUSIC:Pretty Channel.ogg;
#OFFSET:-0.483000;
#SAMPLESTART:54.752663;
#SAMPLELENGTH:15.000000;
#SELECTABLE:YES;
#BPMS:0.000=178.000;
#STOPS:;
#DELAYS:;
#WARPS:;
#TIMESIGNATURES:0.000=4=4;
#TICKCOUNTS:0.000=4;
#COMBOS:0.000=1;
#SPEEDS:0.000=1.000=0.000=0;
#SCROLLS:0.000=1.000;
#FAKES:;
#LABELS:0.000=Song Start;
#BGCHANGES:;
#KEYSOUNDS:;
#ATTACKS:
;

//---------------dance-single - ----------------
#NOTEDATA:;
#CHARTNAME:;
#STEPSTYPE:dance-single;
#DESCRIPTION:;
#CHARTSTYLE:;
#DIFFICULTY:Easy;
#METER:5;
#RADARVALUES:0.208641,0.292098,0.157141,0.083192,0.000000,316.000000,282.000000,34.000000,18.000000,0.000000,0.000000,0.000000,0.000000,0.000000,0.208641,0.292098,0.157141,0.083192,0.000000,316.000000,282.000000,34.000000,18.000000,0.000000,0.000000,0.000000,0.000000,0.000000;
#CREDIT:;
#NOTES:
// measure 0
0000
0000
0000
0000
,  // measure 1
0000
0000
0000
0000
,  // measure 2
0000
0000
0000
0000
,  // measure 3
0000
0000
0000
0000
,  // measure 4
0000
0000
0000
0000
,  // measure 5
0000
0000
0000
0000
,  // measure 6
0010
0000
0010
0000
,  // measure 7
0100
0000
0100
0000
,  // measure 8
1000
0000
1000
0000
,  // measure 9
0001
0000
0001
0000
,  // measure 10
1000
0000
1000
0000
,  // measure 11
0001
0000
0001
0000
,  // measure 12
1000
0000
1000
0000
,  // measure 13
0001
0000
0001
0000
,  // measure 14
2002
0000
0000
3003
,  // measure 15
0010
0000
0000
0000
,  // measure 16
0010
0010
0000
0000
,  // measure 17
0010
0000
0000
0000
,  // measure 18
0010
0010
0000
0000
,  // measure 19
0100
0000
0000
0000
,  // measure 20
0100
0100
0000
0000
,  // measure 21
0100
0000
0000
0000
,  // measure 22
0100
0100
0000
0000
,  // measure 23
0001
0000
0000
0000
,  // measure 24
0001
0001
0000
0000
,  // measure 25
0001
0000
0000
0000
,  // measure 26
0001
0001
0000
0000
,  // measure 27
1000
0000
0000
0000
,  // measure 28
1000
1000
0000
0000
,  // measure 29
1000
0000
0000
0000
,  // measure 30
1000
1000
0000
0000
,  // measure 31
0020
0000
0000
0000
,  // measure 32
0100
0000
0000
0030
,  // measure 33
1000
0000
1000
0000
,  // measure 34
0001
0000
0001
0000
,  // measure 35
0200
0000
0000
0000
,  // measure 36
0010
0000
0000
0300
,  // measure 37
0010
0000
0010
0000
,  // measure 38
0010
0000
0010
0000
,  // measure 39
0020
0000
0000
0200
,  // measure 40
0000
0000
0000
0330
,  // measure 41
1000
1000
1000
0000
,  // measure 42
1000
0001
1000
0000
,  // measure 43
1001
0000
0010
0000
,  // measure 44
1001
0000
0010
0000
,  // measure 45
0001
0001
0001
0000
,  // measure 46
0001
1000
0001
0000
,  // measure 47
1001
0000
0100
0000
,  // measure 48
1001
0000
0100
0000
,  // measure 49
0010
0010
0010
0000
,  // measure 50
0010
0100
0010
0000
,  // measure 51
0110
0000
0001
0000
,  // measure 52
0110
0000
0001
0000
,  // measure 53
0100
0100
0100
0000
,  // measure 54
0100
0010
0100
0000
,  // measure 55
0110
0000
1000
0000
,  // measure 56
0110
0000
1000
0000
,  // measure 57
0010
0010
0010
0000
,  // measure 58
1001
0000
0000
0000
,  // measure 59
0100
0100
0100
0000
,  // measure 60
1001
0000
0000
0000
,  // measure 61
0010
0000
0010
0000
,  // measure 62
0100
0000
0100
0000
,  // measure 63
1000
0000
1000
0000
,  // measure 64
0001
0000
0001
0000
,  // measure 65
1000
0000
1000
0000
,  // measure 66
0001
0000
0001
0000
,  // measure 67
1000
0000
1000
0000
,  // measure 68
0001
0000
0001
0000
,  // measure 69
2002
0000
0000
3003
,  // measure 70
0010
0000
0000
0000
,  // measure 71
0010
0010
0000
0000
,  // measure 72
0010
0000
0000
0000
,  // measure 73
0010
0010
0000
0000
,  // measure 74
0100
0000
0000
0000
,  // measure 75
0100
0100
0000
0000
,  // measure 76
0100
0000
0000
0000
,  // measure 77
0100
0100
0000
0000
,  // measure 78
0001
0000
0000
0000
,  // measure 79
0001
0001
0000
0000
,  // measure 80
0001
0000
0000
0000
,  // measure 81
0001
0001
0000
0000
,  // measure 82
1000
0000
0000
0000
,  // measure 83
1000
1000
0000
0000
,  // measure 84
1000
0000
0000
0000
,  // measure 85
1000
1000
0000
0000
,  // measure 86
0020
0000
0000
0000
,  // measure 87
0100
0000
0000
0030
,  // measure 88
1000
0000
1000
0000
,  // measure 89
0001
0000
0001
0000
,  // measure 90
0200
0000
0000
0000
,  // measure 91
0010
0000
0000
0300
,  // measure 92
0010
0000
0010
0000
,  // measure 93
0010
0000
0010
0000
,  // measure 94
0020
0000
0000
0200
,  // measure 95
0000
0000
0000
0330
,  // measure 96
1000
1000
1000
0000
,  // measure 97
1000
0001
1000
0000
,  // measure 98
1001
0000
0010
0000
,  // measure 99
1001
0000
0010
0000
,  // measure 100
0001
0001
0001
0000
,  // measure 101
0001
1000
0001
0000
,  // measure 102
1001
0000
0100
0000
,  // measure 103
1001
0000
0100
0000
,  // measure 104
0010
0010
0010
0000
,  // measure 105
0010
0100
0010
0000
,  // measure 106
0110
0000
0001
0000
,  // measure 107
0110
0000
0001
0000
,  // measure 108
0100
0100
0100
0000
,  // measure 109
0100
0010
0100
0000
,  // measure 110
0110
0000
1000
0000
,  // measure 111
0110
0000
1000
0000
,  // measure 112
0010
0000
0000
0000
,  // measure 113
0010
0000
0000
0000
,  // measure 114
0010
0000
0000
0000
,  // measure 115
0010
0000
0000
0000
,  // measure 116
0100
0000
0000
0000
,  // measure 117
0100
0000
0000
0000
,  // measure 118
0100
0000
0000
0000
,  // measure 119
0100
0000
0000
0000
,  // measure 120
0001
0000
1000
0000
,  // measure 121
0001
0000
1000
0000
,  // measure 122
0020
0000
0000
0000
,  // measure 123
0100
0000
0000
0030
,  // measure 124
1000
0000
1000
0000
,  // measure 125
0001
0000
0001
0000
,  // measure 126
0200
0000
0000
0000
,  // measure 127
0010
0000
0000
0300
,  // measure 128
0010
0000
0010
0000
,  // measure 129
0010
0000
0010
0000
,  // measure 130
0020
0000
0000
0200
,  // measure 131
0000
0000
0000
0330
,  // measure 132
1000
1000
1000
0000
,  // measure 133
1000
0001
1000
0000
,  // measure 134
1001
0000
0010
0000
,  // measure 135
1001
0000
0010
0000
,  // measure 136
0001
0001
0001
0000
,  // measure 137
0001
1000
0001
0000
,  // measure 138
1001
0000
0100
0000
,  // measure 139
1001
0000
0100
0000
,  // measure 140
0010
0010
0010
0000
,  // measure 141
0010
0100
0010
0000
,  // measure 142
0110
0000
0001
0000
,  // measure 143
0110
0000
0001
0000
,  // measure 144
0100
0100
0100
0000
,  // measure 145
0100
0010
0100
0000
,  // measure 146
0110
0000
1000
0000
,  // measure 147
0110
0000
1000
0000
,  // measure 148
0010
0010
0010
0000
,  // measure 149
1001
0000
0000
0000
,  // measure 150
0100
0100
0100
0000
,  // measure 151
1001
0000
0000
0000
,  // measure 152
0001
0001
0001
0000
,  // measure 153
0110
0000
0000
0000
,  // measure 154
1000
1000
1000
0000
,  // measure 155
0110
0000
0000
0000
,  // measure 156
1001
0000
2002
0000
,  // measure 157
0000
0000
0000
0000
,  // measure 158
3003
0000
0000
0000
;

//---------------dance-single - ----------------
#NOTEDATA:;
#CHARTNAME:;
#STEPSTYPE:dance-single;
#DESCRIPTION:;
#CHARTSTYLE:;
#DIFFICULTY:Beginner;
#METER:4;
#RADARVALUES:0.170346,0.255585,0.101680,0.083192,0.000000,258.000000,236.000000,22.000000,18.000000,0.000000,0.000000,0.000000,0.000000,0.000000,0.170346,0.255585,0.101680,0.083192,0.000000,258.000000,236.000000,22.000000,18.000000,0.000000,0.000000,0.000000,0.000000,0.000000;
#CREDIT:;
#NOTES:
0000
0000
0000
0000
,
0000
0000
0000
0000
,
0000
0000
0000
0000
,
0000
0000
0000
0000
,
0000
0000
0000
0000
,
0000
0000
0000
0000
,
0010
0000
0010
0000
,
0100
0000
0100
0000
,
1000
0000
1000
0000
,
0001
0000
0001
0000
,
1000
0000
1000
0000
,
0001
0000
0001
0000
,
1000
0000
1000
0000
,
0001
0000
0001
0000
,
2002
0000
0000
3003
,
0010
0000
0000
0000
,
0010
0000
0000
0000
,
0010
0000
0000
0000
,
0010
0000
0000
0000
,
0100
0000
0000
0000
,
0100
0000
0000
0000
,
0100
0000
0000
0000
,
0100
0000
0000
0000
,
0001
0000
0000
0000
,
0001
0000
0000
0000
,
0001
0000
0000
0000
,
0001
0000
0000
0000
,
1000
0000
0000
0000
,
1000
0000
0000
0000
,
1000
0000
0000
0000
,
1000
0000
0000
0000
,
0020
0000
0000
0000
,
0100
0000
0000
0030
,
1000
0000
1000
0000
,
0001
0000
0001
0000
,
0200
0000
0000
0000
,
0010
0000
0000
0300
,
0010
0000
0010
0000
,
0010
0000
0010
0000
,
0020
0000
0000
0200
,
0000
0000
0000
0330
,
1000
0000
1000
0000
,
1000
0000
1000
0000
,
1001
0000
0010
0000
,
0010
0000
0010
0000
,
0001
0000
0001
0000
,
0001
0000
0001
0000
,
1001
0000
0100
0000
,
0100
0000
0100
0000
,
0010
0000
0010
0000
,
0010
0000
0010
0000
,
0110
0000
0001
0000
,
0001
0000
0001
0000
,
0100
0000
0100
0000
,
0100
0000
0100
0000
,
0110
0000
1000
0000
,
1000
0000
1000
0000
,
0010
0000
0010
0000
,
1001
0000
0000
0000
,
0100
0000
0100
0000
,
1001
0000
0000
0000
,
0010
0000
0010
0000
,
0100
0000
0100
0000
,
1000
0000
1000
0000
,
0001
0000
0001
0000
,
1000
0000
1000
0000
,
0001
0000
0001
0000
,
1000
0000
1000
0000
,
0001
0000
0001
0000
,
2002
0000
0000
3003
,
0010
0000
0000
0000
,
0010
0000
0000
0000
,
0010
0000
0000
0000
,
0010
0000
0000
0000
,
0100
0000
0000
0000
,
0100
0000
0000
0000
,
0100
0000
0000
0000
,
0100
0000
0000
0000
,
0001
0000
0000
0000
,
0001
0000
0000
0000
,
0001
0000
0000
0000
,
0001
0000
0000
0000
,
1000
0000
0000
0000
,
1000
0000
0000
0000
,
1000
0000
0000
0000
,
1000
0000
0000
0000
,
0020
0000
0000
0000
,
0100
0000
0000
0030
,
1000
0000
1000
0000
,
0001
0000
0001
0000
,
0200
0000
0000
0000
,
0010
0000
0000
0300
,
0010
0000
0010
0000
,
0010
0000
0010
0000
,
0020
0000
0000
0200
,
0000
0000
0000
0330
,
1000
0000
1000
0000
,
1000
0000
1000
0000
,
1001
0000
0010
0000
,
0010
0000
0010
0000
,
0001
0000
0001
0000
,
0001
0000
0001
0000
,
1001
0000
0100
0000
,
0100
0000
0100
0000
,
0010
0000
0010
0000
,
0010
0000
0010
0000
,
0110
0000
0001
0000
,
0001
0000
0001
0000
,
0100
0000
0100
0000
,
0100
0000
0100
0000
,
0110
0000
1000
0000
,
1000
0000
1000
0000
,
0010
0000
0000
0000
,
0010
0000
0000
0000
,
0010
0000
0000
0000
,
0010
0000
0000
0000
,
0100
0000
0000
0000
,
0100
0000
0000
0000
,
0100
0000
0000
0000
,
0100
0000
0000
0000
,
0001
0000
1000
0000
,
0001
0000
1000
0000
,
0020
0000
0000
0000
,
0100
0000
0000
0030
,
1000
0000
1000
0000
,
0001
0000
0001
0000
,
0200
0000
0000
0000
,
0010
0000
0000
0300
,
0010
0000
0010
0000
,
0010
0000
0010
0000
,
0020
0000
0000
0200
,
0000
0000
0000
0330
,
1000
0000
1000
0000
,
1000
0000
1000
0000
,
1001
0000
0010
0000
,
0010
0000
0010
0000
,
0001
0000
0001
0000
,
0001
0000
0001
0000
,
1001
0000
0100
0000
,
0100
0000
0100
0000
,
0010
0000
0010
0000
,
0010
0000
0010
0000
,
0110
0000
0001
0000
,
0001
0000
0001
0000
,
0100
0000
0100
0000
,
0100
0000
0100
0000
,
0110
0000
1000
0000
,
1000
0000
1000
0000
,
0010
0000
0010
0000
,
1001
0000
0000
0000
,
0100
0000
0100
0000
,
1001
0000
0000
0000
,
0001
0000
0001
0000
,
0110
0000
0000
0000
,
1000
0000
1000
0000
,
0110
0000
0000
0000
,
1001
0000
2002
0000
,
0000
0000
0000
0000
,
3003
0000
0000
0000
;

//---------------dance-single - ----------------
#NOTEDATA:;
#CHARTNAME:;
#STEPSTYPE:dance-single;
#DESCRIPTION:;
#CHARTSTYLE:;
#DIFFICULTY:Medium;
#METER:6;
#RADARVALUES:0.230430,0.328610,0.157141,0.083192,0.000000,349.000000,315.000000,34.000000,18.000000,0.000000,0.000000,0.000000,0.000000,0.000000,0.230430,0.328610,0.157141,0.083192,0.000000,349.000000,315.000000,34.000000,18.000000,0.000000,0.000000,0.000000,0.000000,0.000000;
#CREDIT:;
#NOTES:
0000
0000
0000
0000
,
0000
0000
0000
0000
,
0000
0000
0000
0000
,
0000
0000
0000
0000
,
0000
0000
0000
0000
,
0000
0000
0000
0000
,
0010
0000
0010
0000
,
0100
0000
0100
0000
,
1000
0000
1000
0000
,
0001
0000
0001
0000
,
1000
0000
1000
0000
,
0001
0000
0001
0000
,
1000
0000
1000
0000
,
0001
0000
0001
0000
,
2002
0000
0000
3003
,
0010
0000
0010
0000
,
0010
0010
0000
0000
,
0010
0000
0010
0000
,
0010
0010
0000
0000
,
0100
0000
0100
0000
,
0100
0100
0000
0000
,
0100
0000
0100
0000
,
0100
0100
0000
0000
,
0001
0000
0001
0000
,
0001
0001
0000
0000
,
0001
0000
0001
0000
,
0001
0001
0000
0000
,
1000
0000
1000
0000
,
1000
1000
0000
0000
,
1000
0000
1000
0000
,
1000
1000
0000
0000
,
0020
0000
0000
0000
,
0100
0000
0000
0030
,
1000
0000
1000
0000
,
0001
0000
0001
0000
,
0200
0000
0000
0000
,
0010
0000
0000
0300
,
0010
0000
0010
0000
,
0010
0010
0010
0000
,
0020
0000
0000
0200
,
0000
0000
0000
0330
,
1000
1000
1000
0000
,
1000
0001
1000
0000
,
1001
0000
0010
0000
,
1001
0000
0010
0010
,
0001
0001
0001
0000
,
0001
1000
0001
0000
,
1001
0000
0100
0000
,
1001
0000
0100
0100
,
0010
0010
0010
0000
,
0010
0100
0010
0000
,
0110
0000
0001
0000
,
0110
0000
0001
0001
,
0100
0100
0100
0000
,
0100
0010
0100
0000
,
0110
0000
1000
0000
,
0110
0000
1000
1000
,
0010
0010
0010
0000
,
1001
0000
0000
0000
,
0100
0100
0100
0000
,
1001
0000
0000
0000
,
0010
0000
0010
0000
,
0100
0000
0100
0000
,
1000
0000
1000
0000
,
0001
0000
0001
0000
,
1000
0000
1000
0000
,
0001
0000
0001
0000
,
1000
0000
1000
0000
,
0001
0000
0001
0000
,
2002
0000
0000
3003
,
0010
0000
0010
0000
,
0010
0010
0000
0000
,
0010
0000
0010
0000
,
0010
0010
0000
0000
,
0100
0000
0100
0000
,
0100
0100
0000
0000
,
0100
0000
0100
0000
,
0100
0100
0000
0000
,
0001
0000
0001
0000
,
0001
0001
0000
0000
,
0001
0000
0001
0000
,
0001
0001
0000
0000
,
1000
0000
1000
0000
,
1000
1000
0000
0000
,
1000
0000
1000
0000
,
1000
1000
0000
0000
,
0020
0000
0000
0000
,
0100
0000
0000
0030
,
1000
0000
1000
0000
,
0001
0000
0001
0000
,
0200
0000
0000
0000
,
0010
0000
0000
0300
,
0010
0000
0010
0000
,
0010
0010
0010
0000
,
0020
0000
0000
0200
,
0000
0000
0000
0330
,
1000
1000
1000
0000
,
1000
0001
1000
0000
,
1001
0000
0010
0000
,
1001
0000
0010
0010
,
0001
0001
0001
0000
,
0001
1000
0001
0000
,
1001
0000
0100
0000
,
1001
0000
0100
0100
,
0010
0010
0010
0000
,
0010
0100
0010
0000
,
0110
0000
0001
0000
,
0110
0000
0001
0001
,
0100
0100
0100
0000
,
0100
0010
0100
0000
,
0110
0000
1000
0000
,
0110
0000
1000
1000
,
0010
0000
0000
0000
,
0010
0000
0000
0000
,
0010
0000
0000
0000
,
0010
0000
0010
0000
,
0100
0000
0000
0000
,
0100
0000
0000
0000
,
0100
0000
0000
0000
,
0100
0000
0100
0000
,
0001
0000
1000
0000
,
0001
0000
1000
0000
,
0020
0000
0000
0000
,
0100
0000
0000
0030
,
1000
0000
1000
0000
,
0001
0000
0001
0000
,
0200
0000
0000
0000
,
0010
0000
0000
0300
,
0010
0000
0010
0000
,
0010
0010
0010
0000
,
0020
0000
0000
0200
,
0000
0000
0000
0330
,
1000
1000
1000
0000
,
1000
0001
1000
0000
,
1001
0000
0010
0000
,
1001
0000
0010
0010
,
0001
0001
0001
0000
,
0001
1000
0001
0000
,
1001
0000
0100
0000
,
1001
0000
0100
0100
,
0010
0010
0010
0000
,
0010
0100
0010
0000
,
0110
0000
0001
0000
,
0110
0000
0001
0001
,
0100
0100
0100
0000
,
0100
0010
0100
0000
,
0110
0000
1000
0000
,
0110
0000
1000
1000
,
0010
0010
0010
0000
,
1001
0000
0000
0000
,
0100
0100
0100
0000
,
1001
0000
0000
0000
,
0001
0001
0001
0000
,
0110
0000
0000
0000
,
1000
1000
1000
0000
,
0110
0000
0000
0000
,
1001
0000
2002
0000
,
0000
0000
0000
0000
,
3003
0000
0000
0000
;

//---------------dance-single - ----------------
#NOTEDATA:;
#CHARTNAME:;
#STEPSTYPE:dance-single;
#DESCRIPTION:;
#CHARTSTYLE:;
#DIFFICULTY:Hard;
#METER:7;
#RADARVALUES:0.264763,0.328610,0.157141,0.083192,0.000000,401.000000,367.000000,34.000000,18.000000,0.000000,0.000000,0.000000,0.000000,0.000000,0.264763,0.328610,0.157141,0.083192,0.000000,401.000000,367.000000,34.000000,18.000000,0.000000,0.000000,0.000000,0.000000,0.000000;
#CREDIT:;
#NOTES:
0000
0000
0000
0000
,
0000
0000
0000
0000
,
0000
0000
0000
0000
,
0000
0000
0000
0000
,
0000
0000
0000
0000
,
0000
0000
0000
0000
,
0010
0000
0010
0000
,
0100
0000
0100
0000
,
1000
0000
1000
0000
,
0001
0000
0001
0000
,
1000
1000
1000
0000
,
0001
0001
0001
0000
,
1000
1000
1000
0000
,
0001
0001
0001
0000
,
2002
0000
0000
3003
,
0010
0000
0010
0000
,
0010
0010
0010
0000
,
0010
0000
0010
0000
,
0010
0010
0010
0000
,
0100
0000
0100
0000
,
0100
0100
0100
0000
,
0100
0000
0100
0000
,
0100
0100
0100
0000
,
0001
0000
0001
0000
,
0001
0001
0001
0000
,
0001
0000
0001
0000
,
0001
0001
0001
0000
,
1000
0000
1000
0000
,
1000
1000
1000
0000
,
1000
0000
1000
0000
,
1000
1000
1000
0000
,
0020
0000
0000
0000
,
0100
0000
0100
0030
,
1000
0000
1000
0000
,
0001
0000
0001
0000
,
0200
0000
0000
0000
,
0010
0000
0010
0300
,
0010
0000
0010
0000
,
0010
0010
0010
0010
,
0020
0000
0000
0200
,
0000
0000
0000
0330
,
1000
1000
1000
0000
,
1000
0001
1000
0001
,
1001
0000
0010
0000
,
1001
0000
0010
0010
,
0001
0001
0001
0000
,
0001
1000
0001
1000
,
1001
0000
0100
0000
,
1001
0000
0100
0100
,
0010
0010
0010
0000
,
0010
0100
0010
0100
,
0110
0000
0001
0000
,
0110
0000
0001
0001
,
0100
0100
0100
0000
,
0100
0010
0100
0010
,
0110
0000
1000
0000
,
0110
0000
1000
1000
,
0010
0010
0010
0000
,
1001
0010
0000
0000
,
0100
0100
0100
0000
,
1001
0100
0000
0000
,
0010
0000
0010
0000
,
0100
0000
0100
0000
,
1000
0000
1000
0000
,
0001
0000
0001
0000
,
1000
1000
1000
0000
,
0001
0001
0001
0000
,
1000
1000
1000
0000
,
0001
0001
0001
0000
,
2002
0000
0000
3003
,
0010
0000
0010
0000
,
0010
0010
0010
0000
,
0010
0000
0010
0000
,
0010
0010
0010
0000
,
0100
0000
0100
0000
,
0100
0100
0100
0000
,
0100
0000
0100
0000
,
0100
0100
0100
0000
,
0001
0000
0001
0000
,
0001
0001
0001
0000
,
0001
0000
0001
0000
,
0001
0001
0001
0000
,
1000
0000
1000
0000
,
1000
1000
1000
0000
,
1000
0000
1000
0000
,
1000
1000
1000
0000
,
0020
0000
0000
0000
,
0100
0000
0100
0030
,
1000
0000
1000
0000
,
0001
0000
0001
0000
,
0200
0000
0000
0000
,
0010
0000
0010
0300
,
0010
0000
0010
0000
,
0010
0010
0010
0010
,
0020
0000
0000
0200
,
0000
0000
0000
0330
,
1000
1000
1000
0000
,
1000
0001
1000
0001
,
1001
0000
0010
0000
,
1001
0000
0010
0010
,
0001
0001
0001
0000
,
0001
1000
0001
1000
,
1001
0000
0100
0000
,
1001
0000
0100
0100
,
0010
0010
0010
0000
,
0010
0100
0010
0100
,
0110
0000
0001
0000
,
0110
0000
0001
0001
,
0100
0100
0100
0000
,
0100
0010
0100
0010
,
0110
0000
1000
0000
,
0110
0000
1000
1000
,
0010
0000
0000
0000
,
0010
0000
0000
0000
,
0010
0000
0010
0000
,
0010
0000
0010
0000
,
0100
0000
0000
0000
,
0100
0000
0000
0000
,
0100
0000
0100
0000
,
0100
0000
0100
0000
,
0001
0000
1000
0000
,
0001
0000
1000
0000
,
0020
0000
0000
0000
,
0100
0000
0100
0030
,
1000
0000
1000
0000
,
0001
0000
0001
0000
,
0200
0000
0000
0000
,
0010
0000
0010
0300
,
0010
0000
0010
0000
,
0010
0010
0010
0000
,
0020
0000
0000
0200
,
0000
0000
0000
0330
,
1000
1000
1000
0000
,
1000
0001
1000
0001
,
1001
0000
0010
0000
,
1001
0000
0010
0010
,
0001
0001
0001
0000
,
0001
1000
0001
1000
,
1001
0000
0100
0000
,
1001
0000
0100
0100
,
0010
0010
0010
0000
,
0010
0100
0010
0100
,
0110
0000
0001
0000
,
0110
0000
0001
0001
,
0100
0100
0100
0000
,
0100
0010
0100
0010
,
0110
0000
1000
0000
,
0110
0000
1000
1000
,
0010
0010
0010
0000
,
1001
0010
0000
0000
,
0100
0100
0100
0000
,
1001
0100
0000
0000
,
0001
0001
0001
0000
,
0110
0001
0000
0000
,
1000
1000
1000
0000
,
0110
1000
0000
0000
,
1001
0000
2002
0000
,
0000
0000
0000
0000
,
3003
0000
0000
0000
;

//---------------dance-single - ----------------
#NOTEDATA:;
#CHARTNAME:;
#STEPSTYPE:dance-single;
#DESCRIPTION:;
#CHARTSTYLE:;
#DIFFICULTY:Challenge;
#METER:7;
#RADARVALUES:0.276648,0.365122,0.157141,0.083192,0.000000,419.000000,385.000000,34.000000,18.000000,0.000000,0.000000,0.000000,0.000000,0.000000,0.276648,0.365122,0.157141,0.083192,0.000000,419.000000,385.000000,34.000000,18.000000,0.000000,0.000000,0.000000,0.000000,0.000000;
#CREDIT:;
#NOTES:
0000
0000
0000
0000
,
0000
0000
0000
0000
,
0000
0000
0000
0000
,
0000
0000
0000
0000
,
0000
0000
0000
0000
,
0000
0000
0000
0000
,
0010
0000
0010
0000
,
0100
0000
0100
0000
,
1000
0000
1000
0000
,
0001
0000
0001
0000
,
1000
1000
1000
0000
,
0001
0001
0001
0000
,
1000
1000
1000
0000
,
0001
0001
0001
0000
,
2002
0000
0000
3003
,
0010
0000
0010
0000
,
0010
0010
0010
0000
,
0010
0000
0010
0000
,
0010
0010
0010
0000
,
0100
0000
0100
0000
,
0100
0100
0100
0000
,
0100
0000
0100
0000
,
0100
0100
0100
0000
,
0001
0000
0001
0000
,
0001
0001
0001
0000
,
0001
0000
0001
0000
,
0001
0001
0001
0000
,
1000
0000
1000
0000
,
1000
1000
1000
0000
,
1000
0000
1000
0000
,
1000
1000
1000
0000
,
0020
0000
0000
0000
,
0100
0000
0100
0030
,
1000
0000
1000
0000
,
0001
0000
0001
0000
,
0200
0000
0000
0000
,
0010
0000
0010
0300
,
0010
0000
0010
0000
,
0010
0010
0010
0010
,
0020
0000
0000
0200
,
0000
0000
0000
0330
,
1000
1000
1000
1000
,
1000
0001
1000
0001
,
1001
0000
0010
0000
,
1001
0000
0010
0010
,
0001
0001
0001
0001
,
0001
1000
0001
1000
,
1001
0000
0100
0000
,
1001
0000
0100
0100
,
0010
0010
0010
0010
,
0010
0100
0010
0100
,
0110
0000
0001
0000
,
0110
0000
0001
0001
,
0100
0100
0100
0100
,
0100
0010
0100
0010
,
0110
0000
1000
0000
,
0110
0000
1000
1000
,
0010
0010
0010
0010
,
1001
0010
0000
0000
,
0100
0100
0100
0100
,
1001
0100
0000
0000
,
0010
0000
0010
0000
,
0100
0000
0100
0000
,
1000
0000
1000
0000
,
0001
0000
0001
0000
,
1000
1000
1000
0000
,
0001
0001
0001
0000
,
1000
1000
1000
0000
,
0001
0001
0001
0000
,
2002
0000
0000
3003
,
0010
0000
0010
0000
,
0010
0010
0010
0000
,
0010
0000
0010
0000
,
0010
0010
0010
0000
,
0100
0000
0100
0000
,
0100
0100
0100
0000
,
0100
0000
0100
0000
,
0100
0100
0100
0000
,
0001
0000
0001
0000
,
0001
0001
0001
0000
,
0001
0000
0001
0000
,
0001
0001
0001
0000
,
1000
0000
1000
0000
,
1000
1000
1000
0000
,
1000
0000
1000
0000
,
1000
1000
1000
0000
,
0020
0000
0000
0000
,
0100
0000
0100
0030
,
1000
0000
1000
0000
,
0001
0000
0001
0000
,
0200
0000
0000
0000
,
0010
0000
0010
0300
,
0010
0000
0010
0000
,
0010
0010
0010
0010
,
0020
0000
0000
0200
,
0000
0000
0000
0330
,
1000
1000
1000
1000
,
1000
0001
1000
0001
,
1001
0000
0010
0000
,
1001
0000
0010
0010
,
0001
0001
0001
0001
,
0001
1000
0001
1000
,
1001
0000
0100
0000
,
1001
0000
0100
0100
,
0010
0010
0010
0010
,
0010
0100
0010
0100
,
0110
0000
0001
0000
,
0110
0000
0001
0001
,
0100
0100
0100
0100
,
0100
0010
0100
0010
,
0110
0000
1000
0000
,
0110
0000
1000
1000
,
0010
0000
0000
0000
,
0010
0000
0000
0000
,
0010
0000
0010
0000
,
0010
0000
0010
0000
,
0100
0000
0000
0000
,
0100
0000
0000
0000
,
0100
0000
0100
0000
,
0100
0000
0100
0000
,
0001
0000
1000
0000
,
0001
0000
1000
0000
,
0020
0000
0000
0000
,
0100
0000
0100
0030
,
1000
0000
1000
0000
,
0001
0000
0001
0000
,
0200
0000
0000
0000
,
0010
0000
0010
0300
,
0010
0000
0010
0000
,
0010
0010
0010
0000
,
0020
0000
0000
0200
,
0000
0000
0000
0330
,
1000
1000
1000
1000
,
1000
0001
1000
0001
,
1001
0000
0010
0000
,
1001
0000
0010
0010
,
0001
0001
0001
0001
,
0001
1000
0001
1000
,
1001
0000
0100
0000
,
1001
0000
0100
0100
,
0010
0010
0010
0010
,
0010
0100
0010
0100
,
0110
0000
0001
0000
,
0110
0000
0001
0001
,
0100
0100
0100
0100
,
0100
0010
0100
0010
,
0110
0000
1000
0000
,
0110
0000
1000
1000
,
0010
0010
0010
0010
,
1001
0010
0000
0000
,
0100
0100
0100
0100
,
1001
0100
0000
0000
,
0001
0001
0001
0001
,
0110
0001
0000
0000
,
1000
1000
1000
1000
,
0110
1000
0000
0000
,
1001
0000
2002
0000
,
0000
0000
0000
0000
,
3003
0000
0000
0000
;
