#TITLE:PANDEMiC;
#SUBTITLE:(for Next Mix);
#ARTIST:7th DistortioN ALTERATiVE;
#TITLETRANSLIT:;
#SUBTITLETRANSLIT:;
#ARTISTTRANSLIT:RouteSeven;
#GENRE:SPEED TEK;
#CREDIT:;
#BANNER:;
#BACKGROUND:;
#LYRICSPATH:;
#CDTITLE:;
#MUSIC:PANDEMiC.ogg;
#OFFSET:0.000000;
#SAMPLESTART:13.759000;
#SAMPLELENGTH:15.000000;
#SELECTABLE:YES;
#DISPLAYBPM:0.000000:560.000000;
#BPMS:0.000000=140.000000
,30.000000=70.000000
,31.000000=280.000000
,155.000000=140.000000
,157.000000=280.000000
,217.000000=560.000000
,221.000000=280.000000
,281.000000=420.000000
,349.000000=140.000000
,379.000000=280.000000
,383.000000=420.000000
,431.000000=560.000000
,435.000000=280.000000
,436.000000=560.000000
,440.000000=280.000000
,441.000000=560.000000
,445.000000=35.000000
;
#STOPS:217.000000=0.107000,
218.000000=0.107000,
219.000000=0.107000,
220.000000=0.107000,
281.000000=0.714000,
334.000000=0.142000,
335.000000=0.142000,
338.000000=0.142000,
342.000000=0.284000
;
#BGCHANGES:;
#KEYSOUNDS:;
#ATTACKS:;

//---------------dance-single - ----------------
#NOTES:
     dance-single:
     :
     Easy:
     20:
     1.318095,1.517365,0.925388,0.199594,0.920852,1017.000000,915.000000,102.000000,22.000000,0.000000,0.000000,1.318095,1.517365,0.925388,0.199594,0.920852,1017.000000,915.000000,102.000000,22.000000,0.000000,0.000000:
// measure 0
0000
0000
0000
0000
,  // measure 1
0000
0000
0000
0000
,  // measure 2
0000
0000
0000
0000
,  // measure 3
0000
0000
0000
0000
,  // measure 4
1001
0000
1010
0000
,  // measure 5
0101
0000
1001
0000
,  // measure 6
1001
0000
0110
0000
,  // measure 7
1000
0001
1000
0001
1000
0001
1000
0001
2002
0000
0000
3003
1000
0010
1000
0010
,  // measure 8
0100
0000
0010
0000
0001
0000
0010
0000
0100
0000
1000
0000
1000
0010
1000
0000
,  // measure 9
0001
0100
0001
0000
0010
0100
0010
0000
1000
0010
1000
0000
0001
0100
0001
0100
,  // measure 10
0010
0000
0100
0000
1000
0000
0100
0000
0010
0000
0001
0000
0001
0100
0001
0000
,  // measure 11
1000
0010
1000
0000
0100
0010
0100
0000
0001
0100
0001
0000
0010
0001
0010
0001
,  // measure 12
1000
0000
0001
0000
0100
0000
0001
0000
1000
0000
0010
0000
0010
0001
0010
0000
,  // measure 13
0100
1000
0100
0000
0001
1000
0001
0000
0010
0001
0010
0000
0100
1000
0100
1000
,  // measure 14
0001
0000
1000
0000
0010
0000
1000
0000
0001
0000
0100
0000
0100
1000
0100
0000
,  // measure 15
0010
0001
0010
0000
1000
0001
1000
0000
0100
1000
0100
0000
1000
0010
1000
0010
,  // measure 16
0100
0000
0010
0000
0001
0000
0010
0000
0100
0000
1000
0000
1000
0010
1000
0000
,  // measure 17
0001
0100
0001
0000
0010
0100
0010
0000
1000
0010
1000
0000
0001
0100
0001
0100
,  // measure 18
0010
0000
0100
0000
1000
0000
0100
0000
0010
0000
0001
0000
0001
0100
0001
0000
,  // measure 19
1000
0010
1000
0000
0100
0010
0100
0000
0001
0100
0001
0000
0010
0001
0010
0001
,  // measure 20
1000
0000
0001
0000
0100
0000
0001
0000
1000
0000
0010
0000
0010
0001
0010
0000
,  // measure 21
0100
1000
0100
0000
0001
1000
0001
0000
0010
0001
0010
0000
0100
1000
0100
1000
,  // measure 22
0001
0000
1000
0000
0010
0000
1000
0000
0001
0000
0100
0000
0100
1000
0100
0000
,  // measure 23
0010
0001
0010
0000
1000
0001
1000
0000
0100
1000
0100
0000
0010
0100
1000
0100
,  // measure 24
0010
0000
1000
0000
0010
0000
0010
0000
0100
0000
0100
0000
0010
0001
1000
0000
,  // measure 25
0100
0010
0001
0000
0100
0010
1000
0000
0100
0010
0100
0000
0100
0010
0001
0010
,  // measure 26
0100
0000
0001
0000
0100
0000
0100
0000
0010
0000
0010
0000
0100
1000
0001
0000
,  // measure 27
0010
0100
1000
0000
0010
0100
0001
0000
0010
0100
0010
0000
0001
1000
0010
1000
,  // measure 28
0001
0000
0010
0000
0001
0000
0001
0000
1000
0000
1000
0000
0001
0100
0010
0000
,  // measure 29
1000
0001
0100
0000
1000
0001
0010
0000
1000
0001
1000
0000
1000
0001
0100
0001
,  // measure 30
1000
0000
0100
0000
1000
0000
1000
0000
0001
0000
0001
0000
1000
0010
0100
0000
,  // measure 31
0001
1000
0010
0000
0001
1000
0100
0000
0001
1000
0001
0000
0010
0100
1000
0100
,  // measure 32
0010
0000
1000
0000
0010
0000
0010
0000
0100
0000
0100
0000
0010
0001
1000
0000
,  // measure 33
0100
0010
0001
0000
0100
0010
1000
0000
0100
0010
0100
0000
0100
0010
0001
0010
,  // measure 34
0100
0000
0001
0000
0100
0000
0100
0000
0010
0000
0010
0000
0100
1000
0001
0000
,  // measure 35
0010
0100
1000
0000
0010
0100
0001
0000
0010
0100
0010
0000
1000
0000
0001
0000
,  // measure 36
1000
0000
0000
0001
0000
0000
1000
0000
0000
0001
0000
0000
1000
0000
0000
0001
0000
0000
1000
0000
0001
0000
1000
0000
,  // measure 37
0001
0000
0000
0000
1000
0000
0000
0000
0001
0000
0000
0000
1000
0000
0000
0000
0001
0000
0000
0000
1000
0000
0000
0000
0001
0000
0000
0000
1000
0000
0000
0000
0001
0000
0000
0000
1000
0000
0000
0001
0000
0000
1000
0000
0000
0001
0000
0000
,  // measure 38
1000
0001
1000
0001
1000
0001
1000
0001
1000
0001
1000
0001
2002
0000
0000
0000
,  // measure 39
0000
0000
0000
3003
1010
0000
0010
0000
0011
0000
0010
0000
0110
0000
0100
0000
,  // measure 40
0100
0000
0000
0100
0000
0000
0001
0000
0010
0000
0100
0000
1000
0000
0001
0000
0010
0000
0100
0000
1000
0000
0001
0000
,  // measure 41
0010
0000
0100
0000
1000
0000
0101
0000
0000
0100
0000
0000
1100
0000
0000
0100
0000
0000
0110
0000
0000
0010
0000
0000
,  // measure 42
0010
0000
0000
0010
0000
0000
1000
0000
0100
0000
0010
0000
0001
0000
1000
0000
0100
0000
0010
0000
0001
0000
1000
0000
,  // measure 43
0100
0000
0010
0000
0001
0000
0011
0000
0000
0001
0000
0000
0101
0000
0000
0001
0000
0000
1001
0000
0000
1000
0000
0000
,  // measure 44
1000
0000
0000
1000
0000
0000
0100
0000
0001
0000
1000
0000
0010
0000
0100
0000
0001
0000
1000
0000
0010
0000
0100
0000
,  // measure 45
0001
0000
1000
0000
0010
0000
1100
0000
0000
1000
0000
0000
1010
0000
0000
1000
0000
0000
1001
0000
0000
0001
0000
0000
,  // measure 46
0001
0000
0000
0001
0000
0000
0010
0000
1000
0000
0001
0000
0100
0000
0010
0000
1000
0000
0001
0000
0100
0000
0010
0000
,  // measure 47
1000
0000
0001
0000
0100
0000
1010
0000
0000
0010
0000
0000
0011
0000
0000
0010
0000
0000
0110
0000
0000
0100
0000
0000
,  // measure 48
0100
0000
0000
0100
0000
0000
0001
0000
0010
0000
0100
0000
1000
0000
0001
0000
0010
0000
0100
0000
1000
0000
0001
0000
,  // measure 49
0010
0000
0100
0000
1000
0000
0101
0000
0000
0100
0000
0000
1100
0000
0000
0100
0000
0000
0110
0000
0000
0010
0000
0000
,  // measure 50
0010
0000
0000
0010
0000
0000
1000
0000
0100
0000
0010
0000
0001
0000
1000
0000
0100
0000
0010
0000
0001
0000
1000
0000
,  // measure 51
0100
0000
0010
0000
0001
0000
0011
0000
0000
0001
0000
0000
0101
0000
0000
0001
0000
0000
1001
0000
0000
1000
0000
0000
,  // measure 52
1000
0000
0000
1000
0000
0000
0100
0000
0001
0000
1000
0000
0010
0000
0100
0000
0001
0000
1000
0000
0010
0000
0100
0000
,  // measure 53
0001
0000
1000
0000
0010
0000
1100
0000
0000
1000
0000
0000
1010
0000
0000
1000
0000
0000
1001
0000
0000
0001
0000
0000
,  // measure 54
0001
0001
1010
0000
0110
0000
0101
0000
,  // measure 55
1001
0000
1010
0100
0011
0100
1010
0001
,  // measure 56
0010
0000
0100
0000
1000
0100
1000
0001
0010
0000
0100
0000
1000
0100
0001
0000
,  // measure 57
0010
0100
0101
0010
1100
0010
0101
1000
,  // measure 58
0100
0000
0010
0000
0001
0010
0001
1000
0100
0000
0010
0000
0001
0010
1000
0000
,  // measure 59
0100
0010
0011
1000
0101
1000
0011
0100
,  // measure 60
0001
0000
1000
0000
0010
1000
0010
0100
0001
0000
1000
0000
0010
1000
0100
0000
,  // measure 61
0001
1000
1100
0001
1010
0001
1100
0010
,  // measure 62
1000
0000
0001
0000
0100
0001
0100
0010
1000
0000
0001
0000
0100
0001
0010
0000
,  // measure 63
1000
0001
1010
0100
0011
0100
1010
0001
,  // measure 64
0010
0000
0100
0000
1000
0100
1000
0001
0010
0000
0100
0000
1000
0100
0001
0000
,  // measure 65
0010
0100
0101
0010
1100
0010
0101
1000
,  // measure 66
0100
0000
0010
0000
0001
0010
0001
1000
0100
0000
0010
0000
0001
0010
1000
0000
,  // measure 67
0100
0010
0011
1000
0101
1000
0011
0100
,  // measure 68
0001
0000
1000
0000
0010
1000
0010
0100
0001
0000
1000
0000
0010
1000
0100
0000
,  // measure 69
0001
1000
1100
0001
1010
0001
1100
0010
,  // measure 70
1000
0001
2002
3003
0100
0010
1000
0100
,  // measure 71
0001
0010
0100
0001
1000
0010
0100
0000
,  // measure 72
0100
0010
0010
1001
,  // measure 73
1001
0000
1001
0000
0010
0100
0001
0010
,  // measure 74
1000
0100
0010
1000
0001
0100
0010
0000
,  // measure 75
0010
0100
0100
1001
,  // measure 76
1001
0000
1001
0000
1000
0001
0010
1000
,  // measure 77
0100
0001
1000
0100
0010
0001
1000
0000
,  // measure 78
1000
0001
0001
0110
,  // measure 79
0110
0000
0110
0000
0001
1000
0100
0001
,  // measure 80
0010
1000
0001
0010
0100
1000
0001
0000
,  // measure 81
0001
1000
1000
0110
,  // measure 82
0110
0000
0110
0000
1000
0100
0010
0001
,  // measure 83
1000
0100
0010
0001
1010
0000
0011
0000
,  // measure 84
0100
0010
0100
0010
0100
0000
0010
0100
,  // measure 85
0001
0010
0100
1000
0100
0000
0010
0100
,  // measure 86
0010
0000
0000
0100
0000
0000
0010
0000
0000
0100
0000
0000
0010
0000
0000
0100
0000
0000
0010
0000
0100
0000
0010
0000
,  // measure 87
0100
0000
0010
0000
0100
0000
1000
0000
0000
0100
0000
0000
0010
0000
0000
0001
0000
0000
0220
0000
0000
0000
0000
0000
,  // measure 88
0000
0330
0001
0010
0100
1000
0220
0000
,  // measure 89
0000
0330
0010
1000
0001
0100
2002
0000
,  // measure 90
0000
3003
0100
0001
1000
0010
2002
0000
,  // measure 91
0000
3003
1100
0100
0110
0010
2002
0000
,  // measure 92
0000
3003
0011
0010
0110
0100
2002
0000
,  // measure 93
0000
3003
1010
1000
1001
0001
0220
0000
,  // measure 94
0000
0330
2002
0000
3003
0000
1001
0000
,  // measure 95
1001
0000
1001
0000
1001
0000
1000
0100
,  // measure 96
0010
0001
0010
0100
0001
0010
1000
0100
,  // measure 97
0010
0100
1010
0000
0010
0000
0011
0000
,  // measure 98
0010
0000
0000
0000
0000
0000
0010
0000
0100
0000
0010
0000
0100
0000
0010
0000
0100
0000
0001
0000
0000
0010
0000
0000
,  // measure 99
0100
1000
0100
0010
1000
0100
0001
0010
,  // measure 100
0100
0010
0101
0000
0100
0000
1100
0000
,  // measure 101
0100
0000
0000
0000
0000
0000
0100
0000
0010
0000
0100
0000
0010
0000
0100
0000
0010
0000
0010
0000
0000
1000
0000
0000
,  // measure 102
0001
0100
0001
1000
0100
0001
0010
1000
,  // measure 103
0001
1000
0011
0000
0001
0000
0101
0000
,  // measure 104
0001
0000
0000
0000
0000
0000
0001
0000
1000
0000
0001
0000
1000
0000
0001
0000
1000
0000
0100
0000
0000
0001
0000
0000
,  // measure 105
1000
0010
1000
0001
0010
1000
0100
0001
,  // measure 106
1000
0001
1100
0000
1000
0000
1010
0000
,  // measure 107
1000
0000
0000
0000
0000
0000
1000
0000
0001
0000
1000
0000
0001
0000
1000
0000
0001
0000
1000
0000
0000
0001
0000
0000
,  // measure 108
1000
0001
1000
0010
1000
0010
1000
0000
,  // measure 109
0001
1000
0001
1000
0001
0100
0001
0100
,  // measure 110
0001
0000
1000
0001
1000
0001
1000
0001
,  // measure 111
1000
0001
1000
0001
0000
0000
0000
0000
1001
0000
0000
0000
0000
0000
0000
0000
;

//---------------dance-single - ----------------
#NOTES:
     dance-single:
     :
     Beginner:
     20:
     1.264957,1.517365,0.925388,0.199594,0.852809,976.000000,874.000000,102.000000,22.000000,0.000000,0.000000,1.264957,1.517365,0.925388,0.199594,0.852809,976.000000,874.000000,102.000000,22.000000,0.000000,0.000000:
// measure 0
0000
0000
0000
0000
,  // measure 1
0000
0000
0000
0000
,  // measure 2
0000
0000
0000
0000
,  // measure 3
0000
0000
0000
0000
,  // measure 4
1001
0000
1010
0000
,  // measure 5
0101
0000
1001
0000
,  // measure 6
1001
0000
0110
0000
,  // measure 7
1000
0001
1000
0001
1000
0001
1000
0000
2002
0000
0000
3003
1000
0010
1000
0000
,  // measure 8
0100
0000
0010
0000
0001
0000
0010
0000
0100
0000
1000
0000
1000
0010
1000
0000
,  // measure 9
0001
0100
0001
0000
0010
0100
0010
0000
1000
0010
1000
0000
0001
0100
0001
0000
,  // measure 10
0010
0000
0100
0000
1000
0000
0100
0000
0010
0000
0001
0000
0001
0100
0001
0000
,  // measure 11
1000
0010
1000
0000
0100
0010
0100
0000
0001
0100
0001
0000
0010
0001
0010
0000
,  // measure 12
1000
0000
0001
0000
0100
0000
0001
0000
1000
0000
0010
0000
0010
0001
0010
0000
,  // measure 13
0100
1000
0100
0000
0001
1000
0001
0000
0010
0001
0010
0000
0100
1000
0100
0000
,  // measure 14
0001
0000
1000
0000
0010
0000
1000
0000
0001
0000
0100
0000
0100
1000
0100
0000
,  // measure 15
0010
0001
0010
0000
1000
0001
1000
0000
0100
1000
0100
0000
1000
0010
1000
0000
,  // measure 16
0100
0000
0010
0000
0001
0000
0010
0000
0100
0000
1000
0000
1000
0010
1000
0000
,  // measure 17
0001
0100
0001
0000
0010
0100
0010
0000
1000
0010
1000
0000
0001
0100
0001
0000
,  // measure 18
0010
0000
0100
0000
1000
0000
0100
0000
0010
0000
0001
0000
0001
0100
0001
0000
,  // measure 19
1000
0010
1000
0000
0100
0010
0100
0000
0001
0100
0001
0000
0010
0001
0010
0000
,  // measure 20
1000
0000
0001
0000
0100
0000
0001
0000
1000
0000
0010
0000
0010
0001
0010
0000
,  // measure 21
0100
1000
0100
0000
0001
1000
0001
0000
0010
0001
0010
0000
0100
1000
0100
0000
,  // measure 22
0001
0000
1000
0000
0010
0000
1000
0000
0001
0000
0100
0000
0100
1000
0100
0000
,  // measure 23
0010
0001
0010
0000
1000
0001
1000
0000
0100
1000
0100
0000
0010
0100
1000
0000
,  // measure 24
0010
0000
1000
0000
0010
0000
0010
0000
0100
0000
0100
0000
0010
0001
1000
0000
,  // measure 25
0100
0010
0001
0000
0100
0010
1000
0000
0100
0010
0100
0000
0100
0010
0001
0000
,  // measure 26
0100
0000
0001
0000
0100
0000
0100
0000
0010
0000
0010
0000
0100
1000
0001
0000
,  // measure 27
0010
0100
1000
0000
0010
0100
0001
0000
0010
0100
0010
0000
0001
1000
0010
0000
,  // measure 28
0001
0000
0010
0000
0001
0000
0001
0000
1000
0000
1000
0000
0001
0100
0010
0000
,  // measure 29
1000
0001
0100
0000
1000
0001
0010
0000
1000
0001
1000
0000
1000
0001
0100
0000
,  // measure 30
1000
0000
0100
0000
1000
0000
1000
0000
0001
0000
0001
0000
1000
0010
0100
0000
,  // measure 31
0001
1000
0010
0000
0001
1000
0100
0000
0001
1000
0001
0000
0010
0100
1000
0000
,  // measure 32
0010
0000
1000
0000
0010
0000
0010
0000
0100
0000
0100
0000
0010
0001
1000
0000
,  // measure 33
0100
0010
0001
0000
0100
0010
1000
0000
0100
0010
0100
0000
0100
0010
0001
0000
,  // measure 34
0100
0000
0001
0000
0100
0000
0100
0000
0010
0000
0010
0000
0100
1000
0001
0000
,  // measure 35
0010
0100
1000
0000
0010
0100
0001
0000
0010
0100
0010
0000
1000
0000
0001
0000
,  // measure 36
1000
0000
0000
0001
0000
0000
1000
0000
0000
0001
0000
0000
1000
0000
0000
0001
0000
0000
1000
0000
0001
0000
1000
0000
,  // measure 37
0001
0000
0000
0000
1000
0000
0000
0000
0001
0000
0000
0000
1000
0000
0000
0000
0001
0000
0000
0000
1000
0000
0000
0000
0001
0000
0000
0000
1000
0000
0000
0000
0001
0000
0000
0000
1000
0000
0000
0001
0000
0000
1000
0000
0000
0001
0000
0000
,  // measure 38
1000
0001
1000
0001
1000
0001
1000
0001
1000
0001
1000
0001
2002
0000
0000
0000
,  // measure 39
0000
0000
0000
3003
1010
0000
0010
0000
0011
0000
0010
0000
0110
0000
0100
0000
,  // measure 40
0100
0000
0000
0001
0010
0100
1000
0001
0010
0100
1000
0001
,  // measure 41
0010
0000
0100
0000
1000
0000
0101
0000
0000
0100
0000
0000
1100
0000
0000
0100
0000
0000
0110
0000
0000
0010
0000
0000
,  // measure 42
0010
0000
0000
1000
0100
0010
0001
1000
0100
0010
0001
1000
,  // measure 43
0100
0000
0010
0000
0001
0000
0011
0000
0000
0001
0000
0000
0101
0000
0000
0001
0000
0000
1001
0000
0000
1000
0000
0000
,  // measure 44
1000
0000
0000
0100
0001
1000
0010
0100
0001
1000
0010
0100
,  // measure 45
0001
0000
1000
0000
0010
0000
1100
0000
0000
1000
0000
0000
1010
0000
0000
1000
0000
0000
1001
0000
0000
0001
0000
0000
,  // measure 46
0001
0000
0000
0010
1000
0001
0100
0010
1000
0001
0100
0010
,  // measure 47
1000
0000
0001
0000
0100
0000
1010
0000
0000
0010
0000
0000
0011
0000
0000
0010
0000
0000
0110
0000
0000
0100
0000
0000
,  // measure 48
0100
0000
0000
0001
0010
0100
1000
0001
0010
0100
1000
0001
,  // measure 49
0010
0000
0100
0000
1000
0000
0101
0000
0000
0100
0000
0000
1100
0000
0000
0100
0000
0000
0110
0000
0000
0010
0000
0000
,  // measure 50
0010
0000
0000
1000
0100
0010
0001
1000
0100
0010
0001
1000
,  // measure 51
0100
0000
0010
0000
0001
0000
0011
0000
0000
0001
0000
0000
0101
0000
0000
0001
0000
0000
1001
0000
0000
1000
0000
0000
,  // measure 52
1000
0000
0000
0100
0001
1000
0010
0100
0001
1000
0010
0100
,  // measure 53
0001
0000
1000
0000
0010
0000
1100
0000
0000
1000
0000
0000
1010
0000
0000
1000
0000
0000
1001
0000
0000
0001
0000
0000
,  // measure 54
0001
1010
0110
0101
,  // measure 55
1001
0000
1010
0100
0011
0100
1010
0001
,  // measure 56
0010
0000
0000
0000
1000
0100
1000
0001
0010
0000
0100
0000
1000
0100
0001
0000
,  // measure 57
0010
0100
0101
0010
1100
0010
0101
1000
,  // measure 58
0100
0000
0000
0000
0001
0010
0001
1000
0100
0000
0010
0000
0001
0010
1000
0000
,  // measure 59
0100
0010
0011
1000
0101
1000
0011
0100
,  // measure 60
0001
0000
0000
0000
0010
1000
0010
0100
0001
0000
1000
0000
0010
1000
0100
0000
,  // measure 61
0001
1000
1100
0001
1010
0001
1100
0010
,  // measure 62
1000
0000
0000
0000
0100
0001
0100
0010
1000
0000
0001
0000
0100
0001
0010
0000
,  // measure 63
1000
0001
1010
0100
0011
0100
1010
0001
,  // measure 64
0010
0000
0000
0000
1000
0100
1000
0001
0010
0000
0100
0000
1000
0100
0001
0000
,  // measure 65
0010
0100
0101
0010
1100
0010
0101
1000
,  // measure 66
0100
0000
0000
0000
0001
0010
0001
1000
0100
0000
0010
0000
0001
0010
1000
0000
,  // measure 67
0100
0010
0011
1000
0101
1000
0011
0100
,  // measure 68
0001
0000
0000
0000
0010
1000
0010
0100
0001
0000
1000
0000
0010
1000
0100
0000
,  // measure 69
0001
1000
1100
0001
1010
0001
1100
0010
,  // measure 70
1000
0000
2002
3003
0100
0010
1000
0100
,  // measure 71
0001
0010
0100
0001
1000
0000
0100
0000
,  // measure 72
0100
0010
0010
1001
,  // measure 73
1001
0000
1001
0000
0010
0100
0001
0010
,  // measure 74
1000
0100
0010
1000
0001
0000
0010
0000
,  // measure 75
0010
0100
0100
1001
,  // measure 76
1001
0000
1001
0000
1000
0001
0010
1000
,  // measure 77
0100
0001
1000
0100
0010
0000
1000
0000
,  // measure 78
1000
0001
0001
0110
,  // measure 79
0110
0000
0110
0000
0001
1000
0100
0001
,  // measure 80
0010
1000
0001
0010
0100
0000
0001
0000
,  // measure 81
0001
1000
1000
0110
,  // measure 82
0110
0000
0110
0000
1000
0100
0010
0001
,  // measure 83
1000
0100
0010
0001
1010
0000
0011
0000
,  // measure 84
0100
0010
0100
0010
0100
0000
0010
0100
,  // measure 85
0001
0010
0100
1000
0100
0000
0010
0100
,  // measure 86
0010
0000
0000
0100
0000
0000
0010
0000
0000
0100
0000
0000
0010
0000
0000
0100
0000
0000
0010
0000
0100
0000
0010
0000
,  // measure 87
0100
0000
0010
0000
0100
0000
1000
0000
0000
0100
0000
0000
0010
0000
0000
0001
0000
0000
0220
0000
0000
0000
0000
0000
,  // measure 88
0000
0330
0001
0010
0100
1000
0220
0000
,  // measure 89
0000
0330
0010
1000
0001
0100
2002
0000
,  // measure 90
0000
3003
0100
0001
1000
0010
2002
0000
,  // measure 91
0000
3003
1100
0100
0110
0010
2002
0000
,  // measure 92
0000
3003
0011
0010
0110
0100
2002
0000
,  // measure 93
0000
3003
1010
1000
1001
0001
0220
0000
,  // measure 94
0000
0330
2002
0000
3003
0000
1001
0000
,  // measure 95
1001
0000
1001
0000
1001
0000
1000
0100
,  // measure 96
0010
0001
0010
0100
0001
0010
1000
0100
,  // measure 97
0010
1010
0010
0011
,  // measure 98
0010
0000
0000
0000
0000
0000
0010
0000
0100
0000
0010
0000
0100
0000
0010
0000
0100
0000
0001
0000
0000
0010
0000
0000
,  // measure 99
0100
1000
0100
0010
1000
0100
0001
0010
,  // measure 100
0100
0101
0100
1100
,  // measure 101
0100
0000
0000
0000
0000
0000
0100
0000
0010
0000
0100
0000
0010
0000
0100
0000
0010
0000
0010
0000
0000
1000
0000
0000
,  // measure 102
0001
0100
0001
1000
0100
0001
0010
1000
,  // measure 103
0001
0011
0001
0101
,  // measure 104
0001
0000
0000
0000
0000
0000
0001
0000
1000
0000
0001
0000
1000
0000
0001
0000
1000
0000
0100
0000
0000
0001
0000
0000
,  // measure 105
1000
0010
1000
0001
0010
1000
0100
0001
,  // measure 106
1000
1100
1000
1010
,  // measure 107
1000
0000
0000
0000
0000
0000
1000
0000
0001
0000
1000
0000
0001
0000
1000
0000
0001
0000
1000
0000
0000
0001
0000
0000
,  // measure 108
1000
0000
1000
0010
1000
0010
1000
0000
,  // measure 109
0001
1000
0001
0000
0001
0100
0001
0100
,  // measure 110
0001
0000
1000
0001
1000
0001
1000
0001
,  // measure 111
1000
0001
1000
0001
0000
0000
0000
0000
1001
0000
0000
0000
0000
0000
0000
0000
;

//---------------dance-single - ----------------
#NOTES:
     dance-single:
     :
     Medium:
     21:
     1.375122,1.517365,1.206634,0.199594,0.920852,1061.000000,928.000000,133.000000,22.000000,0.000000,0.000000,1.375122,1.517365,1.206634,0.199594,0.920852,1061.000000,928.000000,133.000000,22.000000,0.000000,0.000000:
// measure 0
0000
0000
0000
0000
,  // measure 1
0000
0000
0000
0000
,  // measure 2
0000
0000
0000
0000
,  // measure 3
0000
0000
0000
0000
,  // measure 4
1001
1000
1010
0000
,  // measure 5
0101
0001
1001
0000
,  // measure 6
1001
0010
0110
0100
,  // measure 7
1000
0001
1000
0001
1000
0001
1000
0001
2002
0000
0000
3003
1000
0010
1000
0010
,  // measure 8
0100
0000
0010
0000
1001
0000
0010
0000
0100
0000
1000
0000
1000
0010
1000
0000
,  // measure 9
0001
0100
0001
0000
0010
0100
0010
0000
1000
0010
1000
0000
0001
0100
0001
0100
,  // measure 10
0010
0000
0100
0000
1001
0000
0100
0000
0010
0000
0001
0000
0001
0100
0001
0000
,  // measure 11
1000
0010
1000
0000
0100
0010
0100
0000
0001
0100
0001
0000
0010
0001
0010
0001
,  // measure 12
1000
0000
0001
0000
0110
0000
0001
0000
1000
0000
0010
0000
0010
0001
0010
0000
,  // measure 13
0100
1000
0100
0000
0001
1000
0001
0000
0010
0001
0010
0000
0100
1000
0100
1000
,  // measure 14
0001
0000
1000
0000
0110
0000
1000
0000
0001
0000
0100
0000
0100
1000
0100
0000
,  // measure 15
0010
0001
0010
0000
1000
0001
1000
0000
0100
1000
0100
0000
1000
0010
1000
0010
,  // measure 16
0100
0000
0010
0000
1001
0000
0010
0000
0100
0000
1000
0000
1000
0010
1000
0000
,  // measure 17
0001
0100
0001
0000
0010
0100
0010
0000
1000
0010
1000
0000
0001
0100
0001
0100
,  // measure 18
0010
0000
0100
0000
1001
0000
0100
0000
0010
0000
0001
0000
0001
0100
0001
0000
,  // measure 19
1000
0010
1000
0000
0100
0010
0100
0000
0001
0100
0001
0000
0010
0001
0010
0001
,  // measure 20
1000
0000
0001
0000
0110
0000
0001
0000
1000
0000
0010
0000
0010
0001
0010
0000
,  // measure 21
0100
1000
0100
0000
0001
1000
0001
0000
0010
0001
0010
0000
0100
1000
0100
1000
,  // measure 22
0001
0000
1000
0000
0110
0000
1000
0000
0001
0000
0100
0000
0100
1000
0100
0000
,  // measure 23
0010
0001
0010
0000
1000
0001
1000
0000
0100
1000
0100
0000
0010
0100
1000
0100
,  // measure 24
0010
0000
1000
0000
0110
0000
0010
0000
0100
0000
0100
0000
0010
0001
1000
0000
,  // measure 25
0100
0010
0001
0000
0100
0010
1000
0000
0100
0010
0100
0000
0100
0010
0001
0010
,  // measure 26
0100
0000
0001
0000
0110
0000
0100
0000
0010
0000
0010
0000
0100
1000
0001
0000
,  // measure 27
0010
0100
1000
0000
0010
0100
0001
0000
0010
0100
0010
0000
0001
1000
0010
1000
,  // measure 28
0001
0000
0010
0000
1001
0000
0001
0000
1000
0000
1000
0000
0001
0100
0010
0000
,  // measure 29
1000
0001
0100
0000
1000
0001
0010
0000
1000
0001
1000
0000
1000
0001
0100
0001
,  // measure 30
1000
0000
0100
0000
1001
0000
1000
0000
0001
0000
0001
0000
1000
0010
0100
0000
,  // measure 31
0001
1000
0010
0000
0001
1000
0100
0000
0001
1000
0001
0000
0010
0100
1000
0100
,  // measure 32
0010
0000
1000
0000
0110
0000
0010
0000
0100
0000
0100
0000
0010
0001
1000
0000
,  // measure 33
0100
0010
0001
0000
0100
0010
1000
0000
0100
0010
0100
0000
0100
0010
0001
0010
,  // measure 34
0100
0000
0001
0000
0110
0000
0100
0000
0010
0000
0010
0000
0100
1000
0001
0000
,  // measure 35
0010
0100
1000
0000
0010
0100
0001
0000
0010
0100
0010
0000
1000
0000
0001
0000
,  // measure 36
1000
0000
0000
0001
0000
0000
1000
0000
0000
0001
0000
0000
1000
0000
0000
0001
0000
0000
1000
0000
0001
0000
1000
0000
,  // measure 37
0001
0000
0000
0000
1000
0000
0000
0000
0001
0000
0000
0000
1000
0000
0000
0000
0001
0000
0000
0000
1000
0000
0000
0000
0001
0000
0000
0000
1000
0000
0000
0000
0001
0000
0000
0000
1000
0000
0000
0001
0000
0000
1000
0000
0000
0001
0000
0000
,  // measure 38
1000
0001
1000
0001
1000
0001
1000
0001
1000
0001
1000
0001
2002
0000
0000
0000
,  // measure 39
0000
0000
0000
3003
1010
0000
0010
0000
0011
0000
0010
0000
0110
0000
0100
0000
,  // measure 40
1100
0000
0000
0100
0000
0000
0001
0000
0010
0000
0100
0000
1000
0000
0001
0000
0010
0000
0100
0000
1000
0000
0001
0000
,  // measure 41
0010
0000
0100
0000
1000
0000
0101
0000
0000
0100
0000
0000
1100
0000
0000
0100
0000
0000
0110
0000
0000
0010
0000
0000
,  // measure 42
0011
0000
0000
0010
0000
0000
1000
0000
0100
0000
0010
0000
0001
0000
1000
0000
0100
0000
0010
0000
0001
0000
1000
0000
,  // measure 43
0100
0000
0010
0000
0001
0000
0011
0000
0000
0001
0000
0000
0101
0000
0000
0001
0000
0000
1001
0000
0000
1000
0000
0000
,  // measure 44
1010
0000
0000
1000
0000
0000
0100
0000
0001
0000
1000
0000
0010
0000
0100
0000
0001
0000
1000
0000
0010
0000
0100
0000
,  // measure 45
0001
0000
1000
0000
0010
0000
1100
0000
0000
1000
0000
0000
1010
0000
0000
1000
0000
0000
1001
0000
0000
0001
0000
0000
,  // measure 46
0101
0000
0000
0001
0000
0000
0010
0000
1000
0000
0001
0000
0100
0000
0010
0000
1000
0000
0001
0000
0100
0000
0010
0000
,  // measure 47
1000
0000
0001
0000
0100
0000
1010
0000
0000
0010
0000
0000
0011
0000
0000
0010
0000
0000
0110
0000
0000
0100
0000
0000
,  // measure 48
1100
0000
0000
0100
0000
0000
0001
0000
0010
0000
0100
0000
1000
0000
0001
0000
0010
0000
0100
0000
1000
0000
0001
0000
,  // measure 49
0010
0000
0100
0000
1000
0000
0101
0000
0000
0100
0000
0000
1100
0000
0000
0100
0000
0000
0110
0000
0000
0010
0000
0000
,  // measure 50
0011
0000
0000
0010
0000
0000
1000
0000
0100
0000
0010
0000
0001
0000
1000
0000
0100
0000
0010
0000
0001
0000
1000
0000
,  // measure 51
0100
0000
0010
0000
0001
0000
0011
0000
0000
0001
0000
0000
0101
0000
0000
0001
0000
0000
1001
0000
0000
1000
0000
0000
,  // measure 52
1010
0000
0000
1000
0000
0000
0100
0000
0001
0000
1000
0000
0010
0000
0100
0000
0001
0000
1000
0000
0010
0000
0100
0000
,  // measure 53
0001
0000
1000
0000
0010
0000
1100
0000
0000
1000
0000
0000
1010
0000
0000
1000
0000
0000
1001
0000
0000
0001
0000
0000
,  // measure 54
0101
0001
1010
0000
0110
0000
0101
0000
,  // measure 55
1001
0000
1010
0100
0011
0100
1010
0001
,  // measure 56
1010
0000
0100
0000
1000
0100
1000
0001
0010
0000
0100
0000
1000
0100
0001
0000
,  // measure 57
0010
0100
0101
0010
1100
0010
0101
1000
,  // measure 58
0101
0000
0010
0000
0001
0010
0001
1000
0100
0000
0010
0000
0001
0010
1000
0000
,  // measure 59
0100
0010
0011
1000
0101
1000
0011
0100
,  // measure 60
0011
0000
1000
0000
0010
1000
0010
0100
0001
0000
1000
0000
0010
1000
0100
0000
,  // measure 61
0001
1000
1100
0001
1010
0001
1100
0010
,  // measure 62
1100
0000
0001
0000
0100
0001
0100
0010
1000
0000
0001
0000
0100
0001
0010
0000
,  // measure 63
1000
0001
1010
0100
0011
0100
1010
0001
,  // measure 64
1010
0000
0100
0000
1000
0100
1000
0001
0010
0000
0100
0000
1000
0100
0001
0000
,  // measure 65
0010
0100
0101
0010
1100
0010
0101
1000
,  // measure 66
0101
0000
0010
0000
0001
0010
0001
1000
0100
0000
0010
0000
0001
0010
1000
0000
,  // measure 67
0100
0010
0011
1000
0101
1000
0011
0100
,  // measure 68
0011
0000
1000
0000
0010
1000
0010
0100
0001
0000
1000
0000
0010
1000
0100
0000
,  // measure 69
0001
1000
1100
0001
1010
0001
1100
0010
,  // measure 70
1100
0001
2002
3003
0100
0010
1000
0100
,  // measure 71
0001
0010
0100
0001
1000
0010
0100
0000
,  // measure 72
0100
0000
0010
0100
0010
0000
1001
0000
,  // measure 73
1001
0000
1001
0000
0010
0100
0001
0010
,  // measure 74
1000
0100
0010
1000
0001
0100
0010
0000
,  // measure 75
0010
0000
0100
0010
0100
0000
1001
0000
,  // measure 76
1001
0000
1001
0000
1000
0001
0010
1000
,  // measure 77
0100
0001
1000
0100
0010
0001
1000
0000
,  // measure 78
1000
0000
0001
1000
0001
0000
0110
0000
,  // measure 79
0110
0000
0110
0000
0001
1000
0100
0001
,  // measure 80
0010
1000
0001
0010
0100
1000
0001
0000
,  // measure 81
0001
0000
1000
0001
1000
0000
0110
0000
,  // measure 82
0110
0000
0110
0000
1000
0100
0010
0001
,  // measure 83
1000
0100
0010
0001
1010
0000
0011
0000
,  // measure 84
0100
0010
0100
0010
0100
0000
0010
0100
,  // measure 85
0001
0010
0100
1000
0110
0000
0010
0100
,  // measure 86
0010
0000
0000
0100
0000
0000
0010
0000
0000
0100
0000
0000
0010
0000
0000
0100
0000
0000
0010
0000
0100
0000
0010
0000
,  // measure 87
0100
0000
0010
0000
0100
0000
1000
0000
0000
0100
0000
0000
0010
0000
0000
0001
0000
0000
0220
0000
0000
0000
0000
0000
,  // measure 88
0000
0330
0001
0010
0100
1000
0220
0000
,  // measure 89
0000
0330
0010
1000
0001
0100
2002
0000
,  // measure 90
0000
3003
0100
0001
1000
0010
2002
0000
,  // measure 91
0000
3003
1100
0100
0110
0010
2002
0000
,  // measure 92
0000
3003
0011
0010
0110
0100
2002
0000
,  // measure 93
0000
3003
1010
1000
1001
0001
0220
0000
,  // measure 94
0000
0330
2002
0000
3003
0000
1001
0000
,  // measure 95
1001
0000
1001
0000
1001
0000
1000
0100
,  // measure 96
0010
0001
0010
0100
0001
0010
1000
0100
,  // measure 97
0010
0100
1010
0000
0010
0000
0011
0000
,  // measure 98
0010
0000
0000
0100
0000
0000
0010
0000
0100
0000
0010
0000
0100
0000
0010
0000
0100
0000
0001
0000
0000
0010
0000
0000
,  // measure 99
0100
1000
0100
0010
1000
0100
0001
0010
,  // measure 100
0100
0010
0101
0000
0100
0000
1100
0000
,  // measure 101
0100
0000
0000
0010
0000
0000
0100
0000
0010
0000
0100
0000
0010
0000
0100
0000
0010
0000
0010
0000
0000
1000
0000
0000
,  // measure 102
0001
0100
0001
1000
0100
0001
0010
1000
,  // measure 103
0001
1000
0011
0000
0001
0000
0101
0000
,  // measure 104
0001
0000
0000
1000
0000
0000
0001
0000
1000
0000
0001
0000
1000
0000
0001
0000
1000
0000
0100
0000
0000
0001
0000
0000
,  // measure 105
1000
0010
1000
0001
0010
1000
0100
0001
,  // measure 106
1000
0001
1100
0000
1000
0000
1010
0000
,  // measure 107
1000
0000
0000
0001
0000
0000
1000
0000
0001
0000
1000
0000
0001
0000
1000
0000
0001
0000
1000
0000
0000
0001
0000
0000
,  // measure 108
1000
0001
1000
0010
1000
0010
1000
0000
,  // measure 109
0001
1000
0001
1000
0001
0100
0001
0100
,  // measure 110
0001
0000
1000
0001
1000
0001
1000
0001
,  // measure 111
1000
0001
1000
0001
1000
0000
0000
0000
1001
0000
0000
0000
0000
0000
0000
0000
;

//---------------dance-single - ----------------
#NOTES:
     dance-single:
     :
     Hard:
     22:
     1.423076,1.517365,1.379010,0.199594,0.957142,1098.000000,946.000000,152.000000,22.000000,0.000000,0.000000,1.423076,1.517365,1.379010,0.199594,0.957142,1098.000000,946.000000,152.000000,22.000000,0.000000,0.000000:
// measure 0
0000
0000
0000
0000
,  // measure 1
0000
0000
0000
0000
,  // measure 2
0000
0000
0000
0000
,  // measure 3
0000
0000
0000
0000
,  // measure 4
1001
1000
1010
1000
,  // measure 5
0101
0001
1001
0001
,  // measure 6
1001
0010
0110
0100
,  // measure 7
1000
0001
1000
0001
1000
0001
1000
0001
2002
0000
0000
3003
1000
0010
1000
0010
,  // measure 8
0100
0000
0010
0000
1001
0000
0010
0000
0100
0000
1000
0000
1000
0010
1000
0010
,  // measure 9
0001
0100
0001
0000
0010
0100
0010
0000
1000
0010
1000
0000
0001
0100
0001
0100
,  // measure 10
0010
0000
0100
0000
1001
0000
0100
0000
0010
0000
0001
0000
0001
0100
0001
0100
,  // measure 11
1000
0010
1000
0000
0100
0010
0100
0000
0001
0100
0001
0000
0010
0001
0010
0001
,  // measure 12
1000
0000
0001
0000
0110
0000
0001
0000
1000
0000
0010
0000
0010
0001
0010
0001
,  // measure 13
0100
1000
0100
0000
0001
1000
0001
0000
0010
0001
0010
0000
0100
1000
0100
1000
,  // measure 14
0001
0000
1000
0000
0110
0000
1000
0000
0001
0000
0100
0000
0100
1000
0100
1000
,  // measure 15
0010
0001
0010
0000
1000
0001
1000
0000
0100
1000
0100
0000
1000
0010
1000
0010
,  // measure 16
0100
0000
0010
0000
1001
0000
0010
0000
0100
0000
1000
0000
1000
0010
1000
0010
,  // measure 17
0001
0100
0001
0000
0010
0100
0010
0000
1000
0010
1000
0000
0001
0100
0001
0100
,  // measure 18
0010
0000
0100
0000
1001
0000
0100
0000
0010
0000
0001
0000
0001
0100
0001
0100
,  // measure 19
1000
0010
1000
0000
0100
0010
0100
0000
0001
0100
0001
0000
0010
0001
0010
0001
,  // measure 20
1000
0000
0001
0000
0110
0000
0001
0000
1000
0000
0010
0000
0010
0001
0010
0001
,  // measure 21
0100
1000
0100
0000
0001
1000
0001
0000
0010
0001
0010
0000
0100
1000
0100
1000
,  // measure 22
0001
0000
1000
0000
0110
0000
1000
0000
0001
0000
0100
0000
0100
1000
0100
1000
,  // measure 23
0010
0001
0010
0000
1000
0001
1000
0000
0100
1000
0100
0000
0010
0100
1000
0100
,  // measure 24
0010
0000
1000
0000
0110
0000
0010
0000
0100
0000
0100
0000
0010
0001
1000
0000
,  // measure 25
0100
0010
0001
0000
0100
0010
1000
0000
0100
0010
0100
0000
0100
0010
0001
0010
,  // measure 26
0100
0000
0001
0000
0110
0000
0100
0000
0010
0000
0010
0000
0100
1000
0001
0000
,  // measure 27
0010
0100
1000
0000
0010
0100
0001
0000
0010
0100
0010
0000
0001
1000
0010
1000
,  // measure 28
0001
0000
0010
0000
1001
0000
0001
0000
1000
0000
1000
0000
0001
0100
0010
0000
,  // measure 29
1000
0001
0100
0000
1000
0001
0010
0000
1000
0001
1000
0000
1000
0001
0100
0001
,  // measure 30
1000
0000
0100
0000
1001
0000
1000
0000
0001
0000
0001
0000
1000
0010
0100
0000
,  // measure 31
0001
1000
0010
0000
0001
1000
0100
0000
0001
1000
0001
0000
0010
0100
1000
0100
,  // measure 32
0010
0000
1000
0000
0110
0000
0010
0000
0100
0000
0100
0000
0010
0001
1000
0000
,  // measure 33
0100
0010
0001
0000
0100
0010
1000
0000
0100
0010
0100
0000
0100
0010
0001
0010
,  // measure 34
0100
0000
0001
0000
0110
0000
0100
0000
0010
0000
0010
0000
0100
1000
0001
0000
,  // measure 35
0010
0100
1000
0000
0010
0100
0001
0000
0010
0100
0010
0000
1000
0000
0001
0000
,  // measure 36
1000
0000
0000
0001
0000
0000
1000
0000
0000
0001
0000
0000
1000
0000
0000
0001
0000
0000
1000
0000
0001
0000
1000
0000
,  // measure 37
0001
0000
0000
0000
1000
0000
0000
0000
0001
0000
0000
0000
1000
0000
0000
0000
0001
0000
0000
0000
1000
0000
0000
0000
0001
0000
0000
0000
1000
0000
0000
0000
0001
0000
0000
0000
1000
0000
0000
0001
0000
0000
1000
0000
0000
0001
0000
0000
,  // measure 38
1000
0001
1000
0001
1000
0001
1000
0001
1000
0001
1000
0001
2002
0000
0000
0000
,  // measure 39
0000
0000
0000
3003
1010
0000
0110
0000
0011
0000
0010
0000
0110
0000
0100
0000
,  // measure 40
1100
0000
0000
0100
0000
0000
0001
0000
0010
0000
0100
0000
1000
0000
0001
0000
0010
0000
0100
0000
1000
0000
0001
0000
,  // measure 41
0010
0000
0100
0000
1000
0000
0101
0000
0000
0110
0000
0000
1100
0000
0000
0100
0000
0000
0110
0000
0000
0010
0000
0000
,  // measure 42
0011
0000
0000
0010
0000
0000
1000
0000
0100
0000
0010
0000
0001
0000
1000
0000
0100
0000
0010
0000
0001
0000
1000
0000
,  // measure 43
0100
0000
0010
0000
0001
0000
0011
0000
0000
1001
0000
0000
0101
0000
0000
0001
0000
0000
1001
0000
0000
1000
0000
0000
,  // measure 44
1010
0000
0000
1000
0000
0000
0100
0000
0001
0000
1000
0000
0010
0000
0100
0000
0001
0000
1000
0000
0010
0000
0100
0000
,  // measure 45
0001
0000
1000
0000
0010
0000
1100
0000
0000
1001
0000
0000
1010
0000
0000
1000
0000
0000
1001
0000
0000
0001
0000
0000
,  // measure 46
0101
0000
0000
0001
0000
0000
0010
0000
1000
0000
0001
0000
0100
0000
0010
0000
1000
0000
0001
0000
0100
0000
0010
0000
,  // measure 47
1000
0000
0001
0000
0100
0000
1010
0000
0000
0110
0000
0000
0011
0000
0000
0010
0000
0000
0110
0000
0000
0100
0000
0000
,  // measure 48
1100
0000
0000
0100
0000
0000
0001
0000
0010
0000
0100
0000
1000
0000
0001
0000
0010
0000
0100
0000
1000
0000
0001
0000
,  // measure 49
0010
0000
0100
0000
1000
0000
0101
0000
0000
0110
0000
0000
1100
0000
0000
0100
0000
0000
0110
0000
0000
0010
0000
0000
,  // measure 50
0011
0000
0000
0010
0000
0000
1000
0000
0100
0000
0010
0000
0001
0000
1000
0000
0100
0000
0010
0000
0001
0000
1000
0000
,  // measure 51
0100
0000
0010
0000
0001
0000
0011
0000
0000
1001
0000
0000
0101
0000
0000
0001
0000
0000
1001
0000
0000
1000
0000
0000
,  // measure 52
1010
0000
0000
1000
0000
0000
0100
0000
0001
0000
1000
0000
0010
0000
0100
0000
0001
0000
1000
0000
0010
0000
0100
0000
,  // measure 53
0001
0000
1000
0000
0010
0000
1100
0000
0000
1001
0000
0000
1010
0000
0000
1000
0000
0000
1001
0000
0000
0001
0000
0000
,  // measure 54
0101
0001
1010
0000
0110
0000
0101
0000
,  // measure 55
1001
0000
1010
0110
0011
0100
1010
0001
,  // measure 56
1010
0000
0100
0000
1000
0100
1000
0001
0010
0000
0100
0000
1000
0100
0001
0000
,  // measure 57
0010
0100
0101
0110
1100
0010
0101
1000
,  // measure 58
0101
0000
0010
0000
0001
0010
0001
1000
0100
0000
0010
0000
0001
0010
1000
0000
,  // measure 59
0100
0010
0011
1001
0101
1000
0011
0100
,  // measure 60
0011
0000
1000
0000
0010
1000
0010
0100
0001
0000
1000
0000
0010
1000
0100
0000
,  // measure 61
0001
1000
1100
1001
1010
0001
1100
0010
,  // measure 62
1100
0000
0001
0000
0100
0001
0100
0010
1000
0000
0001
0000
0100
0001
0010
0000
,  // measure 63
1000
0001
1010
0110
0011
0100
1010
0001
,  // measure 64
1010
0000
0100
0000
1000
0100
1000
0001
0010
0000
0100
0000
1000
0100
0001
0000
,  // measure 65
0010
0100
0101
0110
1100
0010
0101
1000
,  // measure 66
0101
0000
0010
0000
0001
0010
0001
1000
0100
0000
0010
0000
0001
0010
1000
0000
,  // measure 67
0100
0010
0011
1001
0101
1000
0011
0100
,  // measure 68
0011
0000
1000
0000
0010
1000
0010
0100
0001
0000
1000
0000
0010
1000
0100
0000
,  // measure 69
0001
1000
1100
1001
1010
0001
1100
0010
,  // measure 70
1100
0001
2002
3003
0100
0010
1000
0100
,  // measure 71
0001
0010
0100
0001
1000
0010
0100
0010
,  // measure 72
0100
0000
0010
0100
0010
0000
1001
0000
,  // measure 73
1001
0000
1001
0000
0010
0100
0001
0010
,  // measure 74
1000
0100
0010
1000
0001
0100
0010
0100
,  // measure 75
0010
0000
0100
0010
0100
0000
1001
0000
,  // measure 76
1001
0000
1001
0000
1000
0001
0010
1000
,  // measure 77
0100
0001
1000
0100
0010
0001
1000
0001
,  // measure 78
1000
0000
0001
1000
0001
0000
0110
0000
,  // measure 79
0110
0000
0110
0000
0001
1000
0100
0001
,  // measure 80
0010
1000
0001
0010
0100
1000
0001
1000
,  // measure 81
0001
0000
1000
0001
1000
0000
0110
0000
,  // measure 82
0110
0000
0110
0000
1000
0100
0010
0001
,  // measure 83
1000
0100
0010
0001
1010
0000
0011
0000
,  // measure 84
0100
0010
0100
0010
0100
0000
0010
0100
,  // measure 85
0001
0010
0100
1000
0110
0000
0010
0100
,  // measure 86
0010
0000
0000
0100
0000
0000
0010
0000
0000
0100
0000
0000
0010
0000
0000
0100
0000
0000
0010
0000
0100
0000
0010
0000
,  // measure 87
0100
0000
0010
0000
0100
0000
1000
0000
0000
0100
0000
0000
0010
0000
0000
0001
0000
0000
0220
0000
0000
0000
0000
0000
,  // measure 88
0000
0330
0001
0010
0100
1000
0220
0000
,  // measure 89
0000
0330
0010
1000
0001
0100
2002
0000
,  // measure 90
0000
3003
0100
0001
1000
0010
2002
0000
,  // measure 91
0000
3003
1100
0100
0110
0010
2002
0000
,  // measure 92
0000
3003
0011
0010
0110
0100
2002
0000
,  // measure 93
0000
3003
1010
1000
1001
0001
0220
0000
,  // measure 94
0000
0330
2002
0000
3003
0000
1001
0000
,  // measure 95
1001
0000
1001
0000
1001
0000
1000
0100
,  // measure 96
0010
0001
0010
0100
0001
0010
1000
0100
,  // measure 97
0010
0100
1010
0000
0010
0100
0011
0000
,  // measure 98
0010
0000
0000
0100
0000
0000
0010
0000
0100
0000
0010
0000
0100
0000
0010
0000
0100
0000
0001
0000
0000
0010
0000
0000
,  // measure 99
0100
1000
0100
0010
1000
0100
0001
0010
,  // measure 100
0100
0010
0101
0000
0100
0010
1100
0000
,  // measure 101
0100
0000
0000
0010
0000
0000
0100
0000
0010
0000
0100
0000
0010
0000
0100
0000
0010
0000
0010
0000
0000
1000
0000
0000
,  // measure 102
0001
0100
0001
1000
0100
0001
0010
1000
,  // measure 103
0001
1000
0011
0000
0001
1000
0101
0000
,  // measure 104
0001
0000
0000
1000
0000
0000
0001
0000
1000
0000
0001
0000
1000
0000
0001
0000
1000
0000
0100
0000
0000
0001
0000
0000
,  // measure 105
1000
0010
1000
0001
0010
1000
0100
0001
,  // measure 106
1000
0001
1100
0000
1000
0001
1010
0000
,  // measure 107
1000
0000
0000
0001
0000
0000
1000
0000
0001
0000
1000
0000
0001
0000
1000
0000
0001
0000
1000
0000
0000
0001
0000
0000
,  // measure 108
1000
0001
1000
0010
1000
0010
1010
0000
,  // measure 109
0001
1000
0001
1000
0001
0100
0001
0100
,  // measure 110
0101
0000
1000
0001
1000
0001
1000
0001
,  // measure 111
1000
0001
1000
0001
1001
0000
0000
0000
1001
0000
0000
0000
0000
0000
0000
0000
;

//---------------dance-single - ----------------
#NOTES:
     dance-single:
     :
     Challenge:
     22:
     1.464550,1.517365,1.515097,0.199594,0.988895,1130.000000,963.000000,167.000000,22.000000,0.000000,0.000000,1.464550,1.517365,1.515097,0.199594,0.988895,1130.000000,963.000000,167.000000,22.000000,0.000000,0.000000:
// measure 0
0000
0000
0000
0000
,  // measure 1
0000
0000
0000
0000
,  // measure 2
0000
0000
0000
0000
,  // measure 3
0000
0000
0000
0000
,  // measure 4
1001
1000
1010
1000
,  // measure 5
0101
0001
1001
0001
,  // measure 6
1001
0010
0110
0100
,  // measure 7
1000
0001
1000
0001
1000
0001
1000
0001
2002
0000
0000
3003
1000
0010
1000
0010
,  // measure 8
0100
0000
0010
0000
1001
0000
0010
0000
0110
0000
1000
0000
1000
0010
1000
0010
,  // measure 9
0001
0100
0001
0000
0010
0100
0010
0000
1000
0010
1000
0000
0001
0100
0001
0100
,  // measure 10
0010
0000
0100
0000
1001
0000
0100
0000
0110
0000
0001
0000
0001
0100
0001
0100
,  // measure 11
1000
0010
1000
0000
0100
0010
0100
0000
0001
0100
0001
0000
0010
0001
0010
0001
,  // measure 12
1000
0000
0001
0000
0110
0000
0001
0000
1001
0000
0010
0000
0010
0001
0010
0001
,  // measure 13
0100
1000
0100
0000
0001
1000
0001
0000
0010
0001
0010
0000
0100
1000
0100
1000
,  // measure 14
0001
0000
1000
0000
0110
0000
1000
0000
1001
0000
0100
0000
0100
1000
0100
1000
,  // measure 15
0010
0001
0010
0000
1000
0001
1000
0000
0100
1000
0100
0000
1000
0010
1000
0010
,  // measure 16
0100
0000
0010
0000
1001
0000
0010
0000
0110
0000
1000
0000
1000
0010
1000
0010
,  // measure 17
0001
0100
0001
0000
0010
0100
0010
0000
1000
0010
1000
0000
0001
0100
0001
0100
,  // measure 18
0010
0000
0100
0000
1001
0000
0100
0000
0110
0000
0001
0000
0001
0100
0001
0100
,  // measure 19
1000
0010
1000
0000
0100
0010
0100
0000
0001
0100
0001
0000
0010
0001
0010
0001
,  // measure 20
1000
0000
0001
0000
0110
0000
0001
0000
1001
0000
0010
0000
0010
0001
0010
0001
,  // measure 21
0100
1000
0100
0000
0001
1000
0001
0000
0010
0001
0010
0000
0100
1000
0100
1000
,  // measure 22
0001
0000
1000
0000
0110
0000
1000
0000
1001
0000
0100
0000
0100
1000
0100
1000
,  // measure 23
0010
0001
0010
0000
1000
0001
1000
0000
0100
1000
0100
0000
0010
0100
1000
0100
,  // measure 24
0010
0000
1000
0000
0110
0000
0010
0000
0110
0000
0100
0000
0010
0001
1000
0000
,  // measure 25
0100
0010
0001
0000
0100
0010
1000
0000
0100
0010
0100
0000
0100
0010
0001
0010
,  // measure 26
0100
0000
0001
0000
0110
0000
0100
0000
0110
0000
0010
0000
0100
1000
0001
0000
,  // measure 27
0010
0100
1000
0000
0010
0100
0001
0000
0010
0100
0010
0000
0001
1000
0010
1000
,  // measure 28
0001
0000
0010
0000
1001
0000
0001
0000
1001
0000
1000
0000
0001
0100
0010
0000
,  // measure 29
1000
0001
0100
0000
1000
0001
0010
0000
1000
0001
1000
0000
1000
0001
0100
0001
,  // measure 30
1000
0000
0100
0000
1001
0000
1000
0000
1001
0000
0001
0000
1000
0010
0100
0000
,  // measure 31
0001
1000
0010
0000
0001
1000
0100
0000
0001
1000
0001
0000
0010
0100
1000
0100
,  // measure 32
0010
0000
1000
0000
0110
0000
0010
0000
0110
0000
0100
0000
0010
0001
1000
0000
,  // measure 33
0100
0010
0001
0000
0100
0010
1000
0000
0100
0010
0100
0000
0100
0010
0001
0010
,  // measure 34
0100
0000
0001
0000
0110
0000
0100
0000
0110
0000
0010
0000
0100
1000
0001
0000
,  // measure 35
0010
0100
1000
0000
0010
0100
0001
0000
0010
0100
0010
0000
1000
0000
0001
0000
,  // measure 36
1000
0000
0000
0001
0000
0000
1000
0000
0000
0001
0000
0000
1000
0000
0000
0001
0000
0000
1000
0000
0001
0000
1000
0000
,  // measure 37
0001
0000
0000
0000
1000
0000
0000
0000
0001
0000
0000
0000
1000
0000
0000
0000
0001
0000
0000
0000
1000
0000
0000
0000
0001
0000
0000
0000
1000
0000
0000
0000
0001
0000
0000
0000
1000
0000
0000
0001
0000
0000
1000
0000
0000
0001
0000
0000
,  // measure 38
1000
0001
1000
0001
1000
0001
1000
0001
1000
0001
1000
0001
2002
0000
0000
0000
,  // measure 39
0000
0000
0000
3003
1010
0000
0110
0000
0011
0000
0010
0000
0110
0000
0100
0000
,  // measure 40
1100
0000
0000
0100
0000
0000
0001
0000
0010
0000
0100
0000
1000
0000
0001
0000
0010
0000
0100
0000
1000
0000
0001
0000
,  // measure 41
0010
0000
0100
0000
1000
0000
0101
0000
0000
0110
0000
0000
1100
0000
0000
0100
0000
0000
0110
0000
0000
0010
0000
0000
,  // measure 42
0011
0000
0000
0010
0000
0000
1000
0000
0100
0000
0010
0000
0001
0000
1000
0000
0100
0000
0010
0000
0001
0000
1000
0000
,  // measure 43
0100
0000
0010
0000
0001
0000
0011
0000
0000
1001
0000
0000
0101
0000
0000
0001
0000
0000
1001
0000
0000
1000
0000
0000
,  // measure 44
1010
0000
0000
1000
0000
0000
0100
0000
0001
0000
1000
0000
0010
0000
0100
0000
0001
0000
1000
0000
0010
0000
0100
0000
,  // measure 45
0001
0000
1000
0000
0010
0000
1100
0000
0000
1001
0000
0000
1010
0000
0000
1000
0000
0000
1001
0000
0000
0001
0000
0000
,  // measure 46
0101
0000
0000
0001
0000
0000
0010
0000
1000
0000
0001
0000
0100
0000
0010
0000
1000
0000
0001
0000
0100
0000
0010
0000
,  // measure 47
1000
0000
0001
0000
0100
0000
1010
0000
0000
0110
0000
0000
0011
0000
0000
0010
0000
0000
0110
0000
0000
0100
0000
0000
,  // measure 48
1100
0000
0000
0100
0000
0000
0001
0000
0010
0000
0100
0000
1000
0000
0001
0000
0010
0000
0100
0000
1000
0000
0001
0000
,  // measure 49
0010
0000
0100
0000
1000
0000
0101
0000
0000
0110
0000
0000
1100
0000
0000
0100
0000
0000
0110
0000
0000
0010
0000
0000
,  // measure 50
0011
0000
0000
0010
0000
0000
1000
0000
0100
0000
0010
0000
0001
0000
1000
0000
0100
0000
0010
0000
0001
0000
1000
0000
,  // measure 51
0100
0000
0010
0000
0001
0000
0011
0000
0000
1001
0000
0000
0101
0000
0000
0001
0000
0000
1001
0000
0000
1000
0000
0000
,  // measure 52
1010
0000
0000
1000
0000
0000
0100
0000
0001
0000
1000
0000
0010
0000
0100
0000
0001
0000
1000
0000
0010
0000
0100
0000
,  // measure 53
0001
0000
1000
0000
0010
0000
1100
0000
0000
1001
0000
0000
1010
0000
0000
1000
0000
0000
1001
0000
0000
0001
0000
0000
,  // measure 54
0101
0001
1010
0000
0110
0000
0101
0000
,  // measure 55
1001
0000
1010
0110
0011
0100
1010
0001
,  // measure 56
1010
0000
0100
0000
1000
0100
1000
0001
0010
0000
0100
0000
1000
0100
0001
1000
,  // measure 57
0010
0100
0101
0110
1100
0010
0101
1000
,  // measure 58
0101
0000
0010
0000
0001
0010
0001
1000
0100
0000
0010
0000
0001
0010
1000
0001
,  // measure 59
0100
0010
0011
1001
0101
1000
0011
0100
,  // measure 60
0011
0000
1000
0000
0010
1000
0010
0100
0001
0000
1000
0000
0010
1000
0100
0010
,  // measure 61
0001
1000
1100
1001
1010
0001
1100
0010
,  // measure 62
1100
0000
0001
0000
0100
0001
0100
0010
1000
0000
0001
0000
0100
0001
0010
0100
,  // measure 63
1000
0001
1010
0110
0011
0100
1010
0001
,  // measure 64
1010
0000
0100
0000
1000
0100
1000
0001
0010
0000
0100
0000
1000
0100
0001
1000
,  // measure 65
0010
0100
0101
0110
1100
0010
0101
1000
,  // measure 66
0101
0000
0010
0000
0001
0010
0001
1000
0100
0000
0010
0000
0001
0010
1000
0001
,  // measure 67
0100
0010
0011
1001
0101
1000
0011
0100
,  // measure 68
0011
0000
1000
0000
0010
1000
0010
0100
0001
0000
1000
0000
0010
1000
0100
0010
,  // measure 69
0001
1000
1100
1001
1010
0001
1100
0010
,  // measure 70
1100
0001
2002
3003
0100
0010
1000
0100
,  // measure 71
0001
0010
0100
0001
1000
0010
0100
0010
,  // measure 72
0100
0000
0010
0100
0010
0100
1001
0000
,  // measure 73
1001
0000
1001
0000
0010
0100
0001
0010
,  // measure 74
1000
0100
0010
1000
0001
0100
0010
0100
,  // measure 75
0010
0000
0100
0010
0100
0010
1001
0000
,  // measure 76
1001
0000
1001
0000
1000
0001
0010
1000
,  // measure 77
0100
0001
1000
0100
0010
0001
1000
0001
,  // measure 78
1000
0000
0001
1000
0001
1000
0110
0000
,  // measure 79
0110
0000
0110
0000
0001
1000
0100
0001
,  // measure 80
0010
1000
0001
0010
0100
1000
0001
1000
,  // measure 81
0001
0000
1000
0001
1000
0001
0110
0000
,  // measure 82
0110
0000
0110
0000
1000
0100
0010
0001
,  // measure 83
1000
0100
0010
0001
1010
0000
0011
0000
,  // measure 84
0100
0010
0100
0010
0110
0000
0010
0100
,  // measure 85
0001
0010
0100
1000
0110
0000
0010
0100
,  // measure 86
0010
0000
0000
0100
0000
0000
0010
0000
0000
0100
0000
0000
0010
0000
0000
0100
0000
0000
0010
0000
0100
0000
0010
0000
,  // measure 87
0100
0000
0010
0000
0100
0000
1000
0000
0000
0100
0000
0000
0010
0000
0000
0001
0000
0000
0220
0000
0000
0000
0000
0000
,  // measure 88
0000
0330
0001
0010
0100
1000
0220
0000
,  // measure 89
0000
0330
0010
1000
0001
0100
2002
0000
,  // measure 90
0000
3003
0100
0001
1000
0010
2002
0000
,  // measure 91
0000
3003
1100
0100
0110
0010
2002
0000
,  // measure 92
0000
3003
0011
0010
0110
0100
2002
0000
,  // measure 93
0000
3003
1010
1000
1001
0001
0220
0000
,  // measure 94
0000
0330
2002
0000
3003
0000
1001
0010
,  // measure 95
1001
0000
1001
0100
1001
0000
1000
0100
,  // measure 96
0010
0001
0010
0100
0001
0010
1000
0100
,  // measure 97
0010
0100
1010
0000
0010
0100
0011
1000
,  // measure 98
0010
0000
0000
0100
0000
0000
0010
0000
0100
0000
0010
0000
0100
0000
0010
0000
0100
0000
0001
0000
0000
0010
0000
0000
,  // measure 99
0100
1000
0100
0010
1000
0100
0001
0010
,  // measure 100
0100
0010
0101
0000
0100
0010
1100
0001
,  // measure 101
0100
0000
0000
0010
0000
0000
0100
0000
0010
0000
0100
0000
0010
0000
0100
0000
0010
0000
0010
0000
0000
1000
0000
0000
,  // measure 102
0001
0100
0001
1000
0100
0001
0010
1000
,  // measure 103
0001
1000
0011
0000
0001
1000
0101
0010
,  // measure 104
0001
0000
0000
1000
0000
0000
0001
0000
1000
0000
0001
0000
1000
0000
0001
0000
1000
0000
0100
0000
0000
0001
0000
0000
,  // measure 105
1000
0010
1000
0001
0010
1000
0100
0001
,  // measure 106
1000
0001
1100
0000
1000
0001
1010
0100
,  // measure 107
1000
0000
0000
0001
0000
0000
1000
0000
0001
0000
1000
0000
0001
0000
1000
0000
0001
0000
1000
0000
0000
0001
0000
0000
,  // measure 108
1000
0001
1000
0010
1000
0010
1010
0000
,  // measure 109
0001
1000
0001
1000
0001
0100
0001
0100
,  // measure 110
0101
0000
1000
0001
1000
0001
1000
0001
,  // measure 111
1000
0001
1000
0001
1001
0000
0000
0000
1001
0000
0000
0000
0000
0000
0000
0000
;
