#VERSION:0.83;
#TITLE:OVER THE TEMPEST;
#SUBTITLE:(for Next Mix);
#ARTIST:RGB STORM vs HELLISH SEQUENCE;
#TITLETRANSLIT:;
#SUBTITLETRANSLIT:;
#ARTISTTRANSLIT:RouteSeven;
#GENRE:HELLISH TRANCE CORE;
#ORIGIN:;
#CREDIT:;
#BANNER:;
#BACKGROUND:;
#PREVIEWVID:;
#JACKET:;
#CDIMAGE:;
#DISCIMAGE:;
#LYRICSPATH:;
#CDTITLE:;
#MUSIC:OVER THE TEMPEST.ogg;
#OFFSET:-0.060000;
#SAMPLESTART:81.639999;
#SAMPLELENGTH:15.000000;
#SELECTABLE:YES;
#DISPLAYBPM:0.000000:800.000000;
#BPMS:0.000=50.000,
16.000=100.000,
47.000=400.000,
49.000=100.000,
49.500=200.000,
50.500=225.000,
51.500=250.000,
52.500=275.000,
53.500=300.000,
54.500=350.000,
55.500=400.000,
58.000=800.000,
62.000=100.000,
62.250=200.000,
62.500=300.000,
63.000=400.000,
64.000=500.000,
66.000=600.000,
70.000=700.000,
78.000=800.000,
84.000=200.000,
85.000=400.000,
213.000=100.000,
229.000=200.000,
258.000=400.000,
382.000=200.000,
383.000=800.000,
387.000=400.000;
#STOPS:62.000=0.180,
256.500=0.225,
256.750=0.225,
257.000=0.225,
257.250=0.225;
#DELAYS:;
#WARPS:;
#TIMESIGNATURES:0.000=4=4;
#TICKCOUNTS:0.000=4;
#COMBOS:0.000=1;
#SPEEDS:0.000=1.000=0.000=0;
#SCROLLS:0.000=1.000;
#FAKES:;
#LABELS:0.000=Song Start;
#BGCHANGES:;
#KEYSOUNDS:;
#ATTACKS:
;

//---------------dance-single - ----------------
#NOTEDATA:;
#CHARTNAME:;
#STEPSTYPE:dance-single;
#DESCRIPTION:;
#CHARTSTYLE:;
#DIFFICULTY:Easy;
#METER:19;
#RADARVALUES:1.288214,2.751987,0.974016,0.180664,1.127188,1148.000000,1024.000000,124.000000,23.000000,0.000000,0.000000,0.000000,0.000000,0.000000,1.288214,2.751987,0.974016,0.180664,1.127188,1148.000000,1024.000000,124.000000,23.000000,0.000000,0.000000,0.000000,0.000000,0.000000;
#CREDIT:;
#DISPLAYBPM:0.000000:400.000000;
#NOTES:
// measure 0
1001
0000
1001
0000
0001
0000
0010
0100
0000
0010
0000
0010
0000
0001
0010
0100
0000
1010
0000
1010
0000
1010
0000
0100
0010
0000
0010
0000
0001
0010
0100
1000
,  // measure 1
1001
0000
1001
0000
1000
0000
0100
0010
0000
0100
0000
0100
0000
1000
0100
0010
0000
0101
0000
0101
0000
0101
0000
0010
0100
0000
0100
0000
1000
0100
0010
0001
,  // measure 2
0110
0000
0110
0000
0100
0000
0001
1000
0000
0001
0000
0001
0000
0100
0001
1000
0000
0011
0000
0011
0000
0011
0000
1000
0001
0000
0001
0000
0100
0001
1000
0010
,  // measure 3
0110
0000
0110
0000
0010
0000
1000
0001
0000
1000
0000
1000
0000
0010
1000
0001
0000
1100
0000
1100
0000
1100
0000
0001
1000
0000
1000
0000
0010
1000
0001
0100
,  // measure 4
1010
0001
0100
0000
0011
0000
0100
0000
2100
0000
0100
0000
0010
0010
3010
0000
,  // measure 5
0101
0000
0010
0000
0101
0000
0010
0000
1002
0000
0010
0000
0010
0010
0013
0000
,  // measure 6
0101
1000
0010
0000
1100
0000
0010
0000
0012
0000
0010
0000
0100
0100
0103
0000
,  // measure 7
1010
0000
0100
0000
1010
0000
0100
0000
2001
0000
0100
0000
0100
0100
3100
0000
,  // measure 8
0101
1000
0010
0000
1100
0000
0010
0000
0012
0000
0010
0000
0100
0100
0103
0000
,  // measure 9
1010
0000
0100
0000
1010
0000
0100
0000
2001
0000
0100
0000
0100
0100
3100
0000
,  // measure 10
1010
0001
0100
0000
0011
0000
0100
0000
2100
0000
0100
0000
0010
0010
3010
0000
,  // measure 11
1000
0001
1000
0001
1000
0001
1000
0001
1000
0001
1000
0001
1000
0000
0001
0000
,  // measure 12
1000
0001
1000
0001
1000
0001
1000
0001
,  // measure 13
1000
0001
1000
0001
1000
0001
1000
0001
,  // measure 14
1000
0000
0000
0001
0000
0000
1000
0000
0000
0001
0000
0000
1000
0000
0000
0000
0100
0000
0000
0000
0010
0000
0000
0000
,  // measure 15
0001
0000
1000
0000
0100
0000
0010
0000
0000
0001
0000
0000
,  // measure 16
1000
0100
0010
0001
,  // measure 17
1000
0100
0010
0001
,  // measure 18
1000
0100
0010
0001
,  // measure 19
1000
0000
0000
0100
0000
0000
0001
0000
1000
0000
0001
0000
,  // measure 20
1000
0000
0001
0000
1000
0000
0001
0000
1000
0000
0001
0000
,  // measure 21
2002
3003
1010
0000
0100
0000
0011
0000
,  // measure 22
0100
0000
0100
0010
0001
0010
0100
1000
,  // measure 23
0001
1010
0100
0011
,  // measure 24
0100
0010
0001
0010
1000
0010
0100
1000
,  // measure 25
0100
0101
0010
1100
,  // measure 26
0010
0000
0010
0100
1000
0100
0010
0001
,  // measure 27
1000
0101
0010
1100
,  // measure 28
0010
0100
1000
0100
0001
0100
0010
0001
,  // measure 29
0010
0011
1000
0101
,  // measure 30
1000
0000
1000
0001
0100
0001
1000
0010
,  // measure 31
0100
0011
1000
0101
,  // measure 32
1000
0001
0100
0001
0010
0001
1000
0010
,  // measure 33
1000
1100
0001
1010
,  // measure 34
0001
0000
0001
1000
0010
1000
0001
0100
,  // measure 35
0010
1100
0001
1010
,  // measure 36
0001
1000
0010
1000
0100
1000
0001
0100
,  // measure 37
0001
1010
0100
0011
,  // measure 38
0100
0000
0100
0010
0001
0010
0100
1000
,  // measure 39
0001
1010
0100
0011
,  // measure 40
0100
0010
0001
0010
1000
0010
0100
1000
,  // measure 41
0100
0101
0010
1100
,  // measure 42
0010
0000
0010
0100
1000
0100
0010
0001
,  // measure 43
1000
0101
0010
1100
,  // measure 44
0010
0100
1000
0100
0001
0100
0010
0001
,  // measure 45
0010
0011
1000
0101
,  // measure 46
1000
0000
1000
0001
0100
0001
1000
0010
,  // measure 47
0100
0011
1000
0101
,  // measure 48
1000
0001
0100
0001
0010
0001
1000
0010
,  // measure 49
1000
0000
0001
1000
0001
1000
0001
1000
,  // measure 50
0001
1000
0001
1000
0001
1000
0001
1000
,  // measure 51
0001
0000
1001
0000
1010
0000
0000
0101
,  // measure 52
0000
0000
1001
0000
0000
1001
0000
0000
,  // measure 53
1001
0000
0120
0100
0100
0000
1000
0000
,  // measure 54
1000
0000
0001
0001
0001
0000
0100
0000
,  // measure 55
0100
0030
0210
0010
0010
0000
0001
0000
,  // measure 56
0001
0000
1000
1000
1000
0000
0010
0000
,  // measure 57
0010
0000
0300
0000
1000
0100
1000
0000
1100
0000
1000
0000
0001
0010
0001
0000
,  // measure 58
1010
0000
0010
0000
0001
0010
0001
0000
0011
0000
0001
0000
1000
0100
1000
0000
,  // measure 59
0101
0000
0100
0000
0010
1000
0010
0000
1010
0000
0010
0000
0100
0001
0100
0000
,  // measure 60
0011
0000
0001
0000
0100
0001
0100
0000
0101
0000
0100
0000
0010
1000
0010
0000
,  // measure 61
1100
0000
1000
0000
0001
1000
0001
1000
0001
1000
0001
1000
0001
1000
0001
1000
,  // measure 62
0001
1000
0001
1000
0001
1000
0001
1000
0001
1000
0001
1000
0001
1000
0001
1000
,  // measure 63
0001
0000
0000
1000
0000
0000
0001
0000
0000
1000
0000
0000
0001
0000
0000
1000
0000
0000
0001
0000
0000
1000
0000
0000
0001
0000
0000
1000
0000
0000
0001
0000
0000
1000
0000
0000
0001
0000
1000
0000
0001
0000
1000
0000
0001
0000
1000
0000
,  // measure 64
0001
0000
1001
0110
1010
0101
1001
0000
1000
0000
0010
0000
1000
0000
0010
0000
,  // measure 65
1000
0010
1000
0010
1000
0000
0011
0000
,  // measure 66
0110
0000
1100
0000
0001
0010
0001
0000
,  // measure 67
1000
0010
1000
0000
0001
0010
0100
1000
,  // measure 68
0001
0010
0100
1000
0100
0001
0100
0001
,  // measure 69
0100
0001
0100
0001
0100
0000
0110
0000
,  // measure 70
0011
2200
0000
0000
,  // measure 71
0000
3300
0022
0000
,  // measure 72
0000
0000
0033
0000
0001
0010
0001
0010
,  // measure 73
0001
0010
0001
0010
0001
0000
0101
0000
,  // measure 74
1001
0000
1010
0000
0100
0001
0100
0000
,  // measure 75
0010
0001
0010
0000
0100
0001
1000
0010
,  // measure 76
0100
0000
0000
0001
0000
0000
1000
0000
0000
0010
0000
0000
1000
0000
0100
0000
0010
0000
0001
0000
1000
0000
0100
0000
,  // measure 77
0010
0000
0001
0000
1000
0000
0001
0000
0000
0100
0000
0000
0001
0000
0000
0100
0000
0000
0010
0000
0000
1000
0000
0000
,  // measure 78
0010
0000
0000
1000
0000
0000
0010
0000
0000
0000
0000
0000
0001
0000
0010
0000
0100
0000
1000
0000
0001
0000
0010
0000
,  // measure 79
0100
0000
1000
0000
0001
0000
1000
0000
0000
0010
0000
0000
1000
0000
0000
0010
0000
0000
0100
0000
0000
0001
0000
0000
,  // measure 80
0100
0001
0100
0000
0001
0100
0001
0100
,  // measure 81
0001
0100
0001
0100
0001
0000
1100
0000
,  // measure 82
0110
0000
0011
0000
1000
0100
1000
0000
,  // measure 83
0001
0100
0001
0000
1000
0100
0010
0001
,  // measure 84
1000
0100
0010
0001
0010
1000
0010
1000
,  // measure 85
0010
1000
0010
1000
0010
0000
0110
0000
,  // measure 86
1100
0022
0000
0000
,  // measure 87
0000
0033
2200
0000
,  // measure 88
0000
0000
3300
0000
1000
0100
1000
0100
,  // measure 89
1000
0100
1000
0100
1000
0000
1010
0000
,  // measure 90
1001
0000
0101
0000
0010
1000
0010
0000
,  // measure 91
0100
1000
0100
0000
0010
1000
0001
0100
,  // measure 92
0010
0000
0000
1000
0000
0000
0001
0000
0000
0100
0000
0000
0010
0000
1000
0000
0001
0000
0100
0000
0010
0000
1000
0000
,  // measure 93
0001
0000
0100
0000
0010
0000
0100
0000
0000
1000
0000
0000
0100
0000
0000
1000
0000
0000
0001
0000
0000
0010
0000
0000
,  // measure 94
0001
0010
0001
0000
1001
0000
1001
0000
,  // measure 95
1001
0000
0000
0000
0000
0000
1001
0000
0000
0110
0000
0000
2002
0000
0000
3003
0000
0000
1000
0000
0000
0000
0001
0000
,  // measure 96
0000
0000
1000
0000
0000
0000
0001
0000
0000
0000
1000
0000
0000
0000
0001
0000
0000
0000
1000
0000
0000
0010
0000
0000
,  // measure 97
1000
0000
0000
0010
0000
0000
0001
0000
0000
0010
0000
0000
0100
0000
0000
1000
0000
0000
0001
0000
0010
0000
0100
0000
,  // measure 98
1000
0000
0100
0000
0010
0000
0001
0000
0010
0000
0100
0000
1000
0000
0100
0000
0010
0000
0001
0000
0000
0010
0000
0000
,  // measure 99
0100
0000
0000
1000
0000
0000
0100
0000
0000
0010
0000
0000
0100
0000
0000
0001
0000
0000
0010
0000
0001
0000
1000
0000
,  // measure 100
0100
0000
0010
0000
0001
0000
1000
0000
0100
0000
0001
0000
0010
0000
1000
0000
0100
0000
0001
0000
0000
0100
0000
0000
,  // measure 101
0001
0000
0000
0100
0000
0000
1000
0000
0000
0100
0000
0000
0010
0000
0000
0001
0000
0000
1000
0000
0100
0000
0010
0000
,  // measure 102
0001
0000
0010
0000
0100
0000
1000
0000
0100
0000
0010
0000
0001
0000
0010
0000
0100
0000
1000
0000
0000
0100
0000
0000
,  // measure 103
0010
0000
0000
0001
0000
0000
0010
0000
0000
0100
0000
0000
0010
0000
0000
1000
0000
0000
0100
0000
1000
0000
0001
0000
,  // measure 104
0010
0000
0100
0000
1000
0000
0001
0000
0010
0000
1000
0000
0100
0000
0001
0000
0010
0000
0100
0000
0000
1000
0000
0000
,  // measure 105
0100
0000
0000
1000
0000
0000
0010
0000
0000
1000
0000
0000
0001
0000
0000
0100
0000
0000
0010
0000
1000
0000
0001
0000
,  // measure 106
0100
0000
0001
0000
1000
0000
0010
0000
1000
0000
0001
0000
0100
0000
0001
0000
1000
0000
0010
0000
0000
1000
0000
0000
,  // measure 107
0001
0000
0000
0100
0000
0000
0001
0000
0000
1000
0000
0000
0001
0000
0000
0010
0000
0000
1000
0000
0010
0000
0100
0000
,  // measure 108
0001
0000
1000
0000
0010
0000
0100
0000
0001
0000
0010
0000
1000
0000
0100
0000
0001
0000
0010
0000
0000
0001
0000
0000
,  // measure 109
0010
0000
0000
0001
0000
0000
0100
0000
0000
0001
0000
0000
1000
0000
0000
0010
0000
0000
0100
0000
0001
0000
1000
0000
,  // measure 110
0010
0000
1000
0000
0001
0000
0100
0000
0001
0000
1000
0000
0010
0000
1000
0000
0001
0000
0100
0000
0000
0001
0000
0000
,  // measure 111
1000
0000
0000
0010
0000
0000
1000
0000
0000
0001
0000
0000
1000
0000
0000
0100
0000
0000
0001
0000
0100
0000
0010
0000
,  // measure 112
1000
0000
0000
0000
0001
0000
0000
0000
0100
0000
0000
0000
0010
0000
0000
0000
1000
0000
0000
0000
0100
0000
0000
0000
0001
0000
0000
0000
0010
0000
0000
0000
1000
0000
0000
0000
0001
0000
0000
0010
0000
0000
0001
0000
0000
0000
0000
0000
,  // measure 113
0010
0000
0000
0100
0000
0000
1000
0000
0000
0010
0000
0000
1000
0000
0000
0010
0000
0000
0001
0000
0010
0000
1000
0000
,  // measure 114
0100
0000
0000
0000
0010
0000
0000
0000
0100
0000
0000
0000
0010
0000
0000
0000
0001
0000
0000
0000
0010
0000
0000
0000
1000
0000
0000
0000
0100
0000
0000
0000
0010
0000
0000
0000
0100
0000
0000
0010
0000
0000
0100
0000
0000
0000
0000
0000
,  // measure 115
0001
0000
0000
0010
0000
0000
0001
0000
0010
0000
0100
0000
1000
0000
0100
0000
0010
0000
0001
0000
0010
0000
0100
0000
,  // measure 116
1000
0000
0000
0000
0100
0000
0000
0000
0010
0000
0000
0000
0001
0000
0000
0000
0010
0000
0000
0000
0100
0000
0000
0000
1000
0000
0000
0000
0000
0000
0001
0000
0000
0000
0000
0000
1000
0000
0000
0100
0000
0000
1000
0000
0000
0000
0000
0000
,  // measure 117
0100
0000
0000
0010
0000
0000
0001
0000
0000
0100
0000
0000
0001
0000
0000
0100
0000
0000
1000
0000
0100
0000
0001
0000
,  // measure 118
0010
0000
0000
0000
0100
0000
0000
0000
0010
0000
0000
0000
0100
0000
0000
0000
1000
0000
0000
0000
0100
0000
0000
0000
0001
0000
0000
0000
0010
0000
0000
0000
0100
0000
0000
0000
0010
0000
0000
0100
0000
0000
0010
0000
0000
0000
0000
0000
,  // measure 119
1000
0000
0000
0100
0000
0000
1000
0000
0100
0000
0010
0000
0001
0000
0010
0000
0100
0000
1000
0000
0100
0000
0010
0000
,  // measure 120
0001
0000
0000
0000
0010
0000
0000
0000
0100
0000
0000
0000
1000
0000
0000
0000
0100
0000
0000
0000
0010
0000
0000
0000
0001
0000
0000
0000
0000
0000
1000
0000
0000
0000
0000
0000
0100
0000
0000
0001
0000
0000
0100
0000
0000
0000
0000
0000
,  // measure 121
0001
0000
0000
1000
0000
0000
0010
0000
0000
0001
0000
0000
0010
0000
0000
0001
0000
0000
0100
0000
0001
0000
0010
0000
,  // measure 122
1000
0000
0000
0000
0001
0000
0000
0000
1000
0000
0000
0000
0001
0000
0000
0000
0100
0000
0000
0000
0001
0000
0000
0000
0010
0000
0000
0000
1000
0000
0000
0000
0001
0000
0000
0000
1000
0000
0000
0001
0000
0000
1000
0000
0000
0000
0000
0000
,  // measure 123
0100
0000
0000
0001
0000
0000
0100
0000
0001
0000
1000
0000
0010
0000
1000
0000
0001
0000
0100
0000
0001
0000
1000
0000
,  // measure 124
0010
0000
1000
0000
0001
0000
0100
0000
0001
0000
1000
0000
0010
0000
0000
0100
0000
0000
1000
0000
0001
0000
1000
0000
,  // measure 125
0001
1000
0001
1000
0001
1000
0001
1000
0001
1000
0001
1000
,  // measure 126
0001
0000
0000
0000
1000
0000
0000
0000
0001
0000
0000
0000
1000
0000
0000
0000
0001
0000
0000
0000
1000
0000
0000
0000
0001
0000
0000
1000
0000
0000
0001
0000
0000
1000
0000
0000
1001
0000
0000
0000
0000
0000
0000
0000
0000
0000
0000
0000
,  // measure 127
1001
0000
0000
0110
0000
0000
1010
0000
,  // measure 128
0000
0101
0000
0000
1001
0000
2002
0000
,  // measure 129
0000
0000
0000
0000
,  // measure 130
0000
0000
0000
0000
,  // measure 131
0000
0000
0000
0000
,  // measure 132
0000
0000
0000
0000
,  // measure 133
0000
0000
0000
0000
,  // measure 134
0000
0000
0000
3003
;

//---------------dance-single - ----------------
#NOTEDATA:;
#CHARTNAME:;
#STEPSTYPE:dance-single;
#DESCRIPTION:;
#CHARTSTYLE:;
#DIFFICULTY:Beginner;
#METER:18;
#RADARVALUES:1.219764,2.751987,1.021146,0.227794,1.001508,1087.000000,957.000000,130.000000,29.000000,0.000000,0.000000,0.000000,0.000000,0.000000,1.219764,2.751987,1.021146,0.227794,1.001508,1087.000000,957.000000,130.000000,29.000000,0.000000,0.000000,0.000000,0.000000,0.000000;
#CREDIT:;
#DISPLAYBPM:0.000000:800.000000;
#NOTES:
1001
0000
1001
0000
0001
0000
0010
0100
0000
0010
0000
0010
0000
0001
0010
0100
0000
1010
0000
1010
0000
1010
0000
0100
0010
0000
0010
0000
0001
0010
0100
1000
,
1001
0000
1001
0000
1000
0000
0100
0010
0000
0100
0000
0100
0000
1000
0100
0010
0000
0101
0000
0101
0000
0101
0000
0010
0100
0000
0100
0000
1000
0100
0010
0001
,
0110
0000
0110
0000
0100
0000
0001
1000
0000
0001
0000
0001
0000
0100
0001
1000
0000
0011
0000
0011
0000
0011
0000
1000
0001
0000
0001
0000
0100
0001
1000
0010
,
0110
0000
0110
0000
0010
0000
1000
0001
0000
1000
0000
1000
0000
0010
1000
0001
0000
1100
0000
1100
0000
1100
0000
0001
1000
0000
1000
0000
0010
1000
0001
0100
,
1010
0100
0011
0100
2100
0100
0010
3010
,
0101
0010
0101
0010
1002
0010
0010
0013
,
0101
0010
1100
0010
0012
0010
0100
0103
,
1010
0100
1010
0100
2001
0100
0100
3100
,
0101
0010
1100
0010
0012
0010
0100
0103
,
1010
0100
1010
0100
2001
0100
0100
3100
,
1010
0100
0011
0100
2100
0100
0010
3010
,
1000
0001
1000
0001
1000
0001
1000
0001
1000
0001
1000
0001
1000
0000
0001
0000
,
1000
0001
1000
0001
1000
0001
1000
0001
,
1000
0001
1000
0001
1000
0001
1000
0001
,
1000
0000
0000
0001
0000
0000
1000
0000
0000
0001
0000
0000
1000
0000
0000
0000
0100
0000
0000
0000
0010
0000
0000
0000
,
0001
0000
1000
0000
0100
0000
0010
0000
0000
0001
0000
0000
,
1000
0100
0010
0001
,
1000
0100
0010
0001
,
1000
0100
0010
0001
,
1000
0000
0000
0100
0000
0000
0001
0000
1000
0000
0001
0000
,
1000
0000
0001
0000
1000
0000
0001
0000
1000
0000
0001
0000
,
2002
3003
1010
0000
0100
0000
0011
0000
,
0100
0000
0100
0010
0001
0000
0100
1000
,
0001
1010
0100
0011
,
0100
0010
0001
0010
1000
0010
0100
1000
,
0100
0101
0010
1100
,
0010
0000
0010
0100
1000
0000
0010
0001
,
1000
0101
0010
1100
,
0010
0100
1000
0100
0001
0100
0010
0001
,
0010
0011
1000
0101
,
1000
0000
1000
0001
0100
0000
1000
0010
,
0100
0011
1000
0101
,
1000
0001
0100
0001
0010
0001
1000
0010
,
1000
1100
0001
1010
,
0001
0000
0001
1000
0010
0000
0001
0100
,
0010
1100
0001
1010
,
0001
1000
0010
1000
0100
1000
0001
0100
,
0001
1010
0100
0011
,
0100
0000
0100
0010
0001
0000
0100
1000
,
0001
1010
0100
0011
,
0100
0010
0001
0010
1000
0010
0100
1000
,
0100
0101
0010
1100
,
0010
0000
0010
0100
1000
0000
0010
0001
,
1000
0101
0010
1100
,
0010
0100
1000
0100
0001
0100
0010
0001
,
0010
0011
1000
0101
,
1000
0000
1000
0001
0100
0000
1000
0010
,
0100
0011
1000
0101
,
1000
0001
0100
0001
0010
0001
1000
0010
,
1000
0000
0001
1000
0001
1000
0001
1000
,
0001
1000
0001
1000
0001
1000
0001
1000
,
0001
0000
1001
0000
1010
0000
0000
0101
,
0000
0000
1001
0000
0000
1001
0000
0000
,
1001
0120
0100
1000
,
1000
0001
0001
0100
,
0100
0030
0210
0000
0010
0000
0001
0000
,
0001
1000
1000
0010
,
0010
0000
0300
0000
1000
0100
1000
0000
1100
0000
0000
0000
0001
0010
0001
0000
,
1010
0000
0000
0000
0001
0010
0001
0000
0011
0000
0000
0000
1000
0100
1000
0000
,
0101
0000
0000
0000
0010
1000
0010
0000
1010
0000
0000
0000
0100
0001
0100
0000
,
0011
0000
0000
0000
0100
0001
0100
0000
0101
0000
0000
0000
0010
1000
0010
0000
,
1100
0000
0000
0000
0001
1000
0001
1000
0001
1000
0001
1000
0001
1000
0001
1000
,
0001
1000
0001
1000
0001
1000
0001
1000
0001
1000
0001
1000
0001
1000
0001
1000
,
0001
0000
0000
1000
0000
0000
0001
0000
0000
1000
0000
0000
0001
0000
0000
1000
0000
0000
0001
0000
0000
1000
0000
0000
0001
0000
0000
1000
0000
0000
0001
0000
0000
1000
0000
0000
0001
0000
1000
0000
0001
0000
1000
0000
0001
0000
1000
0000
,
0001
0000
1001
0110
1010
0101
1001
0000
1020
0000
0000
0000
1000
0000
0000
0000
,
1000
1000
1030
0011
,
0110
0000
1100
0000
0001
0010
0001
0000
,
1000
0010
1000
0000
0001
0010
0100
1000
,
0001
0010
0100
1000
0102
0000
0100
0000
,
0100
0100
0103
0110
,
0011
2200
0000
0000
,
0000
3300
0022
0000
,
0000
0033
0021
0001
,
0001
0001
0031
0101
,
1001
0000
1010
0000
0100
0001
0100
0000
,
0010
0001
0010
0000
0100
0001
1000
0010
,
0100
0000
0000
0001
0000
0000
1000
0000
0000
0010
0000
0000
1000
0000
0100
0000
0010
0000
0001
0000
1000
0000
0100
0000
,
0010
0000
0001
0000
1000
0000
0001
0000
0000
0100
0000
0000
0001
0000
0000
0100
0000
0000
0010
0000
0000
1000
0000
0000
,
0010
0000
0000
1000
0000
0000
0010
0000
0000
0000
0000
0000
0001
0000
0010
0000
0100
0000
1000
0000
0001
0000
0010
0000
,
0100
0000
1000
0000
0001
0000
1000
0000
0000
0010
0000
0000
1000
0000
0000
0010
0000
0000
0100
0000
0000
0001
0000
0000
,
0100
0001
0100
0000
0201
0000
0001
0000
,
0001
0001
0301
1100
,
0110
0000
0011
0000
1000
0100
1000
0000
,
0001
0100
0001
0000
1000
0100
0010
0001
,
1000
0100
0010
0001
2010
0000
0010
0000
,
0010
0010
3010
0110
,
1100
0022
0000
0000
,
0000
0033
2200
0000
,
0000
3300
1200
1000
,
1000
1000
1300
1010
,
1001
0000
0101
0000
0010
1000
0010
0000
,
0100
1000
0100
0000
0010
1000
0001
0100
,
0010
0000
0000
1000
0000
0000
0001
0000
0000
0100
0000
0000
0010
0000
1000
0000
0001
0000
0100
0000
0010
0000
1000
0000
,
0001
0000
0100
0000
0010
0000
0100
0000
0000
1000
0000
0000
0100
0000
0000
1000
0000
0000
0001
0000
0000
0010
0000
0000
,
0001
0010
0001
0000
1001
0000
1001
0000
,
1001
0000
0000
0000
0000
0000
1001
0000
0000
0110
0000
0000
2002
0000
0000
3003
0000
0000
1000
0000
0000
0000
0001
0000
,
0000
0000
1000
0000
0000
0000
0001
0000
0000
0000
1000
0000
0000
0000
0001
0000
0000
0000
1000
0000
0000
0010
0000
0000
,
1000
0010
0001
0010
0100
1000
0001
0010
,
1000
0000
0100
0000
0010
0000
0001
0000
0010
0000
0100
0000
1000
0000
0100
0000
0010
0000
0001
0000
0000
0010
0000
0000
,
0100
1000
0100
0010
0100
0001
0010
0001
,
0100
0000
0010
0000
0001
0000
1000
0000
0100
0000
0001
0000
0010
0000
1000
0000
0100
0000
0001
0000
0000
0100
0000
0000
,
0001
0100
1000
0100
0010
0001
1000
0100
,
0001
0000
0010
0000
0100
0000
1000
0000
0100
0000
0010
0000
0001
0000
0010
0000
0100
0000
1000
0000
0000
0100
0000
0000
,
0010
0001
0010
0100
0010
1000
0100
1000
,
0010
0000
0100
0000
1000
0000
0001
0000
0010
0000
1000
0000
0100
0000
0001
0000
0010
0000
0100
0000
0000
1000
0000
0000
,
0100
1000
0010
1000
0001
0100
0010
1000
,
0100
0000
0001
0000
1000
0000
0010
0000
1000
0000
0001
0000
0100
0000
0001
0000
1000
0000
0010
0000
0000
1000
0000
0000
,
0001
0100
0001
1000
0001
0010
1000
0010
,
0001
0000
1000
0000
0010
0000
0100
0000
0001
0000
0010
0000
1000
0000
0100
0000
0001
0000
0010
0000
0000
0001
0000
0000
,
0010
0001
0100
0001
1000
0010
0100
0001
,
0010
0000
1000
0000
0001
0000
0100
0000
0001
0000
1000
0000
0010
0000
1000
0000
0001
0000
0100
0000
0000
0001
0000
0000
,
1000
0010
1000
0001
1000
0100
0001
0100
,
1000
0000
0001
0000
0100
0000
0010
0000
1000
0000
0100
0000
0001
0000
0010
0000
1000
0000
0001
0000
0000
0001
0000
0000
,
0010
0100
1000
0010
1000
0010
0001
1000
,
0100
0000
0000
0000
0010
0000
0000
0000
0100
0000
0000
0000
0010
0000
0000
0000
0001
0000
0000
0000
0010
0000
0000
0000
1000
0000
0000
0000
0100
0000
0000
0000
0010
0000
0000
0000
0100
0000
0000
0010
0000
0000
0100
0000
0000
0000
0000
0000
,
0001
0000
0000
0010
0000
0000
0001
0000
0010
0000
0100
0000
1000
0000
0100
0000
0010
0000
0001
0000
0010
0000
0100
0000
,
1000
0000
0100
0000
0010
0000
0001
0000
0010
0000
0100
0000
1000
0000
0000
0001
0000
0000
1000
0000
0000
1000
0000
0000
,
0100
0000
0000
0010
0000
0000
0001
0000
0000
0100
0000
0000
0001
0000
0000
0100
0000
0000
1000
0000
0100
0000
0001
0000
,
0010
0000
0000
0000
0100
0000
0000
0000
0010
0000
0000
0000
0100
0000
0000
0000
1000
0000
0000
0000
0100
0000
0000
0000
0001
0000
0000
0000
0010
0000
0000
0000
0100
0000
0000
0000
0010
0000
0000
0100
0000
0000
0010
0000
0000
0000
0000
0000
,
1000
0000
0000
0100
0000
0000
1000
0000
0100
0000
0010
0000
0001
0000
0010
0000
0100
0000
1000
0000
0100
0000
0010
0000
,
0001
0000
0010
0000
0100
0000
1000
0000
0100
0000
0010
0000
0001
0000
0000
1000
0000
0000
0100
0000
0000
0100
0000
0000
,
0001
0000
0000
1000
0000
0000
0010
0000
0000
0001
0000
0000
0010
0000
0000
0001
0000
0000
0100
0000
0001
0000
0010
0000
,
1000
0000
0000
0000
0001
0000
0000
0000
1000
0000
0000
0000
0001
0000
0000
0000
0100
0000
0000
0000
0001
0000
0000
0000
0010
0000
0000
0000
1000
0000
0000
0000
0001
0000
0000
0000
1000
0000
0000
0001
0000
0000
1000
0000
0000
0000
0000
0000
,
0100
0000
0000
0001
0000
0000
0100
0000
0001
0000
1000
0000
0010
0000
1000
0000
0001
0000
0100
0000
0001
0000
1000
0000
,
0010
0000
1000
0000
0001
0000
0100
0000
0001
0000
1000
0000
0010
0000
0000
0100
0000
0000
1000
0000
0001
0000
1000
0000
,
0001
1000
0001
1000
0001
1000
0001
1000
0001
1000
0001
1000
,
0001
1000
0001
1000
0001
1000
0001
1000
0001
1001
0000
0000
,
1001
0000
0000
0110
0000
0000
1010
0000
,
0000
0101
0000
0000
1001
0000
2002
0000
,
0000
0000
0000
0000
,
0000
0000
0000
0000
,
0000
0000
0000
0000
,
0000
0000
0000
0000
,
0000
0000
0000
0000
,
0000
0000
0000
3003
;

//---------------dance-single - ----------------
#NOTEDATA:;
#CHARTNAME:;
#STEPSTYPE:dance-single;
#DESCRIPTION:;
#CHARTSTYLE:;
#DIFFICULTY:Medium;
#METER:20;
#RADARVALUES:1.354421,2.857833,1.091840,0.180664,1.217520,1207.000000,1068.000000,139.000000,23.000000,0.000000,0.000000,0.000000,0.000000,0.000000,1.354421,2.857833,1.091840,0.180664,1.217520,1207.000000,1068.000000,139.000000,23.000000,0.000000,0.000000,0.000000,0.000000,0.000000;
#CREDIT:;
#DISPLAYBPM:0.000000:800.000000;
#NOTES:
1001
0000
1001
0000
0001
0001
0010
0100
0000
0010
0000
0010
0000
0001
0010
0100
0000
1010
0000
1010
0000
1010
0000
0100
0010
0000
0010
0000
0001
0010
0100
1000
,
1001
0000
1001
0000
1000
1000
0100
0010
0000
0100
0000
0100
0000
1000
0100
0010
0000
0101
0000
0101
0000
0101
0000
0010
0100
0000
0100
0000
1000
0100
0010
0001
,
0110
0000
0110
0000
0100
0100
0001
1000
0000
0001
0000
0001
0000
0100
0001
1000
0000
0011
0000
0011
0000
0011
0000
1000
0001
0000
0001
0000
0100
0001
1000
0010
,
0110
0000
0110
0000
0010
0010
1000
0001
0000
1000
0000
1000
0000
0010
1000
0001
0000
1100
0000
1100
0000
1100
0000
0001
1000
0000
1000
0000
0010
1000
0001
0100
,
1010
0001
0100
1000
0011
0000
0100
0000
2100
0000
0100
0000
0010
0010
3010
0000
,
0101
0000
0010
0000
0101
0000
0010
0010
1002
0000
0010
0000
0010
0010
0013
0000
,
0101
1000
0010
0001
1100
0000
0010
0000
0012
0000
0010
0000
0100
0100
0103
0000
,
1010
0000
0100
0000
1010
0000
0100
0100
2001
0000
0100
0000
0100
0100
3100
0000
,
0101
1000
0010
0001
1100
0000
0010
0000
0012
0000
0010
0000
0100
0100
0103
0000
,
1010
0000
0100
0000
1010
0000
0100
0100
2001
0000
0100
0000
0100
0100
3100
0000
,
1010
0001
0100
1000
0011
0000
0100
0000
2100
0000
0100
0000
0010
0010
3010
0000
,
1000
0000
0000
0001
0000
0000
1000
0000
0000
0001
0000
0000
1000
0000
0000
0001
0000
0000
1000
0000
0000
0001
0000
0000
1000
0000
0000
0001
0000
0000
1000
0000
0000
0001
0000
0000
1000
0000
0000
0000
0001
0000
0000
0000
1000
0000
0000
0000
,
0001
0000
1000
0000
0001
0000
1000
0000
0000
0001
0000
0000
1000
0000
0000
0001
0000
0000
1000
0000
0000
0001
0000
0000
,
1000
0001
1000
0001
1000
0001
1000
0001
,
1000
0001
1000
0001
1000
0001
1000
0000
0100
0000
0010
0000
,
0001
0000
1000
0000
0100
0000
0010
0000
0000
0001
0000
0000
,
1000
0100
0010
0001
,
1000
0100
0010
0001
,
1000
0100
0010
0001
,
1000
0000
0001
0000
1000
0000
0001
0000
1000
0000
0001
0000
,
1000
0000
0001
0000
1000
0000
0001
0000
1000
0000
0001
0000
,
2002
3003
1010
0000
0100
0000
0011
0000
,
0100
0000
0100
0010
0001
0010
0100
1000
,
0001
1000
1010
0000
0100
0000
0011
0000
,
0100
0010
0001
0010
1000
0010
0100
1000
,
0100
0010
0101
0000
0010
0000
1100
0000
,
0010
0000
0010
0100
1000
0100
0010
0001
,
1000
0001
0101
0000
0010
0000
1100
0000
,
0010
0100
1000
0100
0001
0100
0010
0001
,
0010
0100
0011
0000
1000
0000
0101
0000
,
1000
0000
1000
0001
0100
0001
1000
0010
,
0100
0010
0011
0000
1000
0000
0101
0000
,
1000
0001
0100
0001
0010
0001
1000
0010
,
1000
0001
1100
0000
0001
0000
1010
0000
,
0001
0000
0001
1000
0010
1000
0001
0100
,
0010
0100
1100
0000
0001
0000
1010
0000
,
0001
1000
0010
1000
0100
1000
0001
0100
,
0001
1000
1010
0000
0100
0000
0011
0000
,
0100
0000
0100
0010
0001
0010
0100
1000
,
0001
1000
1010
0000
0100
0000
0011
0000
,
0100
0010
0001
0010
1000
0010
0100
1000
,
0100
0010
0101
0000
0010
0000
1100
0000
,
0010
0000
0010
0100
1000
0100
0010
0001
,
1000
0001
0101
0000
0010
0000
1100
0000
,
0010
0100
1000
0100
0001
0100
0010
0001
,
0010
0100
0011
0000
1000
0000
0101
0000
,
1000
0000
1000
0001
0100
0001
1000
0010
,
0100
0010
0011
0000
1000
0000
0101
0000
,
1000
0001
0100
0001
0010
0001
1000
0010
,
1000
0001
0001
1000
0001
1000
0001
1000
,
0001
1000
0001
1000
0001
1000
0001
1000
,
1001
0000
1001
0000
1010
0000
0000
0101
,
0000
0000
1001
0000
0000
1001
0000
0000
,
1001
0000
0120
0100
0100
0000
1000
1000
,
1000
0000
0001
0001
0001
0000
0100
0100
,
0100
0030
0210
0010
0010
0000
0001
0001
,
0001
0000
1000
1000
1000
0000
0010
0010
,
0010
0000
0300
0000
1000
0100
1000
0000
1100
0000
1000
0000
0001
0010
0001
0000
,
1010
0000
0010
0000
0001
0010
0001
0000
0011
0000
0001
0000
1000
0100
1000
0000
,
0101
0000
0100
0000
0010
1000
0010
0000
1010
0000
0010
0000
0100
0001
0100
0000
,
0011
0000
0001
0000
0100
0001
0100
0000
0101
0000
0100
0000
0010
1000
0010
0000
,
1100
0000
1000
0000
0001
1000
0001
1000
0001
1000
0001
1000
0001
1000
0001
1000
,
0001
1000
0001
1000
0001
1000
0001
1000
0001
1000
0001
1000
0001
1000
0001
1000
,
0001
0000
0000
1000
0000
0000
0001
0000
0000
1000
0000
0000
0001
0000
0000
1000
0000
0000
0001
0000
0000
1000
0000
0000
0001
0000
1000
0000
0001
0000
1000
0000
0001
0000
1000
0000
0001
0000
1000
0000
0001
0000
1000
0000
0001
0000
1000
0000
,
0001
0000
1001
0110
1010
0101
1001
0000
1000
0000
0010
0000
1000
0000
0010
0000
,
1000
0010
1000
0010
1000
0010
0011
0000
,
0110
0000
1100
0000
0001
0010
0001
0000
,
1000
0010
1000
0000
0001
0010
0100
1000
,
0001
0010
0100
1000
0100
0001
0100
0001
,
0100
0001
0100
0001
0100
0001
0110
0000
,
0011
2200
0000
0000
,
0000
3300
0022
0000
,
0000
0000
0033
0000
0001
0010
0001
0010
,
0001
0010
0001
0010
0001
0010
0101
0000
,
1001
0000
1010
0000
0100
0001
0100
0000
,
0010
0001
0010
0000
0100
0001
1000
0010
,
0100
0000
0000
0001
0000
0000
1000
0000
0000
0010
0000
0000
1000
0000
0100
0000
0010
0000
0001
0000
1000
0000
0100
0000
,
0010
0000
0001
0000
1000
0000
0001
0000
0000
0100
0000
0000
0001
0000
0000
0100
0000
0000
0010
0000
0000
1000
0000
0000
,
0010
0000
0000
1000
0000
0000
0010
0000
0000
0000
0000
0000
0001
0000
0010
0000
0100
0000
1000
0000
0001
0000
0010
0000
,
0100
0000
1000
0000
0001
0000
1000
0000
0000
0010
0000
0000
1000
0000
0000
0010
0000
0000
0100
0000
0000
0001
0000
0000
,
0100
0001
0100
0000
0001
0100
0001
0100
,
0001
0100
0001
0100
0001
0100
1100
0000
,
0110
0000
0011
0000
1000
0100
1000
0000
,
0001
0100
0001
0000
1000
0100
0010
0001
,
1000
0100
0010
0001
0010
1000
0010
1000
,
0010
1000
0010
1000
0010
1000
0110
0000
,
1100
0022
0000
0000
,
0000
0033
2200
0000
,
0000
0000
3300
0000
1000
0100
1000
0100
,
1000
0100
1000
0100
1000
0100
1010
0000
,
1001
0000
0101
0000
0010
1000
0010
0000
,
0100
1000
0100
0000
0010
1000
0001
0100
,
0010
0000
0000
1000
0000
0000
0001
0000
0000
0100
0000
0000
0010
0000
1000
0000
0001
0000
0100
0000
0010
0000
1000
0000
,
0001
0000
0100
0000
0010
0000
0100
0000
0000
1000
0000
0000
0100
0000
0000
1000
0000
0000
0001
0000
0000
0010
0000
0000
,
0001
0010
0001
0000
1001
0000
1001
0000
,
1001
0000
0000
0000
0000
0000
1001
0000
0000
0110
0000
0000
2002
0000
0000
3003
0000
0000
1000
0000
0000
0000
0001
0000
,
0000
0000
1000
0000
0000
0000
0001
0000
0000
0000
1000
0000
0000
0000
0001
0000
0000
0000
1000
0000
0000
0010
0000
0000
,
1000
0000
0000
0010
0000
0000
0001
0000
0000
0010
0000
0000
0100
0000
0000
1000
0000
0000
0001
0000
0010
0000
0100
0000
,
1000
0000
0100
0000
0010
0000
0001
0000
0010
0000
0100
0000
1000
0000
0100
0000
0010
0000
1001
0000
0000
0010
0000
0000
,
0100
0000
0000
1000
0000
0000
0100
0000
0000
0010
0000
0000
0100
0000
0000
0001
0000
0000
0010
0000
0001
0000
1000
0000
,
0100
0000
0010
0000
0001
0000
1000
0000
0100
0000
0001
0000
0010
0000
1000
0000
0100
0000
0001
0000
0000
0100
0000
0000
,
1001
0000
0000
0100
0000
0000
1000
0000
0000
0100
0000
0000
0010
0000
0000
0001
0000
0000
1000
0000
0100
0000
0010
0000
,
0001
0000
0010
0000
0100
0000
1000
0000
0100
0000
0010
0000
0001
0000
0010
0000
0100
0000
1000
0000
0000
0100
0000
0000
,
0110
0000
0000
0001
0000
0000
0010
0000
0000
0100
0000
0000
0010
0000
0000
1000
0000
0000
0100
0000
1000
0000
0001
0000
,
0010
0000
0100
0000
1000
0000
0001
0000
0010
0000
1000
0000
0100
0000
0001
0000
0010
0000
0100
0000
0000
1000
0000
0000
,
0110
0000
0000
1000
0000
0000
0010
0000
0000
1000
0000
0000
0001
0000
0000
0100
0000
0000
0010
0000
1000
0000
0001
0000
,
0100
0000
0001
0000
1000
0000
0010
0000
1000
0000
0001
0000
0100
0000
0001
0000
1000
0000
0010
0000
0000
1000
0000
0000
,
1001
0000
0000
0100
0000
0000
0001
0000
0000
1000
0000
0000
0001
0000
0000
0010
0000
0000
1000
0000
0010
0000
0100
0000
,
0001
0000
1000
0000
0010
0000
0100
0000
0001
0000
0010
0000
1000
0000
0100
0000
0001
0000
0010
0000
0000
0001
0000
0000
,
0110
0000
0000
0001
0000
0000
0100
0000
0000
0001
0000
0000
1000
0000
0000
0010
0000
0000
0100
0000
0001
0000
1000
0000
,
0010
0000
1000
0000
0001
0000
0100
0000
0001
0000
1000
0000
0010
0000
1000
0000
0001
0000
0100
0000
0000
0001
0000
0000
,
1001
0000
0000
0010
0000
0000
1000
0000
0000
0001
0000
0000
1000
0000
0000
0100
0000
0000
0001
0000
0100
0000
0010
0000
,
1000
0000
0000
0000
0001
0000
0000
0000
0100
0000
0000
0000
0010
0000
0000
0000
1000
0000
0000
0000
0100
0000
0000
0000
0001
0000
0000
0000
0010
0000
0000
0000
1000
0000
0000
0000
0001
0000
0000
0010
0000
0000
0001
0000
0000
0000
0000
0000
,
0110
0000
0000
0100
0000
0000
1000
0000
0000
0010
0000
0000
1000
0000
0000
0010
0000
0000
0001
0000
0010
0000
1000
0000
,
0100
0000
0000
0000
0010
0000
0000
0000
0100
0000
0000
0000
0010
0000
0000
0000
0001
0000
0000
0000
0010
0000
0000
0000
1000
0000
0000
0000
0100
0000
0000
0000
0010
0000
0000
0000
0100
0000
0000
0010
0000
0000
0100
0000
0000
0000
0000
0000
,
1001
0000
0000
0010
0000
0000
0001
0000
0010
0000
0100
0000
1000
0000
0100
0000
0010
0000
0001
0000
0010
0000
0100
0000
,
1000
0000
0000
0000
0100
0000
0000
0000
0010
0000
0000
0000
0001
0000
0000
0000
0010
0000
0000
0000
0100
0000
0000
0000
1000
0000
0000
0000
0000
0000
0001
0000
0000
0000
0000
0000
1000
0000
0000
0100
0000
0000
1000
0000
0000
0000
0000
0000
,
0110
0000
0000
0010
0000
0000
0001
0000
0000
0100
0000
0000
0001
0000
0000
0100
0000
0000
1000
0000
0100
0000
0001
0000
,
0010
0000
0000
0000
0100
0000
0000
0000
0010
0000
0000
0000
0100
0000
0000
0000
1000
0000
0000
0000
0100
0000
0000
0000
0001
0000
0000
0000
0010
0000
0000
0000
0100
0000
0000
0000
0010
0000
0000
0100
0000
0000
0010
0000
0000
0000
0000
0000
,
1001
0000
0000
0100
0000
0000
1000
0000
0100
0000
0010
0000
0001
0000
0010
0000
0100
0000
1000
0000
0100
0000
0010
0000
,
0001
0000
0000
0000
0010
0000
0000
0000
0100
0000
0000
0000
1000
0000
0000
0000
0100
0000
0000
0000
0010
0000
0000
0000
0001
0000
0000
0000
0000
0000
1000
0000
0000
0000
0000
0000
0100
0000
0000
0001
0000
0000
0100
0000
0000
0000
0000
0000
,
1001
0000
0000
1000
0000
0000
0010
0000
0000
0001
0000
0000
0010
0000
0000
0001
0000
0000
0100
0000
0001
0000
0010
0000
,
1000
0000
0000
0000
0001
0000
0000
0000
1000
0000
0000
0000
0001
0000
0000
0000
0100
0000
0000
0000
0001
0000
0000
0000
0010
0000
0000
0000
1000
0000
0000
0000
0001
0000
0000
0000
1000
0000
0000
0001
0000
0000
1000
0000
0000
0000
0000
0000
,
0110
0000
0000
0001
0000
0000
0100
0000
0001
0000
1000
0000
0010
0000
1000
0000
0001
0000
0100
0000
0001
0000
1000
0000
,
0010
0000
1000
0000
0001
0000
0100
0000
0001
0000
1000
0000
0010
0000
0000
0100
0000
0000
0001
0000
1000
0000
0001
0000
,
1000
0001
1000
0001
1000
0001
1000
0001
1000
0001
1000
0001
,
1000
0000
0000
0000
0001
0000
0000
0000
1000
0000
0000
0000
0001
0000
0000
1000
0000
0000
0001
0000
0000
1000
0000
0000
0001
0000
0000
1000
0000
0000
0001
0000
0000
1000
0000
0000
1001
0000
0000
0000
0000
0000
0000
0000
0000
0000
0000
0000
,
1001
0000
0000
0110
0000
0000
1010
0000
,
0000
0101
0000
0000
1001
0110
2002
0000
,
0000
0000
0000
0000
,
0000
0000
0000
0000
,
0000
0000
0000
0000
,
0000
0000
0000
0000
,
0000
0000
0000
0000
,
0000
0000
0000
3003
;

//---------------dance-single - ----------------
#NOTEDATA:;
#CHARTNAME:;
#STEPSTYPE:dance-single;
#DESCRIPTION:;
#CHARTSTYLE:;
#DIFFICULTY:Hard;
#METER:21;
#RADARVALUES:1.415016,2.963679,1.178245,0.243504,1.358909,1261.000000,1111.000000,150.000000,31.000000,0.000000,0.000000,0.000000,0.000000,0.000000,1.415016,2.963679,1.178245,0.243504,1.358909,1261.000000,1111.000000,150.000000,31.000000,0.000000,0.000000,0.000000,0.000000,0.000000;
#CREDIT:;
#DISPLAYBPM:0.000000:800.000000;
#NOTES:
1001
0000
1001
0000
0001
0001
0010
0100
0000
0010
0000
0010
0000
0001
0010
0100
0000
1010
0000
1010
0000
1010
0100
0100
0010
0000
0010
0000
0001
0010
0100
1000
,
1001
0000
1001
0000
1000
1000
0100
0010
0000
0100
0000
0100
0000
1000
0100
0010
0000
0101
0000
0101
0000
0101
0010
0010
0100
0000
0100
0000
1000
0100
0010
0001
,
0110
0000
0110
0000
0100
0100
0001
1000
0000
0001
0000
0001
0000
0100
0001
1000
0000
0011
0000
0011
0000
0011
1000
1000
0001
0000
0001
0000
0100
0001
1000
0010
,
0110
0000
0110
0000
0010
0010
1000
0001
0000
1000
0000
1000
0000
0010
1000
0001
0000
1100
0000
1100
0000
1100
0001
0001
1000
0000
1000
0000
0010
1000
0001
0100
,
1010
0001
0100
1000
0011
0000
0100
0000
2100
0001
0100
0000
0010
0010
3010
0000
,
0101
0000
0010
0000
0101
0000
0010
0010
1002
0000
0010
0000
0010
0010
0013
0000
,
0101
1000
0010
0001
1100
0000
0010
0000
0012
1000
0010
0000
0100
0100
0103
0000
,
1010
0000
0100
0000
1010
0000
0100
0100
2001
0000
0100
0000
0100
0100
3100
0000
,
0101
1000
0010
0001
1100
0000
0010
0000
0012
1000
0010
0000
0100
0100
0103
0000
,
1010
0000
0100
0000
1010
0000
0100
0100
2001
0000
0100
0000
0100
0100
3100
0000
,
1010
0001
0100
1000
0011
0000
0100
0000
2100
0001
0100
0000
0010
0010
3010
0000
,
1000
0000
0000
0001
0000
0000
1000
0000
0000
0001
0000
0000
1000
0000
0000
0001
0000
0000
1000
0000
0000
0001
0000
0000
1000
0000
0000
0001
0000
0000
1000
0000
0000
0001
0000
0000
1000
0000
0000
0000
0001
0000
0000
0000
1000
0000
0000
0000
,
0001
0000
1000
0000
0001
0000
1000
0000
0000
0001
0000
0000
1000
0000
0000
0001
0000
0000
1000
0000
0000
0001
0000
0000
,
1000
0000
0000
0001
0000
0000
1000
0000
0000
0001
0000
0000
1000
0000
0001
0000
1000
0000
0001
0000
1000
0000
0001
0000
,
1000
0001
1000
0001
1000
0001
1000
0000
0100
0000
0010
0000
,
0001
0000
1000
0000
0100
0000
0010
0000
0000
0001
0000
0000
,
1000
0000
0100
0000
0010
0000
0001
0000
1000
0000
0100
0000
,
0010
0000
0001
0000
1000
0000
0100
0000
0010
0000
0001
0000
,
1000
0000
0100
0000
0010
0000
0001
0000
1000
0000
0001
0000
,
1000
0000
0001
0000
1000
0000
0001
0000
1000
0000
0001
0000
,
1000
0000
0001
0000
1000
0000
0001
0000
1000
0000
0001
0000
,
2002
3003
1010
0000
0100
0000
0011
0000
,
0100
1000
0100
0010
0001
0010
0100
1000
,
0001
1000
1010
0000
0100
0000
0011
0000
,
0100
0010
0001
0010
1000
0010
0100
1000
,
0100
0010
0101
0000
0010
0000
1100
0000
,
0010
0001
0010
0100
1000
0100
0010
0001
,
1000
0001
0101
0000
0010
0000
1100
0000
,
0010
0100
1000
0100
0001
0100
0010
0001
,
0010
0100
0011
0000
1000
0000
0101
0000
,
1000
0010
1000
0001
0100
0001
1000
0010
,
0100
0010
0011
0000
1000
0000
0101
0000
,
1000
0001
0100
0001
0010
0001
1000
0010
,
1000
0001
1100
0000
0001
0000
1010
0000
,
0001
0100
0001
1000
0010
1000
0001
0100
,
0010
0100
1100
0000
0001
0000
1010
0000
,
0001
1000
0010
1000
0100
1000
0001
0100
,
0001
1000
1010
0000
0100
0000
0011
0000
,
0100
1000
0100
0010
0001
0010
0100
1000
,
0001
1000
1010
0000
0100
0000
0011
0000
,
0100
0010
0001
0010
1000
0010
0100
1000
,
0100
0010
0101
0000
0010
0000
1100
0000
,
0010
0001
0010
0100
1000
0100
0010
0001
,
1000
0001
0101
0000
0010
0000
1100
0000
,
0010
0100
1000
0100
0001
0100
0010
0001
,
0010
0100
0011
0000
1000
0000
0101
0000
,
1000
0010
1000
0001
0100
0001
1000
0010
,
0100
0010
0011
0000
1000
0000
0101
0000
,
1000
0001
0100
0001
0010
0001
1000
0010
,
1000
0001
0001
1000
0001
1000
0001
1000
,
0001
0000
0000
1000
0000
0000
0001
0000
0000
1000
0000
0000
0001
0000
1000
0000
0001
0000
1000
0000
0001
0000
1000
0000
,
1001
0000
1001
0000
1010
1000
0000
0101
,
0000
0000
1001
0001
0000
1001
0000
0000
,
1001
0000
0120
0100
0100
0000
1000
1000
,
1000
0000
0001
0001
0001
0000
0100
0100
,
0100
0100
0130
0000
0210
0000
0010
0000
0010
0000
0000
0000
0001
0000
0001
0000
,
0001
0000
1000
1000
1000
0000
0010
0010
,
0010
0010
0310
0000
1000
0100
1000
0000
1100
0000
1000
0100
0001
0010
0001
0000
,
1010
0000
0010
0000
0001
0010
0001
0000
0011
0000
0001
0010
1000
0100
1000
0000
,
0101
0000
0100
0000
0010
1000
0010
0000
1010
0000
0010
1000
0100
0001
0100
0000
,
0011
0000
0001
0000
0100
0001
0100
0000
0101
0000
0100
0001
0010
1000
0010
0000
,
1100
0000
1000
0000
0001
1000
0001
1000
0001
1000
0001
1000
0001
1000
0001
1000
,
0001
1000
0001
1000
0001
1000
0001
1000
0001
1000
0001
1000
0001
1000
0001
1000
,
0001
0000
0000
1000
0000
0000
0001
0000
0000
1000
0000
0000
0001
0000
1000
0000
0001
0000
1000
0000
0001
0000
1000
0000
0001
0000
1000
0000
0001
0000
1000
0000
0001
0000
1000
0000
0001
0000
1000
0000
0001
0000
1000
0000
0001
0000
1000
0000
,
0001
0000
0000
0000
2002
3003
0220
0330
2020
3030
0202
0303
1001
0000
0000
0000
1000
0000
0000
0000
0010
0000
0000
0000
1000
0000
0000
0000
0010
0000
0000
0000
,
1000
0010
1000
0010
1000
0010
0011
0000
,
0110
0000
1100
0000
0001
0010
0001
0010
,
1000
0010
1000
0000
0001
0010
0100
1000
,
0001
0010
0100
1000
0100
0001
0100
0001
,
0100
0001
0100
0001
0100
0001
0110
0000
,
0011
2200
0000
0000
,
0000
3300
0022
0000
,
0000
0000
0033
0000
0001
0010
0001
0010
,
0001
0010
0001
0010
0001
0010
0101
0000
,
1001
0000
1010
0000
0100
0001
0100
0001
,
0010
0001
0010
0000
0100
0001
1000
0010
,
0100
0000
0000
0001
0000
0000
1000
0000
0000
0010
0000
0000
1000
0000
0100
0000
0010
0000
0001
0000
1000
0000
0100
0000
,
0010
0000
0001
0000
1000
0000
0001
0000
0000
0100
0000
0000
0001
0000
0000
0100
0000
0000
0010
0000
0000
1000
0000
0000
,
0010
0000
0000
1000
0000
0000
0010
0000
0000
0000
0000
0000
0001
0000
0010
0000
0100
0000
1000
0000
0001
0000
0010
0000
,
0100
0000
1000
0000
0001
0000
1000
0000
0000
0010
0000
0000
1000
0000
0000
0010
0000
0000
0100
0000
0000
0001
0000
0000
,
0100
0001
0100
0000
0001
0100
0001
0100
,
0001
0100
0001
0100
0001
0100
1100
0000
,
0110
0000
0011
0000
1000
0100
1000
0100
,
0001
0100
0001
0000
1000
0100
0010
0001
,
1000
0100
0010
0001
0010
1000
0010
1000
,
0010
1000
0010
1000
0010
1000
0110
0000
,
1100
0022
0000
0000
,
0000
0033
2200
0000
,
0000
0000
3300
0000
1000
0100
1000
0100
,
1000
0100
1000
0100
1000
0100
1010
0000
,
1001
0000
0101
0000
0010
1000
0010
1000
,
0100
1000
0100
0000
0010
1000
0001
0100
,
0010
0000
0000
1000
0000
0000
0001
0000
0000
0100
0000
0000
0010
0000
1000
0000
0001
0000
0100
0000
0010
0000
1000
0000
,
0001
0000
0100
0000
0010
0000
0100
0000
0000
1000
0000
0000
0100
0000
0000
1000
0000
0000
0001
0000
0000
0010
0000
0000
,
0001
0010
0001
0000
1001
0000
1001
0000
,
1001
0000
0000
0000
0000
0000
1001
0000
0000
0110
0000
0000
2002
0000
0000
3003
0000
0000
1000
0000
0000
0000
0001
0000
,
0000
0000
1000
0000
0000
0000
0001
0000
0000
0000
1000
0000
0000
0000
0001
0000
0000
0000
1010
0000
0000
0010
0000
0000
,
1000
0000
0000
0010
0000
0000
0001
0000
0000
0010
0000
0000
0100
0000
0000
1000
0000
0000
0001
0000
0010
0000
0100
0000
,
1000
0000
0100
0000
0010
0000
0001
0000
0010
0000
0100
0000
1000
0000
0100
0000
0010
0000
1001
0000
0000
0010
0000
0000
,
0110
0000
0000
1000
0000
0000
0100
0000
0000
0010
0000
0000
0100
0000
0000
0001
0000
0000
0010
0000
0001
0000
1000
0000
,
0100
0000
0010
0000
0001
0000
1000
0000
0100
0000
0001
0000
0010
0000
1000
0000
0100
0000
0101
0000
0000
0100
0000
0000
,
1001
0000
0000
0100
0000
0000
1000
0000
0000
0100
0000
0000
0010
0000
0000
0001
0000
0000
1000
0000
0100
0000
0010
0000
,
0001
0000
0010
0000
0100
0000
1000
0000
0100
0000
0010
0000
0001
0000
0010
0000
0100
0000
1001
0000
0000
0100
0000
0000
,
0110
0000
0000
0001
0000
0000
0010
0000
0000
0100
0000
0000
0010
0000
0000
1000
0000
0000
0100
0000
1000
0000
0001
0000
,
0010
0000
0100
0000
1000
0000
0001
0000
0010
0000
1000
0000
0100
0000
0001
0000
0010
0000
1100
0000
0000
1000
0000
0000
,
0110
0000
0000
1000
0000
0000
0010
0000
0000
1000
0000
0000
0001
0000
0000
0100
0000
0000
0010
0000
1000
0000
0001
0000
,
0100
0000
0001
0000
1000
0000
0010
0000
1000
0000
0001
0000
0100
0000
0001
0000
1000
0000
0110
0000
0000
1000
0000
0000
,
1001
0000
0000
0100
0000
0000
0001
0000
0000
1000
0000
0000
0001
0000
0000
0010
0000
0000
1000
0000
0010
0000
0100
0000
,
0001
0000
1000
0000
0010
0000
0100
0000
0001
0000
0010
0000
1000
0000
0100
0000
0001
0000
0011
0000
0000
0001
0000
0000
,
0110
0000
0000
0001
0000
0000
0100
0000
0000
0001
0000
0000
1000
0000
0000
0010
0000
0000
0100
0000
0001
0000
1000
0000
,
0010
0000
1000
0000
0001
0000
0100
0000
0001
0000
1000
0000
0010
0000
1000
0000
0001
0000
0110
0000
0000
0001
0000
0000
,
1001
0000
0000
0010
0000
0000
1000
0000
0000
0001
0000
0000
1000
0000
0000
0100
0000
0000
0001
0000
0100
0000
0010
0000
,
1000
0000
0000
0000
0001
0000
0000
0000
0100
0000
0000
0000
0010
0000
0000
0000
1000
0000
0000
0000
0100
0000
0000
0000
0001
0000
0000
0000
0010
0000
0000
0000
1000
0000
0000
0000
0001
0000
0000
0010
0000
0000
0001
0000
0000
0000
0000
0000
,
0110
0000
0000
0100
0000
0000
1010
0000
0000
0010
0000
0000
1000
0000
0000
0010
0000
0000
0001
0000
0010
0000
1000
0000
,
0100
0000
0000
0000
0010
0000
0000
0000
0100
0000
0000
0000
0010
0000
0000
0000
0001
0000
0000
0000
0010
0000
0000
0000
1000
0000
0000
0000
0100
0000
0000
0000
0010
0000
0000
0000
0100
0000
0000
0010
0000
0000
0100
0000
0000
0000
0000
0000
,
1001
0000
0000
0010
0000
0000
0001
0000
0010
0000
0100
0000
1000
0000
0100
0000
0010
0000
0001
0000
0010
0000
0100
0000
,
1000
0000
0000
0000
0100
0000
0000
0000
0010
0000
0000
0000
0001
0000
0000
0000
0010
0000
0000
0000
0100
0000
0000
0000
1000
0000
0000
0000
0000
0000
0001
0000
0000
0000
0000
0000
1000
0000
0000
0100
0000
0000
1000
0000
0000
0000
0000
0000
,
0110
0000
0000
0010
0000
0000
0101
0000
0000
0100
0000
0000
0001
0000
0000
0100
0000
0000
1000
0000
0100
0000
0001
0000
,
0010
0000
0000
0000
0100
0000
0000
0000
0010
0000
0000
0000
0100
0000
0000
0000
1000
0000
0000
0000
0100
0000
0000
0000
0001
0000
0000
0000
0010
0000
0000
0000
0100
0000
0000
0000
0010
0000
0000
0100
0000
0000
0010
0000
0000
0000
0000
0000
,
1001
0000
0000
0100
0000
0000
1000
0000
0100
0000
0010
0000
0001
0000
0010
0000
0100
0000
1000
0000
0100
0000
0010
0000
,
0001
0000
0000
0000
0010
0000
0000
0000
0100
0000
0000
0000
1000
0000
0000
0000
0100
0000
0000
0000
0010
0000
0000
0000
0001
0000
0000
0000
0000
0000
1000
0000
0000
0000
0000
0000
0100
0000
0000
0001
0000
0000
0100
0000
0000
0000
0000
0000
,
1001
0000
0000
1000
0000
0000
0011
0000
0000
0001
0000
0000
0010
0000
0000
0001
0000
0000
0100
0000
0001
0000
0010
0000
,
1000
0000
0000
0000
0001
0000
0000
0000
1000
0000
0000
0000
0001
0000
0000
0000
0100
0000
0000
0000
0001
0000
0000
0000
0010
0000
0000
0000
1000
0000
0000
0000
0001
0000
0000
0000
1000
0000
0000
0001
0000
0000
1000
0000
0000
0000
0000
0000
,
0110
0000
0000
0001
0000
0000
0100
0000
0001
0000
1000
0000
0010
0000
1000
0000
0001
0000
0100
0000
0001
0000
1000
0000
,
0010
0000
1000
0000
0001
0000
0100
0000
0001
0000
1000
0000
0010
0000
0000
0100
0000
0000
0001
0000
1000
0000
0001
0000
,
1000
0001
1000
0001
1000
0001
1000
0001
1000
0001
1000
0001
,
1000
0000
0000
0000
0001
0000
0000
0000
1000
0000
0000
0000
0001
0000
0000
1000
0000
0000
0001
0000
0000
1000
0000
0000
0001
0000
0000
1000
0000
0000
0001
0000
0000
1000
0000
0000
1001
0000
0000
0000
0000
0000
0000
0000
0000
0000
0000
0000
,
1001
0001
0000
0110
0000
0000
1010
1000
,
0000
0101
0000
0000
1001
0110
2002
0000
,
0000
0000
0000
0000
,
0000
0000
0000
0000
,
0000
0000
0000
0000
,
0000
0000
0000
0000
,
0000
0000
0000
0000
,
0000
0000
0000
3003
;

//---------------dance-single - ----------------
#NOTEDATA:;
#CHARTNAME:;
#STEPSTYPE:dance-single;
#DESCRIPTION:;
#CHARTSTYLE:;
#DIFFICULTY:Challenge;
#METER:21;
#RADARVALUES:1.452047,2.963679,1.241085,0.243504,1.386402,1294.000000,1136.000000,158.000000,31.000000,0.000000,0.000000,0.000000,0.000000,0.000000,1.452047,2.963679,1.241085,0.243504,1.386402,1294.000000,1136.000000,158.000000,31.000000,0.000000,0.000000,0.000000,0.000000,0.000000;
#CREDIT:;
#DISPLAYBPM:0.000000:800.000000;
#NOTES:
1001
0000
1001
0000
0001
0001
0010
0100
0000
0010
0000
0010
0000
0001
0010
0100
0000
1010
0000
1010
0000
1010
0100
0100
0010
0000
0010
0000
0001
0010
0100
1000
,
1001
0000
1001
0000
1000
1000
0100
0010
0000
0100
0000
0100
0000
1000
0100
0010
0000
0101
0000
0101
0000
0101
0010
0010
0100
0000
0100
0000
1000
0100
0010
0001
,
0110
0000
0110
0000
0100
0100
0001
1000
0000
0001
0000
0001
0000
0100
0001
1000
0000
0011
0000
0011
0000
0011
1000
1000
0001
0000
0001
0000
0100
0001
1000
0010
,
0110
0000
0110
0000
0010
0010
1000
0001
0000
1000
0000
1000
0000
0010
1000
0001
0000
1100
0000
1100
0000
1100
0001
0001
1000
0000
1000
0000
0010
1000
0001
0100
,
1010
0001
0100
1000
0011
0000
0100
0000
2100
0001
0100
0000
0010
0010
3010
0000
,
0101
0000
0010
0000
0101
0000
0010
0010
1002
0100
0010
0000
0010
0010
0013
0000
,
0101
1000
0010
0001
1100
0000
0010
0000
0012
1000
0010
0000
0100
0100
0103
0000
,
1010
0000
0100
0000
1010
0000
0100
0100
2001
0010
0100
0000
0100
0100
3100
0000
,
0101
1000
0010
0001
1100
0000
0010
0000
0012
1000
0010
0000
0100
0100
0103
0000
,
1010
0000
0100
0000
1010
0000
0100
0100
2001
0010
0100
0000
0100
0100
3100
0000
,
1010
0001
0100
1000
0011
0000
0100
0000
2100
0001
0100
0000
0010
0010
3010
0000
,
1000
0000
0000
0001
0000
0000
1000
0000
0000
0001
0000
0000
1000
0000
0000
0001
0000
0000
1000
0000
0000
0001
0000
0000
1000
0000
0000
0001
0000
0000
1000
0000
0000
0001
0000
0000
1000
0000
0000
0000
0001
0000
0000
0000
1000
0000
0000
0000
,
0001
0000
1000
0000
0001
0000
1000
0000
0000
0001
0000
0000
1000
0000
0000
0001
0000
0000
1000
0000
0000
0001
0000
0000
,
1000
0000
0000
0001
0000
0000
1000
0000
0000
0001
0000
0000
1000
0000
0001
0000
1000
0000
0001
0000
1000
0000
0001
0000
,
1000
0001
1000
0001
1000
0001
1000
0000
0100
0000
0010
0000
,
0001
0000
1000
0000
0100
0000
0010
0000
0000
0001
0000
0000
,
1000
0000
0100
0000
0010
0000
0001
0000
1000
0000
0100
0000
,
0010
0000
0001
0000
1000
0000
0100
0000
0010
0000
0001
0000
,
1000
0000
0100
0000
0010
0000
0001
0000
1000
0000
0001
0000
,
1000
0000
0001
0000
1000
0000
0001
0000
1000
0000
0001
0000
,
1000
0000
0001
0000
1000
0000
0001
0000
1000
0000
0001
0000
,
2002
3003
1010
0100
0100
0000
0011
0000
,
0100
1000
0100
0010
0001
0010
0100
1000
,
0001
1000
1010
0100
0100
0000
0011
0000
,
0100
0010
0001
0010
1000
0010
0100
1000
,
0100
0010
0101
0010
0010
0000
1100
0000
,
0010
0001
0010
0100
1000
0100
0010
0001
,
1000
0001
0101
0010
0010
0000
1100
0000
,
0010
0100
1000
0100
0001
0100
0010
0001
,
0010
0100
0011
1000
1000
0000
0101
0000
,
1000
0010
1000
0001
0100
0001
1000
0010
,
0100
0010
0011
1000
1000
0000
0101
0000
,
1000
0001
0100
0001
0010
0001
1000
0010
,
1000
0001
1100
0001
0001
0000
1010
0000
,
0001
0100
0001
1000
0010
1000
0001
0100
,
0010
0100
1100
0001
0001
0000
1010
0000
,
0001
1000
0010
1000
0100
1000
0001
0100
,
0001
1000
1010
0100
0100
0000
0011
0000
,
0100
1000
0100
0010
0001
0010
0100
1000
,
0001
1000
1010
0100
0100
0000
0011
0000
,
0100
0010
0001
0010
1000
0010
0100
1000
,
0100
0010
0101
0010
0010
0000
1100
0000
,
0010
0001
0010
0100
1000
0100
0010
0001
,
1000
0001
0101
0010
0010
0000
1100
0000
,
0010
0100
1000
0100
0001
0100
0010
0001
,
0010
0100
0011
1000
1000
0000
0101
0000
,
1000
0010
1000
0001
0100
0001
1000
0010
,
0100
0010
0011
1000
1000
0000
0101
0000
,
1000
0001
0100
0001
0010
0001
1000
0010
,
1000
0001
0001
1000
0001
1000
0001
1000
,
0001
0000
0000
1000
0000
0000
0001
0000
0000
1000
0000
0000
0001
0000
1000
0000
0001
0000
1000
0000
0001
0000
1000
0000
,
1001
0000
1001
0000
1010
1000
0000
0101
,
0000
0000
1001
0001
0000
1001
0000
0000
,
1001
0000
0000
0000
0120
0100
0100
0000
0100
0000
0000
0000
1000
0000
1000
0000
,
1000
0000
0000
0000
0001
0001
0001
0000
0001
0000
0000
0000
0100
0000
0100
0000
,
0100
0100
0130
0000
0210
0010
0010
0000
0010
0000
0000
0000
0001
0000
0001
0000
,
0001
0000
0000
0000
1000
1000
1000
0000
1000
0000
0000
0000
0010
0000
0010
0000
,
0010
0010
0310
0000
1000
0100
1000
0000
1100
0000
1000
0100
0001
0010
0001
0000
,
1010
0000
0010
0000
0001
0010
0001
0000
0011
0000
0001
0010
1000
0100
1000
0000
,
0101
0000
0100
0000
0010
1000
0010
0000
1010
0000
0010
1000
0100
0001
0100
0000
,
0011
0000
0001
0000
0100
0001
0100
0000
0101
0000
0100
0001
0010
1000
0010
0000
,
1100
0000
1000
0000
0001
1000
0001
1000
0001
1000
0001
1000
0001
1000
0001
1000
,
0001
1000
0001
1000
0001
1000
0001
1000
0001
1000
0001
1000
0001
1000
0001
1000
,
0001
0000
0000
1000
0000
0000
0001
0000
0000
1000
0000
0000
0001
0000
1000
0000
0001
0000
1000
0000
0001
0000
1000
0000
0001
0000
1000
0000
0001
0000
1000
0000
0001
0000
1000
0000
0001
0000
1000
0000
0001
0000
1000
0000
0001
0000
1000
0000
,
0001
0000
0000
0000
2002
3003
0220
0330
2020
3030
0202
0303
1001
0000
0000
0000
1000
0000
0000
0000
0010
0000
0000
0000
1000
0000
0000
0000
0010
0000
0000
0000
,
1000
0010
1000
0010
1000
0010
0011
0000
,
0110
0000
1100
0000
0001
0010
0001
0010
,
1000
0010
1000
0010
0001
0010
0100
1000
,
0001
0010
0100
1000
0100
0001
0100
0001
,
0100
0001
0100
0001
0100
0001
0110
0000
,
0011
2200
0000
0000
,
0000
3300
0022
0000
,
0000
0000
0033
0000
0001
0010
0001
0010
,
0001
0010
0001
0010
0001
0010
0101
0000
,
1001
0000
1010
0000
0100
0001
0100
0001
,
0010
0001
0010
0001
0100
0001
1000
0010
,
0100
0000
0000
0001
0000
0000
1000
0000
0000
0010
0000
0000
1000
0000
0100
0000
0010
0000
0001
0000
1000
0000
0100
0000
,
0010
0000
0001
0000
1000
0000
0001
0000
0000
0100
0000
0000
0001
0000
0000
0100
0000
0000
0010
0000
0000
1000
0000
0000
,
0010
0000
0000
1000
0000
0000
0010
0000
0000
0000
0000
0000
0001
0000
0010
0000
0100
0000
1000
0000
0001
0000
0010
0000
,
0100
0000
1000
0000
0001
0000
1000
0000
0000
0010
0000
0000
1000
0000
0000
0010
0000
0000
0100
0000
0000
0001
0000
0000
,
0100
0001
0100
0000
0001
0100
0001
0100
,
0001
0100
0001
0100
0001
0100
1100
0000
,
0110
0000
0011
0000
1000
0100
1000
0100
,
0001
0100
0001
0100
1000
0100
0010
0001
,
1000
0100
0010
0001
0010
1000
0010
1000
,
0010
1000
0010
1000
0010
1000
0110
0000
,
1100
0022
0000
0000
,
0000
0033
2200
0000
,
0000
0000
3300
0000
1000
0100
1000
0100
,
1000
0100
1000
0100
1000
0100
1010
0000
,
1001
0000
0101
0000
0010
1000
0010
1000
,
0100
1000
0100
1000
0010
1000
0001
0100
,
0010
0000
0000
1000
0000
0000
0001
0000
0000
0100
0000
0000
0010
0000
1000
0000
0001
0000
0100
0000
0010
0000
1000
0000
,
0001
0000
0100
0000
0010
0000
0100
0000
0000
1000
0000
0000
0100
0000
0000
1000
0000
0000
0001
0000
0000
0010
0000
0000
,
0001
0010
0001
0000
1001
0000
1001
0000
,
1001
0000
0000
0000
0000
0000
1001
0000
0000
0110
0000
0000
2002
0000
0000
3003
0000
0000
1000
0000
0000
0000
0001
0000
,
0000
0000
1000
0000
0000
0000
0001
0000
0000
0000
1000
0000
0000
0000
0001
0000
0000
0000
1010
0000
0000
0010
0000
0000
,
1000
0000
0000
0010
0000
0000
1001
0000
0000
0010
0000
0000
0100
0000
0000
1000
0000
0000
0001
0000
0010
0000
0100
0000
,
1000
0000
0100
0000
0010
0000
0001
0000
0010
0000
0100
0000
1000
0000
0100
0000
0010
0000
1001
0000
0000
0010
0000
0000
,
0110
0000
0000
1000
0000
0000
0100
0000
0000
0010
0000
0000
0100
0000
0000
0001
0000
0000
0010
0000
0001
0000
1000
0000
,
0100
0000
0010
0000
0001
0000
1000
0000
0100
0000
0001
0000
0010
0000
1000
0000
0100
0000
0101
0000
0000
0100
0000
0000
,
1001
0000
0000
0100
0000
0000
1001
0000
0000
0100
0000
0000
0010
0000
0000
0001
0000
0000
1000
0000
0100
0000
0010
0000
,
0001
0000
0010
0000
0100
0000
1000
0000
0100
0000
0010
0000
0001
0000
0010
0000
0100
0000
1001
0000
0000
0100
0000
0000
,
0110
0000
0000
0001
0000
0000
0010
0000
0000
0100
0000
0000
0010
0000
0000
1000
0000
0000
0100
0000
1000
0000
0001
0000
,
0010
0000
0100
0000
1000
0000
0001
0000
0010
0000
1000
0000
0100
0000
0001
0000
0010
0000
1100
0000
0000
1000
0000
0000
,
0110
0000
0000
1000
0000
0000
0110
0000
0000
1000
0000
0000
0001
0000
0000
0100
0000
0000
0010
0000
1000
0000
0001
0000
,
0100
0000
0001
0000
1000
0000
0010
0000
1000
0000
0001
0000
0100
0000
0001
0000
1000
0000
0110
0000
0000
1000
0000
0000
,
1001
0000
0000
0100
0000
0000
0001
0000
0000
1000
0000
0000
0001
0000
0000
0010
0000
0000
1000
0000
0010
0000
0100
0000
,
0001
0000
1000
0000
0010
0000
0100
0000
0001
0000
0010
0000
1000
0000
0100
0000
0001
0000
0011
0000
0000
0001
0000
0000
,
0110
0000
0000
0001
0000
0000
0110
0000
0000
0001
0000
0000
1000
0000
0000
0010
0000
0000
0100
0000
0001
0000
1000
0000
,
0010
0000
1000
0000
0001
0000
0100
0000
0001
0000
1000
0000
0010
0000
1000
0000
0001
0000
0110
0000
0000
0001
0000
0000
,
1001
0000
0000
0010
0000
0000
1000
0000
0000
0001
0000
0000
1000
0000
0000
0100
0000
0000
0001
0000
0100
0000
0010
0000
,
1000
0000
0000
0000
0001
0000
0000
0000
0100
0000
0000
0000
0010
0000
0000
0000
1000
0000
0000
0000
0100
0000
0000
0000
0001
0000
0000
0000
0010
0000
0000
0000
1000
0000
0000
0000
0001
0000
0000
0010
0000
0000
0001
0000
0000
0000
0000
0000
,
0110
0000
0000
0100
0000
0000
1010
0000
0000
0010
0000
0000
1000
0000
0000
0010
0000
0000
1001
0000
0010
0000
1000
0000
,
0100
0000
0000
0000
0010
0000
0000
0000
0100
0000
0000
0000
0010
0000
0000
0000
0001
0000
0000
0000
0010
0000
0000
0000
1000
0000
0000
0000
0100
0000
0000
0000
0010
0000
0000
0000
0100
0000
0000
0010
0000
0000
0100
0000
0000
0000
0000
0000
,
1001
0000
0000
0010
0000
0000
0001
0000
0010
0000
0100
0000
1000
0000
0100
0000
0010
0000
0001
0000
0010
0000
0100
0000
,
1000
0000
0000
0000
0100
0000
0000
0000
0010
0000
0000
0000
0001
0000
0000
0000
0010
0000
0000
0000
0100
0000
0000
0000
1000
0000
0000
0000
0000
0000
0001
0000
0000
0000
0000
0000
1000
0000
0000
0100
0000
0000
1000
0000
0000
0000
0000
0000
,
0110
0000
0000
0010
0000
0000
0101
0000
0000
0100
0000
0000
0001
0000
0000
0100
0000
0000
1001
0000
0100
0000
0001
0000
,
0010
0000
0000
0000
0100
0000
0000
0000
0010
0000
0000
0000
0100
0000
0000
0000
1000
0000
0000
0000
0100
0000
0000
0000
0001
0000
0000
0000
0010
0000
0000
0000
0100
0000
0000
0000
0010
0000
0000
0100
0000
0000
0010
0000
0000
0000
0000
0000
,
1001
0000
0000
0100
0000
0000
1000
0000
0100
0000
0010
0000
0001
0000
0010
0000
0100
0000
1000
0000
0100
0000
0010
0000
,
0001
0000
0000
0000
0010
0000
0000
0000
0100
0000
0000
0000
1000
0000
0000
0000
0100
0000
0000
0000
0010
0000
0000
0000
0001
0000
0000
0000
0000
0000
1000
0000
0000
0000
0000
0000
0100
0000
0000
0001
0000
0000
0100
0000
0000
0000
0000
0000
,
1001
0000
0000
1000
0000
0000
0011
0000
0000
0001
0000
0000
0010
0000
0000
0001
0000
0000
0110
0000
0001
0000
0010
0000
,
1000
0000
0000
0000
0001
0000
0000
0000
1000
0000
0000
0000
0001
0000
0000
0000
0100
0000
0000
0000
0001
0000
0000
0000
0010
0000
0000
0000
1000
0000
0000
0000
0001
0000
0000
0000
1000
0000
0000
0001
0000
0000
1000
0000
0000
0000
0000
0000
,
0110
0000
0000
0001
0000
0000
0100
0000
0001
0000
1000
0000
0010
0000
1000
0000
0001
0000
0100
0000
0001
0000
1000
0000
,
0010
0000
1000
0000
0001
0000
0100
0000
0001
0000
1000
0000
0010
0000
0000
0100
0000
0000
1001
0000
1000
0000
0001
0000
,
1000
0001
1000
0001
1000
0001
1000
0001
1000
0001
1000
0001
,
1000
0000
0000
0000
0001
0000
0000
0000
1000
0000
0000
0000
0001
0000
0000
1000
0000
0000
0001
0000
0000
1000
0000
0000
0001
0000
0000
1000
0000
0000
0001
0000
0000
1000
0000
0000
1001
0000
0000
0000
0000
0000
0000
0000
0000
0000
0000
0000
,
1001
0001
0000
0110
0000
0000
1010
1000
,
0000
0101
0000
0000
1001
0110
2002
0000
,
0000
0000
0000
0000
,
0000
0000
0000
0000
,
0000
0000
0000
0000
,
0000
0000
0000
0000
,
0000
0000
0000
0000
,
0000
0000
0000
3003
;
