#TITLE:Night of Fire;
#SUBTITLE:;
#ARTIST:Niko;
#TITLETRANSLIT:;
#SUBTITLETRANSLIT:;
#ARTISTTRANSLIT:;
#GENRE:SUPER EUROBEAT;
#CREDIT:;
#BANNER:;
#BACKGROUND:;
#LYRICSPATH:;
#CDTITLE:;
#MUSIC:Night of Fire.ogg;
#OFFSET:0.066000;
#SAMPLESTART:78.081665;
#SAMPLELENGTH:15.000000;
#SELECTABLE:YES;
#BPMS:0.000000=155.091003
;
#STOPS:104.000000=0.774000,
712.000000=0.774000,
744.000000=0.774000
;
#BGCHANGES:;
#KEYSOUNDS:;
#ATTACKS:;

//---------------dance-single - ----------------
#NOTES:
     dance-single:
     :
     Easy:
     11:
     0.496980,0.524035,0.089038,0.184437,0.031799,1094.000000,1066.000000,28.000000,58.000000,0.000000,0.000000,0.496980,0.524035,0.089038,0.184437,0.031799,1094.000000,1066.000000,28.000000,58.000000,0.000000,0.000000:
// measure 0
0000
0000
0000
0000
,  // measure 1
0000
0000
0000
0000
,  // measure 2
0000
0000
0000
0000
,  // measure 3
0000
0000
0000
0000
,  // measure 4
0000
0000
0000
0000
,  // measure 5
0000
0000
0000
0000
,  // measure 6
0000
0000
0000
0000
,  // measure 7
0000
0000
0000
0000
,  // measure 8
0000
0000
0000
0000
,  // measure 9
0000
0000
0000
0000
,  // measure 10
1000
0000
1000
0000
0001
0010
0100
1000
,  // measure 11
0001
0000
0001
0000
1000
0100
0010
0001
,  // measure 12
0100
0010
0001
0000
0010
0100
0001
0010
,  // measure 13
1000
0000
0000
1000
0000
0000
1000
0000
0000
0001
0000
0000
0001
0000
0001
0000
,  // measure 14
0001
0000
0001
0000
1000
0100
0010
0001
,  // measure 15
1000
0000
1000
0000
0001
0010
0100
1000
,  // measure 16
0010
0100
1000
0000
0100
0010
1000
0100
,  // measure 17
0001
0000
0000
0001
0000
0000
0001
0000
0000
1000
0000
0000
1000
0000
1000
0000
,  // measure 18
0020
0000
0000
0030
,  // measure 19
0100
0000
0000
0100
0000
0000
0100
0000
0000
0100
0000
0000
0100
0000
0001
0000
,  // measure 20
0200
0000
0000
0300
,  // measure 21
0010
0000
0000
0010
0000
0000
0010
0000
0000
0010
0000
0000
0010
0000
1000
0000
,  // measure 22
0002
0000
0000
0003
,  // measure 23
1000
0000
0000
1000
0000
0000
1000
0000
0000
1000
0000
0000
1000
0000
0100
0000
,  // measure 24
2000
0000
0000
3000
,  // measure 25
0001
0000
0000
0001
0000
0000
0001
0000
0000
0001
0000
0000
0001
0000
0010
0000
,  // measure 26
1000
0001
0010
0000
0001
0010
0100
0010
,  // measure 27
0100
0100
0010
0010
0100
0100
0010
0010
,  // measure 28
0001
1000
0100
0000
1000
0100
0010
0100
,  // measure 29
0010
0010
0100
0100
0010
0010
0100
0100
,  // measure 30
0010
0100
0001
0000
0100
0001
1000
0001
,  // measure 31
1000
1000
0001
0001
1000
1000
0001
0001
,  // measure 32
0100
0010
1000
0000
0010
1000
0001
1000
,  // measure 33
0001
0001
1000
1000
0001
0001
1000
1000
,  // measure 34
0020
0000
0000
0000
0130
0010
0001
0000
,  // measure 35
0002
0000
0000
0000
0013
0100
1000
0100
,  // measure 36
1000
0001
0010
0000
0001
0010
0100
0010
,  // measure 37
0100
0100
0010
0010
0100
0100
0010
0010
,  // measure 38
0200
0000
0000
0000
0310
0100
1000
0000
,  // measure 39
2000
0000
0000
0000
3100
0010
0001
0010
,  // measure 40
0001
1000
0100
0000
1000
0100
0010
0100
,  // measure 41
0010
0010
0100
0100
0010
0010
0100
0100
,  // measure 42
2000
0000
0000
3001
0000
0001
0000
0020
,  // measure 43
0000
0000
0130
0100
,  // measure 44
1000
0100
1000
0000
1000
0100
1000
0000
,  // measure 45
1000
0001
0010
0001
0010
0100
1000
0100
,  // measure 46
0002
0000
0000
1003
0000
1000
0000
0200
,  // measure 47
0000
0000
0310
0010
,  // measure 48
0001
0010
0001
0000
0001
0010
0001
0000
,  // measure 49
0001
1000
0100
1000
0100
0010
0001
0010
,  // measure 50
1001
0000
0110
0000
0001
0010
0100
1000
,  // measure 51
2000
0100
0100
3100
0001
0010
0100
0000
,  // measure 52
2000
0100
0001
3100
0001
0010
1000
0000
,  // measure 53
0001
0010
0001
0000
1000
0001
1000
0000
,  // measure 54
1001
0000
0110
0000
1000
0100
0010
0001
,  // measure 55
0002
0010
0010
0013
1000
0100
0010
0000
,  // measure 56
0002
0010
1000
0013
1000
0100
0001
0000
,  // measure 57
1000
0100
1000
0000
0001
1000
0001
0000
,  // measure 58
0110
0000
1001
0000
0100
0001
1000
0010
,  // measure 59
0020
1000
1000
1030
0100
0001
1000
0000
,  // measure 60
0020
1000
0100
1030
0100
0001
0010
0000
,  // measure 61
0100
0001
0100
0000
0010
0100
0010
0000
,  // measure 62
0110
0000
1001
0000
0010
1000
0001
0100
,  // measure 63
0200
0001
0001
0301
0010
1000
0001
0000
,  // measure 64
0200
0001
0010
0301
0010
1000
0100
0000
,  // measure 65
0010
1000
0010
0000
0100
0010
0100
0000
,  // measure 66
1000
0001
0010
0000
0001
0010
0100
0010
,  // measure 67
0100
0100
0010
0010
0100
0100
0010
0010
,  // measure 68
0001
1000
0100
0000
1000
0100
0010
0100
,  // measure 69
0010
0010
0100
0100
0010
0010
0100
0100
,  // measure 70
0010
0100
0001
0000
0100
0001
1000
0001
,  // measure 71
1000
1000
0001
0001
1000
1000
0001
0001
,  // measure 72
0100
0010
1000
0000
0010
1000
0001
1000
,  // measure 73
0001
0001
1000
1000
0001
0001
1000
1000
,  // measure 74
0020
0000
0000
0000
0130
0010
0001
0000
,  // measure 75
0002
0000
0000
0000
0013
0100
1000
0100
,  // measure 76
1000
0001
0010
0000
0001
0010
0100
0010
,  // measure 77
0100
0100
0010
0010
0100
0100
0010
0010
,  // measure 78
0200
0000
0000
0000
0310
0100
1000
0000
,  // measure 79
2000
0000
0000
0000
3100
0010
0001
0010
,  // measure 80
0001
1000
0100
0000
1000
0100
0010
0100
,  // measure 81
0010
0010
0100
0100
0010
0010
0100
0100
,  // measure 82
2000
0000
0000
3001
0000
0001
0000
0020
,  // measure 83
0000
0000
0130
0100
,  // measure 84
1000
0100
1000
0000
1000
0100
1000
0000
,  // measure 85
1000
0001
0010
0001
0010
0100
1000
0100
,  // measure 86
0002
0000
0000
1003
0000
1000
0000
0200
,  // measure 87
0000
0000
0310
0010
,  // measure 88
0001
0010
0001
0000
0001
0010
0001
0000
,  // measure 89
0001
1000
0100
1000
0100
0010
0001
0010
,  // measure 90
1001
0000
0110
0000
0001
0010
0100
1000
,  // measure 91
2000
0100
0100
3100
0001
0010
0100
0000
,  // measure 92
2000
0100
0001
3100
0001
0010
1000
0000
,  // measure 93
0001
0010
0001
0000
1000
0001
1000
0000
,  // measure 94
1001
0000
0110
0000
1000
0100
0010
0001
,  // measure 95
0002
0010
0010
0013
1000
0100
0010
0000
,  // measure 96
0002
0010
1000
0013
1000
0100
0001
0000
,  // measure 97
1000
0100
1000
0000
0001
1000
0001
0000
,  // measure 98
0110
0000
1001
0000
0100
0001
1000
0010
,  // measure 99
0020
1000
1000
1030
0100
0001
1000
0000
,  // measure 100
0020
1000
0100
1030
0100
0001
0010
0000
,  // measure 101
0100
0001
0100
0000
0010
0100
0010
0000
,  // measure 102
0110
0000
1001
0000
0010
1000
0001
0100
,  // measure 103
0200
0001
0001
0301
0010
1000
0001
0000
,  // measure 104
0200
0001
0010
0301
0010
1000
0100
0000
,  // measure 105
0010
1000
0010
0000
0100
0010
0100
0000
,  // measure 106
1000
0001
0010
0000
0001
0010
0100
0010
,  // measure 107
0100
0100
0010
0010
0100
0100
0010
0010
,  // measure 108
0001
1000
0100
0000
1000
0100
0010
0100
,  // measure 109
0010
0010
0100
0100
0010
0010
0100
0100
,  // measure 110
0010
0100
0001
0000
0100
0001
1000
0001
,  // measure 111
1000
1000
0001
0001
1000
1000
0001
0001
,  // measure 112
0100
0010
1000
0000
0010
1000
0001
1000
,  // measure 113
0001
0001
1000
1000
0001
0001
1000
1000
,  // measure 114
2002
0000
0000
0000
,  // measure 115
0000
0000
0000
0000
,  // measure 116
0000
0000
0000
0000
,  // measure 117
0000
0000
0000
0000
,  // measure 118
0000
0000
0000
0000
,  // measure 119
0000
0000
0000
0000
,  // measure 120
0000
0000
0000
0000
,  // measure 121
0000
0000
0000
3003
,  // measure 122
1001
0000
0110
0000
0001
0010
0100
1000
,  // measure 123
2000
0100
0100
3100
0001
0010
0100
0000
,  // measure 124
2000
0100
0001
3100
0001
0010
1000
0000
,  // measure 125
0001
0010
0001
0000
1000
0001
1000
0000
,  // measure 126
1001
0000
0110
0000
1000
0100
0010
0001
,  // measure 127
0002
0010
0010
0013
1000
0100
0010
0000
,  // measure 128
0002
0010
1000
0013
1000
0100
0001
0000
,  // measure 129
1000
0100
1000
0000
0001
1000
0001
0000
,  // measure 130
0110
0000
1001
0000
0100
0001
1000
0010
,  // measure 131
0020
1000
1000
1030
0100
0001
1000
0000
,  // measure 132
0020
1000
0100
1030
0100
0001
0010
0000
,  // measure 133
0100
0001
0100
0000
0010
0100
0010
0000
,  // measure 134
0110
0000
1001
0000
0010
1000
0001
0100
,  // measure 135
0200
0001
0001
0301
0010
1000
0001
0000
,  // measure 136
0200
0001
0010
0301
0010
1000
0100
0000
,  // measure 137
0010
1000
0010
0000
0100
0010
0100
0000
,  // measure 138
1000
0001
0010
0000
0001
0010
0100
0010
,  // measure 139
0100
0100
0010
0010
0100
0100
0010
0010
,  // measure 140
0001
1000
0100
0000
1000
0100
0010
0100
,  // measure 141
0010
0010
0100
0100
0010
0010
0100
0100
,  // measure 142
0010
0100
0001
0000
0100
0001
1000
0001
,  // measure 143
1000
1000
0001
0001
1000
1000
0001
0001
,  // measure 144
0100
0010
1000
0000
0010
1000
0001
1000
,  // measure 145
0001
0001
1000
1000
0001
0001
1000
1000
,  // measure 146
0020
0000
0000
0000
,  // measure 147
0000
0000
0000
0030
,  // measure 148
1000
0001
0010
0000
0001
0010
0100
0010
,  // measure 149
0100
0100
0010
0010
0100
0100
0010
0010
,  // measure 150
0200
0000
0000
0000
,  // measure 151
0000
0000
0000
0300
,  // measure 152
0001
1000
0100
0000
1000
0100
0010
0100
,  // measure 153
0010
0010
0100
0100
0010
0010
0100
0100
,  // measure 154
2000
0000
0000
3001
0000
0001
0000
0020
,  // measure 155
0000
0000
0130
0100
,  // measure 156
1000
0100
1000
0000
1000
0100
1000
0000
,  // measure 157
1000
0001
0010
0001
0010
0100
1000
0100
,  // measure 158
0002
0000
0000
1003
0000
1000
0000
0200
,  // measure 159
0000
0000
0310
0010
,  // measure 160
0001
0010
0001
0000
0001
0010
0001
0000
,  // measure 161
0001
1000
0100
1000
0100
0010
0001
0010
,  // measure 162
0020
0000
0000
0000
0130
0010
0001
0000
,  // measure 163
0002
0000
0000
0000
0013
0100
1000
0100
,  // measure 164
1000
0001
0010
0000
0001
0010
0100
0010
,  // measure 165
0100
0100
0010
0010
0100
0100
0010
0010
,  // measure 166
0200
0000
0000
0000
0310
0100
1000
0000
,  // measure 167
2000
0000
0000
0000
3100
0010
0001
0010
,  // measure 168
0001
1000
0100
0000
1000
0100
0010
0100
,  // measure 169
0010
0010
0100
0100
0010
0010
0100
0100
,  // measure 170
2000
0000
0000
0000
,  // measure 171
0000
0000
0000
3000
,  // measure 172
1000
0100
1000
0000
1000
0100
1000
0000
,  // measure 173
1000
0001
0010
0001
0010
0100
1000
0100
,  // measure 174
0002
0000
0000
0000
,  // measure 175
0000
0000
0000
0003
,  // measure 176
0001
0010
0001
0000
0001
0010
0001
0000
,  // measure 177
0001
1000
0100
1000
0100
0010
0001
0010
,  // measure 178
1000
0001
0010
0000
0001
0010
0100
0010
,  // measure 179
0100
0100
0010
0010
0100
0100
0010
0010
,  // measure 180
0001
1000
0100
0000
1000
0100
0010
0100
,  // measure 181
0010
0010
0100
0100
0010
0010
0100
0100
,  // measure 182
0010
0100
0001
0000
0100
0001
1000
0001
,  // measure 183
1000
1000
0001
0001
1000
1000
0001
0001
,  // measure 184
0100
0010
1000
0000
0010
1000
0001
1000
,  // measure 185
0001
0001
1000
1000
0001
0001
1000
1000
,  // measure 186
0010
0000
0000
0010
0000
0000
0010
0000
0000
0000
0100
0000
0010
0000
0001
0000
,  // measure 187
0010
0000
0000
0100
0000
0000
0010
0000
0000
0000
0100
0000
0010
0000
0001
0000
,  // measure 188
0100
0000
0000
0100
0000
0000
0100
0000
0000
0000
0010
0000
0100
0000
1000
0000
,  // measure 189
0100
0000
0000
0010
0000
0000
0100
0000
0000
0000
0010
0000
0100
0000
1000
0000
,  // measure 190
0001
0000
0000
0001
0000
0000
0001
0000
0000
0000
1000
0000
0001
0000
0100
0000
,  // measure 191
0001
0000
0000
1000
0000
0000
0001
0000
0000
0000
1000
0000
0001
0000
0100
0000
,  // measure 192
1000
0000
0000
1000
0000
0000
1000
0000
0000
0000
0001
0000
1000
0000
0010
0000
,  // measure 193
1000
0000
0001
0000
1000
0000
0001
0000
1001
0000
0000
1001
0000
0000
1001
0000
;

//---------------dance-single - ----------------
#NOTES:
     dance-single:
     :
     Beginner:
     11:
     0.448826,0.493209,0.095398,0.184437,0.031799,988.000000,958.000000,30.000000,58.000000,0.000000,0.000000,0.448826,0.493209,0.095398,0.184437,0.031799,988.000000,958.000000,30.000000,58.000000,0.000000,0.000000:
// measure 0
0000
0000
0000
0000
,  // measure 1
0000
0000
0000
0000
,  // measure 2
0000
0000
0000
0000
,  // measure 3
0000
0000
0000
0000
,  // measure 4
0000
0000
0000
0000
,  // measure 5
0000
0000
0000
0000
,  // measure 6
0000
0000
0000
0000
,  // measure 7
0000
0000
0000
0000
,  // measure 8
0000
0000
0000
0000
,  // measure 9
0000
0000
0000
0000
,  // measure 10
1000
0000
1000
0000
0001
0010
0100
1000
,  // measure 11
0001
0000
0001
0000
1000
0100
0010
0001
,  // measure 12
0100
0010
0001
0000
0010
0100
0001
0010
,  // measure 13
1000
0000
0000
1000
0000
0000
1000
0000
0000
0001
0000
0000
0001
0000
0000
0000
,  // measure 14
0001
0000
0001
0000
1000
0100
0010
0001
,  // measure 15
1000
0000
1000
0000
0001
0010
0100
1000
,  // measure 16
0010
0100
1000
0000
0100
0010
1000
0100
,  // measure 17
0001
0000
0000
0001
0000
0000
0001
0000
0000
1000
0000
0000
1000
0000
0000
0000
,  // measure 18
0020
0000
0000
0030
,  // measure 19
0100
0000
0000
0100
0000
0000
0100
0000
0000
0100
0000
0000
0100
0000
0000
0000
,  // measure 20
0200
0000
0000
0300
,  // measure 21
0010
0000
0000
0010
0000
0000
0010
0000
0000
0010
0000
0000
0010
0000
0000
0000
,  // measure 22
0002
0000
0000
0003
,  // measure 23
1000
0000
0000
1000
0000
0000
1000
0000
0000
1000
0000
0000
1000
0000
0000
0000
,  // measure 24
2000
0000
0000
3000
,  // measure 25
0001
0000
0000
0001
0000
0000
0001
0000
0000
0001
0000
0000
0001
0000
0000
0000
,  // measure 26
1000
0001
0010
0000
0001
0010
0100
0010
,  // measure 27
0100
0000
0010
0000
0100
0100
0010
0010
,  // measure 28
0001
1000
0100
0000
1000
0100
0010
0100
,  // measure 29
0010
0000
0100
0000
0010
0010
0100
0100
,  // measure 30
0010
0100
0001
0000
0100
0001
1000
0001
,  // measure 31
1000
0000
0001
0000
1000
1000
0001
0001
,  // measure 32
0100
0010
1000
0000
0010
1000
0001
1000
,  // measure 33
0001
0000
1000
0000
0001
0001
1000
1000
,  // measure 34
0020
0000
0000
0000
0130
0010
0001
0000
,  // measure 35
0002
0000
0000
0000
0013
0100
1000
0000
,  // measure 36
1000
0001
0010
0000
0001
0010
0100
0010
,  // measure 37
0100
0000
0010
0000
0100
0100
0010
0010
,  // measure 38
0200
0000
0000
0000
0310
0100
1000
0000
,  // measure 39
2000
0000
0000
0000
3100
0010
0001
0000
,  // measure 40
0001
1000
0100
0000
1000
0100
0010
0100
,  // measure 41
0010
0000
0100
0000
0010
0010
0100
0100
,  // measure 42
2000
0000
0000
3001
0000
0001
0000
0020
,  // measure 43
0000
0000
0130
0100
,  // measure 44
1000
0100
1000
0000
1000
0100
1000
0000
,  // measure 45
1000
0001
0010
0001
0010
0000
1000
0100
,  // measure 46
0002
0000
0000
1003
0000
1000
0000
0200
,  // measure 47
0000
0000
0310
0010
,  // measure 48
0001
0010
0001
0000
0001
0010
0001
0000
,  // measure 49
0001
1000
0100
1000
0100
0000
0001
0010
,  // measure 50
1001
0000
0110
0000
0001
0010
0100
1000
,  // measure 51
2000
0100
0000
3100
0001
0010
0100
0000
,  // measure 52
2000
0100
0000
3100
0001
0010
1000
0000
,  // measure 53
0001
0010
0001
0000
1000
0001
1000
0000
,  // measure 54
1001
0000
0110
0000
1000
0100
0010
0001
,  // measure 55
0002
0010
0000
0013
1000
0100
0010
0000
,  // measure 56
0002
0010
0000
0013
1000
0100
0001
0000
,  // measure 57
1000
0100
1000
0000
0001
1000
0001
0000
,  // measure 58
0110
0000
1001
0000
0100
0001
1000
0010
,  // measure 59
0020
1000
0000
1030
0100
0001
1000
0000
,  // measure 60
0020
1000
0000
1030
0100
0001
0010
0000
,  // measure 61
0100
0001
0100
0000
0010
0100
0010
0000
,  // measure 62
0110
0000
1001
0000
0010
1000
0001
0100
,  // measure 63
0200
0001
0000
0301
0010
1000
0001
0000
,  // measure 64
0200
0001
0000
0301
0010
1000
0100
0000
,  // measure 65
0010
1000
0010
0000
0100
0010
0100
0000
,  // measure 66
1000
0001
0010
0000
0001
0010
0100
0010
,  // measure 67
0100
0000
0010
0000
0100
0100
0010
0010
,  // measure 68
0001
1000
0100
0000
1000
0100
0010
0100
,  // measure 69
0010
0000
0100
0000
0010
0010
0100
0100
,  // measure 70
0010
0100
0001
0000
0100
0001
1000
0001
,  // measure 71
1000
0000
0001
0000
1000
1000
0001
0001
,  // measure 72
0100
0010
1000
0000
0010
1000
0001
1000
,  // measure 73
0001
0000
1000
0000
0001
0001
1000
1000
,  // measure 74
0020
0000
0000
0000
0130
0010
0001
0000
,  // measure 75
0002
0000
0000
0000
0013
0100
1000
0000
,  // measure 76
1000
0001
0010
0000
0001
0010
0100
0010
,  // measure 77
0100
0000
0010
0000
0100
0100
0010
0010
,  // measure 78
0200
0000
0000
0000
0310
0100
1000
0000
,  // measure 79
2000
0000
0000
0000
3100
0010
0001
0000
,  // measure 80
0001
1000
0100
0000
1000
0100
0010
0100
,  // measure 81
0010
0000
0100
0000
0010
0010
0100
0100
,  // measure 82
2000
0000
0000
3001
0000
0001
0000
0020
,  // measure 83
0000
0000
0130
0100
,  // measure 84
1000
0100
1000
0000
1000
0100
1000
0000
,  // measure 85
1000
0001
0010
0001
0010
0000
1000
0100
,  // measure 86
0002
0000
0000
1003
0000
1000
0000
0200
,  // measure 87
0000
0000
0310
0010
,  // measure 88
0001
0010
0001
0000
0001
0010
0001
0000
,  // measure 89
0001
1000
0100
1000
0100
0000
0001
0010
,  // measure 90
1001
0000
0110
0000
0001
0010
0100
1000
,  // measure 91
2000
0100
0000
3100
0001
0010
0100
0000
,  // measure 92
2000
0100
0000
3100
0001
0010
1000
0000
,  // measure 93
0001
0010
0001
0000
1000
0001
1000
0000
,  // measure 94
1001
0000
0110
0000
1000
0100
0010
0001
,  // measure 95
0002
0010
0000
0013
1000
0100
0010
0000
,  // measure 96
0002
0010
0000
0013
1000
0100
0001
0000
,  // measure 97
1000
0100
1000
0000
0001
1000
0001
0000
,  // measure 98
0110
0000
1001
0000
0100
0001
1000
0010
,  // measure 99
0020
1000
0000
1030
0100
0001
1000
0000
,  // measure 100
0020
1000
0000
1030
0100
0001
0010
0000
,  // measure 101
0100
0001
0100
0000
0010
0100
0010
0000
,  // measure 102
0110
0000
1001
0000
0010
1000
0001
0100
,  // measure 103
0200
0001
0000
0301
0010
1000
0001
0000
,  // measure 104
0200
0001
0000
0301
0010
1000
0100
0000
,  // measure 105
0010
1000
0010
0000
0100
0010
0100
0000
,  // measure 106
1000
0001
0010
0000
0001
0010
0100
0010
,  // measure 107
0100
0000
0010
0000
0100
0100
0010
0010
,  // measure 108
0001
1000
0100
0000
1000
0100
0010
0100
,  // measure 109
0010
0000
0100
0000
0010
0010
0100
0100
,  // measure 110
0010
0100
0001
0000
0100
0001
1000
0001
,  // measure 111
1000
0000
0001
0000
1000
1000
0001
0001
,  // measure 112
0100
0010
1000
0000
0010
1000
0001
1000
,  // measure 113
0001
0000
1000
0000
0001
0001
1000
1000
,  // measure 114
2002
0000
0000
0000
,  // measure 115
0000
0000
0000
0000
,  // measure 116
0000
0000
0000
0000
,  // measure 117
0000
0000
0000
0000
,  // measure 118
0000
0000
0000
0000
,  // measure 119
0000
0000
0000
0000
,  // measure 120
0000
0000
0000
0000
,  // measure 121
0000
0000
0000
3003
,  // measure 122
1001
0000
0110
0000
0001
0010
0100
1000
,  // measure 123
2000
0100
0000
3100
0001
0010
0100
0000
,  // measure 124
2000
0100
0000
3100
0001
0010
1000
0000
,  // measure 125
0001
0010
0001
0000
1000
0001
1000
0000
,  // measure 126
1001
0000
0110
0000
1000
0100
0010
0001
,  // measure 127
0002
0010
0000
0013
1000
0100
0010
0000
,  // measure 128
0002
0010
0000
0013
1000
0100
0001
0000
,  // measure 129
1000
0100
1000
0000
0001
1000
0001
0000
,  // measure 130
0110
0000
1001
0000
0100
0001
1000
0010
,  // measure 131
0020
1000
0000
1030
0100
0001
1000
0000
,  // measure 132
0020
1000
0000
1030
0100
0001
0010
0000
,  // measure 133
0100
0001
0100
0000
0010
0100
0010
0000
,  // measure 134
0110
0000
1001
0000
0010
1000
0001
0100
,  // measure 135
0200
0001
0000
0301
0010
1000
0001
0000
,  // measure 136
0200
0001
0000
0301
0010
1000
0100
0000
,  // measure 137
0010
1000
0010
0000
0100
0010
0100
0000
,  // measure 138
1000
0001
0010
0000
0001
0010
0100
0010
,  // measure 139
0100
0000
0010
0000
0100
0100
0010
0010
,  // measure 140
0001
1000
0100
0000
1000
0100
0010
0100
,  // measure 141
0010
0000
0100
0000
0010
0010
0100
0100
,  // measure 142
0010
0100
0001
0000
0100
0001
1000
0001
,  // measure 143
1000
0000
0001
0000
1000
1000
0001
0001
,  // measure 144
0100
0010
1000
0000
0010
1000
0001
1000
,  // measure 145
0001
0000
1000
0000
0001
0001
1000
1000
,  // measure 146
0020
0000
0000
0000
,  // measure 147
0000
0000
0000
0030
,  // measure 148
1000
0001
0010
0000
0001
0010
0100
0010
,  // measure 149
0100
0000
0010
0000
0100
0100
0010
0010
,  // measure 150
0200
0000
0000
0000
,  // measure 151
0000
0000
0000
0300
,  // measure 152
0001
1000
0100
0000
1000
0100
0010
0100
,  // measure 153
0010
0000
0100
0000
0010
0010
0100
0100
,  // measure 154
2000
0000
0000
3001
0000
0001
0000
0020
,  // measure 155
0000
0000
0130
0100
,  // measure 156
1000
0100
1000
0000
1000
0100
1000
0000
,  // measure 157
1000
0001
0010
0001
0010
0000
1000
0100
,  // measure 158
0002
0000
0000
1003
0000
1000
0000
0200
,  // measure 159
0000
0000
0310
0010
,  // measure 160
0001
0010
0001
0000
0001
0010
0001
0000
,  // measure 161
0001
1000
0100
1000
0100
0000
0001
0010
,  // measure 162
0020
0000
0000
0000
0130
0010
0001
0000
,  // measure 163
0002
0000
0000
0000
0013
0100
1000
0000
,  // measure 164
1000
0001
0010
0000
0001
0010
0100
0010
,  // measure 165
0100
0000
0010
0000
0100
0100
0010
0010
,  // measure 166
0200
0000
0000
0000
0310
0100
1000
0000
,  // measure 167
2000
0000
0000
0000
3100
0010
0001
0000
,  // measure 168
0001
1000
0100
0000
1000
0100
0010
0100
,  // measure 169
0010
0000
0100
0000
0010
0010
0100
0100
,  // measure 170
2000
0000
0000
0000
,  // measure 171
0000
0000
0000
3000
,  // measure 172
1000
0100
1000
0000
1000
0100
1000
0000
,  // measure 173
1000
0001
0010
0001
0010
0000
1000
0100
,  // measure 174
0002
0000
0000
0000
,  // measure 175
0000
0000
0000
0003
,  // measure 176
0001
0010
0001
0000
0001
0010
0001
0000
,  // measure 177
0001
1000
0100
1000
0100
0000
0001
0010
,  // measure 178
1000
0001
0010
0000
0001
0010
0100
0010
,  // measure 179
0100
0000
0010
0000
0100
0100
0010
0010
,  // measure 180
0001
1000
0100
0000
1000
0100
0010
0100
,  // measure 181
0010
0000
0100
0000
0010
0010
0100
0100
,  // measure 182
0010
0100
0001
0000
0100
0001
1000
0001
,  // measure 183
1000
0000
0001
0000
1000
1000
0001
0001
,  // measure 184
0100
0010
1000
0000
0010
1000
0001
1000
,  // measure 185
0001
0000
1000
1000
0001
0001
1000
1000
,  // measure 186
0010
0000
0000
0010
0000
0000
0010
0000
0000
0000
0100
0000
0010
0000
0000
0000
,  // measure 187
0010
0000
0000
0100
0000
0000
0010
0000
0000
0000
0100
0000
0010
0000
0000
0000
,  // measure 188
0100
0000
0000
0100
0000
0000
0100
0000
0000
0000
0010
0000
0100
0000
0000
0000
,  // measure 189
0100
0000
0000
0010
0000
0000
0100
0000
0000
0000
0010
0000
0100
0000
0000
0000
,  // measure 190
0001
0000
0000
0001
0000
0000
0001
0000
0000
0000
1000
0000
0001
0000
0000
0000
,  // measure 191
0001
0000
0000
1000
0000
0000
0001
0000
0000
0000
1000
0000
0001
0000
0000
0000
,  // measure 192
1000
0000
0000
1000
0000
0000
1000
0000
0000
0000
0001
0000
1000
0000
0000
0000
,  // measure 193
1001
0000
0000
0000
1001
0000
0000
0000
1001
0000
0000
1001
0000
0000
1001
0000
;

//---------------dance-single - ----------------
#NOTES:
     dance-single:
     :
     Medium:
     12:
     0.531505,0.554860,0.095398,0.184437,0.031799,1170.000000,1140.000000,30.000000,58.000000,0.000000,0.000000,0.531505,0.554860,0.095398,0.184437,0.031799,1170.000000,1140.000000,30.000000,58.000000,0.000000,0.000000:
// measure 0
0000
0000
0000
0000
,  // measure 1
0000
0000
0000
0000
,  // measure 2
0000
0000
0000
0000
,  // measure 3
0000
0000
0000
0000
,  // measure 4
0000
0000
0000
0000
,  // measure 5
0000
0000
0000
0000
,  // measure 6
0000
0000
0000
0000
,  // measure 7
0000
0000
0000
0000
,  // measure 8
0000
0000
0000
0000
,  // measure 9
0000
0000
0000
0000
,  // measure 10
1000
0001
1000
0000
0001
0010
0100
1000
,  // measure 11
0001
1000
0001
0000
1000
0100
0010
0001
,  // measure 12
0100
0010
0001
0000
0010
0100
0001
0010
,  // measure 13
1000
0000
0000
1000
0000
0000
1001
0000
0000
0001
0000
0000
0001
0000
0001
0000
,  // measure 14
0001
1000
0001
0000
1000
0100
0010
0001
,  // measure 15
1000
0001
1000
0000
0001
0010
0100
1000
,  // measure 16
0010
0100
1000
0000
0100
0010
1000
0100
,  // measure 17
0001
0000
0000
0001
0000
0000
1001
0000
0000
1000
0000
0000
1000
0000
1000
0000
,  // measure 18
0020
0000
0000
0030
,  // measure 19
0100
0000
0000
0100
0000
0000
0100
0000
0000
0100
0000
0000
0100
0000
0001
0000
,  // measure 20
0200
0000
0000
0300
,  // measure 21
0010
0000
0000
0010
0000
0000
0010
0000
0000
0010
0000
0000
0010
0000
1000
0000
,  // measure 22
0002
0000
0000
0003
,  // measure 23
1000
0000
0000
1000
0000
0000
1000
0000
0000
1000
0000
0000
1000
0000
0100
0000
,  // measure 24
2000
0000
0000
3000
,  // measure 25
0001
0000
0000
0001
0000
0000
0001
0000
0000
0001
0000
0000
0001
0000
0010
0000
,  // measure 26
1000
0001
0010
0100
0001
0010
0100
0010
,  // measure 27
0100
0100
0010
0010
0100
0100
0010
0010
,  // measure 28
0001
1000
0100
0010
1000
0100
0010
0100
,  // measure 29
0010
0010
0100
0100
0010
0010
0100
0100
,  // measure 30
0010
0100
0001
1000
0100
0001
1000
0001
,  // measure 31
1000
1000
0001
0001
1000
1000
0001
0001
,  // measure 32
0100
0010
1000
0001
0010
1000
0001
1000
,  // measure 33
0001
0001
1000
1000
0001
0001
1000
1000
,  // measure 34
0020
0000
0000
0000
0130
0010
0001
0010
,  // measure 35
0002
0000
0000
0000
0013
0100
1000
0100
,  // measure 36
1000
0001
0010
0100
0001
0010
0100
0010
,  // measure 37
0100
0100
0010
0010
0100
0100
0010
0010
,  // measure 38
0200
0000
0000
0000
0310
0100
1000
0100
,  // measure 39
2000
0000
0000
0000
3100
0010
0001
0010
,  // measure 40
0001
1000
0100
0010
1000
0100
0010
0100
,  // measure 41
0010
0010
0100
0100
0010
0010
0100
0100
,  // measure 42
2000
0000
0001
3001
0000
0001
0000
0020
,  // measure 43
0000
0000
0130
0100
,  // measure 44
1000
0100
1000
0000
1000
0100
1000
0000
,  // measure 45
1000
0001
0010
0001
0010
0100
1000
0100
,  // measure 46
0002
0000
1000
1003
0000
1000
0000
0200
,  // measure 47
0000
0000
0310
0010
,  // measure 48
0001
0010
0001
0000
0001
0010
0001
0000
,  // measure 49
0001
1000
0100
1000
0100
0010
0001
0010
,  // measure 50
1001
0000
0110
0000
0001
0010
0100
1000
,  // measure 51
2000
0100
0100
3100
0001
0010
0100
1000
,  // measure 52
2000
0100
0001
3100
0001
0010
1000
0100
,  // measure 53
0001
0010
0001
0000
1000
0001
1000
0000
,  // measure 54
1001
0000
0110
0000
1000
0100
0010
0001
,  // measure 55
0002
0010
0010
0013
1000
0100
0010
0001
,  // measure 56
0002
0010
1000
0013
1000
0100
0001
0010
,  // measure 57
1000
0100
1000
0000
0001
1000
0001
0000
,  // measure 58
0110
0000
1001
0000
0100
0001
1000
0010
,  // measure 59
0020
1000
1000
1030
0100
0001
1000
0010
,  // measure 60
0020
1000
0100
1030
0100
0001
0010
1000
,  // measure 61
0100
0001
0100
0000
0010
0100
0010
0000
,  // measure 62
0110
0000
1001
0000
0010
1000
0001
0100
,  // measure 63
0200
0001
0001
0301
0010
1000
0001
0100
,  // measure 64
0200
0001
0010
0301
0010
1000
0100
0001
,  // measure 65
0010
1000
0010
0000
0100
0010
0100
0000
,  // measure 66
1000
0001
0010
0100
0001
0010
0100
0010
,  // measure 67
0100
0100
0010
0010
0100
0100
0010
0010
,  // measure 68
0001
1000
0100
0010
1000
0100
0010
0100
,  // measure 69
0010
0010
0100
0100
0010
0010
0100
0100
,  // measure 70
0010
0100
0001
1000
0100
0001
1000
0001
,  // measure 71
1000
1000
0001
0001
1000
1000
0001
0001
,  // measure 72
0100
0010
1000
0001
0010
1000
0001
1000
,  // measure 73
0001
0001
1000
1000
0001
0001
1000
1000
,  // measure 74
0020
0000
0000
0000
0130
0010
0001
0010
,  // measure 75
0002
0000
0000
0000
0013
0100
1000
0100
,  // measure 76
1000
0001
0010
0100
0001
0010
0100
0010
,  // measure 77
0100
0100
0010
0010
0100
0100
0010
0010
,  // measure 78
0200
0000
0000
0000
0310
0100
1000
0100
,  // measure 79
2000
0000
0000
0000
3100
0010
0001
0010
,  // measure 80
0001
1000
0100
0010
1000
0100
0010
0100
,  // measure 81
0010
0010
0100
0100
0010
0010
0100
0100
,  // measure 82
2000
0000
0001
3001
0000
0001
0000
0020
,  // measure 83
0000
0000
0130
0100
,  // measure 84
1000
0100
1000
0000
1000
0100
1000
0000
,  // measure 85
1000
0001
0010
0001
0010
0100
1000
0100
,  // measure 86
0002
0000
1000
1003
0000
1000
0000
0200
,  // measure 87
0000
0000
0310
0010
,  // measure 88
0001
0010
0001
0000
0001
0010
0001
0000
,  // measure 89
0001
1000
0100
1000
0100
0010
0001
0010
,  // measure 90
1001
0000
0110
0000
0001
0010
0100
1000
,  // measure 91
2000
0100
0100
3100
0001
0010
0100
1000
,  // measure 92
2000
0100
0001
3100
0001
0010
1000
0100
,  // measure 93
0001
0010
0001
0000
1000
0001
1000
0000
,  // measure 94
1001
0000
0110
0000
1000
0100
0010
0001
,  // measure 95
0002
0010
0010
0013
1000
0100
0010
0001
,  // measure 96
0002
0010
1000
0013
1000
0100
0001
0010
,  // measure 97
1000
0100
1000
0000
0001
1000
0001
0000
,  // measure 98
0110
0000
1001
0000
0100
0001
1000
0010
,  // measure 99
0020
1000
1000
1030
0100
0001
1000
0010
,  // measure 100
0020
1000
0100
1030
0100
0001
0010
1000
,  // measure 101
0100
0001
0100
0000
0010
0100
0010
0000
,  // measure 102
0110
0000
1001
0000
0010
1000
0001
0100
,  // measure 103
0200
0001
0001
0301
0010
1000
0001
0100
,  // measure 104
0200
0001
0010
0301
0010
1000
0100
0001
,  // measure 105
0010
1000
0010
0000
0100
0010
0100
0000
,  // measure 106
1000
0001
0010
0100
0001
0010
0100
0010
,  // measure 107
0100
0100
0010
0010
0100
0100
0010
0010
,  // measure 108
0001
1000
0100
0010
1000
0100
0010
0100
,  // measure 109
0010
0010
0100
0100
0010
0010
0100
0100
,  // measure 110
0010
0100
0001
1000
0100
0001
1000
0001
,  // measure 111
1000
1000
0001
0001
1000
1000
0001
0001
,  // measure 112
0100
0010
1000
0001
0010
1000
0001
1000
,  // measure 113
0001
0001
1000
1000
0001
0001
1000
1000
,  // measure 114
2002
0000
0000
0000
,  // measure 115
0000
0000
0000
0000
,  // measure 116
0000
0000
0000
0000
,  // measure 117
0000
0000
0000
0000
,  // measure 118
0000
0000
0000
0000
,  // measure 119
0000
0000
0000
0000
,  // measure 120
0000
0000
0000
0000
,  // measure 121
0000
0000
0000
3003
,  // measure 122
1001
0000
0110
0000
0001
0010
0100
1000
,  // measure 123
2000
0100
0100
3100
0001
0010
0100
1000
,  // measure 124
2000
0100
0001
3100
0001
0010
1000
0100
,  // measure 125
0001
0010
0001
0000
1000
0001
1000
0000
,  // measure 126
1001
0000
0110
0000
1000
0100
0010
0001
,  // measure 127
0002
0010
0010
0013
1000
0100
0010
0001
,  // measure 128
0002
0010
1000
0013
1000
0100
0001
0010
,  // measure 129
1000
0100
1000
0000
0001
1000
0001
0000
,  // measure 130
0110
0000
1001
0000
0100
0001
1000
0010
,  // measure 131
0020
1000
1000
1030
0100
0001
1000
0010
,  // measure 132
0020
1000
0100
1030
0100
0001
0010
1000
,  // measure 133
0100
0001
0100
0000
0010
0100
0010
0000
,  // measure 134
0110
0000
1001
0000
0010
1000
0001
0100
,  // measure 135
0200
0001
0001
0301
0010
1000
0001
0100
,  // measure 136
0200
0001
0010
0301
0010
1000
0100
0001
,  // measure 137
0010
1000
0010
0000
0100
0010
0100
0000
,  // measure 138
1000
0001
0010
0100
0001
0010
0100
0010
,  // measure 139
0100
0100
0010
0010
0100
0100
0010
0010
,  // measure 140
0001
1000
0100
0010
1000
0100
0010
0100
,  // measure 141
0010
0010
0100
0100
0010
0010
0100
0100
,  // measure 142
0010
0100
0001
1000
0100
0001
1000
0001
,  // measure 143
1000
1000
0001
0001
1000
1000
0001
0001
,  // measure 144
0100
0010
1000
0001
0010
1000
0001
1000
,  // measure 145
0001
0001
1000
1000
0001
0001
1000
1000
,  // measure 146
0020
0000
0000
0000
,  // measure 147
0000
0000
0000
0030
,  // measure 148
1000
0001
0010
0100
0001
0010
0100
0010
,  // measure 149
0100
0100
0010
0010
0100
0100
0010
0010
,  // measure 150
0200
0000
0000
0000
,  // measure 151
0000
0000
0000
0300
,  // measure 152
0001
1000
0100
0010
1000
0100
0010
0100
,  // measure 153
0010
0010
0100
0100
0010
0010
0100
0100
,  // measure 154
2000
0000
0001
3001
0000
0001
0000
0020
,  // measure 155
0000
0000
0130
0100
,  // measure 156
1000
0100
1000
0000
1000
0100
1000
0000
,  // measure 157
1000
0001
0010
0001
0010
0100
1000
0100
,  // measure 158
0002
0000
1000
1003
0000
1000
0000
0200
,  // measure 159
0000
0000
0310
0010
,  // measure 160
0001
0010
0001
0000
0001
0010
0001
0000
,  // measure 161
0001
1000
0100
1000
0100
0010
0001
0010
,  // measure 162
0020
0000
0000
0000
0130
0010
0001
0010
,  // measure 163
0002
0000
0000
0000
0013
0100
1000
0100
,  // measure 164
1000
0001
0010
0100
0001
0010
0100
0010
,  // measure 165
0100
0100
0010
0010
0100
0100
0010
0010
,  // measure 166
0200
0000
0000
0000
0310
0100
1000
0100
,  // measure 167
2000
0000
0000
0000
3100
0010
0001
0010
,  // measure 168
0001
1000
0100
0010
1000
0100
0010
0100
,  // measure 169
0010
0010
0100
0100
0010
0010
0100
0100
,  // measure 170
2000
0000
0000
0000
,  // measure 171
0001
0000
0000
3000
,  // measure 172
1000
0100
1000
0000
1000
0100
1000
0000
,  // measure 173
1000
0001
0010
0001
0010
0100
1000
0100
,  // measure 174
0002
0000
0000
0000
,  // measure 175
1000
0000
0000
0003
,  // measure 176
0001
0010
0001
0000
0001
0010
0001
0000
,  // measure 177
0001
1000
0100
1000
0100
0010
0001
0010
,  // measure 178
1000
0001
0010
0100
0001
0010
0100
0010
,  // measure 179
0100
0100
0010
0010
0100
0100
0010
0010
,  // measure 180
0001
1000
0100
0010
1000
0100
0010
0100
,  // measure 181
0010
0010
0100
0100
0010
0010
0100
0100
,  // measure 182
0010
0100
0001
1000
0100
0001
1000
0001
,  // measure 183
1000
1000
0001
0001
1000
1000
0001
0001
,  // measure 184
0100
0010
1000
0001
0010
1000
0001
1000
,  // measure 185
0001
0001
1000
1000
0001
0001
1000
1000
,  // measure 186
0010
0000
0000
0010
0000
0000
0010
0000
1000
0000
0100
0000
0010
0000
0001
0000
,  // measure 187
0010
0000
0000
0100
0000
0000
0010
0000
0000
0000
0100
0000
0010
0000
0001
0000
,  // measure 188
0100
0000
0000
0100
0000
0000
0100
0000
0001
0000
0010
0000
0100
0000
1000
0000
,  // measure 189
0100
0000
0000
0010
0000
0000
0100
0000
0000
0000
0010
0000
0100
0000
1000
0000
,  // measure 190
0001
0000
0000
0001
0000
0000
0001
0000
0010
0000
1000
0000
0001
0000
0100
0000
,  // measure 191
0001
0000
0000
1000
0000
0000
0001
0000
0000
0000
1000
0000
0001
0000
0100
0000
,  // measure 192
1000
0000
0000
1000
0000
0000
1000
0000
0100
0000
0001
0000
1000
0000
0010
0000
,  // measure 193
1000
0000
0001
0000
1000
0000
0001
0000
1001
0000
0000
1001
0000
0000
1001
0000
;

//---------------dance-single - ----------------
#NOTES:
     dance-single:
     :
     Hard:
     12:
     0.552856,0.585686,0.108118,0.184437,0.076319,1217.000000,1183.000000,34.000000,58.000000,0.000000,0.000000,0.552856,0.585686,0.108118,0.184437,0.076319,1217.000000,1183.000000,34.000000,58.000000,0.000000,0.000000:
// measure 0
0000
0000
0000
0000
,  // measure 1
0000
0000
0000
0000
,  // measure 2
0000
0000
0000
0000
,  // measure 3
0000
0000
0000
0000
,  // measure 4
0000
0000
0000
0000
,  // measure 5
0000
0000
0000
0000
,  // measure 6
0000
0000
0000
0000
,  // measure 7
0000
0000
0000
0000
,  // measure 8
0000
0000
0000
0000
,  // measure 9
0000
0000
0000
0000
,  // measure 10
1000
0001
1000
0000
0001
0010
0100
1000
,  // measure 11
0001
1000
0001
0000
1000
0100
0010
0001
,  // measure 12
0100
0010
0001
0000
0010
0100
0001
0010
,  // measure 13
1000
0000
0000
1000
0000
0000
1001
0000
0000
0001
0000
0000
0001
0000
0001
0000
,  // measure 14
0001
1000
0001
0000
1000
0100
0010
0001
,  // measure 15
1000
0001
1000
0000
0001
0010
0100
1000
,  // measure 16
0010
0100
1000
0000
0100
0010
1000
0100
,  // measure 17
0001
0000
0000
0001
0000
0000
1001
0000
0000
1000
0000
0000
1000
0000
1000
0000
,  // measure 18
0020
0000
0000
0030
,  // measure 19
0100
0000
0000
0100
0000
0000
0100
0000
0000
0100
0000
0000
0100
0000
0001
0000
,  // measure 20
0200
0000
0000
0300
,  // measure 21
0010
0000
0000
0010
0000
0000
0010
0000
0000
0010
0000
0000
0010
0000
1000
0000
,  // measure 22
0002
0000
0000
0003
,  // measure 23
1000
0000
0000
1000
0000
0000
1000
0000
0000
1000
0000
0000
1000
0000
0100
0000
,  // measure 24
2000
0000
0000
3000
,  // measure 25
0001
0000
0000
0001
0000
0000
0001
0000
0000
0001
0000
0000
0001
0000
0010
0000
,  // measure 26
1000
0001
0010
0100
0001
0010
0100
0010
,  // measure 27
0100
0000
0100
0000
0010
0000
0010
0000
0100
0000
0100
0000
0010
0100
0010
0000
,  // measure 28
0001
1000
0100
0010
1000
0100
0010
0100
,  // measure 29
0010
0000
0010
0000
0100
0000
0100
0000
0010
0000
0010
0000
0100
0010
0100
0000
,  // measure 30
0010
0100
0001
1000
0100
0001
1000
0001
,  // measure 31
1000
0000
1000
0000
0001
0000
0001
0000
1000
0000
1000
0000
0001
1000
0001
0000
,  // measure 32
0100
0010
1000
0001
0010
1000
0001
1000
,  // measure 33
0001
0000
0001
0000
1000
0000
1000
0000
0001
0000
0001
0000
1000
0001
1000
0000
,  // measure 34
0020
0000
0000
0000
0130
0010
0001
0010
,  // measure 35
0002
0000
0000
0000
0013
0100
1000
0100
,  // measure 36
1000
0001
0010
0100
0001
0010
0100
0010
,  // measure 37
0100
0000
0100
0000
0010
0000
0010
0000
0100
0000
0100
0000
0010
0100
0010
0000
,  // measure 38
0200
0000
0000
0000
0310
0100
1000
0100
,  // measure 39
2000
0000
0000
0000
3100
0010
0001
0010
,  // measure 40
0001
1000
0100
0010
1000
0100
0010
0100
,  // measure 41
0010
0000
0010
0000
0100
0000
0100
0000
0010
0000
0010
0000
0100
0010
0100
0000
,  // measure 42
2000
0000
0001
3001
0000
0001
0000
0020
,  // measure 43
0000
0100
0130
0100
,  // measure 44
1000
0100
1000
0000
1000
0100
1000
0000
,  // measure 45
1000
0001
0010
0001
0010
0100
1000
0100
,  // measure 46
0002
0000
1000
1003
0000
1000
0000
0200
,  // measure 47
0000
0010
0310
0010
,  // measure 48
0001
0010
0001
0000
0001
0010
0001
0000
,  // measure 49
0001
1000
0100
1000
0100
0010
0001
0010
,  // measure 50
1001
0000
0110
0000
0001
0010
0100
1000
,  // measure 51
2000
0100
0100
3100
0001
0010
0100
1000
,  // measure 52
2000
0100
0001
3100
0001
0010
1000
0100
,  // measure 53
0001
0010
0001
0000
1000
0001
1000
0001
,  // measure 54
1001
0000
0110
0000
1000
0100
0010
0001
,  // measure 55
0002
0010
0010
0013
1000
0100
0010
0001
,  // measure 56
0002
0010
1000
0013
1000
0100
0001
0010
,  // measure 57
1000
0100
1000
0000
0001
1000
0001
1000
,  // measure 58
0110
0000
1001
0000
0100
0001
1000
0010
,  // measure 59
0020
1000
1000
1030
0100
0001
1000
0010
,  // measure 60
0020
1000
0100
1030
0100
0001
0010
1000
,  // measure 61
0100
0001
0100
0000
0010
0100
0010
0100
,  // measure 62
0110
0000
1001
0000
0010
1000
0001
0100
,  // measure 63
0200
0001
0001
0301
0010
1000
0001
0100
,  // measure 64
0200
0001
0010
0301
0010
1000
0100
0001
,  // measure 65
0010
1000
0010
0000
0100
0010
0100
0010
,  // measure 66
1000
0001
0010
0100
0001
0010
0100
0010
,  // measure 67
0100
0000
0100
0000
0010
0000
0010
0000
0100
0000
0100
0000
0010
0100
0010
0000
,  // measure 68
0001
1000
0100
0010
1000
0100
0010
0100
,  // measure 69
0010
0000
0010
0000
0100
0000
0100
0000
0010
0000
0010
0000
0100
0010
0100
0000
,  // measure 70
0010
0100
0001
1000
0100
0001
1000
0001
,  // measure 71
1000
0000
1000
0000
0001
0000
0001
0000
1000
0000
1000
0000
0001
1000
0001
0000
,  // measure 72
0100
0010
1000
0001
0010
1000
0001
1000
,  // measure 73
0001
0000
0001
0000
1000
0000
1000
0000
0001
0000
0001
0000
1000
0001
1000
0000
,  // measure 74
0020
0000
0000
0000
0130
0010
0001
0010
,  // measure 75
0002
0000
0000
0000
0013
0100
1000
0100
,  // measure 76
1000
0001
0010
0100
0001
0010
0100
0010
,  // measure 77
0100
0000
0100
0000
0010
0000
0010
0000
0100
0000
0100
0000
0010
0100
0010
0000
,  // measure 78
0200
0000
0000
0000
0310
0100
1000
0100
,  // measure 79
2000
0000
0000
0000
3100
0010
0001
0010
,  // measure 80
0001
1000
0100
0010
1000
0100
0010
0100
,  // measure 81
0010
0000
0010
0000
0100
0000
0100
0000
0010
0000
0010
0000
0100
0010
0100
0000
,  // measure 82
2000
0000
0001
3001
0000
0001
0000
0020
,  // measure 83
0000
0100
0130
0100
,  // measure 84
1000
0100
1000
0000
1000
0100
1000
0000
,  // measure 85
1000
0001
0010
0001
0010
0100
1000
0100
,  // measure 86
0002
0000
1000
1003
0000
1000
0000
0200
,  // measure 87
0000
0010
0310
0010
,  // measure 88
0001
0010
0001
0000
0001
0010
0001
0000
,  // measure 89
0001
1000
0100
1000
0100
0010
0001
0010
,  // measure 90
1001
0000
0110
0000
0001
0010
0100
1000
,  // measure 91
2000
0100
0100
3100
0001
0010
0100
1000
,  // measure 92
2000
0100
0001
3100
0001
0010
1000
0100
,  // measure 93
0001
0010
0001
0000
1000
0001
1000
0001
,  // measure 94
1001
0000
0110
0000
1000
0100
0010
0001
,  // measure 95
0002
0010
0010
0013
1000
0100
0010
0001
,  // measure 96
0002
0010
1000
0013
1000
0100
0001
0010
,  // measure 97
1000
0100
1000
0000
0001
1000
0001
1000
,  // measure 98
0110
0000
1001
0000
0100
0001
1000
0010
,  // measure 99
0020
1000
1000
1030
0100
0001
1000
0010
,  // measure 100
0020
1000
0100
1030
0100
0001
0010
1000
,  // measure 101
0100
0001
0100
0000
0010
0100
0010
0100
,  // measure 102
0110
0000
1001
0000
0010
1000
0001
0100
,  // measure 103
0200
0001
0001
0301
0010
1000
0001
0100
,  // measure 104
0200
0001
0010
0301
0010
1000
0100
0001
,  // measure 105
0010
1000
0010
0000
0100
0010
0100
0010
,  // measure 106
1000
0001
0010
0100
0001
0010
0100
0010
,  // measure 107
0100
0000
0100
0000
0010
0000
0010
0000
0100
0000
0100
0000
0010
0100
0010
0000
,  // measure 108
0001
1000
0100
0010
1000
0100
0010
0100
,  // measure 109
0010
0000
0010
0000
0100
0000
0100
0000
0010
0000
0010
0000
0100
0010
0100
0000
,  // measure 110
0010
0100
0001
1000
0100
0001
1000
0001
,  // measure 111
1000
0000
1000
0000
0001
0000
0001
0000
1000
0000
1000
0000
0001
1000
0001
0000
,  // measure 112
0100
0010
1000
0001
0010
1000
0001
1000
,  // measure 113
0001
0000
0001
0000
1000
0000
1000
0000
0001
0000
0001
0000
1000
0001
1000
0000
,  // measure 114
2002
0000
0000
0000
,  // measure 115
0000
0000
0000
0000
,  // measure 116
0000
0000
0000
0000
,  // measure 117
0000
0000
0000
0000
,  // measure 118
0000
0000
0000
0000
,  // measure 119
0000
0000
0000
0000
,  // measure 120
0000
0000
0000
0000
,  // measure 121
0000
0000
0000
3003
,  // measure 122
1001
0000
0110
0000
0001
0010
0100
1000
,  // measure 123
2000
0100
0100
3100
0001
0010
0100
1000
,  // measure 124
2000
0100
0001
3100
0001
0010
1000
0100
,  // measure 125
0001
0010
0001
0000
1000
0001
1000
0001
,  // measure 126
1001
0000
0110
0000
1000
0100
0010
0001
,  // measure 127
0002
0010
0010
0013
1000
0100
0010
0001
,  // measure 128
0002
0010
1000
0013
1000
0100
0001
0010
,  // measure 129
1000
0100
1000
0000
0001
1000
0001
0000
,  // measure 130
0110
0000
1001
0000
0100
0001
1000
0010
,  // measure 131
0020
1000
1000
1030
0100
0001
1000
0010
,  // measure 132
0020
1000
0100
1030
0100
0001
0010
1000
,  // measure 133
0100
0001
0100
0000
0010
0100
0010
0000
,  // measure 134
0110
0000
1001
0000
0010
1000
0001
0100
,  // measure 135
0200
0001
0001
0301
0010
1000
0001
0100
,  // measure 136
0200
0001
0010
0301
0010
1000
0100
0001
,  // measure 137
0010
1000
0010
0000
0100
0010
0100
0000
,  // measure 138
1000
0001
0010
0100
0001
0010
0100
0010
,  // measure 139
0100
0000
0100
0000
0010
0000
0010
0000
0100
0000
0100
0000
0010
0100
0010
0000
,  // measure 140
0001
1000
0100
0010
1000
0100
0010
0100
,  // measure 141
0010
0000
0010
0000
0100
0000
0100
0000
0010
0000
0010
0000
0100
0010
0100
0000
,  // measure 142
0010
0100
0001
1000
0100
0001
1000
0001
,  // measure 143
1000
0000
1000
0000
0001
0000
0001
0000
1000
0000
1000
0000
0001
1000
0001
0000
,  // measure 144
0100
0010
1000
0001
0010
1000
0001
1000
,  // measure 145
0001
0000
0001
0000
1000
0000
1000
0000
0001
0000
0001
0000
1000
0001
1000
0000
,  // measure 146
0020
0000
0000
0000
,  // measure 147
0000
0000
0000
0030
,  // measure 148
1000
0001
0010
0100
0001
0010
0100
0010
,  // measure 149
0100
0000
0100
0000
0010
0000
0010
0000
0100
0000
0100
0000
0010
0100
0010
0000
,  // measure 150
0200
0000
0000
0000
,  // measure 151
0000
0000
0000
0300
,  // measure 152
0001
1000
0100
0010
1000
0100
0010
0100
,  // measure 153
0010
0000
0010
0000
0100
0000
0100
0000
0010
0000
0010
0000
0100
0010
0100
0000
,  // measure 154
2000
0000
0001
3001
0000
0001
0000
0020
,  // measure 155
0000
0100
0130
0100
,  // measure 156
1000
0100
1000
0000
1000
0100
1000
0000
,  // measure 157
1000
0001
0010
0001
0010
0100
1000
0100
,  // measure 158
0002
0000
1000
1003
0000
1000
0000
0200
,  // measure 159
0000
0010
0310
0010
,  // measure 160
0001
0010
0001
0000
0001
0010
0001
0000
,  // measure 161
0001
1000
0100
1000
0100
0010
0001
0010
,  // measure 162
0020
0000
0000
0000
0130
0010
0001
0010
,  // measure 163
0002
0000
0000
0000
0013
0100
1000
0100
,  // measure 164
1000
0001
0010
0100
0001
0010
0100
0010
,  // measure 165
0100
0000
0100
0000
0010
0000
0010
0000
0100
0000
0100
0000
0010
0100
0010
0000
,  // measure 166
0200
0000
0000
0000
0310
0100
1000
0100
,  // measure 167
2000
0000
0000
0000
3100
0010
0001
0010
,  // measure 168
0001
1000
0100
0010
1000
0100
0010
0100
,  // measure 169
0010
0000
0010
0000
0100
0000
0100
0000
0010
0000
0010
0000
0100
0010
0100
0000
,  // measure 170
2000
0000
0000
0000
,  // measure 171
0001
0000
0000
3000
,  // measure 172
1000
0100
1000
0000
1000
0100
1000
0000
,  // measure 173
1000
0001
0010
0001
0010
0100
1000
0100
,  // measure 174
0002
0000
0000
0000
,  // measure 175
1000
0000
0000
0003
,  // measure 176
0001
0010
0001
0000
0001
0010
0001
0000
,  // measure 177
0001
1000
0100
1000
0100
0010
0001
0010
,  // measure 178
1000
0001
0010
0100
0001
0010
0100
0010
,  // measure 179
0100
0000
0100
0000
0010
0000
0010
0000
0100
0000
0100
0000
0010
0100
0010
0000
,  // measure 180
0001
1000
0100
0010
1000
0100
0010
0100
,  // measure 181
0010
0000
0010
0000
0100
0000
0100
0000
0010
0000
0010
0000
0100
0010
0100
0000
,  // measure 182
0010
0100
0001
1000
0100
0001
1000
0001
,  // measure 183
1000
0000
1000
0000
0001
0000
0001
0000
1000
0000
1000
0000
0001
1000
0001
0000
,  // measure 184
0100
0010
1000
0001
0010
1000
0001
1000
,  // measure 185
0001
0000
0001
0000
1000
0000
1000
0000
0001
0000
0001
0000
1000
0001
1000
0000
,  // measure 186
0010
0000
0000
0110
0000
0000
0010
0000
1000
0000
0100
0000
0010
0000
0001
0000
,  // measure 187
0010
0000
0000
0100
0000
0000
0010
0000
0000
0000
0100
0000
0010
0000
0001
0000
,  // measure 188
0100
0000
0000
0110
0000
0000
0100
0000
0001
0000
0010
0000
0100
0000
1000
0000
,  // measure 189
0100
0000
0000
0010
0000
0000
0100
0000
0000
0000
0010
0000
0100
0000
1000
0000
,  // measure 190
0001
0000
0000
1001
0000
0000
0001
0000
0010
0000
1000
0000
0001
0000
0100
0000
,  // measure 191
0001
0000
0000
1000
0000
0000
0001
0000
0000
0000
1000
0000
0001
0000
0100
0000
,  // measure 192
1000
0000
0000
1001
0000
0000
1000
0000
0100
0000
0001
0000
1000
0000
0010
0000
,  // measure 193
1000
0000
0001
0000
1000
0000
0001
0000
1001
0000
0000
1001
0000
0000
1001
0000
;

//---------------dance-single - ----------------
#NOTES:
     dance-single:
     :
     Challenge:
     13:
     0.571027,0.616512,0.130378,0.184437,0.122428,1257.000000,1216.000000,41.000000,58.000000,0.000000,0.000000,0.571027,0.616512,0.130378,0.184437,0.122428,1257.000000,1216.000000,41.000000,58.000000,0.000000,0.000000:
// measure 0
0000
0000
0000
0000
,  // measure 1
0000
0000
0000
0000
,  // measure 2
0000
0000
0000
0000
,  // measure 3
0000
0000
0000
0000
,  // measure 4
0000
0000
0000
0000
,  // measure 5
0000
0000
0000
0000
,  // measure 6
0000
0000
0000
0000
,  // measure 7
0000
0000
0000
0000
,  // measure 8
0000
0000
0000
0000
,  // measure 9
0000
0000
0000
0000
,  // measure 10
1000
0001
1000
0010
0001
0010
0100
1000
,  // measure 11
0001
1000
0001
0100
1000
0100
0010
0001
,  // measure 12
0100
0010
0001
0000
0010
0100
0001
0010
,  // measure 13
1000
0000
0000
1000
0000
0000
1001
0000
0000
0001
0000
0000
0001
0000
0001
0000
,  // measure 14
0001
1000
0001
0100
1000
0100
0010
0001
,  // measure 15
1000
0001
1000
0010
0001
0010
0100
1000
,  // measure 16
0010
0100
1000
0000
0100
0010
1000
0100
,  // measure 17
0001
0000
0000
0001
0000
0000
1001
0000
0000
1000
0000
0000
1000
0000
1000
0000
,  // measure 18
0120
0000
0000
0030
,  // measure 19
0100
0000
0000
0100
0000
0000
0100
0000
0000
0100
0000
0000
0100
0000
0001
0000
,  // measure 20
0210
0000
0000
0300
,  // measure 21
0010
0000
0000
0010
0000
0000
0010
0000
0000
0010
0000
0000
0010
0000
1000
0000
,  // measure 22
1002
0000
0000
0003
,  // measure 23
1000
0000
0000
1000
0000
0000
1000
0000
0000
1000
0000
0000
1000
0000
0100
0000
,  // measure 24
2001
0000
0000
3000
,  // measure 25
0001
0000
0000
0001
0000
0000
0001
0000
0000
0001
0000
0000
0001
0000
0010
0000
,  // measure 26
1000
0001
0010
0100
0001
0010
0100
0010
,  // measure 27
0100
0000
0100
0000
0010
0000
0010
0000
0100
0010
0100
0000
0010
0100
0010
0000
,  // measure 28
0001
1000
0100
0010
1000
0100
0010
0100
,  // measure 29
0010
0000
0010
0000
0100
0000
0100
0000
0010
0100
0010
0000
0100
0010
0100
0000
,  // measure 30
0010
0100
0001
1000
0100
0001
1000
0001
,  // measure 31
1000
0000
1000
0000
0001
0000
0001
0000
1000
0001
1000
0000
0001
1000
0001
0000
,  // measure 32
0100
0010
1000
0001
0010
1000
0001
1000
,  // measure 33
0001
0000
0001
0000
1000
0000
1000
0000
0001
1000
0001
0000
1000
0001
1000
0000
,  // measure 34
0020
0000
0000
0000
0130
0010
0001
0010
,  // measure 35
0002
0000
0000
0000
0013
0100
1000
0100
,  // measure 36
1000
0001
0010
0100
0001
0010
0100
0010
,  // measure 37
0100
0000
0100
0000
0010
0000
0010
0000
0100
0010
0100
0000
0010
0100
0010
0000
,  // measure 38
0200
0000
0000
0000
0310
0100
1000
0100
,  // measure 39
2000
0000
0000
0000
3100
0010
0001
0010
,  // measure 40
0001
1000
0100
0010
1000
0100
0010
0100
,  // measure 41
0010
0000
0010
0000
0100
0000
0100
0000
0010
0100
0010
0000
0100
0010
0100
0000
,  // measure 42
2000
0000
0001
3001
0000
0001
0000
0020
,  // measure 43
0000
0100
0130
0100
,  // measure 44
1000
0100
1000
0000
1000
0100
1000
0000
,  // measure 45
1000
0001
0010
0001
0010
0100
1000
0100
,  // measure 46
0002
0000
1000
1003
0000
1000
0000
0200
,  // measure 47
0000
0010
0310
0010
,  // measure 48
0001
0010
0001
0000
0001
0010
0001
0000
,  // measure 49
0001
1000
0100
1000
0100
0010
0001
0010
,  // measure 50
1001
0000
0110
0000
0001
0010
0100
1000
,  // measure 51
2000
0100
0100
3100
0001
0010
0100
1000
,  // measure 52
2000
0100
0001
3100
0001
0010
1000
0100
,  // measure 53
0001
0010
0001
0000
1000
0001
1000
0001
,  // measure 54
1001
0000
0110
0000
1000
0100
0010
0001
,  // measure 55
0002
0010
0010
0013
1000
0100
0010
0001
,  // measure 56
0002
0010
1000
0013
1000
0100
0001
0010
,  // measure 57
1000
0100
1000
0000
0001
1000
0001
1000
,  // measure 58
0110
0000
1001
0000
0100
0001
1000
0010
,  // measure 59
0020
1000
1000
1030
0100
0001
1000
0010
,  // measure 60
0020
1000
0100
1030
0100
0001
0010
1000
,  // measure 61
0100
0001
0100
0000
0010
0100
0010
0100
,  // measure 62
0110
0000
1001
0000
0010
1000
0001
0100
,  // measure 63
0200
0001
0001
0301
0010
1000
0001
0100
,  // measure 64
0200
0001
0010
0301
0010
1000
0100
0001
,  // measure 65
0010
1000
0010
0000
0100
0010
0100
0010
,  // measure 66
1000
0001
0010
0100
0001
0010
0100
0010
,  // measure 67
0100
0000
0100
0000
0010
0000
0010
0000
0100
0010
0100
0000
0010
0100
0010
0000
,  // measure 68
0001
1000
0100
0010
1000
0100
0010
0100
,  // measure 69
0010
0000
0010
0000
0100
0000
0100
0000
0010
0100
0010
0000
0100
0010
0100
0000
,  // measure 70
0010
0100
0001
1000
0100
0001
1000
0001
,  // measure 71
1000
0000
1000
0000
0001
0000
0001
0000
1000
0001
1000
0000
0001
1000
0001
0000
,  // measure 72
0100
0010
1000
0001
0010
1000
0001
1000
,  // measure 73
0001
0000
0001
0000
1000
0000
1000
0000
0001
1000
0001
0000
1000
0001
1000
0000
,  // measure 74
0020
0000
0000
0000
0130
0010
0001
0010
,  // measure 75
0002
0000
0000
0000
0013
0100
1000
0100
,  // measure 76
1000
0001
0010
0100
0001
0010
0100
0010
,  // measure 77
0100
0000
0100
0000
0010
0000
0010
0000
0100
0010
0100
0000
0010
0100
0010
0000
,  // measure 78
0200
0000
0000
0000
0310
0100
1000
0100
,  // measure 79
2000
0000
0000
0000
3100
0010
0001
0010
,  // measure 80
0001
1000
0100
0010
1000
0100
0010
0100
,  // measure 81
0010
0000
0010
0000
0100
0000
0100
0000
0010
0100
0010
0000
0100
0010
0100
0000
,  // measure 82
2000
0000
0001
3001
0000
0001
0000
0020
,  // measure 83
0000
0100
0130
0100
,  // measure 84
1000
0100
1000
0000
1000
0100
1000
0000
,  // measure 85
1000
0001
0010
0001
0010
0100
1000
0100
,  // measure 86
0002
0000
1000
1003
0000
1000
0000
0200
,  // measure 87
0000
0010
0310
0010
,  // measure 88
0001
0010
0001
0000
0001
0010
0001
0000
,  // measure 89
0001
1000
0100
1000
0100
0010
0001
0010
,  // measure 90
1001
0000
0110
0000
0001
0010
0100
1000
,  // measure 91
2000
0100
0100
3100
0001
0010
0100
1000
,  // measure 92
2000
0100
0001
3100
0001
0010
1000
0100
,  // measure 93
0001
0010
0001
0000
1000
0001
1000
0001
,  // measure 94
1001
0000
0110
0000
1000
0100
0010
0001
,  // measure 95
0002
0010
0010
0013
1000
0100
0010
0001
,  // measure 96
0002
0010
1000
0013
1000
0100
0001
0010
,  // measure 97
1000
0100
1000
0000
0001
1000
0001
1000
,  // measure 98
0110
0000
1001
0000
0100
0001
1000
0010
,  // measure 99
0020
1000
1000
1030
0100
0001
1000
0010
,  // measure 100
0020
1000
0100
1030
0100
0001
0010
1000
,  // measure 101
0100
0001
0100
0000
0010
0100
0010
0100
,  // measure 102
0110
0000
1001
0000
0010
1000
0001
0100
,  // measure 103
0200
0001
0001
0301
0010
1000
0001
0100
,  // measure 104
0200
0001
0010
0301
0010
1000
0100
0001
,  // measure 105
0010
1000
0010
0000
0100
0010
0100
0010
,  // measure 106
1000
0001
0010
0100
0001
0010
0100
0010
,  // measure 107
0100
0000
0100
0000
0010
0000
0010
0000
0100
0010
0100
0000
0010
0100
0010
0000
,  // measure 108
0001
1000
0100
0010
1000
0100
0010
0100
,  // measure 109
0010
0000
0010
0000
0100
0000
0100
0000
0010
0100
0010
0000
0100
0010
0100
0000
,  // measure 110
0010
0100
0001
1000
0100
0001
1000
0001
,  // measure 111
1000
0000
1000
0000
0001
0000
0001
0000
1000
0001
1000
0000
0001
1000
0001
0000
,  // measure 112
0100
0010
1000
0001
0010
1000
0001
1000
,  // measure 113
0001
0000
0001
0000
1000
0000
1000
0000
0001
1000
0001
0000
1000
0001
1000
0000
,  // measure 114
2002
0000
0000
0000
,  // measure 115
0000
0000
0000
0000
,  // measure 116
0000
0000
0000
0000
,  // measure 117
0000
0000
0000
0000
,  // measure 118
0000
0000
0000
0000
,  // measure 119
0000
0000
0000
0000
,  // measure 120
0000
0000
0000
0000
,  // measure 121
0000
0000
0000
3003
,  // measure 122
1001
0000
0110
0000
0001
0010
0100
1000
,  // measure 123
2000
0100
0100
3100
0001
0010
0100
1000
,  // measure 124
2000
0100
0001
3100
0001
0010
1000
0100
,  // measure 125
0001
0010
0001
0000
1000
0001
1000
0001
,  // measure 126
1001
0000
0110
0000
1000
0100
0010
0001
,  // measure 127
0002
0010
0010
0013
1000
0100
0010
0001
,  // measure 128
0002
0010
1000
0013
1000
0100
0001
0010
,  // measure 129
1000
0100
1000
0000
0001
1000
0001
0000
,  // measure 130
0110
0000
1001
0000
0100
0001
1000
0010
,  // measure 131
0020
1000
1000
1030
0100
0001
1000
0010
,  // measure 132
0020
1000
0100
1030
0100
0001
0010
1000
,  // measure 133
0100
0001
0100
0000
0010
0100
0010
0000
,  // measure 134
0110
0000
1001
0000
0010
1000
0001
0100
,  // measure 135
0200
0001
0001
0301
0010
1000
0001
0100
,  // measure 136
0200
0001
0010
0301
0010
1000
0100
0001
,  // measure 137
0010
1000
0010
0000
0100
0010
0100
0000
,  // measure 138
1000
0001
0010
0100
0001
0010
0100
0010
,  // measure 139
0100
0000
0100
0000
0010
0000
0010
0000
0100
0010
0100
0000
0010
0100
0010
0000
,  // measure 140
0001
1000
0100
0010
1000
0100
0010
0100
,  // measure 141
0010
0000
0010
0000
0100
0000
0100
0000
0010
0100
0010
0000
0100
0010
0100
0000
,  // measure 142
0010
0100
0001
1000
0100
0001
1000
0001
,  // measure 143
1000
0000
1000
0000
0001
0000
0001
0000
1000
0001
1000
0000
0001
1000
0001
0000
,  // measure 144
0100
0010
1000
0001
0010
1000
0001
1000
,  // measure 145
0001
0000
0001
0000
1000
0000
1000
0000
0001
1000
0001
0000
1000
0001
1000
0000
,  // measure 146
0020
0000
0000
0000
,  // measure 147
0000
0000
0000
0030
,  // measure 148
1000
0001
0010
0100
0001
0010
0100
0010
,  // measure 149
0100
0000
0100
0000
0010
0000
0010
0000
0100
0010
0100
0000
0010
0100
0010
0000
,  // measure 150
0200
0000
0000
0000
,  // measure 151
0000
0000
0000
0300
,  // measure 152
0001
1000
0100
0010
1000
0100
0010
0100
,  // measure 153
0010
0000
0010
0000
0100
0000
0100
0000
0010
0100
0010
0000
0100
0010
0100
0000
,  // measure 154
2000
0000
0001
3001
0000
0001
0000
0020
,  // measure 155
0000
0100
0130
0100
,  // measure 156
1000
0100
1000
0000
1000
0100
1000
0000
,  // measure 157
1000
0001
0010
0001
0010
0100
1000
0100
,  // measure 158
0002
0000
1000
1003
0000
1000
0000
0200
,  // measure 159
0000
0010
0310
0010
,  // measure 160
0001
0010
0001
0000
0001
0010
0001
0000
,  // measure 161
0001
1000
0100
1000
0100
0010
0001
0010
,  // measure 162
0020
0000
0000
0000
0130
0010
0001
0010
,  // measure 163
0002
0000
0000
0000
0013
0100
1000
0100
,  // measure 164
1000
0001
0010
0100
0001
0010
0100
0010
,  // measure 165
0100
0000
0100
0000
0010
0000
0010
0000
0100
0010
0100
0000
0010
0100
0010
0000
,  // measure 166
0200
0000
0000
0000
0310
0100
1000
0100
,  // measure 167
2000
0000
0000
0000
3100
0010
0001
0010
,  // measure 168
0001
1000
0100
0010
1000
0100
0010
0100
,  // measure 169
0010
0000
0010
0000
0100
0000
0100
0000
0010
0100
0010
0000
0100
0010
0100
0000
,  // measure 170
2000
0000
0000
0000
,  // measure 171
0001
0000
0000
3000
,  // measure 172
1000
0100
1000
0000
1000
0100
1000
0000
,  // measure 173
1000
0001
0010
0001
0010
0100
1000
0100
,  // measure 174
0002
0000
0000
0000
,  // measure 175
1000
0000
0000
0003
,  // measure 176
0001
0010
0001
0000
0001
0010
0001
0000
,  // measure 177
0001
1000
0100
1000
0100
0010
0001
0010
,  // measure 178
1000
0001
0010
0100
0001
0010
0100
0010
,  // measure 179
0100
0000
0100
0000
0010
0000
0010
0000
0100
0010
0100
0000
0010
0100
0010
0000
,  // measure 180
0001
1000
0100
0010
1000
0100
0010
0100
,  // measure 181
0010
0000
0010
0000
0100
0000
0100
0000
0010
0100
0010
0000
0100
0010
0100
0000
,  // measure 182
0010
0100
0001
1000
0100
0001
1000
0001
,  // measure 183
1000
0000
1000
0000
0001
0000
0001
0000
1000
0001
1000
0000
0001
1000
0001
0000
,  // measure 184
0100
0010
1000
0001
0010
1000
0001
1000
,  // measure 185
0001
0000
0001
0000
1000
0000
1000
0000
0001
1000
0001
0000
1000
0001
1000
0000
,  // measure 186
0010
0000
0000
0110
0000
0000
0010
0000
1000
0000
0100
0000
0010
0000
0001
0000
,  // measure 187
0010
0000
0000
0110
0000
0000
0010
0000
0000
0000
0100
0000
0010
0000
0001
0000
,  // measure 188
0100
0000
0000
0110
0000
0000
0100
0000
0001
0000
0010
0000
0100
0000
1000
0000
,  // measure 189
0100
0000
0000
0110
0000
0000
0100
0000
0000
0000
0010
0000
0100
0000
1000
0000
,  // measure 190
0001
0000
0000
1001
0000
0000
0001
0000
0010
0000
1000
0000
0001
0000
0100
0000
,  // measure 191
0001
0000
0000
1001
0000
0000
0001
0000
0000
0000
1000
0000
0001
0000
0100
0000
,  // measure 192
1000
0000
0000
1001
0000
0000
1000
0000
0100
0000
0001
0000
1000
0000
0010
0000
,  // measure 193
1000
0000
0001
0000
1000
0001
1000
0000
1001
0000
0000
1001
0000
0000
1001
0000
;
