#TITLE:Made of Fire;
#SUBTITLE:;
#ARTIST:Niko;
#TITLETRANSLIT:;
#SUBTITLETRANSLIT:;
#ARTISTTRANSLIT:;
#GENRE:SUPER EUROBEAT;
#CREDIT:;
#BANNER:;
#BACKGROUND:;
#LYRICSPATH:;
#CDTITLE:;
#MUSIC:Made of Fire.ogg;
#OFFSET:-0.436000;
#SAMPLESTART:90.382004;
#SAMPLELENGTH:15.000000;
#SELECTABLE:YES;
#BPMS:0.000000=152.091003
;
#STOPS:
;
#BGCHANGES:;
#KEYSOUNDS:;
#ATTACKS:;

//---------------dance-single - ----------------
#NOTES:
     dance-single:
     :
     Easy:
     11:
     0.467982,0.565044,0.349936,0.129388,0.141151,1114.000000,995.000000,119.000000,44.000000,0.000000,0.000000,0.467982,0.565044,0.349936,0.129388,0.141151,1114.000000,995.000000,119.000000,44.000000,0.000000,0.000000:
// measure 0
0000
0000
0000
0000
,  // measure 1
0000
0000
0000
0000
,  // measure 2
0000
0000
0000
0000
,  // measure 3
0000
0000
0000
0000
,  // measure 4
0000
0000
0000
0000
,  // measure 5
0000
0000
0000
0010
,  // measure 6
0010
0000
0100
0010
0100
0000
1000
0000
,  // measure 7
0001
0000
1000
0100
0010
0001
0100
0000
,  // measure 8
0100
0100
0100
0020
,  // measure 9
0000
0000
0030
0100
,  // measure 10
0100
0000
0010
0100
0010
0000
0001
0000
,  // measure 11
1000
0000
0001
0010
0100
1000
0010
0000
,  // measure 12
0010
0010
0010
0200
,  // measure 13
0000
0000
0300
0001
,  // measure 14
0001
0000
1000
0001
1000
0000
0010
0000
,  // measure 15
0100
0000
0010
1000
0001
0100
1000
0000
,  // measure 16
1000
1000
1000
0002
,  // measure 17
0000
0000
0003
1000
,  // measure 18
1000
0000
0001
1000
0001
0000
0100
0000
,  // measure 19
0010
0000
0100
0001
1000
0010
0001
0000
,  // measure 20
0001
0001
0001
2000
,  // measure 21
0000
0000
3000
0020
,  // measure 22
0000
0000
0030
0020
,  // measure 23
0000
0000
0030
0200
,  // measure 24
0000
0000
0300
0200
,  // measure 25
0000
0000
0300
0002
,  // measure 26
0000
0000
0003
0002
,  // measure 27
0000
0000
0003
2000
,  // measure 28
0000
0000
3000
2000
,  // measure 29
0000
0000
3000
1000
,  // measure 30
0000
0000
1001
0000
,  // measure 31
0001
0000
1001
0000
,  // measure 32
1000
0100
0001
0100
1000
0000
1001
0000
,  // measure 33
0001
0010
0100
0010
0001
0000
0110
0000
,  // measure 34
0001
0010
1000
0010
0001
0000
1001
0000
,  // measure 35
1000
0100
0010
0100
1000
0000
0110
0000
,  // measure 36
0010
1000
0100
1000
0010
0000
0110
0000
,  // measure 37
0100
0001
1000
0001
0100
0000
1001
0000
,  // measure 38
0100
0001
0010
0001
0100
0000
0110
0000
,  // measure 39
0010
1000
0001
1000
0010
0000
1001
0000
,  // measure 40
0010
0000
0010
0000
0100
0010
0100
0000
,  // measure 41
1000
0000
0001
0000
1000
0100
0010
0001
,  // measure 42
0100
0100
0100
0100
,  // measure 43
0020
0000
0000
0030
,  // measure 44
0100
0000
0100
0000
0010
0100
0010
0000
,  // measure 45
0001
0000
1000
0000
0001
0010
0100
1000
,  // measure 46
0010
0010
0010
0010
,  // measure 47
0200
0000
0000
0300
,  // measure 48
1010
0000
1010
0000
,  // measure 49
1000
0100
0001
0100
1000
0010
0100
0010
,  // measure 50
0101
0000
0101
0000
,  // measure 51
0001
0010
1000
0010
0001
0100
0010
0100
,  // measure 52
0011
0000
0011
0000
,  // measure 53
0010
1000
0100
1000
0010
0001
1000
0001
,  // measure 54
1100
0000
1100
0000
,  // measure 55
0100
0001
0010
0001
0100
1000
0001
1000
,  // measure 56
2002
0000
0000
3003
,  // measure 57
0110
0000
0000
0000
0010
0000
0000
0000
1001
0000
0000
0000
1000
0001
0000
0000
,  // measure 58
0010
0000
0000
0000
0110
0000
0000
0000
1000
0000
0000
0000
0001
0010
0000
0000
,  // measure 59
0100
0010
1000
0100
0010
0001
0100
1000
,  // measure 60
0010
0100
0000
0000
0010
0001
0000
0000
1000
0100
0000
0000
0010
0100
0000
0000
,  // measure 61
0110
0000
0000
0000
0100
0000
0000
0000
1001
0000
0000
0000
0001
1000
0000
0000
,  // measure 62
0100
0000
0000
0000
0110
0000
0000
0000
0001
0000
0000
0000
1000
0100
0000
0000
,  // measure 63
0010
0100
0001
0010
0100
1000
0010
0001
,  // measure 64
0100
0010
0000
0000
0100
1000
0000
0000
0001
0010
0000
0000
0100
0010
0000
0000
,  // measure 65
1001
0000
0000
0000
0001
0000
0000
0000
0110
0000
0000
0000
0010
0100
0000
0000
,  // measure 66
0001
0000
0000
0000
1001
0000
0000
0000
0010
0000
0000
0000
0100
0001
0000
0000
,  // measure 67
1000
0001
0010
1000
0001
0100
1000
0010
,  // measure 68
0001
1000
0000
0000
0001
0100
0000
0000
0010
1000
0000
0000
0001
1000
0000
0000
,  // measure 69
1001
0000
0000
0000
1000
0000
0000
0000
0110
0000
0000
0000
0100
0010
0000
0000
,  // measure 70
1000
0000
0000
0000
1001
0000
0000
0000
0100
0000
0000
0000
0010
1000
0000
0000
,  // measure 71
0001
1000
0100
0001
1000
0010
0001
0100
,  // measure 72
1000
0001
0000
0000
1000
0010
0000
0000
0100
0001
0000
0000
1000
0001
0000
0000
,  // measure 73
1000
0100
0001
0100
1000
0000
1001
0000
,  // measure 74
0001
0010
0100
0010
0001
0000
0110
0000
,  // measure 75
0001
0010
1000
0010
0001
0000
1001
0000
,  // measure 76
1000
0100
0010
0100
1000
0000
0110
0000
,  // measure 77
0010
1000
0100
1000
0010
0000
0110
0000
,  // measure 78
0100
0001
1000
0001
0100
0000
1001
0000
,  // measure 79
0100
0001
0010
0001
0100
0000
0110
0000
,  // measure 80
0010
1000
0001
1000
0010
0000
1001
0000
,  // measure 81
0010
0000
0010
0000
0100
0010
0100
0000
,  // measure 82
1000
0000
0001
0000
1000
0100
0010
0001
,  // measure 83
0100
0100
0100
0100
,  // measure 84
0020
0000
0000
0030
,  // measure 85
0100
0000
0100
0000
0010
0100
0010
0000
,  // measure 86
0001
0000
1000
0000
0001
0010
0100
1000
,  // measure 87
0010
0010
0010
0010
,  // measure 88
0200
0000
0000
0300
,  // measure 89
1010
0000
1010
0000
,  // measure 90
1000
0100
0001
0100
1000
0010
0100
0010
,  // measure 91
0101
0000
0101
0000
,  // measure 92
0001
0010
1000
0010
0001
0100
0010
0100
,  // measure 93
0011
0000
0011
0000
,  // measure 94
0010
1000
0100
1000
0010
0001
1000
0001
,  // measure 95
1100
0000
1100
0000
,  // measure 96
0100
0001
0010
0001
0100
1000
0001
1000
,  // measure 97
2002
0000
0000
3003
,  // measure 98
0110
0000
0000
0000
0010
0000
0000
0000
1001
0000
0000
0000
1000
0001
0000
0000
,  // measure 99
0010
0000
0000
0000
0110
0000
0000
0000
1000
0000
0000
0000
0001
0010
0000
0000
,  // measure 100
0100
0010
1000
0100
0010
0001
0100
1000
,  // measure 101
0010
0100
0000
0000
0010
0001
0000
0000
1000
0100
0000
0000
0010
0100
0000
0000
,  // measure 102
0110
0000
0000
0000
0100
0000
0000
0000
1001
0000
0000
0000
0001
1000
0000
0000
,  // measure 103
0100
0000
0000
0000
0110
0000
0000
0000
0001
0000
0000
0000
1000
0100
0000
0000
,  // measure 104
0010
0100
0001
0010
0100
1000
0010
0001
,  // measure 105
0100
0010
0000
0000
0100
1000
0000
0000
0001
0010
0000
0000
0100
0010
0000
0000
,  // measure 106
1001
0000
0000
0000
0001
0000
0000
0000
0110
0000
0000
0000
0010
0100
0000
0000
,  // measure 107
0001
0000
0000
0000
1001
0000
0000
0000
0010
0000
0000
0000
0100
0001
0000
0000
,  // measure 108
1000
0001
0010
1000
0001
0100
1000
0010
,  // measure 109
0001
1000
0000
0000
0001
0100
0000
0000
0010
1000
0000
0000
0001
1000
0000
0000
,  // measure 110
1001
0000
0000
0000
1000
0000
0000
0000
0110
0000
0000
0000
0100
0010
0000
0000
,  // measure 111
1000
0000
0000
0000
1001
0000
0000
0000
0100
0000
0000
0000
0010
1000
0000
0000
,  // measure 112
0001
1000
0100
0001
1000
0010
0001
0100
,  // measure 113
1000
0001
0000
0000
1000
0010
0000
0000
0100
0001
0000
0000
1000
0001
0000
0000
,  // measure 114
1000
0100
0001
0100
1000
0000
1001
0000
,  // measure 115
0001
0010
0100
0010
0001
0000
0110
0000
,  // measure 116
0001
0010
1000
0010
0001
0000
1001
0000
,  // measure 117
1000
0100
0010
0100
1000
0000
0110
0000
,  // measure 118
0010
1000
0100
1000
0010
0000
0110
0000
,  // measure 119
0100
0001
1000
0001
0100
0000
1001
0000
,  // measure 120
0100
0001
0010
0001
0100
0000
0110
0000
,  // measure 121
0010
1000
0001
1000
0010
0000
1001
0000
,  // measure 122
0010
0000
0010
0000
0100
0010
0100
0000
,  // measure 123
1000
0000
0001
0000
1000
0100
0010
0001
,  // measure 124
0100
0100
0100
0100
,  // measure 125
0020
0000
0000
0030
,  // measure 126
0100
0000
0100
0000
0010
0100
0010
0000
,  // measure 127
0001
0000
1000
0000
0001
0010
0100
1000
,  // measure 128
0010
0010
0010
0010
,  // measure 129
0200
0000
0000
0300
,  // measure 130
1010
0000
1010
0000
,  // measure 131
1000
0100
0001
0100
1000
0010
0100
0010
,  // measure 132
0101
0000
0101
0000
,  // measure 133
0001
0010
1000
0010
0001
0100
0010
0100
,  // measure 134
0011
0000
0011
0000
,  // measure 135
0010
1000
0100
1000
0010
0001
1000
0001
,  // measure 136
1100
0000
1100
0000
,  // measure 137
0100
0001
0010
0001
0100
1000
0001
1000
,  // measure 138
2002
0000
0000
3003
,  // measure 139
0110
0000
0000
0000
0010
0000
0000
0000
1001
0000
0000
0000
1000
0001
0000
0000
,  // measure 140
0010
0000
0000
0000
0110
0000
0000
0000
1000
0000
0000
0000
0001
0010
0000
0000
,  // measure 141
0100
0010
1000
0100
0010
0001
0100
1000
,  // measure 142
0010
0100
0000
0000
0010
0001
0000
0000
1000
0100
0000
0000
0010
0100
0000
0000
,  // measure 143
0110
0000
0000
0000
0100
0000
0000
0000
1001
0000
0000
0000
0001
1000
0000
0000
,  // measure 144
0100
0000
0000
0000
0110
0000
0000
0000
0001
0000
0000
0000
1000
0100
0000
0000
,  // measure 145
0010
0100
0001
0010
0100
1000
0010
0001
,  // measure 146
0100
0010
0000
0000
0100
1000
0000
0000
0001
0010
0000
0000
0100
0010
0000
0000
,  // measure 147
1001
0000
0000
0000
0001
0000
0000
0000
0110
0000
0000
0000
0010
0100
0000
0000
,  // measure 148
0001
0000
0000
0000
1001
0000
0000
0000
0010
0000
0000
0000
0100
0001
0000
0000
,  // measure 149
1000
0001
0010
1000
0001
0100
1000
0010
,  // measure 150
0001
1000
0000
0000
0001
0100
0000
0000
0010
1000
0000
0000
0001
1000
0000
0000
,  // measure 151
1001
0000
0000
0000
1000
0000
0000
0000
0110
0000
0000
0000
0100
0010
0000
0000
,  // measure 152
1000
0000
0000
0000
1001
0000
0000
0000
0100
0000
0000
0000
0010
1000
0000
0000
,  // measure 153
0001
1000
0100
0001
1000
0010
0001
0100
,  // measure 154
1000
0001
0000
0000
1000
0010
0000
0000
0100
0001
0000
0000
1000
0001
0000
0000
,  // measure 155
0020
0000
0000
0030
,  // measure 156
0020
0000
0000
0030
,  // measure 157
0200
0000
0000
0300
,  // measure 158
0200
0000
0000
0300
,  // measure 159
0002
0000
0000
0003
,  // measure 160
0002
0000
0000
0003
,  // measure 161
2000
0000
0000
3000
,  // measure 162
2000
0000
0000
3000
,  // measure 163
0010
0000
0010
0000
0100
0010
0100
0000
,  // measure 164
1000
0000
0001
0000
1000
0100
0010
0001
,  // measure 165
0100
0100
0100
0100
,  // measure 166
0020
0000
0000
0030
,  // measure 167
0100
0000
0100
0000
0010
0100
0010
0000
,  // measure 168
0001
0000
1000
0000
0001
0010
0100
1000
,  // measure 169
0010
0010
0010
0010
,  // measure 170
0200
0000
0000
0300
,  // measure 171
1010
0000
1010
0000
,  // measure 172
1000
0100
0001
0100
1000
0010
0100
0010
,  // measure 173
0101
0000
0101
0000
,  // measure 174
0001
0010
1000
0010
0001
0100
0010
0100
,  // measure 175
0011
0000
0011
0000
,  // measure 176
0010
1000
0100
1000
0010
0001
1000
0001
,  // measure 177
1100
0000
1100
0000
,  // measure 178
0100
0001
0010
0001
0100
1000
0001
1000
,  // measure 179
2002
0000
0000
3003
,  // measure 180
0110
0000
0000
0000
0010
0000
0000
0000
1001
0000
0000
0000
1000
0001
0000
0000
,  // measure 181
0010
0000
0000
0000
0110
0000
0000
0000
1000
0000
0000
0000
0001
0010
0000
0000
,  // measure 182
0100
0010
1000
0100
0010
0001
0100
1000
,  // measure 183
0010
0100
0000
0000
0010
0001
0000
0000
1000
0100
0000
0000
0010
0100
0000
0000
,  // measure 184
0110
0000
0000
0000
0100
0000
0000
0000
1001
0000
0000
0000
0001
1000
0000
0000
,  // measure 185
0100
0000
0000
0000
0110
0000
0000
0000
0001
0000
0000
0000
1000
0100
0000
0000
,  // measure 186
0010
0100
0001
0010
0100
1000
0010
0001
,  // measure 187
0100
0010
0000
0000
0100
1000
0000
0000
0001
0010
0000
0000
0100
0010
0000
0000
,  // measure 188
1001
0000
0000
0000
0001
0000
0000
0000
0110
0000
0000
0000
0010
0100
0000
0000
,  // measure 189
0001
0000
0000
0000
1001
0000
0000
0000
0010
0000
0000
0000
0100
0001
0000
0000
,  // measure 190
1000
0001
0010
1000
0001
0100
1000
0010
,  // measure 191
0001
1000
0000
0000
0001
0100
0000
0000
0010
1000
0000
0000
0001
1000
0000
0000
,  // measure 192
1001
0000
0000
0000
1000
0000
0000
0000
0110
0000
0000
0000
0100
0010
0000
0000
,  // measure 193
1000
0000
0000
0000
1001
0000
0000
0000
0100
0000
0000
0000
0010
1000
0000
0000
,  // measure 194
0001
1000
0100
0001
1000
0010
0001
0100
,  // measure 195
1000
0001
0000
0000
1000
0010
0000
0000
0100
0001
0000
0000
1000
0001
0000
0000
,  // measure 196
0020
0000
0000
0030
,  // measure 197
0020
0000
0000
0030
,  // measure 198
0200
0000
0000
0300
,  // measure 199
0200
0000
0000
0300
,  // measure 200
0002
0000
0000
0003
,  // measure 201
0002
0000
0000
0003
,  // measure 202
2000
0000
0000
3000
,  // measure 203
2000
0000
0000
3000
,  // measure 204
1000
0100
0001
0100
1000
0000
1001
0000
,  // measure 205
0001
0010
0100
0010
0001
0000
0110
0000
,  // measure 206
0001
0010
1000
0010
0001
0000
1001
0000
,  // measure 207
1000
0100
0010
0100
1000
0000
0110
0000
,  // measure 208
0010
1000
0100
1000
0010
0000
0110
0000
,  // measure 209
0100
0001
1000
0001
0100
0000
1001
0000
,  // measure 210
0100
0001
0010
0001
0100
0000
0110
0000
,  // measure 211
0010
1000
0001
1000
0010
0000
1000
0000
,  // measure 212
0000
0000
1001
0000
,  // measure 213
0001
0000
1001
0000
;

//---------------dance-single - ----------------
#NOTES:
     dance-single:
     :
     Beginner:
     10:
     0.454539,0.533653,0.349936,0.129388,0.141151,1082.000000,963.000000,119.000000,44.000000,0.000000,0.000000,0.454539,0.533653,0.349936,0.129388,0.141151,1082.000000,963.000000,119.000000,44.000000,0.000000,0.000000:
// measure 0
0000
0000
0000
0000
,  // measure 1
0000
0000
0000
0000
,  // measure 2
0000
0000
0000
0000
,  // measure 3
0000
0000
0000
0000
,  // measure 4
0000
0000
0000
0000
,  // measure 5
0000
0000
0000
0010
,  // measure 6
0010
0000
0100
0010
0100
0000
1000
0000
,  // measure 7
0001
0000
1000
0100
0010
0001
0100
0000
,  // measure 8
0100
0100
0100
0020
,  // measure 9
0000
0000
0030
0100
,  // measure 10
0100
0000
0010
0100
0010
0000
0001
0000
,  // measure 11
1000
0000
0001
0010
0100
1000
0010
0000
,  // measure 12
0010
0010
0010
0200
,  // measure 13
0000
0000
0300
0001
,  // measure 14
0001
0000
1000
0001
1000
0000
0010
0000
,  // measure 15
0100
0000
0010
1000
0001
0100
1000
0000
,  // measure 16
1000
1000
1000
0002
,  // measure 17
0000
0000
0003
1000
,  // measure 18
1000
0000
0001
1000
0001
0000
0100
0000
,  // measure 19
0010
0000
0100
0001
1000
0010
0001
0000
,  // measure 20
0001
0001
0001
2000
,  // measure 21
0000
0000
3000
0020
,  // measure 22
0000
0000
0030
0020
,  // measure 23
0000
0000
0030
0200
,  // measure 24
0000
0000
0300
0200
,  // measure 25
0000
0000
0300
0002
,  // measure 26
0000
0000
0003
0002
,  // measure 27
0000
0000
0003
2000
,  // measure 28
0000
0000
3000
2000
,  // measure 29
0000
0000
3000
1000
,  // measure 30
0000
0000
1001
0000
,  // measure 31
0001
0000
1001
0000
,  // measure 32
1000
0100
0001
0100
1000
0000
1001
0000
,  // measure 33
0001
0010
0100
0010
0001
0000
0110
0000
,  // measure 34
0001
0010
1000
0010
0001
0000
1001
0000
,  // measure 35
1000
0100
0010
0100
1000
0000
0110
0000
,  // measure 36
0010
1000
0100
1000
0010
0000
0110
0000
,  // measure 37
0100
0001
1000
0001
0100
0000
1001
0000
,  // measure 38
0100
0001
0010
0001
0100
0000
0110
0000
,  // measure 39
0010
1000
0001
1000
0010
0000
1001
0000
,  // measure 40
0010
0000
0010
0000
0100
0010
0100
0000
,  // measure 41
1000
0000
0001
0000
1000
0100
0010
0001
,  // measure 42
0100
0100
0100
0100
,  // measure 43
0020
0000
0000
0030
,  // measure 44
0100
0000
0100
0000
0010
0100
0010
0000
,  // measure 45
0001
0000
1000
0000
0001
0010
0100
1000
,  // measure 46
0010
0010
0010
0010
,  // measure 47
0200
0000
0000
0300
,  // measure 48
1010
0000
1010
0000
,  // measure 49
1000
0100
0001
0100
1000
0010
0100
0000
,  // measure 50
0101
0000
0101
0000
,  // measure 51
0001
0010
1000
0010
0001
0100
0010
0000
,  // measure 52
0011
0000
0011
0000
,  // measure 53
0010
1000
0100
1000
0010
0001
1000
0000
,  // measure 54
1100
0000
1100
0000
,  // measure 55
0100
0001
0010
0001
0100
1000
0001
0000
,  // measure 56
2002
0000
0000
3003
,  // measure 57
0110
0000
0000
0000
0010
0000
0000
0000
1001
0000
0000
0000
1000
0001
0000
0000
,  // measure 58
0010
0000
0000
0000
0110
0000
0000
0000
1000
0000
0000
0000
0001
0010
0000
0000
,  // measure 59
0100
0010
1000
0100
0010
0001
0100
0000
,  // measure 60
0010
0100
0000
0000
0010
0001
0000
0000
1000
0100
0000
0000
0010
0100
0000
0000
,  // measure 61
0110
0000
0000
0000
0100
0000
0000
0000
1001
0000
0000
0000
0001
1000
0000
0000
,  // measure 62
0100
0000
0000
0000
0110
0000
0000
0000
0001
0000
0000
0000
1000
0100
0000
0000
,  // measure 63
0010
0100
0001
0010
0100
1000
0010
0000
,  // measure 64
0100
0010
0000
0000
0100
1000
0000
0000
0001
0010
0000
0000
0100
0010
0000
0000
,  // measure 65
1001
0000
0000
0000
0001
0000
0000
0000
0110
0000
0000
0000
0010
0100
0000
0000
,  // measure 66
0001
0000
0000
0000
1001
0000
0000
0000
0010
0000
0000
0000
0100
0001
0000
0000
,  // measure 67
1000
0001
0010
1000
0001
0100
1000
0000
,  // measure 68
0001
1000
0000
0000
0001
0100
0000
0000
0010
1000
0000
0000
0001
1000
0000
0000
,  // measure 69
1001
0000
0000
0000
1000
0000
0000
0000
0110
0000
0000
0000
0100
0010
0000
0000
,  // measure 70
1000
0000
0000
0000
1001
0000
0000
0000
0100
0000
0000
0000
0010
1000
0000
0000
,  // measure 71
0001
1000
0100
0001
1000
0010
0001
0000
,  // measure 72
1000
0001
0000
0000
1000
0010
0000
0000
0100
0001
0000
0000
1000
0001
0000
0000
,  // measure 73
1000
0100
0001
0100
1000
0000
1001
0000
,  // measure 74
0001
0010
0100
0010
0001
0000
0110
0000
,  // measure 75
0001
0010
1000
0010
0001
0000
1001
0000
,  // measure 76
1000
0100
0010
0100
1000
0000
0110
0000
,  // measure 77
0010
1000
0100
1000
0010
0000
0110
0000
,  // measure 78
0100
0001
1000
0001
0100
0000
1001
0000
,  // measure 79
0100
0001
0010
0001
0100
0000
0110
0000
,  // measure 80
0010
1000
0001
1000
0010
0000
1001
0000
,  // measure 81
0010
0000
0010
0000
0100
0010
0100
0000
,  // measure 82
1000
0000
0001
0000
1000
0100
0010
0001
,  // measure 83
0100
0100
0100
0100
,  // measure 84
0020
0000
0000
0030
,  // measure 85
0100
0000
0100
0000
0010
0100
0010
0000
,  // measure 86
0001
0000
1000
0000
0001
0010
0100
1000
,  // measure 87
0010
0010
0010
0010
,  // measure 88
0200
0000
0000
0300
,  // measure 89
1010
0000
1010
0000
,  // measure 90
1000
0100
0001
0100
1000
0010
0100
0000
,  // measure 91
0101
0000
0101
0000
,  // measure 92
0001
0010
1000
0010
0001
0100
0010
0000
,  // measure 93
0011
0000
0011
0000
,  // measure 94
0010
1000
0100
1000
0010
0001
1000
0000
,  // measure 95
1100
0000
1100
0000
,  // measure 96
0100
0001
0010
0001
0100
1000
0001
0000
,  // measure 97
2002
0000
0000
3003
,  // measure 98
0110
0000
0000
0000
0010
0000
0000
0000
1001
0000
0000
0000
1000
0001
0000
0000
,  // measure 99
0010
0000
0000
0000
0110
0000
0000
0000
1000
0000
0000
0000
0001
0010
0000
0000
,  // measure 100
0100
0010
1000
0100
0010
0001
0100
0000
,  // measure 101
0010
0100
0000
0000
0010
0001
0000
0000
1000
0100
0000
0000
0010
0100
0000
0000
,  // measure 102
0110
0000
0000
0000
0100
0000
0000
0000
1001
0000
0000
0000
0001
1000
0000
0000
,  // measure 103
0100
0000
0000
0000
0110
0000
0000
0000
0001
0000
0000
0000
1000
0100
0000
0000
,  // measure 104
0010
0100
0001
0010
0100
1000
0010
0000
,  // measure 105
0100
0010
0000
0000
0100
1000
0000
0000
0001
0010
0000
0000
0100
0010
0000
0000
,  // measure 106
1001
0000
0000
0000
0001
0000
0000
0000
0110
0000
0000
0000
0010
0100
0000
0000
,  // measure 107
0001
0000
0000
0000
1001
0000
0000
0000
0010
0000
0000
0000
0100
0001
0000
0000
,  // measure 108
1000
0001
0010
1000
0001
0100
1000
0000
,  // measure 109
0001
1000
0000
0000
0001
0100
0000
0000
0010
1000
0000
0000
0001
1000
0000
0000
,  // measure 110
1001
0000
0000
0000
1000
0000
0000
0000
0110
0000
0000
0000
0100
0010
0000
0000
,  // measure 111
1000
0000
0000
0000
1001
0000
0000
0000
0100
0000
0000
0000
0010
1000
0000
0000
,  // measure 112
0001
1000
0100
0001
1000
0010
0001
0000
,  // measure 113
1000
0001
0000
0000
1000
0010
0000
0000
0100
0001
0000
0000
1000
0001
0000
0000
,  // measure 114
1000
0100
0001
0100
1000
0000
1001
0000
,  // measure 115
0001
0010
0100
0010
0001
0000
0110
0000
,  // measure 116
0001
0010
1000
0010
0001
0000
1001
0000
,  // measure 117
1000
0100
0010
0100
1000
0000
0110
0000
,  // measure 118
0010
1000
0100
1000
0010
0000
0110
0000
,  // measure 119
0100
0001
1000
0001
0100
0000
1001
0000
,  // measure 120
0100
0001
0010
0001
0100
0000
0110
0000
,  // measure 121
0010
1000
0001
1000
0010
0000
1001
0000
,  // measure 122
0010
0000
0010
0000
0100
0010
0100
0000
,  // measure 123
1000
0000
0001
0000
1000
0100
0010
0001
,  // measure 124
0100
0100
0100
0100
,  // measure 125
0020
0000
0000
0030
,  // measure 126
0100
0000
0100
0000
0010
0100
0010
0000
,  // measure 127
0001
0000
1000
0000
0001
0010
0100
1000
,  // measure 128
0010
0010
0010
0010
,  // measure 129
0200
0000
0000
0300
,  // measure 130
1010
0000
1010
0000
,  // measure 131
1000
0100
0001
0100
1000
0010
0100
0000
,  // measure 132
0101
0000
0101
0000
,  // measure 133
0001
0010
1000
0010
0001
0100
0010
0000
,  // measure 134
0011
0000
0011
0000
,  // measure 135
0010
1000
0100
1000
0010
0001
1000
0000
,  // measure 136
1100
0000
1100
0000
,  // measure 137
0100
0001
0010
0001
0100
1000
0001
0000
,  // measure 138
2002
0000
0000
3003
,  // measure 139
0110
0000
0000
0000
0010
0000
0000
0000
1001
0000
0000
0000
1000
0001
0000
0000
,  // measure 140
0010
0000
0000
0000
0110
0000
0000
0000
1000
0000
0000
0000
0001
0010
0000
0000
,  // measure 141
0100
0010
1000
0100
0010
0001
0100
0000
,  // measure 142
0010
0100
0000
0000
0010
0001
0000
0000
1000
0100
0000
0000
0010
0100
0000
0000
,  // measure 143
0110
0000
0000
0000
0100
0000
0000
0000
1001
0000
0000
0000
0001
1000
0000
0000
,  // measure 144
0100
0000
0000
0000
0110
0000
0000
0000
0001
0000
0000
0000
1000
0100
0000
0000
,  // measure 145
0010
0100
0001
0010
0100
1000
0010
0000
,  // measure 146
0100
0010
0000
0000
0100
1000
0000
0000
0001
0010
0000
0000
0100
0010
0000
0000
,  // measure 147
1001
0000
0000
0000
0001
0000
0000
0000
0110
0000
0000
0000
0010
0100
0000
0000
,  // measure 148
0001
0000
0000
0000
1001
0000
0000
0000
0010
0000
0000
0000
0100
0001
0000
0000
,  // measure 149
1000
0001
0010
1000
0001
0100
1000
0000
,  // measure 150
0001
1000
0000
0000
0001
0100
0000
0000
0010
1000
0000
0000
0001
1000
0000
0000
,  // measure 151
1001
0000
0000
0000
1000
0000
0000
0000
0110
0000
0000
0000
0100
0010
0000
0000
,  // measure 152
1000
0000
0000
0000
1001
0000
0000
0000
0100
0000
0000
0000
0010
1000
0000
0000
,  // measure 153
0001
1000
0100
0001
1000
0010
0001
0000
,  // measure 154
1000
0001
0000
0000
1000
0010
0000
0000
0100
0001
0000
0000
1000
0001
0000
0000
,  // measure 155
0020
0000
0000
0030
,  // measure 156
0020
0000
0000
0030
,  // measure 157
0200
0000
0000
0300
,  // measure 158
0200
0000
0000
0300
,  // measure 159
0002
0000
0000
0003
,  // measure 160
0002
0000
0000
0003
,  // measure 161
2000
0000
0000
3000
,  // measure 162
2000
0000
0000
3000
,  // measure 163
0010
0000
0010
0000
0100
0010
0100
0000
,  // measure 164
1000
0000
0001
0000
1000
0100
0010
0001
,  // measure 165
0100
0100
0100
0100
,  // measure 166
0020
0000
0000
0030
,  // measure 167
0100
0000
0100
0000
0010
0100
0010
0000
,  // measure 168
0001
0000
1000
0000
0001
0010
0100
1000
,  // measure 169
0010
0010
0010
0010
,  // measure 170
0200
0000
0000
0300
,  // measure 171
1010
0000
1010
0000
,  // measure 172
1000
0100
0001
0100
1000
0010
0100
0000
,  // measure 173
0101
0000
0101
0000
,  // measure 174
0001
0010
1000
0010
0001
0100
0010
0000
,  // measure 175
0011
0000
0011
0000
,  // measure 176
0010
1000
0100
1000
0010
0001
1000
0000
,  // measure 177
1100
0000
1100
0000
,  // measure 178
0100
0001
0010
0001
0100
1000
0001
0000
,  // measure 179
2002
0000
0000
3003
,  // measure 180
0110
0000
0000
0000
0010
0000
0000
0000
1001
0000
0000
0000
1000
0001
0000
0000
,  // measure 181
0010
0000
0000
0000
0110
0000
0000
0000
1000
0000
0000
0000
0001
0010
0000
0000
,  // measure 182
0100
0010
1000
0100
0010
0001
0100
0000
,  // measure 183
0010
0100
0000
0000
0010
0001
0000
0000
1000
0100
0000
0000
0010
0100
0000
0000
,  // measure 184
0110
0000
0000
0000
0100
0000
0000
0000
1001
0000
0000
0000
0001
1000
0000
0000
,  // measure 185
0100
0000
0000
0000
0110
0000
0000
0000
0001
0000
0000
0000
1000
0100
0000
0000
,  // measure 186
0010
0100
0001
0010
0100
1000
0010
0000
,  // measure 187
0100
0010
0000
0000
0100
1000
0000
0000
0001
0010
0000
0000
0100
0010
0000
0000
,  // measure 188
1001
0000
0000
0000
0001
0000
0000
0000
0110
0000
0000
0000
0010
0100
0000
0000
,  // measure 189
0001
0000
0000
0000
1001
0000
0000
0000
0010
0000
0000
0000
0100
0001
0000
0000
,  // measure 190
1000
0001
0010
1000
0001
0100
1000
0000
,  // measure 191
0001
1000
0000
0000
0001
0100
0000
0000
0010
1000
0000
0000
0001
1000
0000
0000
,  // measure 192
1001
0000
0000
0000
1000
0000
0000
0000
0110
0000
0000
0000
0100
0010
0000
0000
,  // measure 193
1000
0000
0000
0000
1001
0000
0000
0000
0100
0000
0000
0000
0010
1000
0000
0000
,  // measure 194
0001
1000
0100
0001
1000
0010
0001
0000
,  // measure 195
1000
0001
0000
0000
1000
0010
0000
0000
0100
0001
0000
0000
1000
0001
0000
0000
,  // measure 196
0020
0000
0000
0030
,  // measure 197
0020
0000
0000
0030
,  // measure 198
0200
0000
0000
0300
,  // measure 199
0200
0000
0000
0300
,  // measure 200
0002
0000
0000
0003
,  // measure 201
0002
0000
0000
0003
,  // measure 202
2000
0000
0000
3000
,  // measure 203
2000
0000
0000
3000
,  // measure 204
1000
0100
0001
0100
1000
0000
1001
0000
,  // measure 205
0001
0010
0100
0010
0001
0000
0110
0000
,  // measure 206
0001
0010
1000
0010
0001
0000
1001
0000
,  // measure 207
1000
0100
0010
0100
1000
0000
0110
0000
,  // measure 208
0010
1000
0100
1000
0010
0000
0110
0000
,  // measure 209
0100
0001
1000
0001
0100
0000
1001
0000
,  // measure 210
0100
0001
0010
0001
0100
0000
0110
0000
,  // measure 211
0010
1000
0001
1000
0010
0000
1000
0000
,  // measure 212
0000
0000
1001
0000
,  // measure 213
0001
0000
1001
0000
;

//---------------dance-single - ----------------
#NOTES:
     dance-single:
     :
     Medium:
     11:
     0.486466,0.565044,0.349936,0.129388,0.141151,1158.000000,1039.000000,119.000000,44.000000,0.000000,0.000000,0.486466,0.565044,0.349936,0.129388,0.141151,1158.000000,1039.000000,119.000000,44.000000,0.000000,0.000000:
// measure 0
0000
0000
0000
0000
,  // measure 1
0000
0000
0000
0000
,  // measure 2
0000
0000
0000
0000
,  // measure 3
0000
0000
0000
0000
,  // measure 4
0000
0000
0000
0000
,  // measure 5
0000
0000
0000
0010
,  // measure 6
0010
0000
0100
0010
0100
0000
1000
0000
,  // measure 7
0001
0000
1000
0100
0010
0001
0100
0000
,  // measure 8
0100
0000
0100
0000
0100
0100
0020
0000
,  // measure 9
0000
0000
0030
0100
,  // measure 10
0100
0000
0010
0100
0010
0000
0001
0000
,  // measure 11
1000
0000
0001
0010
0100
1000
0010
0000
,  // measure 12
0010
0000
0010
0000
0010
0010
0200
0000
,  // measure 13
0000
0000
0300
0001
,  // measure 14
0001
0000
1000
0001
1000
0000
0010
0000
,  // measure 15
0100
0000
0010
1000
0001
0100
1000
0000
,  // measure 16
1000
0000
1000
0000
1000
1000
0002
0000
,  // measure 17
0000
0000
0003
1000
,  // measure 18
1000
0000
0001
1000
0001
0000
0100
0000
,  // measure 19
0010
0000
0100
0001
1000
0010
0001
0000
,  // measure 20
0001
0000
0001
0000
0001
0001
2000
0000
,  // measure 21
0000
0000
3000
0020
,  // measure 22
0000
0000
0030
0020
,  // measure 23
0000
0100
0030
0200
,  // measure 24
0000
0000
0300
0200
,  // measure 25
0000
0010
0300
0002
,  // measure 26
0000
0000
0003
0002
,  // measure 27
0000
1000
0003
2000
,  // measure 28
0000
0000
3000
2000
,  // measure 29
0000
0001
3000
1000
,  // measure 30
0000
0001
1001
0000
,  // measure 31
0001
1000
1001
0000
,  // measure 32
1000
0100
0001
0100
1000
0000
1001
0000
,  // measure 33
0001
0010
0100
0010
0001
0000
0110
0000
,  // measure 34
0001
0010
1000
0010
0001
0000
1001
0000
,  // measure 35
1000
0100
0010
0100
1000
0000
0110
0000
,  // measure 36
0010
1000
0100
1000
0010
0000
0110
0000
,  // measure 37
0100
0001
1000
0001
0100
0000
1001
0000
,  // measure 38
0100
0001
0010
0001
0100
0000
0110
0000
,  // measure 39
0010
1000
0001
1000
0010
0000
1001
0000
,  // measure 40
0010
0000
0010
0000
0100
0010
0100
0000
,  // measure 41
1000
0000
0001
0000
1000
0100
0010
0001
,  // measure 42
0100
0000
0100
0000
0100
0000
0100
0100
,  // measure 43
0020
0000
0000
0030
,  // measure 44
0100
0000
0100
0000
0010
0100
0010
0000
,  // measure 45
0001
0000
1000
0000
0001
0010
0100
1000
,  // measure 46
0010
0000
0010
0000
0010
0000
0010
0010
,  // measure 47
0200
0000
0000
0300
,  // measure 48
1010
1000
1010
0000
,  // measure 49
1000
0100
0001
0100
1000
0010
0100
0010
,  // measure 50
0101
0001
0101
0000
,  // measure 51
0001
0010
1000
0010
0001
0100
0010
0100
,  // measure 52
0011
0010
0011
0000
,  // measure 53
0010
1000
0100
1000
0010
0001
1000
0001
,  // measure 54
1100
0100
1100
0000
,  // measure 55
0100
0001
0010
0001
0100
1000
0001
1000
,  // measure 56
2002
0000
0000
3003
,  // measure 57
0110
0000
0000
0000
0010
0000
0000
0000
1001
0000
0000
0000
1000
0001
0000
0000
,  // measure 58
0010
0000
0000
0000
0110
0000
0000
0000
1000
0000
0000
0000
0001
0010
0000
0000
,  // measure 59
0100
0010
1000
0100
0010
0001
0100
1000
,  // measure 60
0010
0100
0000
0000
0010
0001
0000
0000
1000
0100
0000
0000
0010
0100
0000
0000
,  // measure 61
0110
0000
0000
0000
0100
0000
0000
0000
1001
0000
0000
0000
0001
1000
0000
0000
,  // measure 62
0100
0000
0000
0000
0110
0000
0000
0000
0001
0000
0000
0000
1000
0100
0000
0000
,  // measure 63
0010
0100
0001
0010
0100
1000
0010
0001
,  // measure 64
0100
0010
0000
0000
0100
1000
0000
0000
0001
0010
0000
0000
0100
0010
0000
0000
,  // measure 65
1001
0000
0000
0000
0001
0000
0000
0000
0110
0000
0000
0000
0010
0100
0000
0000
,  // measure 66
0001
0000
0000
0000
1001
0000
0000
0000
0010
0000
0000
0000
0100
0001
0000
0000
,  // measure 67
1000
0001
0010
1000
0001
0100
1000
0010
,  // measure 68
0001
1000
0000
0000
0001
0100
0000
0000
0010
1000
0000
0000
0001
1000
0000
0000
,  // measure 69
1001
0000
0000
0000
1000
0000
0000
0000
0110
0000
0000
0000
0100
0010
0000
0000
,  // measure 70
1000
0000
0000
0000
1001
0000
0000
0000
0100
0000
0000
0000
0010
1000
0000
0000
,  // measure 71
0001
1000
0100
0001
1000
0010
0001
0100
,  // measure 72
1000
0001
0000
0000
1000
0010
0000
0000
0100
0001
0000
0000
1000
0001
0000
0000
,  // measure 73
1000
0100
0001
0100
1000
0000
1001
0000
,  // measure 74
0001
0010
0100
0010
0001
0000
0110
0000
,  // measure 75
0001
0010
1000
0010
0001
0000
1001
0000
,  // measure 76
1000
0100
0010
0100
1000
0000
0110
0000
,  // measure 77
0010
1000
0100
1000
0010
0000
0110
0000
,  // measure 78
0100
0001
1000
0001
0100
0000
1001
0000
,  // measure 79
0100
0001
0010
0001
0100
0000
0110
0000
,  // measure 80
0010
1000
0001
1000
0010
0000
1001
0000
,  // measure 81
0010
0000
0010
0000
0100
0010
0100
0000
,  // measure 82
1000
0000
0001
0000
1000
0100
0010
0001
,  // measure 83
0100
0000
0100
0000
0100
0000
0100
0100
,  // measure 84
0020
0000
0000
0030
,  // measure 85
0100
0000
0100
0000
0010
0100
0010
0000
,  // measure 86
0001
0000
1000
0000
0001
0010
0100
1000
,  // measure 87
0010
0000
0010
0000
0010
0000
0010
0010
,  // measure 88
0200
0000
0000
0300
,  // measure 89
1010
1000
1010
0000
,  // measure 90
1000
0100
0001
0100
1000
0010
0100
0010
,  // measure 91
0101
0001
0101
0000
,  // measure 92
0001
0010
1000
0010
0001
0100
0010
0100
,  // measure 93
0011
0010
0011
0000
,  // measure 94
0010
1000
0100
1000
0010
0001
1000
0001
,  // measure 95
1100
0100
1100
0000
,  // measure 96
0100
0001
0010
0001
0100
1000
0001
1000
,  // measure 97
2002
0000
0000
3003
,  // measure 98
0110
0000
0000
0000
0010
0000
0000
0000
1001
0000
0000
0000
1000
0001
0000
0000
,  // measure 99
0010
0000
0000
0000
0110
0000
0000
0000
1000
0000
0000
0000
0001
0010
0000
0000
,  // measure 100
0100
0010
1000
0100
0010
0001
0100
1000
,  // measure 101
0010
0100
0000
0000
0010
0001
0000
0000
1000
0100
0000
0000
0010
0100
0000
0000
,  // measure 102
0110
0000
0000
0000
0100
0000
0000
0000
1001
0000
0000
0000
0001
1000
0000
0000
,  // measure 103
0100
0000
0000
0000
0110
0000
0000
0000
0001
0000
0000
0000
1000
0100
0000
0000
,  // measure 104
0010
0100
0001
0010
0100
1000
0010
0001
,  // measure 105
0100
0010
0000
0000
0100
1000
0000
0000
0001
0010
0000
0000
0100
0010
0000
0000
,  // measure 106
1001
0000
0000
0000
0001
0000
0000
0000
0110
0000
0000
0000
0010
0100
0000
0000
,  // measure 107
0001
0000
0000
0000
1001
0000
0000
0000
0010
0000
0000
0000
0100
0001
0000
0000
,  // measure 108
1000
0001
0010
1000
0001
0100
1000
0010
,  // measure 109
0001
1000
0000
0000
0001
0100
0000
0000
0010
1000
0000
0000
0001
1000
0000
0000
,  // measure 110
1001
0000
0000
0000
1000
0000
0000
0000
0110
0000
0000
0000
0100
0010
0000
0000
,  // measure 111
1000
0000
0000
0000
1001
0000
0000
0000
0100
0000
0000
0000
0010
1000
0000
0000
,  // measure 112
0001
1000
0100
0001
1000
0010
0001
0100
,  // measure 113
1000
0001
0000
0000
1000
0010
0000
0000
0100
0001
0000
0000
1000
0001
0000
0000
,  // measure 114
1000
0100
0001
0100
1000
0000
1001
0000
,  // measure 115
0001
0010
0100
0010
0001
0000
0110
0000
,  // measure 116
0001
0010
1000
0010
0001
0000
1001
0000
,  // measure 117
1000
0100
0010
0100
1000
0000
0110
0000
,  // measure 118
0010
1000
0100
1000
0010
0000
0110
0000
,  // measure 119
0100
0001
1000
0001
0100
0000
1001
0000
,  // measure 120
0100
0001
0010
0001
0100
0000
0110
0000
,  // measure 121
0010
1000
0001
1000
0010
0000
1001
0000
,  // measure 122
0010
0000
0010
0000
0100
0010
0100
0000
,  // measure 123
1000
0000
0001
0000
1000
0100
0010
0001
,  // measure 124
0100
0000
0100
0000
0100
0000
0100
0100
,  // measure 125
0020
0000
0000
0030
,  // measure 126
0100
0000
0100
0000
0010
0100
0010
0000
,  // measure 127
0001
0000
1000
0000
0001
0010
0100
1000
,  // measure 128
0010
0000
0010
0000
0010
0000
0010
0010
,  // measure 129
0200
0000
0000
0300
,  // measure 130
1010
1000
1010
0000
,  // measure 131
1000
0100
0001
0100
1000
0010
0100
0010
,  // measure 132
0101
0001
0101
0000
,  // measure 133
0001
0010
1000
0010
0001
0100
0010
0100
,  // measure 134
0011
0010
0011
0000
,  // measure 135
0010
1000
0100
1000
0010
0001
1000
0001
,  // measure 136
1100
0100
1100
0000
,  // measure 137
0100
0001
0010
0001
0100
1000
0001
1000
,  // measure 138
2002
0000
0000
3003
,  // measure 139
0110
0000
0000
0000
0010
0000
0000
0000
1001
0000
0000
0000
1000
0001
0000
0000
,  // measure 140
0010
0000
0000
0000
0110
0000
0000
0000
1000
0000
0000
0000
0001
0010
0000
0000
,  // measure 141
0100
0010
1000
0100
0010
0001
0100
1000
,  // measure 142
0010
0100
0000
0000
0010
0001
0000
0000
1000
0100
0000
0000
0010
0100
0000
0000
,  // measure 143
0110
0000
0000
0000
0100
0000
0000
0000
1001
0000
0000
0000
0001
1000
0000
0000
,  // measure 144
0100
0000
0000
0000
0110
0000
0000
0000
0001
0000
0000
0000
1000
0100
0000
0000
,  // measure 145
0010
0100
0001
0010
0100
1000
0010
0001
,  // measure 146
0100
0010
0000
0000
0100
1000
0000
0000
0001
0010
0000
0000
0100
0010
0000
0000
,  // measure 147
1001
0000
0000
0000
0001
0000
0000
0000
0110
0000
0000
0000
0010
0100
0000
0000
,  // measure 148
0001
0000
0000
0000
1001
0000
0000
0000
0010
0000
0000
0000
0100
0001
0000
0000
,  // measure 149
1000
0001
0010
1000
0001
0100
1000
0010
,  // measure 150
0001
1000
0000
0000
0001
0100
0000
0000
0010
1000
0000
0000
0001
1000
0000
0000
,  // measure 151
1001
0000
0000
0000
1000
0000
0000
0000
0110
0000
0000
0000
0100
0010
0000
0000
,  // measure 152
1000
0000
0000
0000
1001
0000
0000
0000
0100
0000
0000
0000
0010
1000
0000
0000
,  // measure 153
0001
1000
0100
0001
1000
0010
0001
0100
,  // measure 154
1000
0001
0000
0000
1000
0010
0000
0000
0100
0001
0000
0000
1000
0001
0000
0000
,  // measure 155
0020
0000
0000
0030
,  // measure 156
0020
0000
0100
0030
,  // measure 157
0200
0000
0000
0300
,  // measure 158
0200
0000
0010
0300
,  // measure 159
0002
0000
0000
0003
,  // measure 160
0002
0000
1000
0003
,  // measure 161
2000
0000
0000
3000
,  // measure 162
2000
0000
0001
3000
,  // measure 163
0010
0000
0010
0000
0100
0010
0100
0000
,  // measure 164
1000
0000
0001
0000
1000
0100
0010
0001
,  // measure 165
0100
0000
0100
0000
0100
0000
0100
0100
,  // measure 166
0020
0000
0000
0030
,  // measure 167
0100
0000
0100
0000
0010
0100
0010
0000
,  // measure 168
0001
0000
1000
0000
0001
0010
0100
1000
,  // measure 169
0010
0000
0010
0000
0010
0000
0010
0010
,  // measure 170
0200
0000
0000
0300
,  // measure 171
1010
1000
1010
0000
,  // measure 172
1000
0100
0001
0100
1000
0010
0100
0010
,  // measure 173
0101
0001
0101
0000
,  // measure 174
0001
0010
1000
0010
0001
0100
0010
0100
,  // measure 175
0011
0010
0011
0000
,  // measure 176
0010
1000
0100
1000
0010
0001
1000
0001
,  // measure 177
1100
0100
1100
0000
,  // measure 178
0100
0001
0010
0001
0100
1000
0001
1000
,  // measure 179
2002
0000
0000
3003
,  // measure 180
0110
0000
0000
0000
0010
0000
0000
0000
1001
0000
0000
0000
1000
0001
0000
0000
,  // measure 181
0010
0000
0000
0000
0110
0000
0000
0000
1000
0000
0000
0000
0001
0010
0000
0000
,  // measure 182
0100
0010
1000
0100
0010
0001
0100
1000
,  // measure 183
0010
0100
0000
0000
0010
0001
0000
0000
1000
0100
0000
0000
0010
0100
0000
0000
,  // measure 184
0110
0000
0000
0000
0100
0000
0000
0000
1001
0000
0000
0000
0001
1000
0000
0000
,  // measure 185
0100
0000
0000
0000
0110
0000
0000
0000
0001
0000
0000
0000
1000
0100
0000
0000
,  // measure 186
0010
0100
0001
0010
0100
1000
0010
0001
,  // measure 187
0100
0010
0000
0000
0100
1000
0000
0000
0001
0010
0000
0000
0100
0010
0000
0000
,  // measure 188
1001
0000
0000
0000
0001
0000
0000
0000
0110
0000
0000
0000
0010
0100
0000
0000
,  // measure 189
0001
0000
0000
0000
1001
0000
0000
0000
0010
0000
0000
0000
0100
0001
0000
0000
,  // measure 190
1000
0001
0010
1000
0001
0100
1000
0010
,  // measure 191
0001
1000
0000
0000
0001
0100
0000
0000
0010
1000
0000
0000
0001
1000
0000
0000
,  // measure 192
1001
0000
0000
0000
1000
0000
0000
0000
0110
0000
0000
0000
0100
0010
0000
0000
,  // measure 193
1000
0000
0000
0000
1001
0000
0000
0000
0100
0000
0000
0000
0010
1000
0000
0000
,  // measure 194
0001
1000
0100
0001
1000
0010
0001
0100
,  // measure 195
1000
0001
0000
0000
1000
0010
0000
0000
0100
0001
0000
0000
1000
0001
0000
0000
,  // measure 196
0020
0000
0000
0030
,  // measure 197
0020
0000
0100
0030
,  // measure 198
0200
0000
0000
0300
,  // measure 199
0200
0000
0010
0300
,  // measure 200
0002
0000
0000
0003
,  // measure 201
0002
0000
1000
0003
,  // measure 202
2000
0000
0000
3000
,  // measure 203
2000
0000
0001
3000
,  // measure 204
1000
0100
0001
0100
1000
0000
1001
0000
,  // measure 205
0001
0010
0100
0010
0001
0000
0110
0000
,  // measure 206
0001
0010
1000
0010
0001
0000
1001
0000
,  // measure 207
1000
0100
0010
0100
1000
0000
0110
0000
,  // measure 208
0010
1000
0100
1000
0010
0000
0110
0000
,  // measure 209
0100
0001
1000
0001
0100
0000
1001
0000
,  // measure 210
0100
0001
0010
0001
0100
0000
0110
0000
,  // measure 211
0010
1000
0001
1000
0010
0000
1000
0000
,  // measure 212
0000
0001
1001
0000
,  // measure 213
0001
1000
1001
0000
;

//---------------dance-single - ----------------
#NOTES:
     dance-single:
     :
     Hard:
     11:
     0.508311,0.565044,0.349936,0.164676,0.141151,1210.000000,1091.000000,119.000000,56.000000,0.000000,0.000000,0.508311,0.565044,0.349936,0.164676,0.141151,1210.000000,1091.000000,119.000000,56.000000,0.000000,0.000000:
// measure 0
0000
0000
0000
0000
,  // measure 1
0000
0000
0000
0000
,  // measure 2
0000
0000
0000
0000
,  // measure 3
0000
0000
0000
0000
,  // measure 4
0000
0000
0000
0000
,  // measure 5
0000
0000
0000
0000
0000
0000
0010
0100
,  // measure 6
0010
0000
0100
0010
0100
0000
1000
0000
,  // measure 7
0001
0000
1000
0100
0010
0001
0100
0000
,  // measure 8
0100
0000
0100
0000
0100
0100
0020
0000
,  // measure 9
0000
0000
0200
0000
0330
0000
0100
0010
,  // measure 10
0100
0000
0010
0100
0010
0000
0001
0000
,  // measure 11
1000
0000
0001
0010
0100
1000
0010
0000
,  // measure 12
0010
0000
0010
0000
0010
0010
0200
0000
,  // measure 13
0000
0000
0020
0000
0330
0000
0001
1000
,  // measure 14
0001
0000
1000
0001
1000
0000
0010
0000
,  // measure 15
0100
0000
0010
1000
0001
0100
1000
0000
,  // measure 16
1000
0000
1000
0000
1000
1000
0002
0000
,  // measure 17
0000
0000
2000
0000
3003
0000
1000
0001
,  // measure 18
1000
0000
0001
1000
0001
0000
0100
0000
,  // measure 19
0010
0000
0100
0001
1000
0010
0001
0000
,  // measure 20
0001
0000
0001
0000
0001
0001
2000
0000
,  // measure 21
0000
0002
3003
0020
,  // measure 22
0000
0000
0030
0020
,  // measure 23
0000
0100
0030
0200
,  // measure 24
0000
0000
0300
0200
,  // measure 25
0000
0010
0300
0002
,  // measure 26
0000
0000
0003
0002
,  // measure 27
0000
1000
0003
2000
,  // measure 28
0000
0000
3000
2000
,  // measure 29
0000
0001
3000
1000
,  // measure 30
0000
0001
1001
0000
,  // measure 31
0001
1000
1001
0000
,  // measure 32
1000
0100
0001
0100
1000
0000
1001
0000
,  // measure 33
0001
0010
0100
0010
0001
0010
0110
0000
,  // measure 34
0001
0010
1000
0010
0001
0000
1001
0000
,  // measure 35
1000
0100
0010
0100
1000
0100
0110
0000
,  // measure 36
0010
1000
0100
1000
0010
0000
0110
0000
,  // measure 37
0100
0001
1000
0001
0100
0001
1001
0000
,  // measure 38
0100
0001
0010
0001
0100
0000
0110
0000
,  // measure 39
0010
1000
0001
1000
0010
1000
1001
0000
,  // measure 40
0010
0100
0010
0000
0100
0010
0100
0000
,  // measure 41
1000
0000
0001
0000
1000
0100
0010
0001
,  // measure 42
0100
0000
0100
0000
0100
0000
0100
0100
,  // measure 43
0020
0000
0200
0330
,  // measure 44
0100
0010
0100
0000
0010
0100
0010
0000
,  // measure 45
0001
0000
1000
0000
0001
0010
0100
1000
,  // measure 46
0010
0000
0010
0000
0010
0000
0010
0010
,  // measure 47
0200
0000
0020
0330
,  // measure 48
1010
1000
1010
0010
,  // measure 49
1000
0100
0001
0100
1000
0010
0100
0010
,  // measure 50
0101
0001
0101
0100
,  // measure 51
0001
0010
1000
0010
0001
0100
0010
0100
,  // measure 52
0011
0010
0011
0001
,  // measure 53
0010
1000
0100
1000
0010
0001
1000
0001
,  // measure 54
1100
0100
1100
1000
,  // measure 55
0100
0001
0010
0001
0100
1000
0001
1000
,  // measure 56
2002
0000
0000
3003
,  // measure 57
0110
0000
0000
0000
0010
0000
0000
0000
1001
0000
0000
0000
1000
0001
0000
0000
,  // measure 58
0010
0000
0000
0000
0110
0000
0000
0000
1000
0000
0000
0000
0001
0010
0000
0000
,  // measure 59
0100
0010
1000
0100
0010
0001
0100
1000
,  // measure 60
0010
0100
0000
0000
0010
0001
0000
0000
1000
0100
0000
0000
0010
0100
0000
0000
,  // measure 61
0110
0000
0000
0000
0100
0000
0000
0000
1001
0000
0000
0000
0001
1000
0000
0000
,  // measure 62
0100
0000
0000
0000
0110
0000
0000
0000
0001
0000
0000
0000
1000
0100
0000
0000
,  // measure 63
0010
0100
0001
0010
0100
1000
0010
0001
,  // measure 64
0100
0010
0000
0000
0100
1000
0000
0000
0001
0010
0000
0000
0100
0010
0000
0000
,  // measure 65
1001
0000
0000
0000
0001
0000
0000
0000
0110
0000
0000
0000
0010
0100
0000
0000
,  // measure 66
0001
0000
0000
0000
1001
0000
0000
0000
0010
0000
0000
0000
0100
0001
0000
0000
,  // measure 67
1000
0001
0010
1000
0001
0100
1000
0010
,  // measure 68
0001
1000
0000
0000
0001
0100
0000
0000
0010
1000
0000
0000
0001
1000
0000
0000
,  // measure 69
1001
0000
0000
0000
1000
0000
0000
0000
0110
0000
0000
0000
0100
0010
0000
0000
,  // measure 70
1000
0000
0000
0000
1001
0000
0000
0000
0100
0000
0000
0000
0010
1000
0000
0000
,  // measure 71
0001
1000
0100
0001
1000
0010
0001
0100
,  // measure 72
1000
0001
0000
0000
1000
0010
0000
0000
0100
0001
0000
0000
1000
0001
0000
0000
,  // measure 73
1000
0100
0001
0100
1000
0000
1001
0000
,  // measure 74
0001
0010
0100
0010
0001
0000
0110
0000
,  // measure 75
0001
0010
1000
0010
0001
0000
1001
0000
,  // measure 76
1000
0100
0010
0100
1000
0000
0110
0000
,  // measure 77
0010
1000
0100
1000
0010
0000
0110
0000
,  // measure 78
0100
0001
1000
0001
0100
0000
1001
0000
,  // measure 79
0100
0001
0010
0001
0100
0000
0110
0000
,  // measure 80
0010
1000
0001
1000
0010
0000
1001
0000
,  // measure 81
0010
0100
0010
0000
0100
0010
0100
0000
,  // measure 82
1000
0000
0001
0000
1000
0100
0010
0001
,  // measure 83
0100
0000
0100
0000
0100
0000
0100
0100
,  // measure 84
0020
0000
0200
0330
,  // measure 85
0100
0010
0100
0000
0010
0100
0010
0000
,  // measure 86
0001
0000
1000
0000
0001
0010
0100
1000
,  // measure 87
0010
0000
0010
0000
0010
0000
0010
0010
,  // measure 88
0200
0000
0020
0330
,  // measure 89
1010
1000
1010
0010
,  // measure 90
1000
0100
0001
0100
1000
0010
0100
0010
,  // measure 91
0101
0001
0101
0100
,  // measure 92
0001
0010
1000
0010
0001
0100
0010
0100
,  // measure 93
0011
0010
0011
0001
,  // measure 94
0010
1000
0100
1000
0010
0001
1000
0001
,  // measure 95
1100
0100
1100
1000
,  // measure 96
0100
0001
0010
0001
0100
1000
0001
1000
,  // measure 97
2002
0000
0000
3003
,  // measure 98
0110
0000
0000
0000
0010
0000
0000
0000
1001
0000
0000
0000
1000
0001
0000
0000
,  // measure 99
0010
0000
0000
0000
0110
0000
0000
0000
1000
0000
0000
0000
0001
0010
0000
0000
,  // measure 100
0100
0010
1000
0100
0010
0001
0100
1000
,  // measure 101
0010
0100
0000
0000
0010
0001
0000
0000
1000
0100
0000
0000
0010
0100
0000
0000
,  // measure 102
0110
0000
0000
0000
0100
0000
0000
0000
1001
0000
0000
0000
0001
1000
0000
0000
,  // measure 103
0100
0000
0000
0000
0110
0000
0000
0000
0001
0000
0000
0000
1000
0100
0000
0000
,  // measure 104
0010
0100
0001
0010
0100
1000
0010
0001
,  // measure 105
0100
0010
0000
0000
0100
1000
0000
0000
0001
0010
0000
0000
0100
0010
0000
0000
,  // measure 106
1001
0000
0000
0000
0001
0000
0000
0000
0110
0000
0000
0000
0010
0100
0000
0000
,  // measure 107
0001
0000
0000
0000
1001
0000
0000
0000
0010
0000
0000
0000
0100
0001
0000
0000
,  // measure 108
1000
0001
0010
1000
0001
0100
1000
0010
,  // measure 109
0001
1000
0000
0000
0001
0100
0000
0000
0010
1000
0000
0000
0001
1000
0000
0000
,  // measure 110
1001
0000
0000
0000
1000
0000
0000
0000
0110
0000
0000
0000
0100
0010
0000
0000
,  // measure 111
1000
0000
0000
0000
1001
0000
0000
0000
0100
0000
0000
0000
0010
1000
0000
0000
,  // measure 112
0001
1000
0100
0001
1000
0010
0001
0100
,  // measure 113
1000
0001
0000
0000
1000
0010
0000
0000
0100
0001
0000
0000
1000
0001
0000
0000
,  // measure 114
1000
0100
0001
0100
1000
0000
1001
0000
,  // measure 115
0001
0010
0100
0010
0001
0010
0110
0000
,  // measure 116
0001
0010
1000
0010
0001
0000
1001
0000
,  // measure 117
1000
0100
0010
0100
1000
0100
0110
0000
,  // measure 118
0010
1000
0100
1000
0010
0000
0110
0000
,  // measure 119
0100
0001
1000
0001
0100
0001
1001
0000
,  // measure 120
0100
0001
0010
0001
0100
0000
0110
0000
,  // measure 121
0010
1000
0001
1000
0010
1000
1001
0000
,  // measure 122
0010
0100
0010
0000
0100
0010
0100
0000
,  // measure 123
1000
0000
0001
0000
1000
0100
0010
0001
,  // measure 124
0100
0000
0100
0000
0100
0000
0100
0100
,  // measure 125
0020
0000
0200
0330
,  // measure 126
0100
0010
0100
0000
0010
0100
0010
0000
,  // measure 127
0001
0000
1000
0000
0001
0010
0100
1000
,  // measure 128
0010
0000
0010
0000
0010
0000
0010
0010
,  // measure 129
0200
0000
0020
0330
,  // measure 130
1010
1000
1010
0010
,  // measure 131
1000
0100
0001
0100
1000
0010
0100
0010
,  // measure 132
0101
0001
0101
0100
,  // measure 133
0001
0010
1000
0010
0001
0100
0010
0100
,  // measure 134
0011
0010
0011
0001
,  // measure 135
0010
1000
0100
1000
0010
0001
1000
0001
,  // measure 136
1100
0100
1100
1000
,  // measure 137
0100
0001
0010
0001
0100
1000
0001
1000
,  // measure 138
2002
0000
0000
3003
,  // measure 139
0110
0000
0000
0000
0010
0000
0000
0000
1001
0000
0000
0000
1000
0001
0000
0000
,  // measure 140
0010
0000
0000
0000
0110
0000
0000
0000
1000
0000
0000
0000
0001
0010
0000
0000
,  // measure 141
0100
0010
1000
0100
0010
0001
0100
1000
,  // measure 142
0010
0100
0000
0000
0010
0001
0000
0000
1000
0100
0000
0000
0010
0100
0000
0000
,  // measure 143
0110
0000
0000
0000
0100
0000
0000
0000
1001
0000
0000
0000
0001
1000
0000
0000
,  // measure 144
0100
0000
0000
0000
0110
0000
0000
0000
0001
0000
0000
0000
1000
0100
0000
0000
,  // measure 145
0010
0100
0001
0010
0100
1000
0010
0001
,  // measure 146
0100
0010
0000
0000
0100
1000
0000
0000
0001
0010
0000
0000
0100
0010
0000
0000
,  // measure 147
1001
0000
0000
0000
0001
0000
0000
0000
0110
0000
0000
0000
0010
0100
0000
0000
,  // measure 148
0001
0000
0000
0000
1001
0000
0000
0000
0010
0000
0000
0000
0100
0001
0000
0000
,  // measure 149
1000
0001
0010
1000
0001
0100
1000
0010
,  // measure 150
0001
1000
0000
0000
0001
0100
0000
0000
0010
1000
0000
0000
0001
1000
0000
0000
,  // measure 151
1001
0000
0000
0000
1000
0000
0000
0000
0110
0000
0000
0000
0100
0010
0000
0000
,  // measure 152
1000
0000
0000
0000
1001
0000
0000
0000
0100
0000
0000
0000
0010
1000
0000
0000
,  // measure 153
0001
1000
0100
0001
1000
0010
0001
0100
,  // measure 154
1000
0001
0000
0000
1000
0010
0000
0000
0100
0001
0000
0000
1000
0001
0000
0000
,  // measure 155
0020
0000
0000
0030
,  // measure 156
0020
0000
0100
0030
,  // measure 157
0200
0000
0000
0300
,  // measure 158
0200
0000
0010
0300
,  // measure 159
0002
0000
0000
0003
,  // measure 160
0002
0000
1000
0003
,  // measure 161
2000
0000
0000
3000
,  // measure 162
2000
0000
0001
3000
,  // measure 163
0010
0100
0010
0000
0100
0010
0100
0000
,  // measure 164
1000
0000
0001
0000
1000
0100
0010
0001
,  // measure 165
0100
0000
0100
0000
0100
0000
0100
0100
,  // measure 166
0020
0000
0200
0330
,  // measure 167
0100
0010
0100
0000
0010
0100
0010
0000
,  // measure 168
0001
0000
1000
0000
0001
0010
0100
1000
,  // measure 169
0010
0000
0010
0000
0010
0000
0010
0010
,  // measure 170
0200
0000
0020
0330
,  // measure 171
1010
1000
1010
0010
,  // measure 172
1000
0100
0001
0100
1000
0010
0100
0010
,  // measure 173
0101
0001
0101
0100
,  // measure 174
0001
0010
1000
0010
0001
0100
0010
0100
,  // measure 175
0011
0010
0011
0001
,  // measure 176
0010
1000
0100
1000
0010
0001
1000
0001
,  // measure 177
1100
0100
1100
1000
,  // measure 178
0100
0001
0010
0001
0100
1000
0001
1000
,  // measure 179
2002
0000
0000
3003
,  // measure 180
0110
0000
0000
0000
0010
0000
0000
0000
1001
0000
0000
0000
1000
0001
0000
0000
,  // measure 181
0010
0000
0000
0000
0110
0000
0000
0000
1000
0000
0000
0000
0001
0010
0000
0000
,  // measure 182
0100
0010
1000
0100
0010
0001
0100
1000
,  // measure 183
0010
0100
0000
0000
0010
0001
0000
0000
1000
0100
0000
0000
0010
0100
0000
0000
,  // measure 184
0110
0000
0000
0000
0100
0000
0000
0000
1001
0000
0000
0000
0001
1000
0000
0000
,  // measure 185
0100
0000
0000
0000
0110
0000
0000
0000
0001
0000
0000
0000
1000
0100
0000
0000
,  // measure 186
0010
0100
0001
0010
0100
1000
0010
0001
,  // measure 187
0100
0010
0000
0000
0100
1000
0000
0000
0001
0010
0000
0000
0100
0010
0000
0000
,  // measure 188
1001
0000
0000
0000
0001
0000
0000
0000
0110
0000
0000
0000
0010
0100
0000
0000
,  // measure 189
0001
0000
0000
0000
1001
0000
0000
0000
0010
0000
0000
0000
0100
0001
0000
0000
,  // measure 190
1000
0001
0010
1000
0001
0100
1000
0010
,  // measure 191
0001
1000
0000
0000
0001
0100
0000
0000
0010
1000
0000
0000
0001
1000
0000
0000
,  // measure 192
1001
0000
0000
0000
1000
0000
0000
0000
0110
0000
0000
0000
0100
0010
0000
0000
,  // measure 193
1000
0000
0000
0000
1001
0000
0000
0000
0100
0000
0000
0000
0010
1000
0000
0000
,  // measure 194
0001
1000
0100
0001
1000
0010
0001
0100
,  // measure 195
1000
0001
0000
0000
1000
0010
0000
0000
0100
0001
0000
0000
1000
0001
0000
0000
,  // measure 196
0020
0000
0000
0030
,  // measure 197
0020
0000
0100
0030
,  // measure 198
0200
0000
0000
0300
,  // measure 199
0200
0000
0010
0300
,  // measure 200
0002
0000
0000
0003
,  // measure 201
0002
0000
1000
0003
,  // measure 202
2000
0000
0000
3000
,  // measure 203
2000
0000
0001
3000
,  // measure 204
1000
0100
0001
0100
1000
0000
1001
0000
,  // measure 205
0001
0010
0100
0010
0001
0010
0110
0000
,  // measure 206
0001
0010
1000
0010
0001
0000
1001
0000
,  // measure 207
1000
0100
0010
0100
1000
0100
0110
0000
,  // measure 208
0010
1000
0100
1000
0010
0000
0110
0000
,  // measure 209
0100
0001
1000
0001
0100
0001
1001
0000
,  // measure 210
0100
0001
0010
0001
0100
0000
0110
0000
,  // measure 211
0010
1000
0001
1000
0010
1000
1000
0000
,  // measure 212
0000
0001
1001
0000
,  // measure 213
0001
1000
1001
0000
;

//---------------dance-single - ----------------
#NOTES:
     dance-single:
     :
     Challenge:
     12:
     0.531416,0.565044,0.349936,0.164676,0.141151,1265.000000,1146.000000,119.000000,56.000000,0.000000,0.000000,0.531416,0.565044,0.349936,0.164676,0.141151,1265.000000,1146.000000,119.000000,56.000000,0.000000,0.000000:
// measure 0
0000
0000
0000
0000
,  // measure 1
0000
0000
0000
0000
,  // measure 2
0000
0000
0000
0000
,  // measure 3
0000
0000
0000
0000
,  // measure 4
0000
0000
0000
0000
,  // measure 5
0000
0000
0000
0000
0000
0000
0010
0100
,  // measure 6
0010
0000
0100
0010
0100
0000
1000
0100
,  // measure 7
0001
0000
1000
0100
0010
0001
0100
0000
,  // measure 8
0100
0000
0100
0000
0100
0100
0020
0000
,  // measure 9
0000
0000
0200
0000
0330
0000
0100
0010
,  // measure 10
0100
0000
0010
0100
0010
0000
0001
0010
,  // measure 11
1000
0000
0001
0010
0100
1000
0010
0000
,  // measure 12
0010
0000
0010
0000
0010
0010
0200
0000
,  // measure 13
0000
0000
0020
0000
0330
0000
0001
1000
,  // measure 14
0001
0000
1000
0001
1000
0000
0010
1000
,  // measure 15
0100
0000
0010
1000
0001
0100
1000
0000
,  // measure 16
1000
0000
1000
0000
1000
1000
0002
0000
,  // measure 17
0000
0000
2000
0000
3003
0000
1000
0001
,  // measure 18
1000
0000
0001
1000
0001
0000
0100
0001
,  // measure 19
0010
0000
0100
0001
1000
0010
0001
0000
,  // measure 20
0001
0000
0001
0000
0001
0001
2000
0000
,  // measure 21
0000
0002
3003
0020
,  // measure 22
0000
0000
0030
0020
,  // measure 23
0000
0100
0030
0200
,  // measure 24
0000
0000
0300
0200
,  // measure 25
0000
0010
0300
0002
,  // measure 26
0000
0000
0003
0002
,  // measure 27
0000
1000
0003
2000
,  // measure 28
0000
0000
3000
2000
,  // measure 29
0000
0001
3000
1000
,  // measure 30
0000
0001
1001
0000
,  // measure 31
0001
1000
1001
0000
,  // measure 32
1000
0100
0001
0100
1000
0100
1001
0000
,  // measure 33
0001
0010
0100
0010
0001
0010
0110
0000
,  // measure 34
0001
0010
1000
0010
0001
0010
1001
0000
,  // measure 35
1000
0100
0010
0100
1000
0100
0110
0000
,  // measure 36
0010
1000
0100
1000
0010
1000
0110
0000
,  // measure 37
0100
0001
1000
0001
0100
0001
1001
0000
,  // measure 38
0100
0001
0010
0001
0100
0001
0110
0000
,  // measure 39
0010
1000
0001
1000
0010
1000
1001
0000
,  // measure 40
0010
0100
0010
0000
0100
0010
0100
0000
,  // measure 41
1000
0100
0001
0000
1000
0100
0010
0001
,  // measure 42
0100
0000
0100
0000
0100
0000
0100
0100
,  // measure 43
0020
0000
0200
0330
,  // measure 44
0100
0010
0100
0000
0010
0100
0010
0000
,  // measure 45
0001
0000
1000
0000
0001
0010
0100
1000
,  // measure 46
0010
0000
0010
0000
0010
0000
0010
0010
,  // measure 47
0200
0000
0020
0330
,  // measure 48
1010
1000
1010
0010
,  // measure 49
1000
0100
0001
0100
1000
0010
0100
0010
,  // measure 50
0101
0001
0101
0100
,  // measure 51
0001
0010
1000
0010
0001
0100
0010
0100
,  // measure 52
0011
0010
0011
0001
,  // measure 53
0010
1000
0100
1000
0010
0001
1000
0001
,  // measure 54
1100
0100
1100
1000
,  // measure 55
0100
0001
0010
0001
0100
1000
0001
1000
,  // measure 56
2002
0000
0000
3003
,  // measure 57
0110
0000
0000
0000
0010
0000
0000
0000
1001
0000
0100
0000
1000
0001
0000
0000
,  // measure 58
0010
0000
0000
0000
0110
0000
0000
0000
1000
0000
0001
0000
0001
0010
0000
0000
,  // measure 59
0100
0010
1000
0100
0010
0001
0100
1000
,  // measure 60
0010
0100
0000
0000
0010
0001
0000
0000
1000
0100
0000
0000
0010
0100
0000
0000
,  // measure 61
0110
0000
0000
0000
0100
0000
0000
0000
1001
0000
0010
0000
0001
1000
0000
0000
,  // measure 62
0100
0000
0000
0000
0110
0000
0000
0000
0001
0000
1000
0000
1000
0100
0000
0000
,  // measure 63
0010
0100
0001
0010
0100
1000
0010
0001
,  // measure 64
0100
0010
0000
0000
0100
1000
0000
0000
0001
0010
0000
0000
0100
0010
0000
0000
,  // measure 65
1001
0000
0000
0000
0001
0000
0000
0000
0110
0000
1000
0000
0010
0100
0000
0000
,  // measure 66
0001
0000
0000
0000
1001
0000
0000
0000
0010
0000
0100
0000
0100
0001
0000
0000
,  // measure 67
1000
0001
0010
1000
0001
0100
1000
0010
,  // measure 68
0001
1000
0000
0000
0001
0100
0000
0000
0010
1000
0000
0000
0001
1000
0000
0000
,  // measure 69
1001
0000
0000
0000
1000
0000
0000
0000
0110
0000
0001
0000
0100
0010
0000
0000
,  // measure 70
1000
0000
0000
0000
1001
0000
0000
0000
0100
0000
0010
0000
0010
1000
0000
0000
,  // measure 71
0001
1000
0100
0001
1000
0010
0001
0100
,  // measure 72
1000
0001
0000
0000
1000
0010
0000
0000
0100
0001
0000
0000
1000
0001
0000
0000
,  // measure 73
1000
0100
0001
0100
1000
0000
1001
0000
,  // measure 74
0001
0010
0100
0010
0001
0000
0110
0000
,  // measure 75
0001
0010
1000
0010
0001
0000
1001
0000
,  // measure 76
1000
0100
0010
0100
1000
0000
0110
0000
,  // measure 77
0010
1000
0100
1000
0010
0000
0110
0000
,  // measure 78
0100
0001
1000
0001
0100
0000
1001
0000
,  // measure 79
0100
0001
0010
0001
0100
0000
0110
0000
,  // measure 80
0010
1000
0001
1000
0010
0000
1001
0000
,  // measure 81
0010
0100
0010
0000
0100
0010
0100
0000
,  // measure 82
1000
0100
0001
0000
1000
0100
0010
0001
,  // measure 83
0100
0000
0100
0000
0100
0000
0100
0100
,  // measure 84
0020
0000
0200
0330
,  // measure 85
0100
0010
0100
0000
0010
0100
0010
0000
,  // measure 86
0001
0010
1000
0000
0001
0010
0100
1000
,  // measure 87
0010
0000
0010
0000
0010
0000
0010
0010
,  // measure 88
0200
0000
0020
0330
,  // measure 89
1010
1000
1010
0010
,  // measure 90
1000
0100
0001
0100
1000
0010
0100
0010
,  // measure 91
0101
0001
0101
0100
,  // measure 92
0001
0010
1000
0010
0001
0100
0010
0100
,  // measure 93
0011
0010
0011
0001
,  // measure 94
0010
1000
0100
1000
0010
0001
1000
0001
,  // measure 95
1100
0100
1100
1000
,  // measure 96
0100
0001
0010
0001
0100
1000
0001
1000
,  // measure 97
2002
0000
0000
3003
,  // measure 98
0110
0000
0000
0000
0010
0000
0000
0000
1001
0000
0100
0000
1000
0001
0000
0000
,  // measure 99
0010
0000
0000
0000
0110
0000
0000
0000
1000
0000
0001
0000
0001
0010
0000
0000
,  // measure 100
0100
0010
1000
0100
0010
0001
0100
1000
,  // measure 101
0010
0100
0000
0000
0010
0001
0000
0000
1000
0100
0000
0000
0010
0100
0000
0000
,  // measure 102
0110
0000
0000
0000
0100
0000
0000
0000
1001
0000
0010
0000
0001
1000
0000
0000
,  // measure 103
0100
0000
0000
0000
0110
0000
0000
0000
0001
0000
1000
0000
1000
0100
0000
0000
,  // measure 104
0010
0100
0001
0010
0100
1000
0010
0001
,  // measure 105
0100
0010
0000
0000
0100
1000
0000
0000
0001
0010
0000
0000
0100
0010
0000
0000
,  // measure 106
1001
0000
0000
0000
0001
0000
0000
0000
0110
0000
1000
0000
0010
0100
0000
0000
,  // measure 107
0001
0000
0000
0000
1001
0000
0000
0000
0010
0000
0100
0000
0100
0001
0000
0000
,  // measure 108
1000
0001
0010
1000
0001
0100
1000
0010
,  // measure 109
0001
1000
0000
0000
0001
0100
0000
0000
0010
1000
0000
0000
0001
1000
0000
0000
,  // measure 110
1001
0000
0000
0000
1000
0000
0000
0000
0110
0000
0001
0000
0100
0010
0000
0000
,  // measure 111
1000
0000
0000
0000
1001
0000
0000
0000
0100
0000
0010
0000
0010
1000
0000
0000
,  // measure 112
0001
1000
0100
0001
1000
0010
0001
0100
,  // measure 113
1000
0001
0000
0000
1000
0010
0000
0000
0100
0001
0000
0000
1000
0001
0000
0000
,  // measure 114
1000
0100
0001
0100
1000
0100
1001
0000
,  // measure 115
0001
0010
0100
0010
0001
0010
0110
0000
,  // measure 116
0001
0010
1000
0010
0001
0010
1001
0000
,  // measure 117
1000
0100
0010
0100
1000
0100
0110
0000
,  // measure 118
0010
1000
0100
1000
0010
1000
0110
0000
,  // measure 119
0100
0001
1000
0001
0100
0001
1001
0000
,  // measure 120
0100
0001
0010
0001
0100
0001
0110
0000
,  // measure 121
0010
1000
0001
1000
0010
1000
1001
0000
,  // measure 122
0010
0100
0010
0000
0100
0010
0100
0000
,  // measure 123
1000
0100
0001
0000
1000
0100
0010
0001
,  // measure 124
0100
0000
0100
0000
0100
0000
0100
0100
,  // measure 125
0020
0000
0200
0330
,  // measure 126
0100
0010
0100
0000
0010
0100
0010
0000
,  // measure 127
0001
0010
1000
0000
0001
0010
0100
1000
,  // measure 128
0010
0000
0010
0000
0010
0000
0010
0010
,  // measure 129
0200
0000
0020
0330
,  // measure 130
1010
1000
1010
0010
,  // measure 131
1000
0100
0001
0100
1000
0010
0100
0010
,  // measure 132
0101
0001
0101
0100
,  // measure 133
0001
0010
1000
0010
0001
0100
0010
0100
,  // measure 134
0011
0010
0011
0001
,  // measure 135
0010
1000
0100
1000
0010
0001
1000
0001
,  // measure 136
1100
0100
1100
1000
,  // measure 137
0100
0001
0010
0001
0100
1000
0001
1000
,  // measure 138
2002
0000
0000
3003
,  // measure 139
0110
0000
0000
0000
0010
0000
0000
0000
1001
0000
0100
0000
1000
0001
0000
0000
,  // measure 140
0010
0000
0000
0000
0110
0000
0000
0000
1000
0000
0001
0000
0001
0010
0000
0000
,  // measure 141
0100
0010
1000
0100
0010
0001
0100
1000
,  // measure 142
0010
0100
0000
0000
0010
0001
0000
0000
1000
0100
0000
0000
0010
0100
0000
0000
,  // measure 143
0110
0000
0000
0000
0100
0000
0000
0000
1001
0000
0010
0000
0001
1000
0000
0000
,  // measure 144
0100
0000
0000
0000
0110
0000
0000
0000
0001
0000
1000
0000
1000
0100
0000
0000
,  // measure 145
0010
0100
0001
0010
0100
1000
0010
0001
,  // measure 146
0100
0010
0000
0000
0100
1000
0000
0000
0001
0010
0000
0000
0100
0010
0000
0000
,  // measure 147
1001
0000
0000
0000
0001
0000
0000
0000
0110
0000
1000
0000
0010
0100
0000
0000
,  // measure 148
0001
0000
0000
0000
1001
0000
0000
0000
0010
0000
0100
0000
0100
0001
0000
0000
,  // measure 149
1000
0001
0010
1000
0001
0100
1000
0010
,  // measure 150
0001
1000
0000
0000
0001
0100
0000
0000
0010
1000
0000
0000
0001
1000
0000
0000
,  // measure 151
1001
0000
0000
0000
1000
0000
0000
0000
0110
0000
0001
0000
0100
0010
0000
0000
,  // measure 152
1000
0000
0000
0000
1001
0000
0000
0000
0100
0000
0010
0000
0010
1000
0000
0000
,  // measure 153
0001
1000
0100
0001
1000
0010
0001
0100
,  // measure 154
1000
0001
0000
0000
1000
0010
0000
0000
0100
0001
0000
0000
1000
0001
0000
0000
,  // measure 155
0020
0000
0000
0030
,  // measure 156
0020
0000
0100
0030
,  // measure 157
0200
0000
0000
0300
,  // measure 158
0200
0000
0010
0300
,  // measure 159
0002
0000
0000
0003
,  // measure 160
0002
0000
1000
0003
,  // measure 161
2000
0000
0000
3000
,  // measure 162
2000
0000
0001
3000
,  // measure 163
0010
0100
0010
0000
0100
0010
0100
0000
,  // measure 164
1000
0100
0001
0000
1000
0100
0010
0001
,  // measure 165
0100
0000
0100
0000
0100
0000
0100
0100
,  // measure 166
0020
0000
0200
0330
,  // measure 167
0100
0010
0100
0000
0010
0100
0010
0000
,  // measure 168
0001
0010
1000
0000
0001
0010
0100
1000
,  // measure 169
0010
0000
0010
0000
0010
0000
0010
0010
,  // measure 170
0200
0000
0020
0330
,  // measure 171
1010
1000
1010
0010
,  // measure 172
1000
0100
0001
0100
1000
0010
0100
0010
,  // measure 173
0101
0001
0101
0100
,  // measure 174
0001
0010
1000
0010
0001
0100
0010
0100
,  // measure 175
0011
0010
0011
0001
,  // measure 176
0010
1000
0100
1000
0010
0001
1000
0001
,  // measure 177
1100
0100
1100
1000
,  // measure 178
0100
0001
0010
0001
0100
1000
0001
1000
,  // measure 179
2002
0000
0000
3003
,  // measure 180
0110
0000
0000
0000
0010
0000
0000
0000
1001
0000
0100
0000
1000
0001
0000
0000
,  // measure 181
0010
0000
0000
0000
0110
0000
0000
0000
1000
0000
0001
0000
0001
0010
0000
0000
,  // measure 182
0100
0010
1000
0100
0010
0001
0100
1000
,  // measure 183
0010
0100
0000
0000
0010
0001
0000
0000
1000
0100
0000
0000
0010
0100
0000
0000
,  // measure 184
0110
0000
0000
0000
0100
0000
0000
0000
1001
0000
0010
0000
0001
1000
0000
0000
,  // measure 185
0100
0000
0000
0000
0110
0000
0000
0000
0001
0000
1000
0000
1000
0100
0000
0000
,  // measure 186
0010
0100
0001
0010
0100
1000
0010
0001
,  // measure 187
0100
0010
0000
0000
0100
1000
0000
0000
0001
0010
0000
0000
0100
0010
0000
0000
,  // measure 188
1001
0000
0000
0000
0001
0000
0000
0000
0110
0000
1000
0000
0010
0100
0000
0000
,  // measure 189
0001
0000
0000
0000
1001
0000
0000
0000
0010
0000
0100
0000
0100
0001
0000
0000
,  // measure 190
1000
0001
0010
1000
0001
0100
1000
0010
,  // measure 191
0001
1000
0000
0000
0001
0100
0000
0000
0010
1000
0000
0000
0001
1000
0000
0000
,  // measure 192
1001
0000
0000
0000
1000
0000
0000
0000
0110
0000
0001
0000
0100
0010
0000
0000
,  // measure 193
1000
0000
0000
0000
1001
0000
0000
0000
0100
0000
0010
0000
0010
1000
0000
0000
,  // measure 194
0001
1000
0100
0001
1000
0010
0001
0100
,  // measure 195
1000
0001
0000
0000
1000
0010
0000
0000
0100
0001
0000
0000
1000
0001
0000
0000
,  // measure 196
0020
0000
0000
0030
,  // measure 197
0020
0000
0100
0030
,  // measure 198
0200
0000
0000
0300
,  // measure 199
0200
0000
0010
0300
,  // measure 200
0002
0000
0000
0003
,  // measure 201
0002
0000
1000
0003
,  // measure 202
2000
0000
0000
3000
,  // measure 203
2000
0000
0001
3000
,  // measure 204
1000
0100
0001
0100
1000
0100
1001
0000
,  // measure 205
0001
0010
0100
0010
0001
0010
0110
0000
,  // measure 206
0001
0010
1000
0010
0001
0010
1001
0000
,  // measure 207
1000
0100
0010
0100
1000
0100
0110
0000
,  // measure 208
0010
1000
0100
1000
0010
1000
0110
0000
,  // measure 209
0100
0001
1000
0001
0100
0001
1001
0000
,  // measure 210
0100
0001
0010
0001
0100
0001
0110
0000
,  // measure 211
0010
1000
0001
1000
0010
1000
1000
0000
,  // measure 212
0000
0001
1001
0000
,  // measure 213
0001
1000
1001
0000
;
