#TITLE:MOVE AHEAD;
#SUBTITLE:(for Next Mix);
#ARTIST:A-ZERO Project;
#TITLETRANSLIT:Move Ahead;
#SUBTITLETRANSLIT:;
#ARTISTTRANSLIT:AOO;
#GENRE:;
#CREDIT:;
#BANNER:;
#BACKGROUND:;
#LYRICSPATH:;
#CDTITLE:;
#MUSIC:Move Ahead.ogg;
#OFFSET:-0.026000;
#SAMPLESTART:36.391998;
#SAMPLELENGTH:15.000000;
#SELECTABLE:YES;
#BPMS:0.000000=165.000000
,192.000000=330.000000
,196.000000=165.000000
;
#STOPS:
;
#BGCHANGES:;
#KEYSOUNDS:;
#ATTACKS:;

//---------------dance-single - ----------------
#NOTES:
     dance-single:
     :
     Easy:
     11:
     0.420449,0.518135,0.096930,0.370096,0.000000,334.000000,323.000000,11.000000,42.000000,4.000000,0.000000,0.420449,0.518135,0.096930,0.370096,0.000000,334.000000,323.000000,11.000000,42.000000,4.000000,0.000000:
// measure 0
0000
0000
0000
0000
,  // measure 1
0000
0000
0000
0000
,  // measure 2
0000
0000
0000
0000
,  // measure 3
0000
0000
0000
0000
,  // measure 4
0000
0000
0000
0000
,  // measure 5
0000
1000
0000
1000
,  // measure 6
0000
1000
0000
1000
,  // measure 7
0000
0001
0000
0001
,  // measure 8
0000
0000
2002
3003
,  // measure 9
1000
0100
0001
0100
1000
0100
0001
0000
,  // measure 10
0010
0100
0010
0000
1000
0010
1000
0000
,  // measure 11
0001
0010
1000
0010
0001
0010
1000
0000
,  // measure 12
0100
0010
0100
0000
0001
0100
0001
0000
,  // measure 13
0010
1000
0100
1000
0010
1000
0100
0000
,  // measure 14
0001
1000
0001
0000
0010
0001
0010
0000
,  // measure 15
0100
0001
0010
0001
0100
0001
0010
0000
,  // measure 16
1000
0001
1000
0000
0100
1000
0100
0000
,  // measure 17
1000
0100
0001
0100
1000
0100
0001
0000
,  // measure 18
0010
0100
0010
0000
1000
0010
1000
0000
,  // measure 19
0001
0010
1000
0010
0001
0010
1000
0000
,  // measure 20
0100
0010
0100
0000
0001
0100
0001
0000
,  // measure 21
0010
1000
0100
1000
0010
1000
0100
0000
,  // measure 22
0001
1000
0001
0000
0010
0001
0010
0000
,  // measure 23
0100
0001
0010
0001
0100
0001
0010
0000
,  // measure 24
1001
1001
1001
1001
,  // measure 25
2000
0000
0000
0000
3001
0010
0100
1000
,  // measure 26
0200
0000
0000
0000
0310
0010
0100
0100
,  // measure 27
0002
0000
0000
0000
1003
0100
0010
0001
,  // measure 28
0020
0000
0000
0000
0130
0100
0010
0010
,  // measure 29
0020
0000
0000
0000
0130
0001
1000
0010
,  // measure 30
2000
0000
0000
0000
3001
0001
1000
1000
,  // measure 31
0200
0000
0000
0000
0310
1000
0001
0100
,  // measure 32
0002
0000
0000
0000
1003
1000
0001
0001
,  // measure 33
2000
0000
0000
0000
3001
0010
0100
1000
,  // measure 34
0200
0000
0000
0000
0310
0010
0100
0100
,  // measure 35
0002
0000
0000
0000
1003
0100
0010
0001
,  // measure 36
0020
0000
0000
0000
0130
0100
0010
0010
,  // measure 37
0020
0000
0000
0000
0130
0001
1000
0010
,  // measure 38
2000
0000
0000
0000
3001
0001
1000
1000
,  // measure 39
0200
0000
0000
0000
0310
1000
0001
0100
,  // measure 40
1001
0110
1001
0110
,  // measure 41
1000
0000
1000
0000
,  // measure 42
1000
0000
0002
1003
,  // measure 43
0001
0000
0001
0000
,  // measure 44
0001
0000
2000
3001
,  // measure 45
0010
0000
0010
0000
,  // measure 46
0010
0000
0200
0310
,  // measure 47
0100
0000
0100
0000
,  // measure 48
2002
3003
0000
0000
MMMM
0000
0000
0000
,  // measure 49
0001
0010
0100
1000
2000
0000
0000
0000
,  // measure 50
3001
0010
0100
1000
0200
0000
0000
0000
,  // measure 51
0310
0010
0100
0100
0002
0000
0000
0000
,  // measure 52
1003
0100
0010
0001
0020
0000
0000
0000
,  // measure 53
0130
0100
0010
0010
0020
0000
0000
0000
,  // measure 54
0130
0001
1000
0010
2000
0000
0000
0000
,  // measure 55
3001
0001
1000
1000
0200
0000
0000
0000
,  // measure 56
0310
1000
0001
0100
0002
0000
0000
0000
,  // measure 57
1003
1000
0001
0001
2000
0000
0000
0000
,  // measure 58
3001
0010
0100
1000
0200
0000
0000
0000
,  // measure 59
0310
0010
0100
0100
0002
0000
0000
0000
,  // measure 60
1003
0100
0010
0001
0020
0000
0000
0000
,  // measure 61
0130
0100
0010
0010
0020
0000
0000
0000
,  // measure 62
0130
0001
1000
0010
2000
0000
0000
0000
,  // measure 63
3001
0001
1000
1000
0200
0000
0000
0000
,  // measure 64
0310
1000
0001
0100
0002
0000
0000
0000
,  // measure 65
1003
1000
0001
0001
1000
0000
1000
0000
,  // measure 66
1000
0000
1000
0001
0001
0000
0001
0000
,  // measure 67
0001
0000
0001
1000
0010
0000
0010
0000
,  // measure 68
0010
0000
0010
0100
0100
0000
0100
0000
,  // measure 69
0100
0000
0100
0010
2000
0000
0000
0000
,  // measure 70
0000
0000
3002
0000
,  // measure 71
0013
0010
0100
0100
0002
0000
0000
0000
,  // measure 72
0000
0000
2003
0000
,  // measure 73
3001
1000
0001
1000
1001
0000
0000
0000
;

//---------------dance-single - ----------------
#NOTES:
     dance-single:
     :
     Beginner:
     10:
     0.375132,0.485751,0.096930,0.370096,0.000000,298.000000,287.000000,11.000000,42.000000,4.000000,0.000000,0.375132,0.485751,0.096930,0.370096,0.000000,298.000000,287.000000,11.000000,42.000000,4.000000,0.000000:
0000
0000
0000
0000
,
0000
0000
0000
0000
,
0000
0000
0000
0000
,
0000
0000
0000
0000
,
0000
0000
0000
0000
,
0000
1000
0000
0000
,
0000
1000
0000
0000
,
0000
0001
0000
0000
,
0000
0000
2002
3003
,
1000
0100
0001
0000
1000
0100
0001
0000
,
0010
0100
0010
0000
1000
0010
1000
0000
,
0001
0010
1000
0000
0001
0010
1000
0000
,
0100
0010
0100
0000
0001
0100
0001
0000
,
0010
1000
0100
0000
0010
1000
0100
0000
,
0001
1000
0001
0000
0010
0001
0010
0000
,
0100
0001
0010
0000
0100
0001
0010
0000
,
1000
0001
1000
0000
0100
1000
0100
0000
,
1000
0100
0001
0000
1000
0100
0001
0000
,
0010
0100
0010
0000
1000
0010
1000
0000
,
0001
0010
1000
0000
0001
0010
1000
0000
,
0100
0010
0100
0000
0001
0100
0001
0000
,
0010
1000
0100
0000
0010
1000
0100
0000
,
0001
1000
0001
0000
0010
0001
0010
0000
,
0100
0001
0010
0000
0100
0001
0010
0000
,
1001
1001
1001
1001
,
2000
0000
0000
0000
3001
0010
0100
1000
,
0200
0000
0000
0000
0310
0010
0100
0000
,
0002
0000
0000
0000
1003
0100
0010
0001
,
0020
0000
0000
0000
0130
0100
0010
0000
,
0020
0000
0000
0000
0130
0001
1000
0010
,
2000
0000
0000
0000
3001
0001
1000
0000
,
0200
0000
0000
0000
0310
1000
0001
0100
,
0002
0000
0000
0000
1003
1000
0001
0000
,
2000
0000
0000
0000
3001
0010
0100
1000
,
0200
0000
0000
0000
0310
0010
0100
0000
,
0002
0000
0000
0000
1003
0100
0010
0001
,
0020
0000
0000
0000
0130
0100
0010
0000
,
0020
0000
0000
0000
0130
0001
1000
0010
,
2000
0000
0000
0000
3001
0001
1000
0000
,
0200
0000
0000
0000
0310
1000
0001
0100
,
1001
0110
1001
0110
,
1000
0000
1000
0000
,
1000
0000
0002
0003
,
0001
0000
0001
0000
,
0001
0000
2000
3000
,
0010
0000
0010
0000
,
0010
0000
0200
0300
,
0100
0000
0100
0000
,
2002
3003
0000
0000
MMMM
0000
0000
0000
,
0001
0010
0100
0000
2000
0000
0000
0000
,
3001
0010
0100
1000
0200
0000
0000
0000
,
0310
0010
0100
0000
0002
0000
0000
0000
,
1003
0100
0010
0001
0020
0000
0000
0000
,
0130
0100
0010
0000
0020
0000
0000
0000
,
0130
0001
1000
0010
2000
0000
0000
0000
,
3001
0001
1000
0000
0200
0000
0000
0000
,
0310
1000
0001
0100
0002
0000
0000
0000
,
1003
1000
0001
0000
2000
0000
0000
0000
,
3001
0010
0100
1000
0200
0000
0000
0000
,
0310
0010
0100
0000
0002
0000
0000
0000
,
1003
0100
0010
0001
0020
0000
0000
0000
,
0130
0100
0010
0000
0020
0000
0000
0000
,
0130
0001
1000
0010
2000
0000
0000
0000
,
3001
0001
1000
0000
0200
0000
0000
0000
,
0310
1000
0001
0100
0002
0000
0000
0000
,
1003
1000
0001
0000
1000
0000
1000
0000
,
1000
1000
0001
0001
,
0001
0001
0010
0010
,
0010
0010
0100
0100
,
0100
0100
2000
0000
,
0000
0000
3002
0000
,
0013
0010
0100
0000
0002
0000
0000
0000
,
0000
0000
2003
0000
,
3001
1000
0001
0000
1001
0000
0000
0000
;

//---------------dance-single - ----------------
#NOTES:
     dance-single:
     :
     Medium:
     11:
     0.440591,0.550518,0.096930,0.370096,0.000000,350.000000,339.000000,11.000000,42.000000,4.000000,0.000000,0.440591,0.550518,0.096930,0.370096,0.000000,350.000000,339.000000,11.000000,42.000000,4.000000,0.000000:
0000
0000
0000
0000
,
0000
0000
0000
0000
,
0000
0000
0000
0000
,
0000
0000
0000
0000
,
0000
0000
0000
0000
,
0000
1000
0000
1000
,
0000
1000
0000
1000
,
0000
0001
0000
0001
,
0000
0000
2002
3003
,
1000
0100
0001
0100
1000
0100
0001
0100
,
0010
0100
0010
0000
1000
0010
1000
0000
,
0001
0010
1000
0010
0001
0010
1000
0010
,
0100
0010
0100
0000
0001
0100
0001
0000
,
0010
1000
0100
1000
0010
1000
0100
1000
,
0001
1000
0001
0000
0010
0001
0010
0000
,
0100
0001
0010
0001
0100
0001
0010
0001
,
1000
0001
1000
0000
0100
1000
0100
0000
,
1000
0100
0001
0100
1000
0100
0001
0100
,
0010
0100
0010
0000
1000
0010
1000
0000
,
0001
0010
1000
0010
0001
0010
1000
0010
,
0100
0010
0100
0000
0001
0100
0001
0000
,
0010
1000
0100
1000
0010
1000
0100
1000
,
0001
1000
0001
0000
0010
0001
0010
0000
,
0100
0001
0010
0001
0100
0001
0010
0001
,
1001
1001
1001
1001
,
2000
0000
0000
0000
3001
0010
0100
1000
,
0200
0000
0000
0000
0310
0010
0100
0100
,
0002
0000
0000
0000
1003
0100
0010
0001
,
0020
0000
0000
0000
0130
0100
0010
0010
,
0020
0000
0000
0000
0130
0001
1000
0010
,
2000
0000
0000
0000
3001
0001
1000
1000
,
0200
0000
0000
0000
0310
1000
0001
0100
,
0002
0000
0000
0000
1003
1000
0001
0001
,
2000
0000
0000
0000
3001
0010
0100
1000
,
0200
0000
0000
0000
0310
0010
0100
0100
,
0002
0000
0000
0000
1003
0100
0010
0001
,
0020
0000
0000
0000
0130
0100
0010
0010
,
0020
0000
0000
0000
0130
0001
1000
0010
,
2000
0000
0000
0000
3001
0001
1000
1000
,
0200
0000
0000
0000
0310
1000
0001
0100
,
1001
0110
1001
0110
,
1000
0000
1000
1000
,
1000
0000
0002
1003
,
0001
0000
0001
0001
,
0001
0000
2000
3001
,
0010
0000
0010
0010
,
0010
0000
0200
0310
,
0100
0000
0100
0100
,
2002
3003
0000
0000
MMMM
0000
0000
0000
,
0001
0010
0100
1000
2000
0000
0000
0000
,
3001
0010
0100
1000
0200
0000
0000
0000
,
0310
0010
0100
0100
0002
0000
0000
0000
,
1003
0100
0010
0001
0020
0000
0000
0000
,
0130
0100
0010
0010
0020
0000
0000
0000
,
0130
0001
1000
0010
2000
0000
0000
0000
,
3001
0001
1000
1000
0200
0000
0000
0000
,
0310
1000
0001
0100
0002
0000
0000
0000
,
1003
1000
0001
0001
2000
0000
0000
0000
,
3001
0010
0100
1000
0200
0000
0000
0000
,
0310
0010
0100
0100
0002
0000
0000
0000
,
1003
0100
0010
0001
0020
0000
0000
0000
,
0130
0100
0010
0010
0020
0000
0000
0000
,
0130
0001
1000
0010
2000
0000
0000
0000
,
3001
0001
1000
1000
0200
0000
0000
0000
,
0310
1000
0001
0100
0002
0000
0000
0000
,
1003
1000
0001
0001
1000
0001
1000
0000
,
1000
0000
1000
0001
0001
0000
0001
0000
,
0001
0000
0001
1000
0010
0100
0010
0000
,
0010
0000
0010
0100
0100
0000
0100
0000
,
0100
0000
0100
0010
2000
0000
0000
0000
,
0001
0000
3002
0000
,
0013
0010
0100
0100
0002
0000
0000
0000
,
1000
0000
2003
0000
,
3001
1000
0001
1000
1001
0000
0000
0000
;

//---------------dance-single - ----------------
#NOTES:
     dance-single:
     :
     Hard:
     12:
     0.482132,0.582902,0.114554,0.370096,0.101336,383.000000,370.000000,13.000000,42.000000,4.000000,0.000000,0.482132,0.582902,0.114554,0.370096,0.101336,383.000000,370.000000,13.000000,42.000000,4.000000,0.000000:
0000
0000
0000
0000
,
0000
0000
0000
0000
,
0000
0000
0000
0000
,
0000
0000
0000
0000
,
0000
0000
0000
0000
,
0000
1001
0000
1000
,
0000
1000
0000
1000
,
0000
1001
0000
0001
,
0000
0000
2002
3003
,
1000
0100
0001
0100
1000
0100
0001
0100
,
0010
0000
0100
0000
0010
0000
0000
0000
1000
0000
0010
0000
1000
0010
0000
0000
,
0001
0010
1000
0010
0001
0010
1000
0010
,
0100
0000
0010
0000
0100
0000
0000
0000
0001
0000
0100
0000
0001
0100
0000
0000
,
0010
1000
0100
1000
0010
1000
0100
1000
,
0001
0000
1000
0000
0001
0000
0000
0000
0010
0000
0001
0000
0010
0001
0000
0000
,
0100
0001
0010
0001
0100
0001
0010
0001
,
1000
0000
0001
0000
1000
0000
0000
0000
0100
0000
1000
0000
0100
1000
0000
0000
,
1000
0100
0001
0100
1000
0100
0001
0100
,
0010
0000
0100
0000
0010
0000
0000
0000
1000
0000
0010
0000
1000
0010
0000
0000
,
0001
0010
1000
0010
0001
0010
1000
0010
,
0100
0000
0010
0000
0100
0000
0000
0000
0001
0000
0100
0000
0001
0100
0000
0000
,
0010
1000
0100
1000
0010
1000
0100
1000
,
0001
0000
1000
0000
0001
0000
0000
0000
0010
0000
0001
0000
0010
0001
0000
0000
,
0100
0001
0010
0001
0100
0001
0010
0001
,
1001
0000
1001
0000
1001
0000
1001
0100
,
2000
0000
0000
0000
3001
0010
0100
1000
,
0200
0000
0000
0000
0000
0000
0000
0000
0310
0100
0010
0000
0100
0000
0100
0000
,
0002
0000
0000
0000
1003
0100
0010
0001
,
0020
0000
0000
0000
0000
0000
0000
0000
0130
0010
0100
0000
0010
0000
0010
0000
,
0020
0000
0000
0000
0130
0001
1000
0010
,
2000
0000
0000
0000
0000
0000
0000
0000
3001
1000
0001
0000
1000
0000
1000
0000
,
0200
0000
0000
0000
0310
1000
0001
0100
,
0002
0000
0000
0000
0000
0000
0000
0000
1003
0001
1000
0000
0001
0000
0001
0000
,
2000
0000
0000
0000
3001
0010
0100
1000
,
0200
0000
0000
0000
0000
0000
0000
0000
0310
0100
0010
0000
0100
0000
0100
0000
,
0002
0000
0000
0000
1003
0100
0010
0001
,
0020
0000
0000
0000
0000
0000
0000
0000
0130
0010
0100
0000
0010
0000
0010
0000
,
0020
0000
0000
0000
0130
0001
1000
0010
,
2000
0000
0000
0000
0000
0000
0000
0000
3001
1000
0001
0000
1000
0000
1000
0000
,
0200
0000
0000
0000
0310
1000
0001
0100
,
1001
0110
1001
0110
,
1000
0000
1000
1000
,
1000
0001
0002
1003
,
0001
0000
0001
0001
,
0001
1000
2000
3001
,
0010
0000
0010
0010
,
0010
0100
0200
0310
,
0100
0000
0100
0100
,
2002
3003
0000
0000
MMMM
0000
0000
0000
,
0001
0010
0100
1000
2000
0000
0000
0000
,
3001
0010
0100
1000
0200
0000
0000
0000
,
0310
0100
0010
0000
0100
0000
0100
0000
0002
0000
0000
0000
0000
0000
0000
0000
,
1003
0100
0010
0001
0020
0000
0000
0000
,
0130
0010
0100
0000
0010
0000
0010
0000
0020
0000
0000
0000
0000
0000
0000
0000
,
0130
0001
1000
0010
2000
0000
0000
0000
,
3001
1000
0001
0000
1000
0000
1000
0000
0200
0000
0000
0000
0000
0000
0000
0000
,
0310
1000
0001
0100
0002
0000
0000
0000
,
1003
0001
1000
0000
0001
0000
0001
0000
2000
0000
0000
0000
0000
0000
0000
0000
,
3001
0010
0100
1000
0200
0000
0000
0000
,
0310
0100
0010
0000
0100
0000
0100
0000
0002
0000
0000
0000
0000
0000
0000
0000
,
1003
0100
0010
0001
0020
0000
0000
0000
,
0130
0010
0100
0000
0010
0000
0010
0000
0020
0000
0000
0000
0000
0000
0000
0000
,
0130
0001
1000
0010
2000
0000
0000
0000
,
3001
1000
0001
0000
1000
0000
1000
0000
0200
0000
0000
0000
0000
0000
0000
0000
,
0310
1000
0001
0100
0002
0000
0000
0000
,
1003
0001
1000
0000
0001
0000
0001
0000
1000
0000
0001
0000
1000
0000
0000
0000
,
1000
0000
1000
0001
0001
1000
0001
0000
,
0001
0000
0001
1000
0010
0100
0010
0000
,
0010
0000
0010
0100
0100
0010
0100
0000
,
0100
0000
0100
0010
2000
0000
0000
0000
,
0001
0001
3002
0000
,
0013
0100
0010
0000
0100
0000
0100
0000
0002
0000
0000
0000
0000
0000
0000
0000
,
1000
1000
2003
0000
,
3001
1000
0001
1000
1001
0000
0000
0000
;

//---------------dance-single - ----------------
#NOTES:
     dance-single:
     :
     Challenge:
     13:
     0.521156,0.647668,0.123365,0.370096,0.176236,414.000000,400.000000,14.000000,42.000000,4.000000,0.000000,0.521156,0.647668,0.123365,0.370096,0.176236,414.000000,400.000000,14.000000,42.000000,4.000000,0.000000:
0000
0000
0000
0000
,
0000
0000
0000
0000
,
0000
0000
0000
0000
,
0000
0000
0000
0000
,
0000
0000
0000
0000
,
0000
1001
0000
1000
,
0000
1000
0000
1000
,
0000
1001
0000
0001
,
0000
1001
2002
3003
,
1000
0100
0001
0100
1000
0100
0001
0100
,
0010
0000
0100
0000
0010
0000
0000
0000
1000
0000
0010
0000
1000
0010
1000
0000
,
0001
0010
1000
0010
0001
0010
1000
0010
,
0100
0000
0010
0000
0100
0000
0000
0000
0001
0000
0100
0000
0001
0100
0001
0000
,
0010
1000
0100
1000
0010
1000
0100
1000
,
0001
0000
1000
0000
0001
0000
0000
0000
0010
0000
0001
0000
0010
0001
0010
0000
,
0100
0001
0010
0001
0100
0001
0010
0001
,
1000
0000
0001
0000
1000
0000
0000
0000
0100
0000
1000
0000
0100
1000
0100
0000
,
1000
0100
0001
0100
1000
0100
0001
0100
,
0010
0000
0100
0000
0010
0000
0000
0000
1000
0000
0010
0000
1000
0010
1000
0000
,
0001
0010
1000
0010
0001
0010
1000
0010
,
0100
0000
0010
0000
0100
0000
0000
0000
0001
0000
0100
0000
0001
0100
0001
0000
,
0010
1000
0100
1000
0010
1000
0100
1000
,
0001
0000
1000
0000
0001
0000
0000
0000
0010
0000
0001
0000
0010
0001
0010
0000
,
0100
0001
0010
0001
0100
0001
0010
0001
,
1001
0000
1001
0000
1001
0010
1001
0100
,
2000
0000
0000
0000
0000
0000
0000
0000
3001
1000
0010
0000
0100
0000
1000
0000
,
0200
0000
0000
0000
0000
0000
0000
0000
0310
0100
0010
0000
0100
0000
0100
0000
,
0002
0000
0000
0000
0000
0000
0000
0000
1003
0001
0100
0000
0010
0000
0001
0000
,
0020
0000
0000
0000
0000
0000
0000
0000
0130
0010
0100
0000
0010
0000
0010
0000
,
0020
0000
0000
0000
0000
0000
0000
0000
0130
0010
0001
0000
1000
0000
0010
0000
,
2000
0000
0000
0000
0000
0000
0000
0000
3001
1000
0001
0000
1000
0000
1000
0000
,
0200
0000
0000
0000
0000
0000
0000
0000
0310
0100
1000
0000
0001
0000
0100
0000
,
0002
0000
0000
0000
0000
0000
0000
0000
1003
0001
1000
0000
0001
0000
0001
0000
,
2000
0000
0000
0000
0000
0000
0000
0000
3001
1000
0010
0000
0100
0000
1000
0000
,
0200
0000
0000
0000
0000
0000
0000
0000
0310
0100
0010
0000
0100
0000
0100
0000
,
0002
0000
0000
0000
0000
0000
0000
0000
1003
0001
0100
0000
0010
0000
0001
0000
,
0020
0000
0000
0000
0000
0000
0000
0000
0130
0010
0100
0000
0010
0000
0010
0000
,
0020
0000
0000
0000
0000
0000
0000
0000
0130
0010
0001
0000
1000
0000
0010
0000
,
2000
0000
0000
0000
0000
0000
0000
0000
3001
1000
0001
0000
1000
0000
1000
0000
,
0200
0000
0000
0000
0000
0000
0000
0000
0310
0100
1000
0000
0001
0000
0100
0000
,
1001
0110
1001
0110
,
1000
1000
1000
1000
,
1000
0001
0002
1003
,
0001
0001
0001
0001
,
0001
1000
2000
3001
,
0010
0010
0010
0010
,
0010
0100
0200
0310
,
0100
0100
0100
0100
,
2002
3003
0000
0000
MMMM
0000
0000
0000
,
0001
0010
0100
1000
2000
0000
0000
0000
,
3001
1000
0010
0000
0100
0000
1000
0000
0200
0000
0000
0000
0000
0000
0000
0000
,
0310
0100
0010
0000
0100
0000
0100
0000
0002
0000
0000
0000
0000
0000
0000
0000
,
1003
0001
0100
0000
0010
0000
0001
0000
0020
0000
0000
0000
0000
0000
0000
0000
,
0130
0010
0100
0000
0010
0000
0010
0000
0020
0000
0000
0000
0000
0000
0000
0000
,
0130
0010
0001
0000
1000
0000
0010
0000
2000
0000
0000
0000
0000
0000
0000
0000
,
3001
1000
0001
0000
1000
0000
1000
0000
0200
0000
0000
0000
0000
0000
0000
0000
,
0310
0100
1000
0000
0001
0000
0100
0000
0002
0000
0000
0000
0000
0000
0000
0000
,
1003
0001
1000
0000
0001
0000
0001
0000
2000
0000
0000
0000
0000
0000
0000
0000
,
3001
1000
0010
0000
0100
0000
1000
0000
0200
0000
0000
0000
0000
0000
0000
0000
,
0310
0100
0010
0000
0100
0000
0100
0000
0002
0000
0000
0000
0000
0000
0000
0000
,
1003
0001
0100
0000
0010
0000
0001
0000
0020
0000
0000
0000
0000
0000
0000
0000
,
0130
0010
0100
0000
0010
0000
0010
0000
0020
0000
0000
0000
0000
0000
0000
0000
,
0130
0010
0001
0000
1000
0000
0010
0000
2000
0000
0000
0000
0000
0000
0000
0000
,
3001
1000
0001
0000
1000
0000
1000
0000
0200
0000
0000
0000
0000
0000
0000
0000
,
0310
0100
1000
0000
0001
0000
0100
0000
0002
0000
0000
0000
0000
0000
0000
0000
,
1003
0001
1000
0000
0001
0000
0001
0000
1000
0000
0001
0000
1000
0000
0000
0000
,
1000
0000
1000
0001
0001
1000
0001
0000
,
0001
0000
0001
1000
0010
0100
0010
0000
,
0010
0000
0010
0100
0100
0010
0100
0000
,
0100
0000
0100
0010
2000
0000
0000
0000
,
0001
0001
3002
0000
,
0013
0100
0010
0000
0100
0000
0100
0000
0002
0000
0000
0000
0000
0000
0000
0000
,
1000
1000
2003
0000
,
3001
0000
1000
0000
0001
1000
0001
0000
1001
0000
0000
0000
0000
0000
0000
0000
;

//---------------dance-single - Enjoy----------------
#NOTES:
     dance-single:
     :
     Edit:
     1:
     0.021400,0.064767,0.008812,0.026435,0.000000,17.000000,16.000000,1.000000,3.000000,0.000000,0.000000,0.021400,0.064767,0.008812,0.026435,0.000000,17.000000,16.000000,1.000000,3.000000,0.000000,0.000000:
0000
0000
0000
0000
,
0000
0000
0000
0000
,
0000
0000
0000
0000
,
0000
0000
0000
0000
,
0000
0000
0000
0000
,
0000
0000
0000
0000
,
0000
0000
0000
0000
,
0000
0000
0000
0000
,
0000
0000
0000
0000
,
1000
0000
0000
0000
,
0000
0000
0000
0000
,
0000
0000
0000
0000
,
0000
0000
0000
0000
,
0001
0000
0000
0000
,
0000
0000
0000
0000
,
0000
0000
0000
0000
,
0000
0000
0000
0000
,
1000
0000
0000
0000
,
0000
0000
0000
0000
,
0000
0000
0000
0000
,
0000
0000
0000
0000
,
0001
0000
0000
0000
,
0000
0000
0000
0000
,
0000
0000
0000
0000
,
0000
0000
0000
0000
,
0010
0000
0000
0000
,
0000
0000
0000
0000
,
0000
0000
0000
0000
,
0000
0000
0000
0000
,
0010
0000
0000
0000
,
0000
0000
0000
0000
,
0000
0000
0000
0000
,
0000
0000
0000
0000
,
0100
0000
0000
0000
,
0000
0000
0000
0000
,
0000
0000
0000
0000
,
0000
0000
0000
0000
,
0100
0000
0000
0000
,
0000
0000
0000
0000
,
0000
0000
0000
0000
,
0000
0000
0000
0000
,
0020
0000
0000
0000
,
0000
0000
0000
0000
,
0000
0000
0000
0000
,
0000
0000
0000
0000
,
0000
0000
0000
0000
,
0000
0000
0000
0000
,
0000
0000
0000
0000
,
0000
0000
0000
0000
,
0030
0000
0100
0000
,
0000
0000
0000
0000
,
0000
0000
0000
0000
,
0000
0000
0000
0000
,
0000
0000
0100
0000
,
0000
0000
0000
0000
,
0000
0000
0000
0000
,
0000
0000
0000
0000
,
0000
0000
0010
0000
,
0000
0000
0000
0000
,
0000
0000
0000
0000
,
0000
0000
0000
0000
,
0000
0000
0010
0000
,
0000
0000
0000
0000
,
0000
0000
0000
0000
,
0000
0000
0000
0000
,
0000
0000
0020
0000
,
0000
0000
0000
0000
,
0000
0000
0000
0000
,
0000
0000
0000
0000
,
0000
0030
0200
0000
,
0000
0000
0000
0000
,
0000
0000
0000
0000
,
0000
0000
0000
0000
,
0300
0000
1001
0000
;

//---------------dance-single - Hell----------------
#NOTES:
     dance-single:
     :
     Edit:
     21:
     1.282748,1.165803,0.775440,0.370096,1.806422,1019.000000,931.000000,88.000000,42.000000,12.000000,0.000000,1.282748,1.165803,0.775440,0.370096,1.806422,1019.000000,931.000000,88.000000,42.000000,12.000000,0.000000:
0000
0000
0000
0000
,
0000
0000
0000
0000
,
0000
0000
0000
0000
,
0000
0000
0000
0000
,
0000
0000
0000
0000
,
1000
0010
1000
0010
0001
0100
0001
0100
,
0001
0010
0001
0010
1000
0100
0010
0001
,
0010
0100
1000
0001
0010
0100
1000
0001
,
1001
1001
2002
3003
,
1010
0100
0011
0100
1010
0100
0011
0100
,
1000
0000
0000
0010
0000
0000
1000
0000
0000
0010
0000
0000
0100
0000
0000
0001
0000
0000
0100
0000
0000
0001
0000
0000
0010
0000
0000
0100
0000
0000
0010
0000
0000
0100
0000
0000
0010
0000
1000
0000
0010
0000
1000
0000
0010
0000
1000
0000
,
0101
0010
1100
0010
0101
0010
1100
0010
,
0001
0000
0000
0100
0000
0000
0001
0000
0000
0100
0000
0000
0010
0000
0000
1000
0000
0000
0010
0000
0000
1000
0000
0000
0100
0000
0000
0010
0000
0000
0100
0000
0000
0010
0000
0000
0100
0000
0001
0000
0100
0000
0001
0000
0100
0000
0001
0000
,
0011
1000
0101
1000
0011
1000
0101
1000
,
0010
0000
0000
0001
0000
0000
0010
0000
0000
0001
0000
0000
1000
0000
0000
0100
0000
0000
1000
0000
0000
0100
0000
0000
0001
0000
0000
1000
0000
0000
0001
0000
0000
1000
0000
0000
0001
0000
0010
0000
0001
0000
0010
0000
0001
0000
0010
0000
,
1100
0001
1010
0001
1100
0001
1010
0001
,
0100
0000
0000
1000
0000
0000
0100
0000
0000
1000
0000
0000
0001
0000
0000
0010
0000
0000
0001
0000
0000
0010
0000
0000
1000
0000
0000
0001
0000
0000
1000
0000
0000
0001
0000
0000
1000
0000
0100
0000
1000
0000
0100
0000
1000
0000
0100
0000
,
0101
0010
1100
0010
0101
0010
1100
0010
,
0001
0000
0000
0100
0000
0000
0001
0000
0000
0100
0000
0000
0010
0000
0000
1000
0000
0000
0010
0000
0000
1000
0000
0000
0100
0000
0000
0010
0000
0000
0100
0000
0000
0010
0000
0000
0100
0000
0001
0000
0100
0000
0001
0000
0100
0000
0001
0000
,
1010
0100
0011
0100
1010
0100
0011
0100
,
1000
0000
0000
0010
0000
0000
1000
0000
0000
0010
0000
0000
0100
0000
0000
0001
0000
0000
0100
0000
0000
0001
0000
0000
0010
0000
0000
0100
0000
0000
0010
0000
0000
0100
0000
0000
0010
0000
1000
0000
0010
0000
1000
0000
0010
0000
1000
0000
,
1100
0001
1010
0001
1100
0001
1010
0001
,
0100
0000
0000
1000
0000
0000
0100
0000
0000
1000
0000
0000
0001
0000
0000
0010
0000
0000
0001
0000
0000
0010
0000
0000
1000
0000
0000
0001
0000
0000
1000
0000
0000
0001
0000
0000
1000
0000
0100
0000
1000
0000
0100
0000
1000
0000
0100
0000
,
0011
1000
0101
1000
0011
1000
0101
1000
,
1010
1000
0010
0000
0101
0001
0100
0000
1010
0010
1000
0000
0101
0100
0001
0000
,
0120
0000
0000
0100
0000
0000
1000
0000
0000
1000
0000
0000
1030
0010
1000
0010
1000
0010
0100
0001
0100
0001
0100
0001
,
1020
0000
0000
0001
0000
0000
0100
0000
0000
0001
0000
0000
1030
0100
0010
0001
1000
0100
0010
0001
1000
0100
0010
0001
,
0210
0000
0000
0010
0000
0000
0001
0000
0000
0001
0000
0000
0301
0100
0001
0100
0001
0100
0010
1000
0010
1000
0010
1000
,
0201
0000
0000
1000
0000
0000
0010
0000
0000
1000
0000
0000
0301
0010
0100
1000
0001
0010
0100
1000
0001
0010
0100
1000
,
1002
0000
0000
1000
0000
0000
0010
0000
0000
0010
0000
0000
0013
0001
0010
0001
0010
0001
1000
0100
1000
0100
1000
0100
,
0012
0000
0000
0100
0000
0000
1000
0000
0000
0100
0000
0000
0013
1000
0001
0100
0010
1000
0001
0100
0010
1000
0001
0100
,
2001
0000
0000
0001
0000
0000
0100
0000
0000
0100
0000
0000
3100
1000
0100
1000
0100
1000
0001
0010
0001
0010
0001
0010
,
2100
0000
0000
0010
0000
0000
0001
0000
0000
0010
0000
0000
3100
0001
1000
0010
0100
0001
1000
0010
0100
0001
1000
0010
,
0210
0000
0000
0010
0000
0000
0001
0000
0000
0001
0000
0000
0301
0100
0001
0100
0001
0100
0010
1000
0010
1000
0010
1000
,
0201
0000
0000
1000
0000
0000
0010
0000
0000
1000
0000
0000
0301
0010
0100
1000
0001
0010
0100
1000
0001
0010
0100
1000
,
0120
0000
0000
0100
0000
0000
1000
0000
0000
1000
0000
0000
1030
0010
1000
0010
1000
0010
0100
0001
0100
0001
0100
0001
,
1020
0000
0000
0001
0000
0000
0100
0000
0000
0001
0000
0000
1030
0100
0010
0001
1000
0100
0010
0001
1000
0100
0010
0001
,
2001
0000
0000
0001
0000
0000
0100
0000
0000
0100
0000
0000
3100
1000
0100
1000
0100
1000
0001
0010
0001
0010
0001
0010
,
2100
0000
0000
0010
0000
0000
0001
0000
0000
0010
0000
0000
3100
0001
1000
0010
0100
0001
1000
0010
0100
0001
1000
0010
,
1002
0000
0000
1000
0000
0000
0010
0000
0000
0010
0000
0000
0013
0001
0010
0001
0010
0001
1000
0100
1000
0100
1000
0100
,
0012
0000
0000
0100
0000
0000
1000
0000
0000
0100
0000
0000
0013
1000
0001
0100
0010
1000
0001
0100
0010
1000
0001
0100
,
0021
0100
1000
0100
0001
0100
1000
0100
,
1030
0001
0100
0010
1000
0001
0100
0010
1000
0010
1000
0010
0100
0001
0100
0001
,
1200
0010
0001
0010
1000
0010
0001
0010
,
0301
1000
0010
0100
0001
1000
0010
0100
0001
0100
0001
0100
0010
1000
0010
1000
,
0021
0100
1000
0100
0001
0100
1000
0100
,
1030
0001
0100
0010
1000
0001
0100
0010
1000
0010
1000
0010
0100
0001
0100
0001
,
1200
0010
0001
0010
1000
0010
0001
0010
,
0310
MMMM
MMMM
MMMM
,
1000
0001
1000
0001
1000
0001
1000
0001
1000
0001
1000
0001
0120
0000
0000
0100
0000
0000
1000
0000
0000
1000
0000
0000
,
1030
0010
1000
0010
1000
0010
0100
0001
0100
0001
0100
0001
1020
0000
0000
0001
0000
0000
0100
0000
0000
0001
0000
0000
,
1030
0100
0010
0001
1000
0100
0010
0001
1000
0100
0010
0001
0210
0000
0000
0010
0000
0000
0001
0000
0000
0001
0000
0000
,
0301
0100
0001
0100
0001
0100
0010
1000
0010
1000
0010
1000
0201
0000
0000
1000
0000
0000
0010
0000
0000
1000
0000
0000
,
0301
0010
0100
1000
0001
0010
0100
1000
0001
0010
0100
1000
1002
0000
0000
1000
0000
0000
0010
0000
0000
0010
0000
0000
,
0013
0001
0010
0001
0010
0001
1000
0100
1000
0100
1000
0100
0012
0000
0000
0100
0000
0000
1000
0000
0000
0100
0000
0000
,
0013
1000
0001
0100
0010
1000
0001
0100
0010
1000
0001
0100
2001
0000
0000
0001
0000
0000
0100
0000
0000
0100
0000
0000
,
3100
1000
0100
1000
0100
1000
0001
0010
0001
0010
0001
0010
2100
0000
0000
0010
0000
0000
0001
0000
0000
0010
0000
0000
,
3100
0001
1000
0010
0100
0001
1000
0010
0100
0001
1000
0010
0210
0000
0000
0010
0000
0000
0001
0000
0000
0001
0000
0000
,
0301
0100
0001
0100
0001
0100
0010
1000
0010
1000
0010
1000
0201
0000
0000
1000
0000
0000
0010
0000
0000
1000
0000
0000
,
0301
0010
0100
1000
0001
0010
0100
1000
0001
0010
0100
1000
0120
0000
0000
0100
0000
0000
1000
0000
0000
1000
0000
0000
,
1030
0010
1000
0010
1000
0010
0100
0001
0100
0001
0100
0001
1020
0000
0000
0001
0000
0000
0100
0000
0000
0001
0000
0000
,
1030
0100
0010
0001
1000
0100
0010
0001
1000
0100
0010
0001
2001
0000
0000
0001
0000
0000
0100
0000
0000
0100
0000
0000
,
3100
1000
0100
1000
0100
1000
0001
0010
0001
0010
0001
0010
2100
0000
0000
0010
0000
0000
0001
0000
0000
0010
0000
0000
,
3100
0001
1000
0010
0100
0001
1000
0010
0100
0001
1000
0010
1002
0000
0000
1000
0000
0000
0010
0000
0000
0010
0000
0000
,
0013
0001
0010
0001
0010
0001
1000
0100
1000
0100
1000
0100
0012
0000
0000
0100
0000
0000
1000
0000
0000
0100
0000
0000
,
0013
0000
1000
0000
0001
0000
0100
0000
0010
0000
1000
0000
0001
0000
0100
0000
0010
0000
1000
0000
0001
0000
0100
0000
0021
0000
0000
0100
0000
0000
0000
0000
0000
0000
0000
0000
0100
0000
0000
0001
0000
0000
0000
0000
0000
0000
0000
0000
,
0001
0100
0000
0000
0100
0001
0000
0000
0031
0100
1000
0100
0001
0100
1000
0100
,
0011
0100
0010
0100
1010
0100
0001
0100
1200
0010
0000
0000
0010
1000
0000
0000
,
1000
0010
0000
0000
0010
1000
0000
0000
1300
0010
0001
0010
1000
0010
0001
0010
,
1100
0010
0100
0010
0101
0010
1000
0010
0102
1000
0000
0000
1000
0100
0000
0000
,
0100
1000
0000
0000
1000
0100
0000
0000
0103
1000
0010
1000
0100
1000
0010
1000
,
0101
1000
0001
1000
0011
1000
0100
1000
2010
0001
0000
0000
0001
0010
0000
0000
,
0010
0001
0000
0000
0001
0010
0000
0000
3010
0001
0100
0001
0010
0001
0100
0001
,
1010
0001
1000
0001
1100
0001
0010
0001
1001
0000
0000
0000
0000
0000
0000
0000
;
