#TITLE:MAX! 乙女心;
#SUBTITLE:;
#ARTIST:SUPER☆GiRLS;
#TITLETRANSLIT:Max! Girl's Heart;
#SUBTITLETRANSLIT:;
#ARTISTTRANSLIT:Super☆Girls;
#GENRE:;
#CREDIT:;
#BANNER:;
#BACKGROUND:;
#LYRICSPATH:;
#CDTITLE:;
#MUSIC:MAX Otomegokoro.ogg;
#OFFSET:-0.567000;
#SAMPLESTART:72.567001;
#SAMPLELENGTH:15.000000;
#SELECTABLE:YES;
#BPMS:0.000000=140.000000
;
#STOPS:
;
#BGCHANGES:;
#KEYSOUNDS:;
#ATTACKS:;

//---------------dance-single - ----------------
#NOTES:
     dance-single:
     :
     Easy:
     10:
     0.378936,0.460552,0.029149,0.236835,0.165784,728.000000,720.000000,8.000000,65.000000,0.000000,0.000000,0.378936,0.460552,0.029149,0.236835,0.165784,728.000000,720.000000,8.000000,65.000000,0.000000,0.000000:
// measure 0
0000
0000
0000
0000
,  // measure 1
0000
0000
0000
0000
,  // measure 2
0000
0000
0000
0000
,  // measure 3
0000
0000
0000
0000
,  // measure 4
0000
0000
0000
0000
,  // measure 5
0000
0000
0000
0000
,  // measure 6
0000
0000
0000
0000
,  // measure 7
0000
0000
0000
0000
,  // measure 8
0000
0000
0000
0000
,  // measure 9
1000
0010
0000
0000
0010
0000
0000
0000
0010
0000
0100
0000
0010
0000
0010
0000
,  // measure 10
0100
0001
0000
0000
1000
0000
0000
0000
0100
0000
0010
0000
0001
0000
0010
0000
,  // measure 11
0001
0100
0000
0000
0100
0000
0000
0000
0100
0000
0010
0000
0100
0000
0100
0000
,  // measure 12
0010
1000
0000
0000
0001
0000
0000
0000
0010
0000
0100
0000
1000
0000
0100
0000
,  // measure 13
0010
0001
0000
0000
0001
0000
0000
0000
0001
0000
1000
0000
0001
0000
0001
0000
,  // measure 14
1000
0100
0000
0000
0010
0000
0000
0000
1000
0000
0001
0000
0100
0000
0001
0000
,  // measure 15
0100
1000
0000
0000
1000
0000
0000
0000
1000
0000
0001
0000
1000
0000
1000
0000
,  // measure 16
0100
0000
0000
0100
0000
0000
0100
0010
0200
0000
0000
0000
0000
0000
0000
0300
,  // measure 17
1000
0000
1000
0000
0001
1000
0010
0000
,  // measure 18
0001
0000
1000
0000
0001
0010
1000
0000
,  // measure 19
0001
0000
0001
0000
1000
0001
0100
0000
,  // measure 20
1000
0000
0001
0000
1000
0100
0001
0000
,  // measure 21
0010
0000
0010
0000
0100
0010
0001
0000
,  // measure 22
0100
0000
0010
0000
0100
0001
0010
0000
,  // measure 23
0100
0000
0100
0000
0010
0100
1000
0000
,  // measure 24
0010
0000
0100
0000
0010
1000
0100
0000
,  // measure 25
1000
0000
1000
0000
0001
1000
0010
0000
,  // measure 26
0001
0000
1000
0000
0001
0010
1000
0000
,  // measure 27
0001
0000
0001
0000
1000
0001
0100
0000
,  // measure 28
1000
0000
0001
0000
1000
0100
0001
0000
,  // measure 29
0010
0000
0010
0000
0100
0010
0001
0000
,  // measure 30
0100
0000
0010
0000
0100
0001
0010
0000
,  // measure 31
0100
0000
0100
0000
0010
0100
1000
0000
,  // measure 32
0010
0000
0100
0000
0010
1000
0100
0000
,  // measure 33
2000
0000
0100
0000
0010
0000
0001
3000
,  // measure 34
1000
0010
0000
0000
0010
0000
0000
0000
0010
0100
0000
0000
1000
0000
0000
0000
,  // measure 35
0002
0000
0010
0000
0100
0000
1000
0003
,  // measure 36
0001
0100
0000
0000
0100
0000
0000
0000
0100
0010
0000
0000
0001
0000
0000
0000
,  // measure 37
0020
0000
1000
0000
0001
0000
0100
0030
,  // measure 38
0010
0001
0000
0000
0001
0000
0000
0000
0001
1000
0000
0000
0010
0000
0000
0000
,  // measure 39
0200
0000
0001
0000
1000
0000
0010
0300
,  // measure 40
0100
1000
0000
0000
1000
0000
0000
0000
1000
0001
0000
0000
0100
0000
0000
0000
,  // measure 41
2002
0000
0000
0000
0000
0000
0000
3003
,  // measure 42
0010
0000
2000
0010
0000
0010
0000
3010
,  // measure 43
0001
0000
0000
0000
0001
1000
0000
0000
0010
0000
0000
0000
0001
1000
0000
0000
,  // measure 44
0100
0000
0002
0100
0000
0100
0000
0103
,  // measure 45
1000
0000
0000
0000
1000
0001
0000
0000
0100
0000
0000
0000
1000
0001
0000
0000
,  // measure 46
0001
0000
0020
0001
0000
0001
0000
0031
,  // measure 47
0100
0000
0000
0000
0100
0010
0000
0000
0001
0000
0000
0000
0100
0010
0000
0000
,  // measure 48
1000
0000
0200
1000
0000
1000
0000
1300
,  // measure 49
0010
0000
0000
0000
0010
0100
0000
0000
1000
0000
0000
0000
0010
0100
0000
0000
,  // measure 50
0010
0000
2000
0010
0000
0010
0000
3010
,  // measure 51
0001
0000
0000
0000
0001
1000
0000
0000
0010
0000
0000
0000
0001
1000
0000
0000
,  // measure 52
0100
0000
0002
0100
0000
0100
0000
0103
,  // measure 53
1000
0000
0000
0000
1000
0001
0000
0000
0100
0000
0000
0000
1000
0001
0000
0000
,  // measure 54
0001
0000
0020
0001
0000
0001
0000
0031
,  // measure 55
0100
0000
0000
0000
0100
0010
0000
0000
0001
0000
0000
0000
0100
0010
0000
0000
,  // measure 56
1000
0000
0200
1000
0000
1000
0000
1300
,  // measure 57
0010
0000
0000
0000
0010
0100
0000
0000
1000
0000
0000
0000
0010
0100
0000
0000
,  // measure 58
2002
0000
0000
3003
0010
0010
0020
0000
,  // measure 59
0000
0030
0100
0100
0200
0000
0000
0300
,  // measure 60
1000
0010
0000
0000
0010
0000
0000
0000
0010
0000
0100
0000
0010
0000
0010
0000
,  // measure 61
0100
0001
0000
0000
1000
0000
0000
0000
0100
0000
0010
0000
0001
0000
0010
0000
,  // measure 62
0001
0100
0000
0000
0100
0000
0000
0000
0100
0000
0010
0000
0100
0000
0100
0000
,  // measure 63
0010
1000
0000
0000
0001
0000
0000
0000
0010
0000
0100
0000
1000
0000
0100
0000
,  // measure 64
0010
0001
0000
0000
0001
0000
0000
0000
0001
0000
1000
0000
0001
0000
0001
0000
,  // measure 65
1000
0100
0000
0000
0010
0000
0000
0000
1000
0000
0001
0000
0100
0000
0001
0000
,  // measure 66
0100
1000
0000
0000
1000
0000
0000
0000
1000
0000
0001
0000
1000
0000
1000
0000
,  // measure 67
0100
0000
0000
0100
0000
0000
0100
0010
0200
0000
0000
0000
0000
0000
0000
0300
,  // measure 68
1000
0000
1000
0000
0001
1000
0010
0000
,  // measure 69
0001
0000
1000
0000
0001
0010
1000
0000
,  // measure 70
0001
0000
0001
0000
1000
0001
0100
0000
,  // measure 71
1000
0000
0001
0000
1000
0100
0001
0000
,  // measure 72
0010
0000
0010
0000
0100
0010
0001
0000
,  // measure 73
0100
0000
0010
0000
0100
0001
0010
0000
,  // measure 74
0100
0000
0100
0000
0010
0100
1000
0000
,  // measure 75
0010
0000
0100
0000
0010
1000
0100
0000
,  // measure 76
1000
0000
1000
0000
0001
1000
0010
0000
,  // measure 77
0001
0000
1000
0000
0001
0010
1000
0000
,  // measure 78
0001
0000
0001
0000
1000
0001
0100
0000
,  // measure 79
1000
0000
0001
0000
1000
0100
0001
0000
,  // measure 80
0010
0000
0010
0000
0100
0010
0001
0000
,  // measure 81
0100
0000
0010
0000
0100
0001
0010
0000
,  // measure 82
0100
0000
0100
0000
0010
0100
1000
0000
,  // measure 83
0010
0000
0100
0000
0010
1000
0100
0000
,  // measure 84
2000
0000
0100
0000
0010
0000
0001
3000
,  // measure 85
1000
0010
0000
0000
0010
0000
0000
0000
0010
0100
0000
0000
1000
0000
0000
0000
,  // measure 86
0002
0000
0010
0000
0100
0000
1000
0003
,  // measure 87
0001
0100
0000
0000
0100
0000
0000
0000
0100
0010
0000
0000
0001
0000
0000
0000
,  // measure 88
0020
0000
1000
0000
0001
0000
0100
0030
,  // measure 89
0010
0001
0000
0000
0001
0000
0000
0000
0001
1000
0000
0000
0010
0000
0000
0000
,  // measure 90
0200
0000
0001
0000
1000
0000
0010
0300
,  // measure 91
0100
1000
0000
0000
1000
0000
0000
0000
1000
0001
0000
0000
0100
0000
0000
0000
,  // measure 92
2002
0000
0000
0000
0000
0000
0000
3003
,  // measure 93
0010
0000
2000
0010
0000
0010
0000
3010
,  // measure 94
0001
0000
0000
0000
0001
1000
0000
0000
0010
0000
0000
0000
0001
1000
0000
0000
,  // measure 95
0100
0000
0002
0100
0000
0100
0000
0103
,  // measure 96
1000
0000
0000
0000
1000
0001
0000
0000
0100
0000
0000
0000
1000
0001
0000
0000
,  // measure 97
0001
0000
0020
0001
0000
0001
0000
0031
,  // measure 98
0100
0000
0000
0000
0100
0010
0000
0000
0001
0000
0000
0000
0100
0010
0000
0000
,  // measure 99
1000
0000
0200
1000
0000
1000
0000
1300
,  // measure 100
0010
0000
0000
0000
0010
0100
0000
0000
1000
0000
0000
0000
0010
0100
0000
0000
,  // measure 101
0010
0000
2000
0010
0000
0010
0000
3010
,  // measure 102
0001
0000
0000
0000
0001
1000
0000
0000
0010
0000
0000
0000
0001
1000
0000
0000
,  // measure 103
0100
0000
0002
0100
0000
0100
0000
0103
,  // measure 104
1000
0000
0000
0000
1000
0001
0000
0000
0100
0000
0000
0000
1000
0001
0000
0000
,  // measure 105
0001
0000
0020
0001
0000
0001
0000
0031
,  // measure 106
0100
0000
0000
0000
0100
0010
0000
0000
0001
0000
0000
0000
0100
0010
0000
0000
,  // measure 107
1000
0000
0200
1000
0000
1000
0000
1300
,  // measure 108
0010
0000
0000
0000
0010
0100
0000
0000
1000
0000
0000
0000
0010
0100
0000
0000
,  // measure 109
2002
0000
0000
3003
0010
0010
0020
0000
,  // measure 110
0000
0030
0100
0100
0200
0000
0000
0300
,  // measure 111
1000
0001
1000
0000
,  // measure 112
0020
0000
0000
0000
0000
0000
0000
0030
,  // measure 113
0001
1000
0001
0000
,  // measure 114
0200
0000
0000
0000
0000
0000
0000
0300
,  // measure 115
0010
0100
0010
0000
,  // measure 116
0002
0000
0000
0000
0000
0000
0000
0003
,  // measure 117
0100
0010
0100
0000
,  // measure 118
2000
0000
0000
0000
0000
0000
0000
3000
,  // measure 119
2002
0000
0000
0000
0000
0000
0000
3003
,  // measure 120
0020
0000
0000
0000
,  // measure 121
0100
0000
0000
0000
0100
0000
0000
0030
,  // measure 122
0200
0000
0000
0000
,  // measure 123
0010
0000
0000
0000
0010
0000
0000
0300
,  // measure 124
0002
0000
0000
0000
,  // measure 125
1000
0000
0000
0000
1000
0000
0000
0003
,  // measure 126
2000
0000
0000
0000
,  // measure 127
0001
0000
0000
0000
0001
0000
0000
3000
,  // measure 128
2002
0000
0000
0000
0000
0000
0000
3003
,  // measure 129
0010
0000
2000
0010
0000
0010
0000
3010
,  // measure 130
0001
0000
0000
0000
0001
1000
0000
0000
0010
0000
0000
0000
0001
1000
0000
0000
,  // measure 131
0100
0000
0002
0100
0000
0100
0000
0103
,  // measure 132
1000
0000
0000
0000
1000
0001
0000
0000
0100
0000
0000
0000
1000
0001
0000
0000
,  // measure 133
0001
0000
0020
0001
0000
0001
0000
0031
,  // measure 134
0100
0000
0000
0000
0100
0010
0000
0000
0001
0000
0000
0000
0100
0010
0000
0000
,  // measure 135
1000
0000
0200
1000
0000
1000
0000
1300
,  // measure 136
0010
0000
0000
0000
0010
0100
0000
0000
1000
0000
0000
0000
0010
0100
0000
0000
,  // measure 137
0010
0000
2000
0010
0000
0010
0000
3010
,  // measure 138
0001
0000
0000
0000
0001
1000
0000
0000
0010
0000
0000
0000
0001
1000
0000
0000
,  // measure 139
0100
0000
0002
0100
0000
0100
0000
0103
,  // measure 140
1000
0000
0000
0000
1000
0001
0000
0000
0100
0000
0000
0000
1000
0001
0000
0000
,  // measure 141
0001
0000
0020
0001
0000
0001
0000
0031
,  // measure 142
0100
0000
0000
0000
0100
0010
0000
0000
0001
0000
0000
0000
0100
0010
0000
0000
,  // measure 143
1000
0000
0200
1000
0000
1000
0000
1300
,  // measure 144
0010
0000
0000
0000
0010
0100
0000
0000
1000
0000
0000
0000
0010
0100
0000
0000
,  // measure 145
2002
0000
0000
3003
0010
0010
0020
0000
,  // measure 146
0000
0030
0100
0100
0200
0000
0000
0300
,  // measure 147
1000
0010
0000
0000
0010
0000
0000
0000
0010
0000
0100
0000
0010
0000
0010
0000
,  // measure 148
0100
0001
0000
0000
1000
0000
0000
0000
0100
0000
0010
0000
0001
0000
0010
0000
,  // measure 149
0001
0100
0000
0000
0100
0000
0000
0000
0100
0000
0010
0000
0100
0000
0100
0000
,  // measure 150
0010
1000
0000
0000
0001
0000
0000
0000
0010
0000
0100
0000
1000
0000
0100
0000
,  // measure 151
0010
0001
0000
0000
0001
0000
0000
0000
0001
0000
1000
0000
0001
0000
0001
0000
,  // measure 152
1000
0100
0000
0000
0010
0000
0000
0000
1000
0000
0001
0000
0100
0000
0001
0000
,  // measure 153
0100
1000
0000
0000
1000
0000
0000
0000
1000
0000
0001
0000
1000
0000
1000
0000
,  // measure 154
0100
0000
0000
0100
0000
0000
0100
0010
0200
0000
0000
0000
0000
0000
0000
0300
,  // measure 155
2002
0000
0000
0000
,  // measure 156
0000
0000
0000
0000
,  // measure 157
0000
0000
0000
0000
,  // measure 158
3003
0000
0000
0000
;

//---------------dance-single - ----------------
#NOTES:
     dance-single:
     :
     Beginner:
     9:
     0.349787,0.374199,0.029149,0.236835,0.102021,672.000000,664.000000,8.000000,65.000000,0.000000,0.000000,0.349787,0.374199,0.029149,0.236835,0.102021,672.000000,664.000000,8.000000,65.000000,0.000000,0.000000:
0000
0000
0000
0000
,
0000
0000
0000
0000
,
0000
0000
0000
0000
,
0000
0000
0000
0000
,
0000
0000
0000
0000
,
0000
0000
0000
0000
,
0000
0000
0000
0000
,
0000
0000
0000
0000
,
0000
0000
0000
0000
,
1000
0010
0000
0000
0010
0000
0000
0000
0010
0000
0100
0000
0010
0000
0000
0000
,
0100
0001
0000
0000
1000
0000
0000
0000
0100
0000
0010
0000
0001
0000
0000
0000
,
0001
0100
0000
0000
0100
0000
0000
0000
0100
0000
0010
0000
0100
0000
0000
0000
,
0010
1000
0000
0000
0001
0000
0000
0000
0010
0000
0100
0000
1000
0000
0000
0000
,
0010
0001
0000
0000
0001
0000
0000
0000
0001
0000
1000
0000
0001
0000
0000
0000
,
1000
0100
0000
0000
0010
0000
0000
0000
1000
0000
0001
0000
0100
0000
0000
0000
,
0100
1000
0000
0000
1000
0000
0000
0000
1000
0000
0001
0000
1000
0000
0000
0000
,
0100
0000
0000
0100
0000
0000
0100
0000
0200
0000
0000
0000
0000
0000
0000
0300
,
1000
0000
1000
0000
0001
1000
0010
0000
,
0001
0000
1000
0000
0001
0010
1000
0000
,
0001
0000
0001
0000
1000
0001
0100
0000
,
1000
0000
0001
0000
1000
0100
0001
0000
,
0010
0000
0010
0000
0100
0010
0001
0000
,
0100
0000
0010
0000
0100
0001
0010
0000
,
0100
0000
0100
0000
0010
0100
1000
0000
,
0010
0000
0100
0000
0010
1000
0100
0000
,
1000
0000
1000
0000
0001
1000
0010
0000
,
0001
0000
1000
0000
0001
0010
1000
0000
,
0001
0000
0001
0000
1000
0001
0100
0000
,
1000
0000
0001
0000
1000
0100
0001
0000
,
0010
0000
0010
0000
0100
0010
0001
0000
,
0100
0000
0010
0000
0100
0001
0010
0000
,
0100
0000
0100
0000
0010
0100
1000
0000
,
0010
0000
0100
0000
0010
1000
0100
0000
,
2000
0000
0100
0000
0010
0000
0001
3000
,
1000
0010
0000
0000
0010
0000
0000
0000
0010
0000
0000
0000
1000
0000
0000
0000
,
0002
0000
0010
0000
0100
0000
1000
0003
,
0001
0100
0000
0000
0100
0000
0000
0000
0100
0000
0000
0000
0001
0000
0000
0000
,
0020
0000
1000
0000
0001
0000
0100
0030
,
0010
0001
0000
0000
0001
0000
0000
0000
0001
0000
0000
0000
0010
0000
0000
0000
,
0200
0000
0001
0000
1000
0000
0010
0300
,
0100
1000
0000
0000
1000
0000
0000
0000
1000
0000
0000
0000
0100
0000
0000
0000
,
2002
0000
0000
0000
0000
0000
0000
3003
,
0010
0000
2000
0010
0000
0010
0000
3010
,
0001
0000
0000
0000
0001
1000
0000
0000
0010
0000
0000
0000
0001
0000
0000
0000
,
0100
0000
0002
0100
0000
0100
0000
0103
,
1000
0000
0000
0000
1000
0001
0000
0000
0100
0000
0000
0000
1000
0000
0000
0000
,
0001
0000
0020
0001
0000
0001
0000
0031
,
0100
0000
0000
0000
0100
0010
0000
0000
0001
0000
0000
0000
0100
0000
0000
0000
,
1000
0000
0200
1000
0000
1000
0000
1300
,
0010
0000
0000
0000
0010
0100
0000
0000
1000
0000
0000
0000
0010
0000
0000
0000
,
0010
0000
2000
0010
0000
0010
0000
3010
,
0001
0000
0000
0000
0001
1000
0000
0000
0010
0000
0000
0000
0001
0000
0000
0000
,
0100
0000
0002
0100
0000
0100
0000
0103
,
1000
0000
0000
0000
1000
0001
0000
0000
0100
0000
0000
0000
1000
0000
0000
0000
,
0001
0000
0020
0001
0000
0001
0000
0031
,
0100
0000
0000
0000
0100
0010
0000
0000
0001
0000
0000
0000
0100
0000
0000
0000
,
1000
0000
0200
1000
0000
1000
0000
1300
,
0010
0000
0000
0000
0010
0100
0000
0000
1000
0000
0000
0000
0010
0000
0000
0000
,
2002
0000
0000
3003
0010
0010
0020
0000
,
0000
0030
0100
0100
0200
0000
0000
0300
,
1000
0010
0000
0000
0010
0000
0000
0000
0010
0000
0100
0000
0010
0000
0000
0000
,
0100
0001
0000
0000
1000
0000
0000
0000
0100
0000
0010
0000
0001
0000
0000
0000
,
0001
0100
0000
0000
0100
0000
0000
0000
0100
0000
0010
0000
0100
0000
0000
0000
,
0010
1000
0000
0000
0001
0000
0000
0000
0010
0000
0100
0000
1000
0000
0000
0000
,
0010
0001
0000
0000
0001
0000
0000
0000
0001
0000
1000
0000
0001
0000
0000
0000
,
1000
0100
0000
0000
0010
0000
0000
0000
1000
0000
0001
0000
0100
0000
0000
0000
,
0100
1000
0000
0000
1000
0000
0000
0000
1000
0000
0001
0000
1000
0000
0000
0000
,
0100
0000
0000
0100
0000
0000
0100
0000
0200
0000
0000
0000
0000
0000
0000
0300
,
1000
0000
1000
0000
0001
1000
0010
0000
,
0001
0000
1000
0000
0001
0010
1000
0000
,
0001
0000
0001
0000
1000
0001
0100
0000
,
1000
0000
0001
0000
1000
0100
0001
0000
,
0010
0000
0010
0000
0100
0010
0001
0000
,
0100
0000
0010
0000
0100
0001
0010
0000
,
0100
0000
0100
0000
0010
0100
1000
0000
,
0010
0000
0100
0000
0010
1000
0100
0000
,
1000
0000
1000
0000
0001
1000
0010
0000
,
0001
0000
1000
0000
0001
0010
1000
0000
,
0001
0000
0001
0000
1000
0001
0100
0000
,
1000
0000
0001
0000
1000
0100
0001
0000
,
0010
0000
0010
0000
0100
0010
0001
0000
,
0100
0000
0010
0000
0100
0001
0010
0000
,
0100
0000
0100
0000
0010
0100
1000
0000
,
0010
0000
0100
0000
0010
1000
0100
0000
,
2000
0000
0100
0000
0010
0000
0001
3000
,
1000
0010
0000
0000
0010
0000
0000
0000
0010
0000
0000
0000
1000
0000
0000
0000
,
0002
0000
0010
0000
0100
0000
1000
0003
,
0001
0100
0000
0000
0100
0000
0000
0000
0100
0000
0000
0000
0001
0000
0000
0000
,
0020
0000
1000
0000
0001
0000
0100
0030
,
0010
0001
0000
0000
0001
0000
0000
0000
0001
0000
0000
0000
0010
0000
0000
0000
,
0200
0000
0001
0000
1000
0000
0010
0300
,
0100
1000
0000
0000
1000
0000
0000
0000
1000
0000
0000
0000
0100
0000
0000
0000
,
2002
0000
0000
0000
0000
0000
0000
3003
,
0010
0000
2000
0010
0000
0010
0000
3010
,
0001
0000
0000
0000
0001
1000
0000
0000
0010
0000
0000
0000
0001
0000
0000
0000
,
0100
0000
0002
0100
0000
0100
0000
0103
,
1000
0000
0000
0000
1000
0001
0000
0000
0100
0000
0000
0000
1000
0000
0000
0000
,
0001
0000
0020
0001
0000
0001
0000
0031
,
0100
0000
0000
0000
0100
0010
0000
0000
0001
0000
0000
0000
0100
0000
0000
0000
,
1000
0000
0200
1000
0000
1000
0000
1300
,
0010
0000
0000
0000
0010
0100
0000
0000
1000
0000
0000
0000
0010
0000
0000
0000
,
0010
0000
2000
0010
0000
0010
0000
3010
,
0001
0000
0000
0000
0001
1000
0000
0000
0010
0000
0000
0000
0001
0000
0000
0000
,
0100
0000
0002
0100
0000
0100
0000
0103
,
1000
0000
0000
0000
1000
0001
0000
0000
0100
0000
0000
0000
1000
0000
0000
0000
,
0001
0000
0020
0001
0000
0001
0000
0031
,
0100
0000
0000
0000
0100
0010
0000
0000
0001
0000
0000
0000
0100
0000
0000
0000
,
1000
0000
0200
1000
0000
1000
0000
1300
,
0010
0000
0000
0000
0010
0100
0000
0000
1000
0000
0000
0000
0010
0000
0000
0000
,
2002
0000
0000
3003
0010
0010
0020
0000
,
0000
0030
0100
0100
0200
0000
0000
0300
,
1000
0001
1000
0000
,
0020
0000
0000
0000
0000
0000
0000
0030
,
0001
1000
0001
0000
,
0200
0000
0000
0000
0000
0000
0000
0300
,
0010
0100
0010
0000
,
0002
0000
0000
0000
0000
0000
0000
0003
,
0100
0010
0100
0000
,
2000
0000
0000
0000
0000
0000
0000
3000
,
2002
0000
0000
0000
0000
0000
0000
3003
,
0020
0000
0000
0000
,
0100
0000
0000
0000
0100
0000
0000
0030
,
0200
0000
0000
0000
,
0010
0000
0000
0000
0010
0000
0000
0300
,
0002
0000
0000
0000
,
1000
0000
0000
0000
1000
0000
0000
0003
,
2000
0000
0000
0000
,
0001
0000
0000
0000
0001
0000
0000
3000
,
2002
0000
0000
0000
0000
0000
0000
3003
,
0010
0000
2000
0010
0000
0010
0000
3010
,
0001
0000
0000
0000
0001
1000
0000
0000
0010
0000
0000
0000
0001
0000
0000
0000
,
0100
0000
0002
0100
0000
0100
0000
0103
,
1000
0000
0000
0000
1000
0001
0000
0000
0100
0000
0000
0000
1000
0000
0000
0000
,
0001
0000
0020
0001
0000
0001
0000
0031
,
0100
0000
0000
0000
0100
0010
0000
0000
0001
0000
0000
0000
0100
0000
0000
0000
,
1000
0000
0200
1000
0000
1000
0000
1300
,
0010
0000
0000
0000
0010
0100
0000
0000
1000
0000
0000
0000
0010
0000
0000
0000
,
0010
0000
2000
0010
0000
0010
0000
3010
,
0001
0000
0000
0000
0001
1000
0000
0000
0010
0000
0000
0000
0001
0000
0000
0000
,
0100
0000
0002
0100
0000
0100
0000
0103
,
1000
0000
0000
0000
1000
0001
0000
0000
0100
0000
0000
0000
1000
0000
0000
0000
,
0001
0000
0020
0001
0000
0001
0000
0031
,
0100
0000
0000
0000
0100
0010
0000
0000
0001
0000
0000
0000
0100
0000
0000
0000
,
1000
0000
0200
1000
0000
1000
0000
1300
,
0010
0000
0000
0000
0010
0100
0000
0000
1000
0000
0000
0000
0010
0000
0000
0000
,
2002
0000
0000
3003
0010
0010
0020
0000
,
0000
0030
0100
0100
0200
0000
0000
0300
,
1000
0010
0000
0000
0010
0000
0000
0000
0010
0000
0100
0000
0010
0000
0000
0000
,
0100
0001
0000
0000
1000
0000
0000
0000
0100
0000
0010
0000
0001
0000
0000
0000
,
0001
0100
0000
0000
0100
0000
0000
0000
0100
0000
0010
0000
0100
0000
0000
0000
,
0010
1000
0000
0000
0001
0000
0000
0000
0010
0000
0100
0000
1000
0000
0000
0000
,
0010
0001
0000
0000
0001
0000
0000
0000
0001
0000
1000
0000
0001
0000
0000
0000
,
1000
0100
0000
0000
0010
0000
0000
0000
1000
0000
0001
0000
0100
0000
0000
0000
,
0100
1000
0000
0000
1000
0000
0000
0000
1000
0000
0001
0000
1000
0000
0000
0000
,
0100
0000
0000
0100
0000
0000
0100
0000
0200
0000
0000
0000
0000
0000
0000
0300
,
2002
0000
0000
0000
,
0000
0000
0000
0000
,
0000
0000
0000
0000
,
3003
0000
0000
0000
;

//---------------dance-single - ----------------
#NOTES:
     dance-single:
     :
     Medium:
     10:
     0.415892,0.518122,0.029149,0.236835,0.193111,799.000000,791.000000,8.000000,65.000000,0.000000,0.000000,0.415892,0.518122,0.029149,0.236835,0.193111,799.000000,791.000000,8.000000,65.000000,0.000000,0.000000:
0000
0000
0000
0000
,
0000
0000
0000
0000
,
0000
0000
0000
0000
,
0000
0000
0000
0000
,
0000
0000
0000
0000
,
0000
0000
0000
0000
,
0000
0000
0000
0000
,
0000
0000
0000
0000
,
0000
0000
0000
0000
,
1000
0010
0000
0000
0010
0100
0000
0000
0010
0000
0100
0000
0010
0000
0010
0000
,
0100
0001
0000
0000
1000
0000
0000
0000
0100
0000
0010
0000
0001
0000
0010
0000
,
0001
0100
0000
0000
0100
0010
0000
0000
0100
0000
0010
0000
0100
0000
0100
0000
,
0010
1000
0000
0000
0001
0000
0000
0000
0010
0000
0100
0000
1000
0000
0100
0000
,
0010
0001
0000
0000
0001
1000
0000
0000
0001
0000
1000
0000
0001
0000
0001
0000
,
1000
0100
0000
0000
0010
0000
0000
0000
1000
0000
0001
0000
0100
0000
0001
0000
,
0100
1000
0000
0000
1000
0001
0000
0000
1000
0000
0001
0000
1000
0000
1000
0000
,
0100
0010
0000
0100
0000
0000
0100
0010
0200
0000
0000
0000
0000
0000
0000
0300
,
1000
0010
1000
0000
0001
1000
0010
0000
,
0001
0000
1000
0000
0001
0010
1000
0000
,
0001
0100
0001
0000
1000
0001
0100
0000
,
1000
0000
0001
0000
1000
0100
0001
0000
,
0010
0001
0010
0000
0100
0010
0001
0000
,
0100
0000
0010
0000
0100
0001
0010
0000
,
0100
1000
0100
0000
0010
0100
1000
0000
,
0010
0000
0100
0000
0010
1000
0100
0000
,
1000
0010
1000
0000
0001
1000
0010
0000
,
0001
0000
1000
0000
0001
0010
1000
0000
,
0001
0100
0001
0000
1000
0001
0100
0000
,
1000
0000
0001
0000
1000
0100
0001
0000
,
0010
0100
0010
0000
0100
0010
0001
0000
,
0100
0000
0010
0000
0100
0001
0010
0000
,
0100
0010
0100
0000
0010
0100
1000
0000
,
0010
0000
0100
0000
0010
1000
0100
0000
,
2000
0001
0100
0000
0010
0000
0001
3000
,
1000
0010
0000
0000
0010
0000
0000
0000
0010
0100
0000
0000
1000
0000
0000
0000
,
0002
1000
0010
0000
0100
0000
1000
0003
,
0001
0100
0000
0000
0100
0000
0000
0000
0100
0010
0000
0000
0001
0000
0000
0000
,
0020
0100
1000
0000
0001
0000
0100
0030
,
0010
0001
0000
0000
0001
0000
0000
0000
0001
1000
0000
0000
0010
0000
0000
0000
,
0200
0010
0001
0000
1000
0000
0010
0300
,
0100
1000
0000
0000
1000
0000
0000
0000
1000
0001
0000
0000
0100
0000
0000
0000
,
2002
0000
0000
0000
0000
0000
0000
3003
,
0010
0100
2000
0010
0000
0010
0000
3010
,
0001
0000
0000
0000
0001
1000
0000
0000
0010
0000
0000
0000
0001
1000
0000
0000
,
0100
0010
0002
0100
0000
0100
0000
0103
,
1000
0000
0000
0000
1000
0001
0000
0000
0100
0000
0000
0000
1000
0001
0000
0000
,
0001
1000
0020
0001
0000
0001
0000
0031
,
0100
0000
0000
0000
0100
0010
0000
0000
0001
0000
0000
0000
0100
0010
0000
0000
,
1000
0001
0200
1000
0000
1000
0000
1300
,
0010
0000
0000
0000
0010
0100
0000
0000
1000
0000
0000
0000
0010
0100
0000
0000
,
0010
0100
2000
0010
0000
0010
0000
3010
,
0001
0000
0000
0000
0001
1000
0000
0000
0010
0000
0000
0000
0001
1000
0000
0000
,
0100
0010
0002
0100
0000
0100
0000
0103
,
1000
0000
0000
0000
1000
0001
0000
0000
0100
0000
0000
0000
1000
0001
0000
0000
,
0001
1000
0020
0001
0000
0001
0000
0031
,
0100
0000
0000
0000
0100
0010
0000
0000
0001
0000
0000
0000
0100
0010
0000
0000
,
1000
0001
0200
1000
0000
1000
0000
1300
,
0010
0000
0000
0000
0010
0100
0000
0000
1000
0000
0000
0000
0010
0100
0000
0000
,
2002
0000
0000
3003
0010
0010
0020
0000
,
0000
0030
0100
0100
0200
0000
0000
0300
,
1000
0010
0000
0000
0010
0100
0000
0000
0010
0000
0100
0000
0010
0000
0010
0000
,
0100
0001
0000
0000
1000
0000
0000
0000
0100
0000
0010
0000
0001
0000
0010
0000
,
0001
0100
0000
0000
0100
0010
0000
0000
0100
0000
0010
0000
0100
0000
0100
0000
,
0010
1000
0000
0000
0001
0000
0000
0000
0010
0000
0100
0000
1000
0000
0100
0000
,
0010
0001
0000
0000
0001
1000
0000
0000
0001
0000
1000
0000
0001
0000
0001
0000
,
1000
0100
0000
0000
0010
0000
0000
0000
1000
0000
0001
0000
0100
0000
0001
0000
,
0100
1000
0000
0000
1000
0001
0000
0000
1000
0000
0001
0000
1000
0000
1000
0000
,
0100
0010
0000
0100
0000
0000
0100
0010
0200
0000
0000
0000
0000
0000
0000
0300
,
1000
0010
1000
0000
0001
1000
0010
0000
,
0001
0000
1000
0000
0001
0010
1000
0000
,
0001
0100
0001
0000
1000
0001
0100
0000
,
1000
0000
0001
0000
1000
0100
0001
0000
,
0010
0001
0010
0000
0100
0010
0001
0000
,
0100
0000
0010
0000
0100
0001
0010
0000
,
0100
1000
0100
0000
0010
0100
1000
0000
,
0010
0000
0100
0000
0010
1000
0100
0000
,
1000
0010
1000
0000
0001
1000
0010
0000
,
0001
0000
1000
0000
0001
0010
1000
0000
,
0001
0100
0001
0000
1000
0001
0100
0000
,
1000
0000
0001
0000
1000
0100
0001
0000
,
0010
0001
0010
0000
0100
0010
0001
0000
,
0100
0000
0010
0000
0100
0001
0010
0000
,
0100
1000
0100
0000
0010
0100
1000
0000
,
0010
0000
0100
0000
0010
1000
0100
0000
,
2000
0001
0100
0000
0010
0000
0001
3000
,
1000
0010
0000
0000
0010
0000
0000
0000
0010
0100
0000
0000
1000
0000
0000
0000
,
0002
1000
0010
0000
0100
0000
1000
0003
,
0001
0100
0000
0000
0100
0000
0000
0000
0100
0010
0000
0000
0001
0000
0000
0000
,
0020
0100
1000
0000
0001
0000
0100
0030
,
0010
0001
0000
0000
0001
0000
0000
0000
0001
1000
0000
0000
0010
0000
0000
0000
,
0200
0010
0001
0000
1000
0000
0010
0300
,
0100
1000
0000
0000
1000
0000
0000
0000
1000
0001
0000
0000
0100
0000
0000
0000
,
2002
0000
0000
0000
0000
0000
0000
3003
,
0010
0100
2000
0010
0000
0010
0000
3010
,
0001
0000
0000
0000
0001
1000
0000
0000
0010
0000
0000
0000
0001
1000
0000
0000
,
0100
0010
0002
0100
0000
0100
0000
0103
,
1000
0000
0000
0000
1000
0001
0000
0000
0100
0000
0000
0000
1000
0001
0000
0000
,
0001
1000
0020
0001
0000
0001
0000
0031
,
0100
0000
0000
0000
0100
0010
0000
0000
0001
0000
0000
0000
0100
0010
0000
0000
,
1000
0001
0200
1000
0000
1000
0000
1300
,
0010
0000
0000
0000
0010
0100
0000
0000
1000
0000
0000
0000
0010
0100
0000
0000
,
0010
0100
2000
0010
0000
0010
0000
3010
,
0001
0000
0000
0000
0001
1000
0000
0000
0010
0000
0000
0000
0001
1000
0000
0000
,
0100
0010
0002
0100
0000
0100
0000
0103
,
1000
0000
0000
0000
1000
0001
0000
0000
0100
0000
0000
0000
1000
0001
0000
0000
,
0001
1000
0020
0001
0000
0001
0000
0031
,
0100
0000
0000
0000
0100
0010
0000
0000
0001
0000
0000
0000
0100
0010
0000
0000
,
1000
0001
0200
1000
0000
1000
0000
1300
,
0010
0000
0000
0000
0010
0100
0000
0000
1000
0000
0000
0000
0010
0100
0000
0000
,
2002
0000
0000
3003
0010
0010
0020
0000
,
0000
0030
0100
0100
0200
0000
0000
0300
,
1000
0001
1000
0001
,
0020
0000
0000
0000
0000
0000
0000
0030
,
0001
1000
0001
1000
,
0200
0000
0000
0000
0000
0000
0000
0300
,
0010
0100
0010
0100
,
0002
0000
0000
0000
0000
0000
0000
0003
,
0100
0010
0100
0010
,
2000
0000
0000
0000
0000
0000
0000
3000
,
2002
0000
0000
0000
0000
0000
0000
3003
,
0020
0000
0000
0000
,
0100
0000
0100
0000
0100
0000
0000
0030
,
0200
0000
0000
0000
,
0010
0000
0010
0000
0010
0000
0000
0300
,
0002
0000
0000
0000
,
1000
0000
1000
0000
1000
0000
0000
0003
,
2000
0000
0000
0000
,
0001
0000
0001
0000
0001
0000
0000
3000
,
2002
0000
0000
0000
0000
0000
0000
3003
,
0010
0100
2000
0010
0000
0010
0000
3010
,
0001
0000
0000
0000
0001
1000
0000
0000
0010
0000
0000
0000
0001
1000
0000
0000
,
0100
0010
0002
0100
0000
0100
0000
0103
,
1000
0000
0000
0000
1000
0001
0000
0000
0100
0000
0000
0000
1000
0001
0000
0000
,
0001
1000
0020
0001
0000
0001
0000
0031
,
0100
0000
0000
0000
0100
0010
0000
0000
0001
0000
0000
0000
0100
0010
0000
0000
,
1000
0001
0200
1000
0000
1000
0000
1300
,
0010
0000
0000
0000
0010
0100
0000
0000
1000
0000
0000
0000
0010
0100
0000
0000
,
0010
0100
2000
0010
0000
0010
0000
3010
,
0001
0000
0000
0000
0001
1000
0000
0000
0010
0000
0000
0000
0001
1000
0000
0000
,
0100
0010
0002
0100
0000
0100
0000
0103
,
1000
0000
0000
0000
1000
0001
0000
0000
0100
0000
0000
0000
1000
0001
0000
0000
,
0001
1000
0020
0001
0000
0001
0000
0031
,
0100
0000
0000
0000
0100
0010
0000
0000
0001
0000
0000
0000
0100
0010
0000
0000
,
1000
0001
0200
1000
0000
1000
0000
1300
,
0010
0000
0000
0000
0010
0100
0000
0000
1000
0000
0000
0000
0010
0100
0000
0000
,
2002
0000
0000
3003
0010
0010
0020
0000
,
0000
0030
0100
0100
0200
0000
0000
0300
,
1000
0010
0000
0000
0010
0100
0000
0000
0010
0000
0100
0000
0010
0000
0010
0000
,
0100
0001
0000
0000
1000
0000
0000
0000
0100
0000
0010
0000
0001
0000
0010
0000
,
0001
0100
0000
0000
0100
0010
0000
0000
0100
0000
0010
0000
0100
0000
0100
0000
,
0010
1000
0000
0000
0001
0000
0000
0000
0010
0000
0100
0000
1000
0000
0100
0000
,
0010
0001
0000
0000
0001
1000
0000
0000
0001
0000
1000
0000
0001
0000
0001
0000
,
1000
0100
0000
0000
0010
0000
0000
0000
1000
0000
0001
0000
0100
0000
0001
0000
,
0100
1000
0000
0000
1000
0001
0000
0000
1000
0000
0001
0000
1000
0000
1000
0000
,
0100
0010
0000
0100
0000
0000
0100
0010
0200
0000
0000
0000
0000
0000
0000
0300
,
2002
0000
0000
0000
,
0000
0000
0000
0000
,
0000
0000
0000
0000
,
3003
0000
0000
0000
;

//---------------dance-single - ----------------
#NOTES:
     dance-single:
     :
     Hard:
     11:
     0.457013,0.546906,0.040080,0.236835,0.267805,878.000000,867.000000,11.000000,65.000000,0.000000,0.000000,0.457013,0.546906,0.040080,0.236835,0.267805,878.000000,867.000000,11.000000,65.000000,0.000000,0.000000:
0000
0000
0000
0000
,
0000
0000
0000
0000
,
0000
0000
0000
0000
,
0000
0000
0000
0000
,
0000
0000
0000
0000
,
0000
0000
0000
0000
,
0000
0000
0000
0000
,
0000
0000
0000
0000
,
0000
0000
0000
0000
,
1000
0010
0000
0000
0010
0100
0000
0000
0010
0000
0100
0000
0010
0000
0010
0000
,
0100
0001
0000
0000
1000
0010
0000
0000
0100
0000
0010
0000
0001
0000
0010
0000
,
0001
0100
0000
0000
0100
0010
0000
0000
0100
0000
0010
0000
0100
0000
0100
0000
,
0010
1000
0000
0000
0001
0100
0000
0000
0010
0000
0100
0000
1000
0000
0100
0000
,
0010
0001
0000
0000
0001
1000
0000
0000
0001
0000
1000
0000
0001
0000
0001
0000
,
1000
0100
0000
0000
0010
0001
0000
0000
1000
0000
0001
0000
0100
0000
0001
0000
,
0100
1000
0000
0000
1000
0001
0000
0000
1000
0000
0001
0000
1000
0000
1000
0000
,
0100
0010
0000
0100
0010
0000
0100
0010
0200
0000
0000
0000
0000
0000
0000
0300
,
1000
0010
1000
0000
0001
1000
0010
0000
,
0001
0010
1000
0000
0001
0010
1000
0000
,
0001
0100
0001
0000
1000
0001
0100
0000
,
1000
0100
0001
0000
1000
0100
0001
0000
,
0010
0001
0010
0000
0100
0010
0001
0000
,
0100
0001
0010
0000
0100
0001
0010
0000
,
0100
1000
0100
0000
0010
0100
1000
0000
,
0010
1000
0100
0000
0010
1000
0100
0000
,
1000
0010
1000
0000
0001
1000
0010
0000
,
0001
0010
1000
0000
0001
0010
1000
0000
,
0001
0100
0001
0000
1000
0001
0100
0000
,
1000
0100
0001
0000
1000
0100
0001
0000
,
0010
0100
0010
0000
0100
0010
0001
0000
,
0100
0001
0010
0000
0100
0001
0010
0000
,
0100
0010
0100
0000
0010
0100
1000
0000
,
0010
1000
0100
0000
0010
1000
0100
0000
,
2000
0001
0100
0000
0010
0100
0001
3000
,
1000
0010
0000
0000
0010
1000
0000
0000
0010
0100
0000
0000
1000
0000
0000
0000
,
0002
1000
0010
0000
0100
0010
1000
0003
,
0001
0100
0000
0000
0100
0001
0000
0000
0100
0010
0000
0000
0001
0000
0000
0000
,
0020
0100
1000
0000
0001
1000
0100
0030
,
0010
0001
0000
0000
0001
0010
0000
0000
0001
1000
0000
0000
0010
0000
0000
0000
,
0200
0010
0001
0000
1000
0001
0010
0300
,
0100
1000
0000
0000
1000
0100
0000
0000
1000
0001
0000
0000
0100
0000
0000
0000
,
2002
0000
0000
0000
0000
0000
0000
3003
,
0010
0100
2000
0010
0000
0010
0000
3010
,
0001
0000
0000
0000
0001
1000
0000
0000
0010
0100
0000
0000
0001
1000
0000
0000
,
0100
0010
0002
0100
0000
0100
0000
0103
,
1000
0000
0000
0000
1000
0001
0000
0000
0100
0010
0000
0000
1000
0001
0000
0000
,
0001
1000
0020
0001
0000
0001
0000
0031
,
0100
0000
0000
0000
0100
0010
0000
0000
0001
1000
0000
0000
0100
0010
0000
0000
,
1000
0001
0200
1000
0000
1000
0000
1300
,
0010
0000
0000
0000
0010
0100
0000
0000
1000
0001
0000
0000
0010
0100
0000
0000
,
0010
0100
2000
0010
0000
0010
0000
3010
,
0001
0000
0000
0000
0001
1000
0000
0000
0010
0100
0000
0000
0001
1000
0000
0000
,
0100
0010
0002
0100
0000
0100
0000
0103
,
1000
0000
0000
0000
1000
0001
0000
0000
0100
0010
0000
0000
1000
0001
0000
0000
,
0001
1000
0020
0001
0000
0001
0000
0031
,
0100
0000
0000
0000
0100
0010
0000
0000
0001
1000
0000
0000
0100
0010
0000
0000
,
1000
0001
0200
1000
0000
1000
0000
1300
,
0010
0000
0000
0000
0010
0100
0000
0000
1000
0001
0000
0000
0010
0100
0000
0000
,
2002
0000
0000
3003
0110
0010
0020
0000
,
0000
0030
0100
0100
0200
0000
0000
0300
,
1000
0010
0000
0000
0010
0100
0000
0000
0010
0000
0100
0000
0010
0000
0010
0000
,
0100
0001
0000
0000
1000
0010
0000
0000
0100
0000
0010
0000
0001
0000
0010
0000
,
0001
0100
0000
0000
0100
0010
0000
0000
0100
0000
0010
0000
0100
0000
0100
0000
,
0010
1000
0000
0000
0001
0100
0000
0000
0010
0000
0100
0000
1000
0000
0100
0000
,
0010
0001
0000
0000
0001
1000
0000
0000
0001
0000
1000
0000
0001
0000
0001
0000
,
1000
0100
0000
0000
0010
0001
0000
0000
1000
0000
0001
0000
0100
0000
0001
0000
,
0100
1000
0000
0000
1000
0001
0000
0000
1000
0000
0001
0000
1000
0000
1000
0000
,
0100
0010
0000
0100
0010
0000
0100
0010
0200
0000
0000
0000
0000
0000
0000
0300
,
1000
0010
1000
0000
0001
1000
0010
0000
,
0001
0010
1000
0000
0001
0010
1000
0000
,
0001
0100
0001
0000
1000
0001
0100
0000
,
1000
0100
0001
0000
1000
0100
0001
0000
,
0010
0001
0010
0000
0100
0010
0001
0000
,
0100
0001
0010
0000
0100
0001
0010
0000
,
0100
1000
0100
0000
0010
0100
1000
0000
,
0010
1000
0100
0000
0010
1000
0100
0000
,
1000
0010
1000
0000
0001
1000
0010
0000
,
0001
0010
1000
0000
0001
0010
1000
0000
,
0001
0100
0001
0000
1000
0001
0100
0000
,
1000
0100
0001
0000
1000
0100
0001
0000
,
0010
0001
0010
0000
0100
0010
0001
0000
,
0100
0001
0010
0000
0100
0001
0010
0000
,
0100
1000
0100
0000
0010
0100
1000
0000
,
0010
1000
0100
0000
0010
1000
0100
0000
,
2000
0001
0100
0000
0010
0100
0001
3000
,
1000
0010
0000
0000
0010
1000
0000
0000
0010
0100
0000
0000
1000
0000
0000
0000
,
0002
1000
0010
0000
0100
0010
1000
0003
,
0001
0100
0000
0000
0100
0001
0000
0000
0100
0010
0000
0000
0001
0000
0000
0000
,
0020
0100
1000
0000
0001
1000
0100
0030
,
0010
0001
0000
0000
0001
0010
0000
0000
0001
1000
0000
0000
0010
0000
0000
0000
,
0200
0010
0001
0000
1000
0001
0010
0300
,
0100
1000
0000
0000
1000
0100
0000
0000
1000
0001
0000
0000
0100
0000
0000
0000
,
2002
0000
0000
0000
0000
0000
0000
3003
,
0010
0100
2000
0010
0000
0010
0000
3010
,
0001
0000
0000
0000
0001
1000
0000
0000
0010
0100
0000
0000
0001
1000
0000
0000
,
0100
0010
0002
0100
0000
0100
0000
0103
,
1000
0000
0000
0000
1000
0001
0000
0000
0100
0010
0000
0000
1000
0001
0000
0000
,
0001
1000
0020
0001
0000
0001
0000
0031
,
0100
0000
0000
0000
0100
0010
0000
0000
0001
1000
0000
0000
0100
0010
0000
0000
,
1000
0001
0200
1000
0000
1000
0000
1300
,
0010
0000
0000
0000
0010
0100
0000
0000
1000
0001
0000
0000
0010
0100
0000
0000
,
0010
0100
2000
0010
0000
0010
0000
3010
,
0001
0000
0000
0000
0001
1000
0000
0000
0010
0100
0000
0000
0001
1000
0000
0000
,
0100
0010
0002
0100
0000
0100
0000
0103
,
1000
0000
0000
0000
1000
0001
0000
0000
0100
0010
0000
0000
1000
0001
0000
0000
,
0001
1000
0020
0001
0000
0001
0000
0031
,
0100
0000
0000
0000
0100
0010
0000
0000
0001
1000
0000
0000
0100
0010
0000
0000
,
1000
0001
0200
1000
0000
1000
0000
1300
,
0010
0000
0000
0000
0010
0100
0000
0000
1000
0001
0000
0000
0010
0100
0000
0000
,
2002
0000
0000
3003
0110
0010
0020
0000
,
0000
0030
0100
0100
0200
0000
0000
0300
,
1000
0000
0001
0000
1000
0000
0001
1000
,
0020
0000
0000
0000
0000
0000
0000
0030
,
0001
0000
1000
0000
0001
0000
1000
0001
,
0200
0000
0000
0000
0000
0000
0000
0300
,
0010
0000
0100
0000
0010
0000
0100
0010
,
0002
0000
0000
0000
0000
0000
0000
0003
,
0100
0000
0010
0000
0100
0000
0010
0100
,
2000
0000
0000
0000
0000
0000
0000
3000
,
2002
0000
0000
0000
0000
0000
0000
3003
,
0020
0000
0000
0000
,
0100
0000
0100
0000
0100
0000
0100
0030
,
0200
0000
0000
0000
,
0010
0000
0010
0000
0010
0000
0010
0300
,
0002
0000
0000
0000
,
1000
0000
1000
0000
1000
0000
1000
0003
,
2000
0000
0000
0000
,
0001
0000
0001
0000
0001
0000
0001
3000
,
2002
0000
0000
0000
0000
0000
0000
3003
,
0010
0100
2000
0010
0000
0010
0000
3010
,
0001
0000
0000
0000
0001
1000
0000
0000
0010
0100
0000
0000
0001
1000
0000
0000
,
0100
0010
0002
0100
0000
0100
0000
0103
,
1000
0000
0000
0000
1000
0001
0000
0000
0100
0010
0000
0000
1000
0001
0000
0000
,
0001
1000
0020
0001
0000
0001
0000
0031
,
0100
0000
0000
0000
0100
0010
0000
0000
0001
1000
0000
0000
0100
0010
0000
0000
,
1000
0001
0200
1000
0000
1000
0000
1300
,
0010
0000
0000
0000
0010
0100
0000
0000
1000
0001
0000
0000
0010
0100
0000
0000
,
0010
0100
2000
0010
0000
0010
0000
3010
,
0001
0000
0000
0000
0001
1000
0000
0000
0010
0100
0000
0000
0001
1000
0000
0000
,
0100
0010
0002
0100
0000
0100
0000
0103
,
1000
0000
0000
0000
1000
0001
0000
0000
0100
0010
0000
0000
1000
0001
0000
0000
,
0001
1000
0020
0001
0000
0001
0000
0031
,
0100
0000
0000
0000
0100
0010
0000
0000
0001
1000
0000
0000
0100
0010
0000
0000
,
1000
0001
0200
1000
0000
1000
0000
1300
,
0010
0000
0000
0000
0010
0100
0000
0000
1000
0001
0000
0000
0010
0100
0000
0000
,
2002
0000
0000
3003
0110
0010
0020
0000
,
0000
0030
0100
0100
0200
0000
0000
0300
,
1000
0010
0000
0000
0010
0100
0000
0000
0010
0000
0100
0000
0010
0000
0010
0000
,
0100
0001
0000
0000
1000
0010
0000
0000
0100
0000
0010
0000
0001
0000
0010
0000
,
0001
0100
0000
0000
0100
0010
0000
0000
0100
0000
0010
0000
0100
0000
0100
0000
,
0010
1000
0000
0000
0001
0100
0000
0000
0010
0000
0100
0000
1000
0000
0100
0000
,
0010
0001
0000
0000
0001
1000
0000
0000
0001
0000
1000
0000
0001
0000
0001
0000
,
1000
0100
0000
0000
0010
0001
0000
0000
1000
0000
0001
0000
0100
0000
0001
0000
,
0100
1000
0000
0000
1000
0001
0000
0000
1000
0000
0001
0000
1000
0000
1000
0000
,
0100
0010
0000
0100
0010
0000
0100
0010
0200
0000
0000
0000
0000
0000
0000
0300
,
2002
0000
0000
0000
,
0000
0000
0000
0000
,
0000
0000
0000
0000
,
3003
0000
0000
0000
;

//---------------dance-single - ----------------
#NOTES:
     dance-single:
     :
     Challenge:
     12:
     0.497613,0.546906,0.094734,0.276914,0.267805,956.000000,930.000000,26.000000,76.000000,0.000000,0.000000,0.497613,0.546906,0.094734,0.276914,0.267805,956.000000,930.000000,26.000000,76.000000,0.000000,0.000000:
0000
0000
0000
0000
,
0000
0000
0000
0000
,
0000
0000
0000
0000
,
0000
0000
0000
0000
,
0000
0000
0000
0000
,
0000
0000
0000
0000
,
0000
0000
0000
0000
,
0000
0000
0000
0000
,
0000
0000
0000
0000
,
1000
0010
0000
0000
0010
0100
0000
0000
0010
0000
0100
0000
0010
0000
0010
0000
,
0100
0001
0000
0000
1000
0010
0000
0000
0100
0000
0010
0000
0001
0000
0010
0000
,
0001
0100
0000
0000
0100
0010
0000
0000
0100
0000
0010
0000
0100
0000
0100
0000
,
0010
1000
0000
0000
0001
0100
0000
0000
0010
0000
0100
0000
1000
0000
0100
0000
,
0010
0001
0000
0000
0001
1000
0000
0000
0001
0000
1000
0000
0001
0000
0001
0000
,
1000
0100
0000
0000
0010
0001
0000
0000
1000
0000
0001
0000
0100
0000
0001
0000
,
0100
1000
0000
0000
1000
0001
0000
0000
1000
0000
0001
0000
1000
0000
1000
0000
,
0100
0010
0000
0100
0010
0000
0100
0010
0200
0000
0000
0000
0020
0000
0000
0330
,
1000
0010
1000
0000
0001
1000
0010
0000
,
0001
0010
1000
0100
0001
0010
1000
0100
,
0001
0100
0001
0000
1000
0001
0100
0000
,
1000
0100
0001
0010
1000
0100
0001
0010
,
0010
0001
0010
0000
0100
0010
0001
0000
,
0100
0001
0010
1000
0100
0001
0010
1000
,
0100
1000
0100
0000
0010
0100
1000
0000
,
0010
1000
0100
0001
0010
1000
0100
0001
,
1000
0010
1000
0000
0001
1000
0010
0000
,
0001
0010
1000
0100
0001
0010
1000
0100
,
0001
0100
0001
0000
1000
0001
0100
0000
,
1000
0100
0001
0010
1000
0100
0001
0010
,
0010
0100
0010
0000
0100
0010
0001
0000
,
0100
0001
0010
1000
0100
0001
0010
1000
,
0100
0010
0100
0000
0010
0100
1000
0000
,
0010
1000
0100
0001
0010
1000
0100
0001
,
2000
0001
0100
0000
0010
0100
0001
3000
,
1000
0010
0000
0000
0010
1000
0000
0000
0010
0100
0000
0000
1001
0000
0000
0000
,
0002
1000
0010
0000
0100
0010
1000
0003
,
0001
0100
0000
0000
0100
0001
0000
0000
0100
0010
0000
0000
1001
0000
0000
0000
,
0020
0100
1000
0000
0001
1000
0100
0030
,
0010
0001
0000
0000
0001
0010
0000
0000
0001
1000
0000
0000
0110
0000
0000
0000
,
0200
0010
0001
0000
1000
0001
0010
0300
,
0100
1000
0000
0000
1000
0100
0000
0000
1000
0001
0000
0000
0110
0000
0000
0000
,
2002
0000
0000
0000
0000
0000
0000
3003
,
0010
0100
2000
0010
0000
0010
0000
3010
,
0001
0000
1000
0000
0001
1000
0000
0000
0010
0100
0000
0000
0001
1000
0000
0000
,
0100
0010
0002
0100
0000
0100
0000
0103
,
1000
0000
0001
0000
1000
0001
0000
0000
0100
0010
0000
0000
1000
0001
0000
0000
,
0001
1000
0020
0001
0000
0001
0000
0031
,
0100
0000
0010
0000
0100
0010
0000
0000
0001
1000
0000
0000
0100
0010
0000
0000
,
1000
0001
0200
1000
0000
1000
0000
1300
,
0010
0000
0100
0000
0010
0100
0000
0000
1000
0001
0000
0000
0010
0100
0000
0000
,
0010
0100
2000
0010
0000
0010
0000
3010
,
0001
0000
1000
0000
0001
1000
0000
0000
0010
0100
0000
0000
0001
1000
0000
0000
,
0100
0010
0002
0100
0000
0100
0000
0103
,
1000
0000
0001
0000
1000
0001
0000
0000
0100
0010
0000
0000
1000
0001
0000
0000
,
0001
1000
0020
0001
0000
0001
0000
0031
,
0100
0000
0010
0000
0100
0010
0000
0000
0001
1000
0000
0000
0100
0010
0000
0000
,
1000
0001
0200
1000
0000
1000
0000
1300
,
0010
0000
0100
0000
0010
0100
0000
0000
1000
0001
0000
0000
0010
0100
0000
0000
,
2002
0000
0000
3003
0110
0010
0020
0000
,
0000
0030
0110
0100
0200
0000
0000
0300
,
1000
0010
0000
0000
0010
0100
0000
0000
0010
0000
0100
0000
0010
0000
0010
0000
,
0100
0001
0000
0000
1000
0010
0000
0000
0100
0000
0010
0000
0001
0000
0010
0000
,
0001
0100
0000
0000
0100
0010
0000
0000
0100
0000
0010
0000
0100
0000
0100
0000
,
0010
1000
0000
0000
0001
0100
0000
0000
0010
0000
0100
0000
1000
0000
0100
0000
,
0010
0001
0000
0000
0001
1000
0000
0000
0001
0000
1000
0000
0001
0000
0001
0000
,
1000
0100
0000
0000
0010
0001
0000
0000
1000
0000
0001
0000
0100
0000
0001
0000
,
0100
1000
0000
0000
1000
0001
0000
0000
1000
0000
0001
0000
1000
0000
1000
0000
,
0100
0010
0000
0100
0010
0000
0100
0010
0200
0000
0000
0000
0020
0000
0000
0330
,
1000
0010
1000
0000
0001
1000
0010
0000
,
0001
0010
1000
0100
0001
0010
1000
0100
,
0001
0100
0001
0000
1000
0001
0100
0000
,
1000
0100
0001
0010
1000
0100
0001
0010
,
0010
0001
0010
0000
0100
0010
0001
0000
,
0100
0001
0010
1000
0100
0001
0010
1000
,
0100
1000
0100
0000
0010
0100
1000
0000
,
0010
1000
0100
0001
0010
1000
0100
0001
,
1000
0010
1000
0000
0001
1000
0010
0000
,
0001
0010
1000
0100
0001
0010
1000
0100
,
0001
0100
0001
0000
1000
0001
0100
0000
,
1000
0100
0001
0010
1000
0100
0001
0010
,
0010
0001
0010
0000
0100
0010
0001
0000
,
0100
0001
0010
1000
0100
0001
0010
1000
,
0100
1000
0100
0000
0010
0100
1000
0000
,
0010
1000
0100
0001
0010
1000
0100
0001
,
2000
0001
0100
0000
0010
0100
0001
3000
,
1000
0010
0000
0000
0010
1000
0000
0000
0010
0100
0000
0000
1001
0000
0000
0000
,
0002
1000
0010
0000
0100
0010
1000
0003
,
0001
0100
0000
0000
0100
0001
0000
0000
0100
0010
0000
0000
1001
0000
0000
0000
,
0020
0100
1000
0000
0001
1000
0100
0030
,
0010
0001
0000
0000
0001
0010
0000
0000
0001
1000
0000
0000
0110
0000
0000
0000
,
0200
0010
0001
0000
1000
0001
0010
0300
,
0100
1000
0000
0000
1000
0100
0000
0000
1000
0001
0000
0000
0110
0000
0000
0000
,
2002
0000
0000
0000
0000
0000
0000
3003
,
0010
0100
2000
0010
0000
0010
0000
3010
,
0001
0000
1000
0000
0001
1000
0000
0000
0010
0100
0000
0000
0001
1000
0000
0000
,
0100
0010
0002
0100
0000
0100
0000
0103
,
1000
0000
0001
0000
1000
0001
0000
0000
0100
0010
0000
0000
1000
0001
0000
0000
,
0001
1000
0020
0001
0000
0001
0000
0031
,
0100
0000
0010
0000
0100
0010
0000
0000
0001
1000
0000
0000
0100
0010
0000
0000
,
1000
0001
0200
1000
0000
1000
0000
1300
,
0010
0000
0100
0000
0010
0100
0000
0000
1000
0001
0000
0000
0010
0100
0000
0000
,
0010
0100
2000
0010
0000
0010
0000
3010
,
0001
0000
1000
0000
0001
1000
0000
0000
0010
0100
0000
0000
0001
1000
0000
0000
,
0100
0010
0002
0100
0000
0100
0000
0103
,
1000
0000
0001
0000
1000
0001
0000
0000
0100
0010
0000
0000
1000
0001
0000
0000
,
0001
1000
0020
0001
0000
0001
0000
0031
,
0100
0000
0010
0000
0100
0010
0000
0000
0001
1000
0000
0000
0100
0010
0000
0000
,
1000
0001
0200
1000
0000
1000
0000
1300
,
0010
0000
0100
0000
0010
0100
0000
0000
1000
0001
0000
0000
0010
0100
0000
0000
,
2002
0000
0000
3003
0110
0010
0020
0000
,
0000
0030
0110
0100
0200
0000
0000
0300
,
1000
0000
0001
0000
1000
0000
0001
1000
,
0020
0000
0000
0000
0200
0000
0000
0330
,
0001
0000
1000
0000
0001
0000
1000
0001
,
0200
0000
0000
0000
0020
0000
0000
0330
,
0010
0000
0100
0000
0010
0000
0100
0010
,
0002
0000
0000
0000
2000
0000
0000
3003
,
0100
0000
0010
0000
0100
0000
0010
0100
,
2000
0000
0000
0000
0002
0000
0000
3003
,
2002
0000
0000
0000
0000
0000
0000
3003
,
0220
0000
0000
0300
,
0100
0000
0100
0000
0100
0000
0100
0030
,
0220
0000
0000
0030
,
0010
0000
0010
0000
0010
0000
0010
0300
,
2002
0000
0000
3000
,
1000
0000
1000
0000
1000
0000
1000
0003
,
2002
0000
0000
0003
,
0001
0000
0001
0000
0001
0000
0001
3000
,
2002
0000
0000
0000
0000
0000
0000
3003
,
0010
0100
2000
0010
0000
0010
0000
3010
,
0001
0000
1000
0000
0001
1000
0000
0000
0010
0100
0000
0000
0001
1000
0000
0000
,
0100
0010
0002
0100
0000
0100
0000
0103
,
1000
0000
0001
0000
1000
0001
0000
0000
0100
0010
0000
0000
1000
0001
0000
0000
,
0001
1000
0020
0001
0000
0001
0000
0031
,
0100
0000
0010
0000
0100
0010
0000
0000
0001
1000
0000
0000
0100
0010
0000
0000
,
1000
0001
0200
1000
0000
1000
0000
1300
,
0010
0000
0100
0000
0010
0100
0000
0000
1000
0001
0000
0000
0010
0100
0000
0000
,
0010
0100
2000
0010
0000
0010
0000
3010
,
0001
0000
1000
0000
0001
1000
0000
0000
0010
0100
0000
0000
0001
1000
0000
0000
,
0100
0010
0002
0100
0000
0100
0000
0103
,
1000
0000
0001
0000
1000
0001
0000
0000
0100
0010
0000
0000
1000
0001
0000
0000
,
0001
1000
0020
0001
0000
0001
0000
0031
,
0100
0000
0010
0000
0100
0010
0000
0000
0001
1000
0000
0000
0100
0010
0000
0000
,
1000
0001
0200
1000
0000
1000
0000
1300
,
0010
0000
0100
0000
0010
0100
0000
0000
1000
0001
0000
0000
0010
0100
0000
0000
,
2002
0000
0000
3003
0110
0010
0020
0000
,
0000
0030
0110
0100
0200
0000
0000
0300
,
1000
0010
0000
0000
0010
0100
0000
0000
0010
0000
0100
0000
0010
0000
0010
0000
,
0100
0001
0000
0000
1000
0010
0000
0000
0100
0000
0010
0000
0001
0000
0010
0000
,
0001
0100
0000
0000
0100
0010
0000
0000
0100
0000
0010
0000
0100
0000
0100
0000
,
0010
1000
0000
0000
0001
0100
0000
0000
0010
0000
0100
0000
1000
0000
0100
0000
,
0010
0001
0000
0000
0001
1000
0000
0000
0001
0000
1000
0000
0001
0000
0001
0000
,
1000
0100
0000
0000
0010
0001
0000
0000
1000
0000
0001
0000
0100
0000
0001
0000
,
0100
1000
0000
0000
1000
0001
0000
0000
1000
0000
0001
0000
1000
0000
1000
0000
,
0100
0010
0000
0100
0010
0000
0100
0010
0200
0000
0000
0000
0020
0000
0000
0330
,
2002
0000
0000
0000
,
0000
0000
0000
0000
,
0000
0000
0000
0000
,
3003
0000
0000
0000
;
