#TITLE:Level 1;
#SUBTITLE:;
#ARTIST:Yamato;
#TITLETRANSLIT:Level One;
#SUBTITLETRANSLIT:;
#ARTISTTRANSLIT:;
#GENRE:;
#CREDIT:;
#BANNER:;
#BACKGROUND:;
#LYRICSPATH:;
#CDTITLE:;
#MUSIC:Level One.ogg;
#OFFSET:-0.039000;
#SAMPLESTART:58.304893;
#SAMPLELENGTH:15.000000;
#SELECTABLE:YES;
#BPMS:0.000000=173.000000
;
#STOPS:
;
#BGCHANGES:;
#KEYSOUNDS:;
#ATTACKS:;

//---------------dance-single - ----------------
#NOTES:
     dance-single:
     :
     Easy:
     16:
     0.799453,1.003159,0.530406,0.245985,0.461223,728.000000,659.000000,69.000000,32.000000,0.000000,0.000000,0.799453,1.003159,0.530406,0.245985,0.461223,728.000000,659.000000,69.000000,32.000000,0.000000,0.000000:
0000
0000
0000
0000
,
0000
0000
0000
0000
,
2000
0000
0010
0010
0010
0000
0001
0001
,
0001
0000
0010
0000
0100
0000
0100
3100
,
0101
1010
0101
1010
,
0100
0010
0001
0000
0010
0100
1000
0000
0100
0010
1000
0000
0100
1000
0001
0000
,
0002
0000
0100
0100
0100
0000
1000
1000
,
1000
0000
0100
0000
0010
0000
0010
0013
,
1010
0101
1010
0101
,
0010
0100
1000
0000
0100
0010
0001
0000
0010
0100
0001
0000
0010
0001
1000
0000
,
0020
0000
0001
0001
0001
0000
0100
0100
,
0100
0000
0001
0000
1000
0000
1000
1030
,
1100
0011
1100
0011
,
1000
0001
0100
0000
0001
1000
0010
0000
1000
0001
0010
0000
1000
0010
0100
0000
,
0200
0000
1000
1000
1000
0000
0010
0010
,
0010
0000
1000
0000
0001
0000
0001
0301
,
0011
1100
0011
1100
,
0001
1000
0010
0000
1000
0001
0100
0000
0001
1000
0100
0000
0001
0100
0010
0000
,
0001
0010
0001
0010
0000
0010
0000
0000
0010
0100
0010
0100
0010
0000
0000
0000
,
1001
0000
0001
0000
0010
0100
1000
0100
0010
0000
0001
0010
0001
0010
0000
0000
,
1000
0100
1000
0100
0000
0100
0000
0000
0100
0010
0100
0010
0100
0000
0000
0000
,
1001
0000
1000
0000
0100
0010
0001
0010
0100
0000
1000
0100
1000
0100
0000
0000
,
0100
0001
0100
0001
0000
0001
0000
0000
0001
1000
0001
1000
0001
0000
0000
0000
,
0110
0000
0100
0000
0001
1000
0010
1000
0001
0000
0100
0001
0100
0001
0000
0000
,
0010
1000
0010
1000
0000
1000
0000
0000
1000
0001
1000
0001
1000
0000
0000
0000
,
0110
0000
0010
0000
1000
0001
0100
0001
1000
0000
0010
1000
0010
1000
0000
0000
,
0200
0000
0010
0010
0001
0001
0010
0310
,
0010
0001
0010
1000
0100
0010
0001
0010
,
2001
0001
0001
0001
0001
0001
0000
3001
,
0000
0210
1000
0010
0001
0010
1000
0310
,
0020
0000
0100
0100
1000
1000
0100
0130
,
0100
1000
0100
0001
0010
0100
1000
0100
,
1002
1000
1000
1000
1000
1000
0000
1003
,
0000
0120
0001
0100
1000
0100
0001
0130
,
1000
0100
0000
0000
0100
0000
1000
0000
0100
0000
0001
0000
0001
0010
0100
0000
,
1000
0100
0001
0000
0001
0100
1000
0000
0100
0010
1000
0000
0001
0010
1000
0000
,
0001
0010
0000
0000
0010
0000
0001
0000
0010
0000
1000
0000
1000
0100
0010
0000
,
0001
0010
1000
0000
1000
0010
0001
0000
0010
0100
0001
0000
1000
0100
0001
0000
,
0100
0010
0100
0000
0110
0000
0110
0000
1000
0001
1000
0000
1001
0000
1001
0000
,
0010
0100
0010
0000
0110
0000
0110
0000
0001
1000
0001
0000
1001
0000
1001
0000
,
0001
1000
0001
1000
0001
1000
0001
1000
,
0001
1000
0001
1000
0100
1000
0100
1000
0010
0100
0010
0100
0020
0000
0000
0030
,
2000
0000
0010
0010
0010
0000
0001
0001
,
0001
0000
0010
0000
0100
0000
0100
3100
,
0101
1010
0101
1010
,
0100
0010
0001
0000
0010
0100
1000
0000
0100
0010
1000
0000
0100
1000
0001
0000
,
0002
0000
0100
0100
0100
0000
1000
1000
,
1000
0000
0100
0000
0010
0000
0010
0013
,
1010
0101
1010
0101
,
0010
0100
1000
0000
0100
0010
0001
0000
0010
0100
0001
0000
0010
0001
1000
0000
,
2000
0000
0000
0000
0001
0000
0000
3000
,
0002
0000
0000
0000
1000
0000
0000
0003
,
0020
0000
0000
0000
0100
0000
0000
0030
,
0200
0000
0000
0000
0010
0000
0000
0300
,
2000
0000
0000
0000
0001
0000
0001
3000
,
0002
0000
0000
0000
1000
0000
1000
0003
,
0001
0000
1000
0000
0001
1000
0001
1000
,
0020
0000
0000
0000
0200
0000
0000
0330
,
0200
0000
0010
0010
0001
0001
0010
0310
,
0010
0001
0010
1000
0100
0010
0001
0010
,
2001
0001
0001
0001
0001
0001
0000
3001
,
0000
0210
1000
0010
0001
0010
1000
0310
,
0020
0000
0100
0100
1000
1000
0100
0130
,
0100
1000
0100
0001
0010
0100
1000
0100
,
1002
1000
1000
1000
1000
1000
0000
1003
,
0000
0120
0001
0100
1000
0100
0001
0130
,
1000
0100
0000
0000
0100
0000
1000
0000
0100
0000
0001
0000
0001
0010
0100
0000
,
1000
0100
0001
0000
0001
0100
1000
0000
0100
0010
1000
0000
0001
0010
1000
0000
,
0001
0010
0000
0000
0010
0000
0001
0000
0010
0000
1000
0000
1000
0100
0010
0000
,
0001
0010
1000
0000
1000
0010
0001
0000
0010
0100
0001
0000
1000
0100
0001
0000
,
0100
0010
0100
0000
0110
0000
0110
0000
1000
0001
1000
0000
1001
0000
1001
0000
,
0010
0100
0010
0000
0110
0000
0110
0000
0001
1000
0001
0000
1001
0000
1001
0000
,
0001
1000
0001
1000
0001
1000
0001
1000
,
0001
1000
0001
1000
0100
1000
0100
1000
0010
0100
0010
0100
0020
0000
0000
0030
,
2000
0000
0010
0010
0010
0000
0001
0001
,
0001
0000
0010
0000
0100
0000
0100
3100
,
0101
1010
0101
1010
,
0100
0010
0001
0000
0010
0100
1000
0000
0100
0010
1000
0000
0100
1000
0001
0000
,
0002
0000
0100
0100
0100
0000
1000
1000
,
1000
0000
0100
0000
0010
0000
0010
0013
,
1010
0101
1010
0101
,
0010
0100
1000
0000
0100
0010
0001
0000
0010
0100
0001
0000
0010
0001
1000
0000
,
0020
0000
0001
0001
0001
0000
0100
0100
,
0100
0000
0001
0000
1000
0000
1000
1030
,
1100
0011
1100
0011
,
1000
0001
0100
0000
0001
1000
0010
0000
1000
0001
0010
0000
1000
0010
0100
0000
,
0200
0000
1000
1000
1000
0000
0010
0010
,
0010
0000
1000
0000
0001
0000
0001
0301
,
0011
1100
0011
1100
,
0001
1000
0010
0000
1000
0001
0100
0000
0001
1000
0100
0000
0001
0100
0010
0000
,
1001
0000
0000
0000
;

//---------------dance-single - ----------------
#NOTES:
     dance-single:
     :
     Beginner:
     15:
     0.775293,0.864793,0.468910,0.245985,0.445849,706.000000,645.000000,61.000000,32.000000,0.000000,0.000000,0.775293,0.864793,0.468910,0.245985,0.445849,706.000000,645.000000,61.000000,32.000000,0.000000,0.000000:
0000
0000
0000
0000
,
0000
0000
0000
0000
,
2000
0000
0010
0010
0010
0000
0001
0001
,
0001
0000
0010
0000
0100
0000
0100
3000
,
0101
1010
0101
1010
,
0100
0010
0001
0000
0010
0100
1000
0000
0100
0010
1000
0000
0100
1000
0001
0000
,
0002
0000
0100
0100
0100
0000
1000
1000
,
1000
0000
0100
0000
0010
0000
0010
0003
,
1010
0101
1010
0101
,
0010
0100
1000
0000
0100
0010
0001
0000
0010
0100
0001
0000
0010
0001
1000
0000
,
0020
0000
0001
0001
0001
0000
0100
0100
,
0100
0000
0001
0000
1000
0000
1000
0030
,
1100
0011
1100
0011
,
1000
0001
0100
0000
0001
1000
0010
0000
1000
0001
0010
0000
1000
0010
0100
0000
,
0200
0000
1000
1000
1000
0000
0010
0010
,
0010
0000
1000
0000
0001
0000
0001
0300
,
0011
1100
0011
1100
,
0001
1000
0010
0000
1000
0001
0100
0000
0001
1000
0100
0000
0001
0100
0010
0000
,
0001
0010
0001
0000
0000
0010
0000
0000
0010
0100
0010
0100
0010
0000
0000
0000
,
1001
0000
0001
0000
0010
0100
1000
0100
0010
0000
0001
0010
0001
0010
0000
0000
,
1000
0100
1000
0000
0000
0100
0000
0000
0100
0010
0100
0010
0100
0000
0000
0000
,
1001
0000
1000
0000
0100
0010
0001
0010
0100
0000
1000
0100
1000
0100
0000
0000
,
0100
0001
0100
0000
0000
0001
0000
0000
0001
1000
0001
1000
0001
0000
0000
0000
,
0110
0000
0100
0000
0001
1000
0010
1000
0001
0000
0100
0001
0100
0001
0000
0000
,
0010
1000
0010
0000
0000
1000
0000
0000
1000
0001
1000
0001
1000
0000
0000
0000
,
0110
0000
0010
0000
1000
0001
0100
0001
1000
0000
0010
1000
0010
1000
0000
0000
,
0200
0000
0010
0010
0001
0001
0010
0310
,
0010
0001
0010
1000
0100
0010
0001
0010
,
2001
0001
0001
0001
0001
0001
0000
3001
,
0000
0210
1000
0010
0001
0010
1000
0310
,
0020
0000
0100
0100
1000
1000
0100
0130
,
0100
1000
0100
0001
0010
0100
1000
0100
,
1002
1000
1000
1000
1000
1000
0000
1003
,
0000
0120
0001
0100
1000
0100
0001
0130
,
1000
0100
0000
0000
0100
0000
1000
0000
0100
0000
0001
0000
0001
0010
0100
0000
,
1000
0100
0001
0000
0001
0100
1000
0000
0100
0010
1000
0000
0001
0010
1000
0000
,
0001
0010
0000
0000
0010
0000
0001
0000
0010
0000
1000
0000
1000
0100
0010
0000
,
0001
0010
1000
0000
1000
0010
0001
0000
0010
0100
0001
0000
1000
0100
0001
0000
,
0100
0010
0100
0000
0100
0000
0110
0000
1000
0001
1000
0000
1000
0000
1001
0000
,
0010
0100
0010
0000
0010
0000
0110
0000
0001
1000
0001
0000
0001
0000
1001
0000
,
0001
1000
0001
1000
0001
1000
0001
1000
,
0001
1000
0001
1000
0001
1000
0001
1000
0010
0100
0010
0100
0020
0000
0000
0030
,
2000
0000
0010
0010
0010
0000
0001
0001
,
0001
0000
0010
0000
0100
0000
0100
3000
,
0101
1010
0101
1010
,
0100
0010
0001
0000
0010
0100
1000
0000
0100
0010
1000
0000
0100
1000
0001
0000
,
0002
0000
0100
0100
0100
0000
1000
1000
,
1000
0000
0100
0000
0010
0000
0010
0003
,
1010
0101
1010
0101
,
0010
0100
1000
0000
0100
0010
0001
0000
0010
0100
0001
0000
0010
0001
1000
0000
,
2000
0000
0000
0000
0001
0000
0000
3000
,
0002
0000
0000
0000
1000
0000
0000
0003
,
0020
0000
0000
0000
0100
0000
0000
0030
,
0200
0000
0000
0000
0010
0000
0000
0300
,
2000
0000
0000
0000
0001
0000
0001
3000
,
0002
0000
0000
0000
1000
0000
1000
0003
,
0001
0000
1000
0000
0001
1000
0001
1000
,
0020
0000
0000
0000
0200
0000
0000
0330
,
0200
0000
0010
0010
0001
0001
0010
0310
,
0010
0001
0010
1000
0100
0010
0001
0010
,
2001
0001
0001
0001
0001
0001
0000
3001
,
0000
0210
1000
0010
0001
0010
1000
0310
,
0020
0000
0100
0100
1000
1000
0100
0130
,
0100
1000
0100
0001
0010
0100
1000
0100
,
1002
1000
1000
1000
1000
1000
0000
1003
,
0000
0120
0001
0100
1000
0100
0001
0130
,
1000
0100
0000
0000
0100
0000
1000
0000
0100
0000
0001
0000
0001
0010
0100
0000
,
1000
0100
0001
0000
0001
0100
1000
0000
0100
0010
1000
0000
0001
0010
1000
0000
,
0001
0010
0000
0000
0010
0000
0001
0000
0010
0000
1000
0000
1000
0100
0010
0000
,
0001
0010
1000
0000
1000
0010
0001
0000
0010
0100
0001
0000
1000
0100
0001
0000
,
0100
0010
0100
0000
0010
0000
0110
0000
1000
0001
1000
0000
0001
0000
1001
0000
,
0010
0100
0010
0000
0100
0000
0110
0000
0001
1000
0001
0000
1000
0000
1001
0000
,
0001
1000
0001
1000
0001
1000
0001
1000
,
0001
1000
0001
1000
0001
1000
0001
1000
0010
0100
0010
0100
0020
0000
0000
0030
,
2000
0000
0010
0010
0010
0000
0001
0001
,
0001
0000
0010
0000
0100
0000
0100
3000
,
0101
1010
0101
1010
,
0100
0010
0001
0000
0010
0100
1000
0000
0100
0010
1000
0000
0100
1000
0001
0000
,
0002
0000
0100
0100
0100
0000
1000
1000
,
1000
0000
0100
0000
0010
0000
0010
0003
,
1010
0101
1010
0101
,
0010
0100
1000
0000
0100
0010
0001
0000
0010
0100
0001
0000
0010
0001
1000
0000
,
0020
0000
0001
0001
0001
0000
0100
0100
,
0100
0000
0001
0000
1000
0000
1000
0030
,
1100
0011
1100
0011
,
1000
0001
0100
0000
0001
1000
0010
0000
1000
0001
0010
0000
1000
0010
0100
0000
,
0200
0000
1000
1000
1000
0000
0010
0010
,
0010
0000
1000
0000
0001
0000
0001
0300
,
0011
1100
0011
1100
,
0001
1000
0010
0000
1000
0001
0100
0000
0001
1000
0100
0000
0001
0100
0010
0000
,
1001
0000
0000
0000
;

//---------------dance-single - ----------------
#NOTES:
     dance-single:
     :
     Medium:
     17:
     0.836790,1.003159,0.530406,0.245985,0.499658,762.000000,693.000000,69.000000,32.000000,0.000000,0.000000,0.836790,1.003159,0.530406,0.245985,0.499658,762.000000,693.000000,69.000000,32.000000,0.000000,0.000000:
0000
0000
0000
0000
,
0000
0000
0000
0000
,
2000
0000
0010
0010
0010
0000
0001
0001
,
0001
0000
0010
0000
0100
0000
0100
3100
,
0101
1000
1010
0000
0101
0001
1010
0000
,
0100
0010
0001
1000
0010
0100
1000
0000
0100
0010
1000
0000
0100
1000
0001
0000
,
0002
0000
0100
0100
0100
0000
1000
1000
,
1000
0000
0100
0000
0010
0000
0010
0013
,
1010
0001
0101
0000
1010
1000
0101
0000
,
0010
0100
1000
0001
0100
0010
0001
0000
0010
0100
0001
0000
0010
0001
1000
0000
,
0020
0000
0001
0001
0001
0000
0100
0100
,
0100
0000
0001
0000
1000
0000
1000
1030
,
1100
0010
0011
0000
1100
0100
0011
0000
,
1000
0001
0100
0010
0001
1000
0010
0000
1000
0001
0010
0000
1000
0010
0100
0000
,
0200
0000
1000
1000
1000
0000
0010
0010
,
0010
0000
1000
0000
0001
0000
0001
0301
,
0011
0100
1100
0000
0011
0010
1100
0000
,
0001
1000
0010
0100
1000
0001
0100
0000
0001
1000
0100
0000
0001
0100
0010
0000
,
0001
0010
0001
0010
0001
0010
0000
0000
0010
0100
0010
0100
0010
0000
0000
0000
,
1001
0000
0001
0000
0010
0100
1000
0100
0010
0000
0001
0010
0001
0010
0000
0000
,
1000
0100
1000
0100
1000
0100
0000
0000
0100
0010
0100
0010
0100
0000
0000
0000
,
1001
0000
1000
0000
0100
0010
0001
0010
0100
0000
1000
0100
1000
0100
0000
0000
,
0100
0001
0100
0001
0100
0001
0000
0000
0001
1000
0001
1000
0001
0000
0000
0000
,
0110
0000
0100
0000
0001
1000
0010
1000
0001
0000
0100
0001
0100
0001
0000
0000
,
0010
1000
0010
1000
0010
1000
0000
0000
1000
0001
1000
0001
1000
0000
0000
0000
,
0110
0000
0010
0000
1000
0001
0100
0001
1000
0000
0010
1000
0010
1000
0000
0000
,
0200
0000
0010
0010
0001
0001
0010
0310
,
0010
0001
0010
1000
0100
0010
0001
0010
,
2001
0001
0001
0001
0001
0001
0000
3001
,
0000
0210
1000
0010
0001
0010
1000
0310
,
0020
0000
0100
0100
1000
1000
0100
0130
,
0100
1000
0100
0001
0010
0100
1000
0100
,
1002
1000
1000
1000
1000
1000
0000
1003
,
0000
0120
0001
0100
1000
0100
0001
0130
,
1000
0100
0000
0000
0100
0000
1000
0000
0100
0000
0001
0000
0001
0010
0100
0000
,
1000
0100
0001
0000
0001
0100
1000
0000
0100
0010
1000
0000
0001
0010
1000
0000
,
0001
0010
0000
0000
0010
0000
0001
0000
0010
0000
1000
0000
1000
0100
0010
0000
,
0001
0010
1000
0000
1000
0010
0001
0000
0010
0100
0001
0000
1000
0100
0001
0000
,
0100
0010
0100
0000
0110
0000
0110
0000
1000
0001
1000
0000
1001
0000
1001
0000
,
0010
0100
0010
0000
0110
0000
0110
0000
0001
1000
0001
0000
1001
0000
1001
0000
,
0001
1000
0001
1000
0001
1000
0001
1000
,
0001
1000
0001
1000
0100
1000
0100
1000
0010
0100
0010
0100
0020
0000
0000
0030
,
2000
0000
0010
0010
0010
0000
0001
0001
,
0001
0000
0010
0000
0100
0000
0100
3100
,
0101
1000
1010
0000
0101
0001
1010
0000
,
0100
0010
0001
1000
0010
0100
1000
0000
0100
0010
1000
0000
0100
1000
0001
0000
,
0002
0000
0100
0100
0100
0000
1000
1000
,
1000
0000
0100
0000
0010
0000
0010
0013
,
1010
0001
0101
0000
1010
1000
0101
0000
,
0010
0100
1000
0001
0100
0010
0001
0000
0010
0100
0001
0000
0010
0001
1000
0000
,
2000
0000
0000
0000
0001
0000
0000
3000
,
0002
0000
0000
0000
1000
0000
0000
0003
,
0020
0000
0000
0000
0100
0000
0000
0030
,
0200
0000
0000
0000
0010
0000
0000
0300
,
2000
0000
0000
0000
0001
0000
0001
3000
,
0002
0000
0000
0000
1000
0000
1000
0003
,
0001
0000
1000
0000
0001
1000
0001
1000
,
0020
0000
0000
0000
0200
0000
0000
0330
,
0200
0000
0010
0010
0001
0001
0010
0310
,
0010
0001
0010
1000
0100
0010
0001
0010
,
2001
0001
0001
0001
0001
0001
0000
3001
,
0000
0210
1000
0010
0001
0010
1000
0310
,
0020
0000
0100
0100
1000
1000
0100
0130
,
0100
1000
0100
0001
0010
0100
1000
0100
,
1002
1000
1000
1000
1000
1000
0000
1003
,
0000
0120
0001
0100
1000
0100
0001
0130
,
1000
0100
0000
0000
0100
0000
1000
0000
0100
0000
0001
0000
0001
0010
0100
0000
,
1000
0100
0001
0000
0001
0100
1000
0000
0100
0010
1000
0000
0001
0010
1000
0000
,
0001
0010
0000
0000
0010
0000
0001
0000
0010
0000
1000
0000
1000
0100
0010
0000
,
0001
0010
1000
0000
1000
0010
0001
0000
0010
0100
0001
0000
1000
0100
0001
0000
,
0100
0010
0100
0000
0110
0000
0110
0000
1000
0001
1000
0000
1001
0000
1001
0000
,
0010
0100
0010
0000
0110
0000
0110
0000
0001
1000
0001
0000
1001
0000
1001
0000
,
0001
1000
0001
1000
0001
1000
0001
1000
,
0001
1000
0001
1000
0100
1000
0100
1000
0010
0100
0010
0100
0020
0000
0000
0030
,
2000
0000
0010
0010
0010
0000
0001
0001
,
0001
0000
0010
0000
0100
0000
0100
3100
,
0101
1000
1010
0000
0101
0001
1010
0000
,
0100
0010
0001
1000
0010
0100
1000
0000
0100
0010
1000
0000
0100
1000
0001
0000
,
0002
0000
0100
0100
0100
0000
1000
1000
,
1000
0000
0100
0000
0010
0000
0010
0013
,
1010
0001
0101
0000
1010
1000
0101
0000
,
0010
0100
1000
0001
0100
0010
0001
0000
0010
0100
0001
0000
0010
0001
1000
0000
,
0020
0000
0001
0001
0001
0000
0100
0100
,
0100
0000
0001
0000
1000
0000
1000
1030
,
1100
0010
0011
0000
1100
0100
0011
0000
,
1000
0001
0100
0010
0001
1000
0010
0000
1000
0001
0010
0000
1000
0010
0100
0000
,
0200
0000
1000
1000
1000
0000
0010
0010
,
0010
0000
1000
0000
0001
0000
0001
0301
,
0011
0100
1100
0000
0011
0010
1100
0000
,
0001
1000
0010
0100
1000
0001
0100
0000
0001
1000
0100
0000
0001
0100
0010
0000
,
1001
0000
0000
0000
;

//---------------dance-single - ----------------
#NOTES:
     dance-single:
     :
     Hard:
     17:
     0.867538,1.003159,0.591902,0.245985,0.515032,790.000000,713.000000,77.000000,32.000000,0.000000,0.000000,0.867538,1.003159,0.591902,0.245985,0.515032,790.000000,713.000000,77.000000,32.000000,0.000000,0.000000:
0000
0000
0000
0000
,
0000
0000
0000
0000
,
2000
0000
0010
0010
0010
0000
0001
0001
,
0001
0000
0010
0000
0100
0000
0100
3100
,
0101
1000
1010
0000
0101
0001
1010
1000
,
0100
0010
0001
1000
0010
0100
1000
0000
0100
0010
1000
0000
0100
1000
0001
0000
,
0002
0000
0100
0100
0100
0000
1000
1000
,
1000
0000
0100
0000
0010
0000
0010
0013
,
1010
0001
0101
0000
1010
1000
0101
0001
,
0010
0100
1000
0001
0100
0010
0001
0000
0010
0100
0001
0000
0010
0001
1000
0000
,
0020
0000
0001
0001
0001
0000
0100
0100
,
0100
0000
0001
0000
1000
0000
1000
1030
,
1100
0010
0011
0000
1100
0100
0011
0010
,
1000
0001
0100
0010
0001
1000
0010
0000
1000
0001
0010
0000
1000
0010
0100
0000
,
0200
0000
1000
1000
1000
0000
0010
0010
,
0010
0000
1000
0000
0001
0000
0001
0301
,
0011
0100
1100
0000
0011
0010
1100
0100
,
0001
1000
0010
0100
1000
0001
0100
0000
0001
1000
0100
0000
0001
0100
0010
0000
,
0001
0010
0001
0010
0001
0010
0000
0000
0010
0100
0010
0100
0010
0000
0000
0000
,
1001
0000
1001
0000
0010
0100
1000
0100
0010
0000
0001
0010
0001
0010
0000
0000
,
1000
0100
1000
0100
1000
0100
0000
0000
0100
0010
0100
0010
0100
0000
0000
0000
,
1001
0000
1001
0000
0100
0010
0001
0010
0100
0000
1000
0100
1000
0100
0000
0000
,
0100
0001
0100
0001
0100
0001
0000
0000
0001
1000
0001
1000
0001
0000
0000
0000
,
0110
0000
0110
0000
0001
1000
0010
1000
0001
0000
0100
0001
0100
0001
0000
0000
,
0010
1000
0010
1000
0010
1000
0000
0000
1000
0001
1000
0001
1000
0000
0000
0000
,
0110
0000
0110
0000
1000
0001
0100
0001
1000
0000
0010
1000
0010
1000
0000
0000
,
0200
0000
0010
0010
0001
0001
0010
0310
,
0110
0001
0010
1000
0100
0010
0001
0010
,
2001
0001
0001
0001
0001
0001
0000
3001
,
0000
0210
1000
0010
0001
0010
1000
0310
,
0020
0000
0100
0100
1000
1000
0100
0130
,
0110
1000
0100
0001
0010
0100
1000
0100
,
1002
1000
1000
1000
1000
1000
0000
1003
,
0000
0120
0001
0100
1000
0100
0001
0130
,
1000
0100
0000
0000
0100
0001
1000
0000
0100
0000
0001
0000
0001
0010
0100
0000
,
1000
0100
0001
0000
0001
0100
1000
0000
0100
0010
1000
0000
0001
0010
1000
0000
,
0001
0010
0000
0000
0010
1000
0001
0000
0010
0000
1000
0000
1000
0100
0010
0000
,
0001
0010
1000
0000
1000
0010
0001
0000
0010
0100
0001
0000
1000
0100
0001
0000
,
0100
0010
0100
0000
0110
0000
0110
0000
1000
0001
1000
0000
1001
0000
1001
0000
,
0010
0100
0010
0000
0110
0000
0110
0000
0001
1000
0001
0000
1001
0000
1001
0000
,
0001
1000
0001
1000
0001
1000
0001
1000
,
0001
1000
0001
1000
0100
1000
0100
1000
0010
0100
0010
0100
0020
0000
0000
0030
,
2000
0000
0010
0010
0010
0000
0001
0001
,
0001
0000
0010
0000
0100
0000
0100
3100
,
0101
1000
1010
0000
0101
0001
1010
1000
,
0100
0010
0001
1000
0010
0100
1000
0000
0100
0010
1000
0000
0100
1000
0001
0000
,
0002
0000
0100
0100
0100
0000
1000
1000
,
1000
0000
0100
0000
0010
0000
0010
0013
,
1010
0001
0101
0000
1010
1000
0101
0001
,
0010
0100
1000
0001
0100
0010
0001
0000
0010
0100
0001
0000
0010
0001
1000
0000
,
2000
0000
0000
0000
0001
0000
0001
3000
,
0002
0000
0000
0000
1000
0000
1000
0003
,
0020
0000
0000
0000
0100
0000
0100
0030
,
0200
0000
0000
0000
0010
0000
0010
0300
,
2000
0000
0000
0000
0001
0000
0001
3000
,
0002
0000
0000
0000
1000
0000
1000
0003
,
0001
1000
0001
1000
0001
1000
0001
1000
,
0020
0000
0000
0000
0200
0000
0000
0330
,
0200
0000
0010
0010
0001
0001
0010
0310
,
0110
0001
0010
1000
0100
0010
0001
0010
,
2001
0001
0001
0001
0001
0001
0000
3001
,
0000
0210
1000
0010
0001
0010
1000
0310
,
0020
0000
0100
0100
1000
1000
0100
0130
,
0110
1000
0100
0001
0010
0100
1000
0100
,
1002
1000
1000
1000
1000
1000
0000
1003
,
0000
0120
0001
0100
1000
0100
0001
0130
,
1000
0100
0000
0000
0100
0001
1000
0000
0100
0000
0001
0000
0001
0010
0100
0000
,
1000
0100
0001
0000
0001
0100
1000
0000
0100
0010
1000
0000
0001
0010
1000
0000
,
0001
0010
0000
0000
0010
1000
0001
0000
0010
0000
1000
0000
1000
0100
0010
0000
,
0001
0010
1000
0000
1000
0010
0001
0000
0010
0100
0001
0000
1000
0100
0001
0000
,
0100
0010
0100
0000
0110
0000
0110
0000
1000
0001
1000
0000
1001
0000
1001
0000
,
0010
0100
0010
0000
0110
0000
0110
0000
0001
1000
0001
0000
1001
0000
1001
0000
,
0001
1000
0001
1000
0001
1000
0001
1000
,
0001
1000
0001
1000
0100
1000
0100
1000
0010
0100
0010
0100
0020
0000
0000
0030
,
2000
0000
0010
0010
0010
0000
0001
0001
,
0001
0000
0010
0000
0100
0000
0100
3100
,
0101
1000
1010
0000
0101
0001
1010
1000
,
0100
0010
0001
1000
0010
0100
1000
0000
0100
0010
1000
0000
0100
1000
0001
0000
,
0002
0000
0100
0100
0100
0000
1000
1000
,
1000
0000
0100
0000
0010
0000
0010
0013
,
1010
0001
0101
0000
1010
1000
0101
0001
,
0010
0100
1000
0001
0100
0010
0001
0000
0010
0100
0001
0000
0010
0001
1000
0000
,
0020
0000
0001
0001
0001
0000
0100
0100
,
0100
0000
0001
0000
1000
0000
1000
1030
,
1100
0010
0011
0000
1100
0100
0011
0010
,
1000
0001
0100
0010
0001
1000
0010
0000
1000
0001
0010
0000
1000
0010
0100
0000
,
0200
0000
1000
1000
1000
0000
0010
0010
,
0010
0000
1000
0000
0001
0000
0001
0301
,
0011
0100
1100
0000
0011
0010
1100
0100
,
0001
1000
0010
0100
1000
0001
0100
0000
0001
1000
0100
0000
0001
0100
0010
0000
,
1001
0000
0000
0000
;

//---------------dance-single - ----------------
#NOTES:
     dance-single:
     :
     Challenge:
     17:
     0.878519,1.003159,0.591902,0.245985,0.553467,800.000000,723.000000,77.000000,32.000000,0.000000,0.000000,0.878519,1.003159,0.591902,0.245985,0.553467,800.000000,723.000000,77.000000,32.000000,0.000000,0.000000:
0000
0000
0000
0000
,
0000
0000
0000
0000
,
2000
0000
0010
0010
0010
0000
0001
0001
,
0001
0000
0010
0000
0100
0000
0100
3100
,
0101
1000
1010
0000
0101
0001
1010
1000
,
0100
0010
0001
1000
0010
0100
1000
0000
0100
0010
1000
0001
0100
1000
0001
0000
,
0002
0000
0100
0100
0100
0000
1000
1000
,
1000
0000
0100
0000
0010
0000
0010
0013
,
1010
0001
0101
0000
1010
1000
0101
0001
,
0010
0100
1000
0001
0100
0010
0001
0000
0010
0100
0001
1000
0010
0001
1000
0000
,
0020
0000
0001
0001
0001
0000
0100
0100
,
0100
0000
0001
0000
1000
0000
1000
1030
,
1100
0010
0011
0000
1100
0100
0011
0010
,
1000
0001
0100
0010
0001
1000
0010
0000
1000
0001
0010
0100
1000
0010
0100
0000
,
0200
0000
1000
1000
1000
0000
0010
0010
,
0010
0000
1000
0000
0001
0000
0001
0301
,
0011
0100
1100
0000
0011
0010
1100
0100
,
0001
1000
0010
0100
1000
0001
0100
0000
0001
1000
0100
0010
0001
0100
0010
0000
,
0001
0010
0001
0010
0001
0010
0000
0000
0010
0100
0010
0100
0010
0000
0000
0000
,
1001
0000
1001
0000
0010
0100
1000
0100
0010
0000
0001
0010
0001
0010
0000
0000
,
1000
0100
1000
0100
1000
0100
0000
0000
0100
0010
0100
0010
0100
0000
0000
0000
,
1001
0000
1001
0000
0100
0010
0001
0010
0100
0000
1000
0100
1000
0100
0000
0000
,
0100
0001
0100
0001
0100
0001
0000
0000
0001
1000
0001
1000
0001
0000
0000
0000
,
0110
0000
0110
0000
0001
1000
0010
1000
0001
0000
0100
0001
0100
0001
0000
0000
,
0010
1000
0010
1000
0010
1000
0000
0000
1000
0001
1000
0001
1000
0000
0000
0000
,
0110
0000
0110
0000
1000
0001
0100
0001
1000
0000
0010
1000
0010
1000
0000
0000
,
0200
0000
0010
0010
0001
0001
0010
0310
,
0110
0001
0010
1000
0100
0010
0001
0010
,
2001
0001
0001
0001
0001
0001
0000
3001
,
0000
0210
1000
0010
0001
0010
1000
0310
,
0020
0000
0100
0100
1000
1000
0100
0130
,
0110
1000
0100
0001
0010
0100
1000
0100
,
1002
1000
1000
1000
1000
1000
0000
1003
,
0000
0120
0001
0100
1000
0100
0001
0130
,
1000
0100
0000
0000
0100
0001
1000
0000
0100
0000
0001
0000
0001
0010
0100
0000
,
1000
0100
0001
0000
0001
0100
1000
0000
0100
0010
1000
0000
0001
0010
1000
0000
,
0001
0010
0000
0000
0010
1000
0001
0000
0010
0000
1000
0000
1000
0100
0010
0000
,
0001
0010
1000
0000
1000
0010
0001
0000
0010
0100
0001
0000
1000
0100
0001
0000
,
0100
0010
0100
0000
0110
0000
0110
0000
1000
0001
1000
0000
1001
0000
1001
0000
,
0010
0100
0010
0000
0110
0000
0110
0000
0001
1000
0001
0000
1001
0000
1001
0000
,
0001
1000
0001
1000
0001
1000
0001
1000
,
0001
1000
0001
1000
0100
1000
0100
1000
0010
0100
0010
0100
0020
0000
0000
0030
,
2000
0000
0010
0010
0010
0000
0001
0001
,
0001
0000
0010
0000
0100
0000
0100
3100
,
0101
1000
1010
0000
0101
0001
1010
1000
,
0100
0010
0001
1000
0010
0100
1000
0000
0100
0010
1000
0001
0100
1000
0001
0000
,
0002
0000
0100
0100
0100
0000
1000
1000
,
1000
0000
0100
0000
0010
0000
0010
0013
,
1010
0001
0101
0000
1010
1000
0101
0001
,
0010
0100
1000
0001
0100
0010
0001
0000
0010
0100
0001
1000
0010
0001
1000
0000
,
2000
0000
0000
0000
0001
0000
0001
3000
,
0002
0000
0000
0000
1000
0000
1000
0003
,
0020
0000
0000
0000
0100
0000
0100
0030
,
0200
0000
0000
0000
0010
0000
0010
0300
,
2000
0000
0000
0000
0001
0000
0001
3000
,
0002
0000
0000
0000
1000
0000
1000
0003
,
0001
1000
0001
1000
0001
1000
0001
1000
,
0020
0000
0000
0000
0200
0000
0000
0330
,
0200
0000
0010
0010
0001
0001
0010
0310
,
0110
0001
0010
1000
0100
0010
0001
0010
,
2001
0001
0001
0001
0001
0001
0000
3001
,
0000
0210
1000
0010
0001
0010
1000
0310
,
0020
0000
0100
0100
1000
1000
0100
0130
,
0110
1000
0100
0001
0010
0100
1000
0100
,
1002
1000
1000
1000
1000
1000
0000
1003
,
0000
0120
0001
0100
1000
0100
0001
0130
,
1000
0100
0000
0000
0100
0001
1000
0000
0100
0000
0001
0000
0001
0010
0100
0000
,
1000
0100
0001
0000
0001
0100
1000
0000
0100
0010
1000
0000
0001
0010
1000
0000
,
0001
0010
0000
0000
0010
1000
0001
0000
0010
0000
1000
0000
1000
0100
0010
0000
,
0001
0010
1000
0000
1000
0010
0001
0000
0010
0100
0001
0000
1000
0100
0001
0000
,
0100
0010
0100
0000
0110
0000
0110
0000
1000
0001
1000
0000
1001
0000
1001
0000
,
0010
0100
0010
0000
0110
0000
0110
0000
0001
1000
0001
0000
1001
0000
1001
0000
,
0001
1000
0001
1000
0001
1000
0001
1000
,
0001
1000
0001
1000
0100
1000
0100
1000
0010
0100
0010
0100
0020
0000
0000
0030
,
2000
0000
0010
0010
0010
0000
0001
0001
,
0001
0000
0010
0000
0100
0000
0100
3100
,
0101
1000
1010
0000
0101
0001
1010
1000
,
0100
0010
0001
1000
0010
0100
1000
0000
0100
0010
1000
0001
0100
1000
0001
0000
,
0002
0000
0100
0100
0100
0000
1000
1000
,
1000
0000
0100
0000
0010
0000
0010
0013
,
1010
0001
0101
0000
1010
1000
0101
0001
,
0010
0100
1000
0001
0100
0010
0001
0000
0010
0100
0001
1000
0010
0001
1000
0000
,
0020
0000
0001
0001
0001
0000
0100
0100
,
0100
0000
0001
0000
1000
0000
1000
1030
,
1100
0010
0011
0000
1100
0100
0011
0010
,
1000
0001
0100
0010
0001
1000
0010
0000
1000
0001
0010
0100
1000
0010
0100
0000
,
0200
0000
1000
1000
1000
0000
0010
0010
,
0010
0000
1000
0000
0001
0000
0001
0301
,
0011
0100
1100
0000
0011
0010
1100
0100
,
0001
1000
0010
0100
1000
0001
0100
0000
0001
1000
0100
0010
0001
0100
0010
0000
,
1001
0000
0000
0000
;

//---------------dance-single - Deluxe----------------
#NOTES:
     dance-single:
     Deluxe:
     Edit:
     17:
     0.916955,1.003159,0.591902,0.245985,0.568841,835.000000,758.000000,77.000000,32.000000,0.000000,0.000000,0.916955,1.003159,0.591902,0.245985,0.568841,835.000000,758.000000,77.000000,32.000000,0.000000,0.000000:
// measure 0
0000
0000
0000
0000
,  // measure 1
0000
0000
0000
0000
,  // measure 2
2000
0000
0010
0010
0010
0000
0001
0001
,  // measure 3
0001
0000
0010
0000
0100
0000
0100
3100
,  // measure 4
0101
1000
1010
0000
0101
0001
1010
1000
,  // measure 5
0100
0010
0001
1000
0010
0100
1000
0000
0100
0010
1000
0001
0100
1000
0001
0000
,  // measure 6
0002
0000
0100
0100
0100
0000
1000
1000
,  // measure 7
1000
0000
0100
0000
0010
0000
0010
0013
,  // measure 8
1010
0001
0101
1000
1010
1000
0101
0001
,  // measure 9
0010
0100
1000
0001
0100
0010
0001
0000
0010
0100
0001
1000
0010
0001
1000
0000
,  // measure 10
0020
0000
0001
0001
0001
0000
0100
0100
,  // measure 11
0100
0000
0001
0000
1000
0000
1000
1030
,  // measure 12
1100
0010
0011
0100
1100
0100
0011
0010
,  // measure 13
1000
0001
0100
0010
0001
1000
0010
0000
1000
0001
0010
0100
1000
0010
0100
0000
,  // measure 14
0200
0000
1000
1000
1000
0000
0010
0010
,  // measure 15
0010
0000
1000
0000
0001
0000
0001
0301
,  // measure 16
0011
0100
1100
0010
0011
0010
1100
0100
,  // measure 17
0001
1000
0010
0100
1000
0001
0100
0000
0001
1000
0100
0010
0001
0100
0010
0000
,  // measure 18
0001
0010
0001
0010
0001
0010
0001
0000
0010
0100
0010
0100
0010
0000
0100
0000
,  // measure 19
1001
0000
1001
0000
0010
0100
1000
0100
0010
0000
0001
0010
0001
0010
0001
0000
,  // measure 20
1000
0100
1000
0100
1000
0100
1000
0000
0100
0010
0100
0010
0100
0000
0010
0000
,  // measure 21
1001
0000
1001
0000
0100
0010
0001
0010
0100
0000
1000
0100
1000
0100
1000
0000
,  // measure 22
0100
0001
0100
0001
0100
0001
0100
0000
0001
1000
0001
1000
0001
0000
1000
0000
,  // measure 23
0110
0000
0110
0000
0001
1000
0010
1000
0001
0000
0100
0001
0100
0001
0100
0000
,  // measure 24
0010
1000
0010
1000
0010
1000
0010
0000
1000
0001
1000
0001
1000
0000
0001
0000
,  // measure 25
0110
0000
0110
0000
1000
0001
0100
0001
1000
0000
0010
1000
0010
1000
0010
0000
,  // measure 26
0200
0000
0010
0010
0001
0001
0010
0310
,  // measure 27
0110
0001
0010
1000
0100
0010
0001
0010
,  // measure 28
2001
0001
0001
0001
0001
0001
0000
3001
,  // measure 29
0000
0210
1000
0010
0001
0010
1000
0310
,  // measure 30
0020
0000
0100
0100
1000
1000
0100
0130
,  // measure 31
0110
1000
0100
0001
0010
0100
1000
0100
,  // measure 32
1002
1000
1000
1000
1000
1000
0000
1003
,  // measure 33
0000
0120
0001
0100
1000
0100
0001
0130
,  // measure 34
1000
0100
0001
0000
0100
0001
1000
0000
0100
0000
0001
0000
0001
0010
0100
0000
,  // measure 35
1000
0100
0001
0000
0001
0100
1000
0000
0100
0010
1000
0000
0001
0010
1000
0000
,  // measure 36
0001
0010
1000
0000
0010
1000
0001
0000
0010
0000
1000
0000
1000
0100
0010
0000
,  // measure 37
0001
0010
1000
0000
1000
0010
0001
0000
0010
0100
0001
0000
1000
0100
0001
0000
,  // measure 38
0100
0010
0100
0000
0110
0000
0110
0000
1000
0001
1000
0000
1001
0000
1001
0000
,  // measure 39
0010
0100
0010
0000
0110
0000
0110
0000
0001
1000
0001
0000
1001
0000
1001
0000
,  // measure 40
0001
1000
0001
1000
0001
1000
0001
1000
,  // measure 41
0001
1000
0001
1000
0100
1000
0100
1000
0010
0100
0010
0100
0020
0000
0000
0030
,  // measure 42
2000
0000
0010
0010
0010
0000
0001
0001
,  // measure 43
0001
0000
0010
0000
0100
0000
0100
3100
,  // measure 44
0101
1000
1010
0001
0101
0001
1010
1000
,  // measure 45
0100
0010
0001
1000
0010
0100
1000
0000
0100
0010
1000
0001
0100
1000
0001
0000
,  // measure 46
0002
0000
0100
0100
0100
0000
1000
1000
,  // measure 47
1000
0000
0100
0000
0010
0000
0010
0013
,  // measure 48
1010
0001
0101
1000
1010
1000
0101
0001
,  // measure 49
0010
0100
1000
0001
0100
0010
0001
0000
0010
0100
0001
1000
0010
0001
1000
0000
,  // measure 50
2000
0000
0001
0000
0001
0000
0001
3000
,  // measure 51
0002
0000
1000
0000
1000
0000
1000
0003
,  // measure 52
0020
0000
0100
0000
0100
0000
0100
0030
,  // measure 53
0200
0000
0010
0000
0010
0000
0010
0300
,  // measure 54
2000
0000
0001
0000
0001
0000
0001
3000
,  // measure 55
0002
0000
1000
0000
1000
0000
1000
0003
,  // measure 56
0001
0000
1000
0000
0001
0000
1000
0000
0001
0000
1000
0000
0001
1000
0001
1000
,  // measure 57
0020
0000
0000
0000
0200
0000
0000
0330
,  // measure 58
0200
0000
0010
0010
0001
0001
0010
0310
,  // measure 59
0110
0001
0010
1000
0100
0010
0001
0010
,  // measure 60
2001
0001
0001
0001
0001
0001
0000
3001
,  // measure 61
0000
0210
1000
0010
0001
0010
1000
0310
,  // measure 62
0020
0000
0100
0100
1000
1000
0100
0130
,  // measure 63
0110
1000
0100
0001
0010
0100
1000
0100
,  // measure 64
1002
1000
1000
1000
1000
1000
0000
1003
,  // measure 65
0000
0120
0001
0100
1000
0100
0001
0130
,  // measure 66
1000
0100
0001
0000
0100
0001
1000
0000
0100
0000
0001
0000
0001
0010
0100
0000
,  // measure 67
1000
0100
0001
0000
0001
0100
1000
0000
0100
0010
1000
0000
0001
0010
1000
0000
,  // measure 68
0001
0010
1000
0000
0010
1000
0001
0000
0010
0000
1000
0000
1000
0100
0010
0000
,  // measure 69
0001
0010
1000
0000
1000
0010
0001
0000
0010
0100
0001
0000
1000
0100
0001
0000
,  // measure 70
0100
0010
0100
0000
0110
0000
0110
0000
1000
0001
1000
0000
1001
0000
1001
0000
,  // measure 71
0010
0100
0010
0000
0110
0000
0110
0000
0001
1000
0001
0000
1001
0000
1001
0000
,  // measure 72
0001
0000
1000
0000
0001
0000
1000
0000
0001
0000
1000
0000
0001
1000
0001
1000
,  // measure 73
0001
1000
0001
1000
0100
1000
0100
1000
0010
0100
0010
0100
0020
0000
0000
0030
,  // measure 74
2000
0000
0010
0010
0010
0000
0001
0001
,  // measure 75
0001
0000
0010
0000
0100
0000
0100
3100
,  // measure 76
0101
1000
1010
0001
0101
0001
1010
1000
,  // measure 77
0100
0010
0001
1000
0010
0100
1000
0000
0100
0010
1000
0001
0100
1000
0001
0000
,  // measure 78
0002
0000
0100
0100
0100
0000
1000
1000
,  // measure 79
1000
0000
0100
0000
0010
0000
0010
0013
,  // measure 80
1010
0001
0101
1000
1010
1000
0101
0001
,  // measure 81
0010
0100
1000
0001
0100
0010
0001
0000
0010
0100
0001
1000
0010
0001
1000
0000
,  // measure 82
0020
0000
0001
0001
0001
0000
0100
0100
,  // measure 83
0100
0000
0001
0000
1000
0000
1000
1030
,  // measure 84
1100
0010
0011
0100
1100
0100
0011
0010
,  // measure 85
1000
0001
0100
0010
0001
1000
0010
0000
1000
0001
0010
0100
1000
0010
0100
0000
,  // measure 86
0200
0000
1000
1000
1000
0000
0010
0010
,  // measure 87
0010
0000
1000
0000
0001
0000
0001
0301
,  // measure 88
0011
0100
1100
0010
0011
0010
1100
0100
,  // measure 89
0001
1000
0010
0100
1000
0001
0100
0000
0001
1000
0100
0010
0001
0100
0010
0000
,  // measure 90
1001
0000
0000
0000
;

//---------------dance-single - Casual----------------
#NOTES:
     dance-single:
     Casual:
     Edit:
     15:
     0.753330,0.864793,0.468910,0.245985,0.368978,686.000000,625.000000,61.000000,32.000000,0.000000,0.000000,0.753330,0.864793,0.468910,0.245985,0.368978,686.000000,625.000000,61.000000,32.000000,0.000000,0.000000:
// measure 0
0000
0000
0000
0000
,  // measure 1
0000
0000
0000
0000
,  // measure 2
2000
0000
0010
0010
0010
0000
0001
0001
,  // measure 3
0001
0000
0010
0000
0100
0000
0100
3000
,  // measure 4
0101
1010
0101
1010
,  // measure 5
0100
0000
0001
0000
0010
0100
1000
0000
0100
0010
1000
0000
0100
1000
0001
0000
,  // measure 6
0002
0000
0100
0100
0100
0000
1000
1000
,  // measure 7
1000
0000
0100
0000
0010
0000
0010
0003
,  // measure 8
1010
0101
1010
0101
,  // measure 9
0010
0000
1000
0000
0100
0010
0001
0000
0010
0100
0001
0000
0010
0001
1000
0000
,  // measure 10
0020
0000
0001
0001
0001
0000
0100
0100
,  // measure 11
0100
0000
0001
0000
1000
0000
1000
0030
,  // measure 12
1100
0011
1100
0011
,  // measure 13
1000
0000
0100
0000
0001
1000
0010
0000
1000
0001
0010
0000
1000
0010
0100
0000
,  // measure 14
0200
0000
1000
1000
1000
0000
0010
0010
,  // measure 15
0010
0000
1000
0000
0001
0000
0001
0300
,  // measure 16
0011
1100
0011
1100
,  // measure 17
0001
0000
0010
0000
1000
0001
0100
0000
0001
1000
0100
0000
0001
0100
0010
0000
,  // measure 18
0001
0010
0001
0000
0000
0010
0000
0000
0010
0100
0010
0000
0010
0000
0000
0000
,  // measure 19
1001
0000
0001
0000
0010
0100
1000
0100
0010
0000
0001
0010
0001
0000
0000
0000
,  // measure 20
1000
0100
1000
0000
0000
0100
0000
0000
0100
0010
0100
0000
0100
0000
0000
0000
,  // measure 21
1001
0000
1000
0000
0100
0010
0001
0010
0100
0000
1000
0100
1000
0000
0000
0000
,  // measure 22
0100
0001
0100
0000
0000
0001
0000
0000
0001
1000
0001
0000
0001
0000
0000
0000
,  // measure 23
0110
0000
0100
0000
0001
1000
0010
1000
0001
0000
0100
0001
0100
0000
0000
0000
,  // measure 24
0010
1000
0010
0000
0000
1000
0000
0000
1000
0001
1000
0000
1000
0000
0000
0000
,  // measure 25
0110
0000
0010
0000
1000
0001
0100
0001
1000
0000
0010
1000
0010
0000
0000
0000
,  // measure 26
0200
0000
0010
0010
0001
0001
0010
0310
,  // measure 27
0010
0001
0010
1000
0100
0010
0001
0010
,  // measure 28
2001
0001
0001
0001
0001
0001
0000
3001
,  // measure 29
0000
0210
1000
0010
0001
0010
1000
0310
,  // measure 30
0020
0000
0100
0100
1000
1000
0100
0130
,  // measure 31
0100
1000
0100
0001
0010
0100
1000
0100
,  // measure 32
1002
1000
1000
1000
1000
1000
0000
1003
,  // measure 33
0000
0120
0001
0100
1000
0100
0001
0130
,  // measure 34
1000
0100
0000
0000
0100
0000
1000
0000
0100
0000
0001
0000
0001
0010
0100
0000
,  // measure 35
1000
0100
0001
0000
0001
0100
1000
0000
0100
0010
1000
0000
0001
0010
1000
0000
,  // measure 36
0001
0010
0000
0000
0010
0000
0001
0000
0010
0000
1000
0000
1000
0100
0010
0000
,  // measure 37
0001
0010
1000
0000
1000
0010
0001
0000
0010
0100
0001
0000
1000
0100
0001
0000
,  // measure 38
0100
0010
0100
0000
0100
0000
0110
0000
1000
0001
1000
0000
1000
0000
1001
0000
,  // measure 39
0010
0100
0010
0000
0010
0000
0110
0000
0001
1000
0001
0000
0001
0000
1001
0000
,  // measure 40
0001
1000
0001
1000
0001
1000
0001
1000
,  // measure 41
0001
1000
0001
1000
0001
1000
0001
1000
0010
0100
0010
0100
0020
0000
0000
0030
,  // measure 42
2000
0000
0010
0010
0010
0000
0001
0001
,  // measure 43
0001
0000
0010
0000
0100
0000
0100
3000
,  // measure 44
0101
1010
0101
1010
,  // measure 45
0100
0000
0001
0000
0010
0100
1000
0000
0100
0010
1000
0000
0100
1000
0001
0000
,  // measure 46
0002
0000
0100
0100
0100
0000
1000
1000
,  // measure 47
1000
0000
0100
0000
0010
0000
0010
0003
,  // measure 48
1010
0101
1010
0101
,  // measure 49
0010
0000
1000
0000
0100
0010
0001
0000
0010
0100
0001
0000
0010
0001
1000
0000
,  // measure 50
2000
0000
0000
0000
0001
0000
0000
3000
,  // measure 51
0002
0000
0000
0000
1000
0000
0000
0003
,  // measure 52
0020
0000
0000
0000
0100
0000
0000
0030
,  // measure 53
0200
0000
0000
0000
0010
0000
0000
0300
,  // measure 54
2000
0000
0000
0000
0001
0000
0001
3000
,  // measure 55
0002
0000
0000
0000
1000
0000
1000
0003
,  // measure 56
0001
0000
1000
0000
0001
1000
0001
1000
,  // measure 57
0020
0000
0000
0000
0200
0000
0000
0330
,  // measure 58
0200
0000
0010
0010
0001
0001
0010
0310
,  // measure 59
0010
0001
0010
1000
0100
0010
0001
0010
,  // measure 60
2001
0001
0001
0001
0001
0001
0000
3001
,  // measure 61
0000
0210
1000
0010
0001
0010
1000
0310
,  // measure 62
0020
0000
0100
0100
1000
1000
0100
0130
,  // measure 63
0100
1000
0100
0001
0010
0100
1000
0100
,  // measure 64
1002
1000
1000
1000
1000
1000
0000
1003
,  // measure 65
0000
0120
0001
0100
1000
0100
0001
0130
,  // measure 66
1000
0100
0000
0000
0100
0000
1000
0000
0100
0000
0001
0000
0001
0010
0100
0000
,  // measure 67
1000
0100
0001
0000
0001
0100
1000
0000
0100
0010
1000
0000
0001
0010
1000
0000
,  // measure 68
0001
0010
0000
0000
0010
0000
0001
0000
0010
0000
1000
0000
1000
0100
0010
0000
,  // measure 69
0001
0010
1000
0000
1000
0010
0001
0000
0010
0100
0001
0000
1000
0100
0001
0000
,  // measure 70
0100
0010
0100
0000
0010
0000
0110
0000
1000
0001
1000
0000
0001
0000
1001
0000
,  // measure 71
0010
0100
0010
0000
0100
0000
0110
0000
0001
1000
0001
0000
1000
0000
1001
0000
,  // measure 72
0001
1000
0001
1000
0001
1000
0001
1000
,  // measure 73
0001
0000
1000
0000
0001
1000
0001
1000
0010
0100
0010
0100
0020
0000
0000
0030
,  // measure 74
2000
0000
0010
0010
0010
0000
0001
0001
,  // measure 75
0001
0000
0010
0000
0100
0000
0100
3000
,  // measure 76
0101
1010
0101
1010
,  // measure 77
0100
0000
0001
0000
0010
0100
1000
0000
0100
0010
1000
0000
0100
1000
0001
0000
,  // measure 78
0002
0000
0100
0100
0100
0000
1000
1000
,  // measure 79
1000
0000
0100
0000
0010
0000
0010
0003
,  // measure 80
1010
0101
1010
0101
,  // measure 81
0010
0000
1000
0000
0100
0010
0001
0000
0010
0100
0001
0000
0010
0001
1000
0000
,  // measure 82
0020
0000
0001
0001
0001
0000
0100
0100
,  // measure 83
0100
0000
0001
0000
1000
0000
1000
0030
,  // measure 84
1100
0011
1100
0011
,  // measure 85
1000
0000
0100
0000
0001
1000
0010
0000
1000
0001
0010
0000
1000
0010
0100
0000
,  // measure 86
0200
0000
1000
1000
1000
0000
0010
0010
,  // measure 87
0010
0000
1000
0000
0001
0000
0001
0300
,  // measure 88
0011
1100
0011
1100
,  // measure 89
0001
0000
0010
0000
1000
0001
0100
0000
0001
1000
0100
0000
0001
0100
0010
0000
,  // measure 90
1001
0000
0000
0000
;
