#VERSION:0.83;
#TITLE:Hyper Cracker;
#SUBTITLE:;
#ARTIST:ASP;
#TITLETRANSLIT:;
#SUBTITLETRANSLIT:;
#ARTISTTRANSLIT:;
#GENRE:;
#ORIGIN:;
#CREDIT:;
#BANNER:;
#BACKGROUND:;
#PREVIEWVID:;
#JACKET:;
#CDIMAGE:;
#DISCIMAGE:;
#LYRICSPATH:;
#CDTITLE:;
#MUSIC:Hyper Cracker.ogg;
#OFFSET:0.273000;
#SAMPLESTART:64.527000;
#SAMPLELENGTH:15.000000;
#SELECTABLE:YES;
#BPMS:0.000=150.000;
#STOPS:;
#DELAYS:;
#WARPS:;
#TIMESIGNATURES:0.000=4=4;
#TICKCOUNTS:0.000=4;
#COMBOS:0.000=1;
#SPEEDS:0.000=1.000=0.000=0;
#SCROLLS:0.000=1.000;
#FAKES:;
#LABELS:0.000=Song Start;
#BGCHANGES:;
#KEYSOUNDS:;
#ATTACKS:
;

//---------------dance-single - ----------------
#NOTEDATA:;
#CHARTNAME:;
#STEPSTYPE:dance-single;
#DESCRIPTION:;
#CHARTSTYLE:;
#DIFFICULTY:Easy;
#METER:4;
#RADARVALUES:0.136050,0.247816,0.128004,0.245768,0.000000,186.000000,161.000000,25.000000,48.000000,0.000000,0.000000,0.000000,0.000000,0.000000,0.136050,0.247816,0.128004,0.245768,0.000000,186.000000,161.000000,25.000000,48.000000,0.000000,0.000000,0.000000,0.000000,0.000000;
#CREDIT:;
#NOTES:
// measure 0
0000
0000
0000
0000
,  // measure 1
0000
0000
0000
0000
,  // measure 2
0000
0000
0000
0000
,  // measure 3
0000
0000
0000
0000
,  // measure 4
0000
0000
0000
0000
,  // measure 5
0000
0000
0000
0000
,  // measure 6
0000
0000
0000
0000
,  // measure 7
0000
0000
0000
0000
,  // measure 8
0000
0000
0000
0000
,  // measure 9
0002
0000
0000
0003
,  // measure 10
2000
0000
0000
3000
,  // measure 11
0020
0000
0000
0030
,  // measure 12
0002
0000
0000
0003
,  // measure 13
2000
0000
0000
3000
,  // measure 14
0002
0000
0000
0003
,  // measure 15
0200
0000
0000
0300
,  // measure 16
2000
0000
0000
3000
,  // measure 17
0100
0100
0001
0000
,  // measure 18
0001
0001
1000
0000
,  // measure 19
0100
0001
0010
0000
,  // measure 20
0010
0100
0001
0000
,  // measure 21
0010
0010
1000
0000
,  // measure 22
1000
1000
0001
0000
,  // measure 23
0010
1000
0100
0000
,  // measure 24
0100
0010
1000
0000
,  // measure 25
2002
0000
0000
0000
,  // measure 26
0000
0000
0000
0000
,  // measure 27
0000
0000
0000
0000
,  // measure 28
0000
0000
0000
3003
,  // measure 29
0220
0000
0000
0000
,  // measure 30
0000
0000
0000
0000
,  // measure 31
0000
0000
0000
0000
,  // measure 32
0000
0000
0000
0330
,  // measure 33
0101
0000
0000
0000
,  // measure 34
1001
0000
0000
0000
,  // measure 35
0011
0000
0000
0000
,  // measure 36
1010
0000
0000
0000
,  // measure 37
1010
0000
0000
0000
,  // measure 38
1001
0000
0000
0000
,  // measure 39
1100
0000
0000
0000
,  // measure 40
0101
0000
0000
0000
,  // measure 41
0010
0000
0010
0000
,  // measure 42
1000
0100
0001
0000
,  // measure 43
0001
0000
0100
0000
,  // measure 44
0010
0100
1000
0000
,  // measure 45
0100
0000
0100
0000
,  // measure 46
0001
0010
1000
0000
,  // measure 47
1000
0000
0010
0000
,  // measure 48
0100
0010
0001
0000
,  // measure 49
0020
0000
0130
0000
,  // measure 50
0002
0000
0103
0000
,  // measure 51
2000
0000
3100
0000
,  // measure 52
2000
0000
3001
0000
,  // measure 53
0200
0000
0310
0000
,  // measure 54
2000
0000
3010
0000
,  // measure 55
0002
0000
0013
0000
,  // measure 56
0002
0000
1003
0000
,  // measure 57
0002
0000
0000
0003
,  // measure 58
2000
0000
0000
3000
,  // measure 59
0020
0000
0000
0030
,  // measure 60
0002
0000
0000
0003
,  // measure 61
2000
0000
0000
3000
,  // measure 62
0002
0000
0000
0003
,  // measure 63
0200
0000
0000
0300
,  // measure 64
2000
0000
0000
3000
,  // measure 65
0100
0100
0001
0000
,  // measure 66
0001
0001
1000
0000
,  // measure 67
0100
0001
0010
0000
,  // measure 68
0010
0100
0001
0000
,  // measure 69
0010
0010
1000
0000
,  // measure 70
1000
1000
0001
0000
,  // measure 71
0010
1000
0100
0000
,  // measure 72
0100
0010
1000
0000
,  // measure 73
2002
0000
0000
0000
,  // measure 74
0000
0000
0000
0000
,  // measure 75
0000
0000
0000
0000
,  // measure 76
0000
0000
0000
3003
,  // measure 77
0220
0000
0000
0000
,  // measure 78
0000
0000
0000
0000
,  // measure 79
0000
0000
0000
0000
,  // measure 80
0000
0000
0000
0330
,  // measure 81
0101
0000
0000
0000
,  // measure 82
1001
0000
0000
0000
,  // measure 83
0011
0000
0000
0000
,  // measure 84
1010
0000
0000
0000
,  // measure 85
1010
0000
0000
0000
,  // measure 86
1001
0000
0000
0000
,  // measure 87
1100
0000
0000
0000
,  // measure 88
0101
0000
0000
0000
,  // measure 89
0010
0000
0010
0000
,  // measure 90
1000
0100
0001
0000
,  // measure 91
0001
0000
0100
0000
,  // measure 92
0010
0100
1000
0000
,  // measure 93
0100
0000
0100
0000
,  // measure 94
0001
0010
1000
0000
,  // measure 95
1000
0000
0010
0000
,  // measure 96
0100
0010
0001
0000
,  // measure 97
0020
0000
0130
0000
,  // measure 98
0002
0000
0103
0000
,  // measure 99
2000
0000
3100
0000
,  // measure 100
2000
0000
3001
0000
,  // measure 101
0200
0000
0310
0000
,  // measure 102
2000
0000
3010
0000
,  // measure 103
0002
0000
0013
0000
,  // measure 104
0002
0000
1003
0000
,  // measure 105
2002
0000
0000
0000
,  // measure 106
0000
0000
0000
0000
,  // measure 107
0000
0000
0000
0000
,  // measure 108
0000
0000
0000
3003
,  // measure 109
0220
0000
0000
0000
,  // measure 110
0000
0000
0000
0000
,  // measure 111
0000
0000
0000
0000
,  // measure 112
0000
0000
0000
0330
,  // measure 113
2002
0000
0000
0000
,  // measure 114
0000
0000
0000
0000
,  // measure 115
0000
0000
0000
0000
,  // measure 116
0000
0000
0000
3003
,  // measure 117
0220
0000
0000
0000
,  // measure 118
0000
0000
0000
0000
,  // measure 119
0000
0000
0000
0000
,  // measure 120
0000
0000
0000
0330
,  // measure 121
1001
0000
0000
0000
;

//---------------dance-single - ----------------
#NOTEDATA:;
#CHARTNAME:;
#STEPSTYPE:dance-single;
#DESCRIPTION:;
#CHARTSTYLE:;
#DIFFICULTY:Beginner;
#METER:4;
#RADARVALUES:0.130199,0.247816,0.128004,0.245768,0.000000,178.000000,153.000000,25.000000,48.000000,0.000000,0.000000,0.000000,0.000000,0.000000,0.130199,0.247816,0.128004,0.245768,0.000000,178.000000,153.000000,25.000000,48.000000,0.000000,0.000000,0.000000,0.000000,0.000000;
#CREDIT:;
#NOTES:
0000
0000
0000
0000
,
0000
0000
0000
0000
,
0000
0000
0000
0000
,
0000
0000
0000
0000
,
0000
0000
0000
0000
,
0000
0000
0000
0000
,
0000
0000
0000
0000
,
0000
0000
0000
0000
,
0000
0000
0000
0000
,
0002
0000
0000
0003
,
2000
0000
0000
3000
,
0020
0000
0000
0030
,
0002
0000
0000
0003
,
2000
0000
0000
3000
,
0002
0000
0000
0003
,
0200
0000
0000
0300
,
2000
0000
0000
3000
,
0100
0000
0001
0000
,
0001
0001
1000
0000
,
0100
0001
0010
0000
,
0010
0100
0001
0000
,
0010
0000
1000
0000
,
1000
1000
0001
0000
,
0010
1000
0100
0000
,
0100
0010
1000
0000
,
2002
0000
0000
0000
,
0000
0000
0000
0000
,
0000
0000
0000
0000
,
0000
0000
0000
3003
,
0220
0000
0000
0000
,
0000
0000
0000
0000
,
0000
0000
0000
0000
,
0000
0000
0000
0330
,
0101
0000
0000
0000
,
1001
0000
0000
0000
,
0011
0000
0000
0000
,
1010
0000
0000
0000
,
1010
0000
0000
0000
,
1001
0000
0000
0000
,
1100
0000
0000
0000
,
0101
0000
0000
0000
,
0010
0000
0010
0000
,
1000
0000
0001
0000
,
0001
0000
0100
0000
,
0010
0100
1000
0000
,
0100
0000
0100
0000
,
0001
0000
1000
0000
,
1000
0000
0010
0000
,
0100
0010
0001
0000
,
0020
0000
0130
0000
,
0002
0000
0103
0000
,
2000
0000
3100
0000
,
2000
0000
3001
0000
,
0200
0000
0310
0000
,
2000
0000
3010
0000
,
0002
0000
0013
0000
,
0002
0000
1003
0000
,
0002
0000
0000
0003
,
2000
0000
0000
3000
,
0020
0000
0000
0030
,
0002
0000
0000
0003
,
2000
0000
0000
3000
,
0002
0000
0000
0003
,
0200
0000
0000
0300
,
2000
0000
0000
3000
,
0100
0000
0001
0000
,
0001
0001
1000
0000
,
0100
0001
0010
0000
,
0010
0100
0001
0000
,
0010
0000
1000
0000
,
1000
1000
0001
0000
,
0010
1000
0100
0000
,
0100
0010
1000
0000
,
2002
0000
0000
0000
,
0000
0000
0000
0000
,
0000
0000
0000
0000
,
0000
0000
0000
3003
,
0220
0000
0000
0000
,
0000
0000
0000
0000
,
0000
0000
0000
0000
,
0000
0000
0000
0330
,
0101
0000
0000
0000
,
1001
0000
0000
0000
,
0011
0000
0000
0000
,
1010
0000
0000
0000
,
1010
0000
0000
0000
,
1001
0000
0000
0000
,
1100
0000
0000
0000
,
0101
0000
0000
0000
,
0010
0000
0010
0000
,
1000
0000
0001
0000
,
0001
0000
0100
0000
,
0010
0100
1000
0000
,
0100
0000
0100
0000
,
0001
0000
1000
0000
,
1000
0000
0010
0000
,
0100
0010
0001
0000
,
0020
0000
0130
0000
,
0002
0000
0103
0000
,
2000
0000
3100
0000
,
2000
0000
3001
0000
,
0200
0000
0310
0000
,
2000
0000
3010
0000
,
0002
0000
0013
0000
,
0002
0000
1003
0000
,
2002
0000
0000
0000
,
0000
0000
0000
0000
,
0000
0000
0000
0000
,
0000
0000
0000
3003
,
0220
0000
0000
0000
,
0000
0000
0000
0000
,
0000
0000
0000
0000
,
0000
0000
0000
0330
,
2002
0000
0000
0000
,
0000
0000
0000
0000
,
0000
0000
0000
0000
,
0000
0000
0000
3003
,
0220
0000
0000
0000
,
0000
0000
0000
0000
,
0000
0000
0000
0000
,
0000
0000
0000
0330
,
1001
0000
0000
0000
;

//---------------dance-single - ----------------
#NOTEDATA:;
#CHARTNAME:;
#STEPSTYPE:dance-single;
#DESCRIPTION:;
#CHARTSTYLE:;
#DIFFICULTY:Medium;
#METER:5;
#RADARVALUES:0.146291,0.278793,0.128004,0.245768,0.000000,200.000000,175.000000,25.000000,48.000000,0.000000,0.000000,0.000000,0.000000,0.000000,0.146291,0.278793,0.128004,0.245768,0.000000,200.000000,175.000000,25.000000,48.000000,0.000000,0.000000,0.000000,0.000000,0.000000;
#CREDIT:;
#NOTES:
0000
0000
0000
0000
,
0000
0000
0000
0000
,
0000
0000
0000
0000
,
0000
0000
0000
0000
,
0000
0000
0000
0000
,
0000
0000
0000
0000
,
0000
0000
0000
0000
,
0000
0000
0000
0000
,
0000
0000
0000
0000
,
0002
0000
1000
0003
,
2000
0000
0000
3000
,
0020
0000
0000
0030
,
0002
0000
0000
0003
,
2000
0000
0001
3000
,
0002
0000
0000
0003
,
0200
0000
0000
0300
,
2000
0000
0000
3000
,
0100
0100
0001
0000
,
0001
0001
1000
0000
,
0100
0001
0010
0000
,
0010
0100
0001
0010
,
0010
0010
1000
0000
,
1000
1000
0001
0000
,
0010
1000
0100
0000
,
0100
0010
1000
0100
,
2002
0000
0000
0000
,
0000
0000
0000
0000
,
0000
0000
0000
0000
,
0000
0000
0000
3003
,
0220
0000
0000
0000
,
0000
0000
0000
0000
,
0000
0000
0000
0000
,
0000
0000
0000
0330
,
0101
0000
0001
0000
,
1001
0000
0000
0000
,
0011
0000
0000
0000
,
1010
0000
0000
0000
,
1010
0000
1000
0000
,
1001
0000
0000
0000
,
1100
0000
0000
0000
,
0101
0000
0000
0000
,
0010
0000
0010
0000
,
1000
0100
0001
0000
,
0001
0000
0100
0000
,
0010
0100
1000
0100
,
0100
0000
0100
0000
,
0001
0010
1000
0000
,
1000
0000
0010
0000
,
0100
0010
0001
0010
,
0020
0000
0130
0000
,
0002
0000
0103
0000
,
2000
0000
3100
0000
,
2000
0000
3001
0000
,
0200
0000
0310
0000
,
2000
0000
3010
0000
,
0002
0000
0013
0000
,
0002
0000
1003
0000
,
0002
0000
0000
0003
,
2000
0000
0000
3000
,
0020
0000
0000
0030
,
0002
0000
0000
0003
,
2000
0000
0000
3000
,
0002
0000
0000
0003
,
0200
0000
0000
0300
,
2000
0000
0000
3000
,
0100
0100
0001
0000
,
0001
0001
1000
0000
,
0100
0001
0010
0000
,
0010
0100
0001
0010
,
0010
0010
1000
0000
,
1000
1000
0001
0000
,
0010
1000
0100
0000
,
0100
0010
1000
0100
,
2002
0000
0000
0000
,
0000
0000
0000
0000
,
0000
0000
0000
0000
,
0000
0000
0000
3003
,
0220
0000
0000
0000
,
0000
0000
0000
0000
,
0000
0000
0000
0000
,
0000
0000
0000
0330
,
0101
0000
0001
0000
,
1001
0000
0000
0000
,
0011
0000
0000
0000
,
1010
0000
0000
0000
,
1010
0000
1000
0000
,
1001
0000
0000
0000
,
1100
0000
0000
0000
,
0101
0000
0000
0000
,
0010
0000
0010
0000
,
1000
0100
0001
0000
,
0001
0000
0100
0000
,
0010
0100
1000
0100
,
0100
0000
0100
0000
,
0001
0010
1000
0000
,
1000
0000
0010
0000
,
0100
0010
0001
0010
,
0020
0000
0130
0000
,
0002
0000
0103
0000
,
2000
0000
3100
0000
,
2000
0000
3001
0000
,
0200
0000
0310
0000
,
2000
0000
3010
0000
,
0002
0000
0013
0000
,
0002
0000
1003
0000
,
2002
0000
0000
0000
,
0000
0000
0000
0000
,
0000
0000
0000
0000
,
0000
0000
0000
3003
,
0220
0000
0000
0000
,
0000
0000
0000
0000
,
0000
0000
0000
0000
,
0000
0000
0000
0330
,
2002
0000
0000
0000
,
0000
0000
0000
0000
,
0000
0000
0000
0000
,
0000
0000
0000
3003
,
0220
0000
0000
0000
,
0000
0000
0000
0000
,
0000
0000
0000
0000
,
0000
0000
0000
0330
,
1001
0000
0000
0000
;

//---------------dance-single - ----------------
#NOTEDATA:;
#CHARTNAME:;
#STEPSTYPE:dance-single;
#DESCRIPTION:;
#CHARTSTYLE:;
#DIFFICULTY:Hard;
#METER:5;
#RADARVALUES:0.152142,0.309770,0.128004,0.245768,0.000000,208.000000,183.000000,25.000000,48.000000,0.000000,0.000000,0.000000,0.000000,0.000000,0.152142,0.309770,0.128004,0.245768,0.000000,208.000000,183.000000,25.000000,48.000000,0.000000,0.000000,0.000000,0.000000,0.000000;
#CREDIT:;
#NOTES:
0000
0000
0000
0000
,
0000
0000
0000
0000
,
0000
0000
0000
0000
,
0000
0000
0000
0000
,
0000
0000
0000
0000
,
0000
0000
0000
0000
,
0000
0000
0000
0000
,
0000
0000
0000
0000
,
0000
0000
0000
0000
,
0002
0000
1000
0003
,
2000
0000
0000
3000
,
0020
0000
0000
0030
,
0002
0000
0000
0003
,
2000
0000
0001
3000
,
0002
0000
0000
0003
,
0200
0000
0000
0300
,
2000
0000
0000
3000
,
0100
0100
0001
0000
,
0001
0001
1000
0000
,
0100
0001
0010
0100
,
0010
0100
0001
0010
,
0010
0010
1000
0000
,
1000
1000
0001
0000
,
0010
1000
0100
0010
,
0100
0010
1000
0100
,
2002
0000
0000
0000
,
0000
0000
0000
0000
,
0000
0000
0000
0000
,
0000
0000
0000
3003
,
0220
0000
0000
0000
,
0000
0000
0000
0000
,
0000
0000
0000
0000
,
0000
0000
0000
0330
,
0101
0000
0001
0000
,
1001
0000
0000
0000
,
0011
0000
1000
0000
,
1010
0000
0000
0000
,
1010
0000
1000
0000
,
1001
0000
0000
0000
,
1100
0000
0001
0000
,
0101
0000
0000
0000
,
0010
0000
0010
0000
,
1000
0100
0001
0000
,
0001
0000
0100
0000
,
0010
0100
1000
0100
,
0100
0000
0100
0000
,
0001
0010
1000
0000
,
1000
0000
0010
0000
,
0100
0010
0001
0010
,
0020
0000
0100
0030
,
0002
0000
0100
0003
,
2000
0000
0100
3000
,
2000
0000
0001
3000
,
0200
0000
0010
0300
,
2000
0000
0010
3000
,
0002
0000
0010
0003
,
0002
0000
1000
0003
,
0002
0000
0000
0003
,
2000
0000
0000
3000
,
0020
0000
0000
0030
,
0002
0000
0000
0003
,
2000
0000
0000
3000
,
0002
0000
0000
0003
,
0200
0000
0000
0300
,
2000
0000
0000
3000
,
0100
0100
0001
0000
,
0001
0001
1000
0000
,
0100
0001
0010
0100
,
0010
0100
0001
0010
,
0010
0010
1000
0000
,
1000
1000
0001
0000
,
0010
1000
0100
0010
,
0100
0010
1000
0100
,
2002
0000
0000
0000
,
0000
0000
0000
0000
,
0000
0000
0000
0000
,
0000
0000
0000
3003
,
0220
0000
0000
0000
,
0000
0000
0000
0000
,
0000
0000
0000
0000
,
0000
0000
0000
0330
,
0101
0000
0001
0000
,
1001
0000
0000
0000
,
0011
0000
1000
0000
,
1010
0000
0000
0000
,
1010
0000
1000
0000
,
1001
0000
0000
0000
,
1100
0000
0001
0000
,
0101
0000
0000
0000
,
0010
0000
0010
0000
,
1000
0100
0001
0000
,
0001
0000
0100
0000
,
0010
0100
1000
0100
,
0100
0000
0100
0000
,
0001
0010
1000
0000
,
1000
0000
0010
0000
,
0100
0010
0001
0010
,
0020
0000
0100
0030
,
0002
0000
0100
0003
,
2000
0000
0100
3000
,
2000
0000
0001
3000
,
0200
0000
0010
0300
,
2000
0000
0010
3000
,
0002
0000
0010
0003
,
0002
0000
1000
0003
,
2002
0000
0000
0000
,
0000
0000
0000
0000
,
0000
0000
0000
0000
,
0000
0000
0000
3003
,
0220
0000
0000
0000
,
0000
0000
0000
0000
,
0000
0000
0000
0000
,
0000
0000
0000
0330
,
2002
0000
0000
0000
,
0000
0000
0000
0000
,
0000
0000
0000
0000
,
0000
0000
0000
3003
,
0220
0000
0000
0000
,
0000
0000
0000
0000
,
0000
0000
0000
0000
,
0000
0000
0000
0330
,
1001
0000
0000
0000
;

//---------------dance-single - ----------------
#NOTEDATA:;
#CHARTNAME:;
#STEPSTYPE:dance-single;
#DESCRIPTION:;
#CHARTSTYLE:;
#DIFFICULTY:Challenge;
#METER:5;
#RADARVALUES:0.157994,0.309770,0.128004,0.245768,0.000000,216.000000,191.000000,25.000000,48.000000,0.000000,0.000000,0.000000,0.000000,0.000000,0.157994,0.309770,0.128004,0.245768,0.000000,216.000000,191.000000,25.000000,48.000000,0.000000,0.000000,0.000000,0.000000,0.000000;
#CREDIT:;
#NOTES:
0000
0000
0000
0000
,
0000
0000
0000
0000
,
0000
0000
0000
0000
,
0000
0000
0000
0000
,
0000
0000
0000
0000
,
0000
0000
0000
0000
,
0000
0000
0000
0000
,
0000
0000
0000
0000
,
0000
0000
0000
0000
,
0002
0000
1000
0003
,
2000
0000
0000
3000
,
0020
0000
0000
0030
,
0002
0000
0000
0003
,
2000
0000
0001
3000
,
0002
0000
0000
0003
,
0200
0000
0000
0300
,
2000
0000
0000
3000
,
0100
0100
0001
0000
,
0001
0001
1000
0000
,
0100
0001
0010
0100
,
0010
0100
0001
0010
,
0010
0010
1000
0000
,
1000
1000
0001
0000
,
0010
1000
0100
0010
,
0100
0010
1000
0100
,
2002
0000
0000
0000
,
0000
0000
0000
0000
,
0000
0000
0000
0000
,
0000
0000
0000
3003
,
0220
0000
0000
0000
,
0000
0000
0000
0000
,
0000
0000
0000
0000
,
0000
0000
0000
0330
,
0101
0000
0001
0000
,
1001
0000
0000
0000
,
0011
0000
1000
0000
,
1010
0000
0000
0000
,
1010
0000
1000
0000
,
1001
0000
0000
0000
,
1100
0000
0001
0000
,
0101
0000
0000
0000
,
0010
0000
0010
0100
,
1000
0100
0001
0000
,
0001
0000
0100
0000
,
0010
0100
1000
0100
,
0100
0000
0100
0010
,
0001
0010
1000
0000
,
1000
0000
0010
0000
,
0100
0010
0001
0010
,
0020
0000
0100
0130
,
0002
0000
0100
0003
,
2000
0000
0100
3000
,
2000
0000
0001
3000
,
0200
0000
0010
0310
,
2000
0000
0010
3000
,
0002
0000
0010
0003
,
0002
0000
1000
0003
,
0002
0000
0000
0003
,
2000
0000
0000
3000
,
0020
0000
0000
0030
,
0002
0000
0000
0003
,
2000
0000
0000
3000
,
0002
0000
0000
0003
,
0200
0000
0000
0300
,
2000
0000
0000
3000
,
0100
0100
0001
0000
,
0001
0001
1000
0000
,
0100
0001
0010
0100
,
0010
0100
0001
0010
,
0010
0010
1000
0000
,
1000
1000
0001
0000
,
0010
1000
0100
0010
,
0100
0010
1000
0100
,
2002
0000
0000
0000
,
0000
0000
0000
0000
,
0000
0000
0000
0000
,
0000
0000
0000
3003
,
0220
0000
0000
0000
,
0000
0000
0000
0000
,
0000
0000
0000
0000
,
0000
0000
0000
0330
,
0101
0000
0001
0000
,
1001
0000
0000
0000
,
0011
0000
1000
0000
,
1010
0000
0000
0000
,
1010
0000
1000
0000
,
1001
0000
0000
0000
,
1100
0000
0001
0000
,
0101
0000
0000
0000
,
0010
0000
0010
0100
,
1000
0100
0001
0000
,
0001
0000
0100
0000
,
0010
0100
1000
0100
,
0100
0000
0100
0010
,
0001
0010
1000
0000
,
1000
0000
0010
0000
,
0100
0010
0001
0010
,
0020
0000
0100
0130
,
0002
0000
0100
0003
,
2000
0000
0100
3000
,
2000
0000
0001
3000
,
0200
0000
0010
0310
,
2000
0000
0010
3000
,
0002
0000
0010
0003
,
0002
0000
1000
0003
,
2002
0000
0000
0000
,
0000
0000
0000
0000
,
0000
0000
0000
0000
,
0000
0000
0000
3003
,
0220
0000
0000
0000
,
0000
0000
0000
0000
,
0000
0000
0000
0000
,
0000
0000
0000
0330
,
2002
0000
0000
0000
,
0000
0000
0000
0000
,
0000
0000
0000
0000
,
0000
0000
0000
3003
,
0220
0000
0000
0000
,
0000
0000
0000
0000
,
0000
0000
0000
0000
,
0000
0000
0000
0330
,
1001
0000
0000
0000
;
