#VERSION:0.83;
#TITLE:Go Sunny Go Sunny;
#SUBTITLE:;
#ARTIST:Kiki & Fancy;
#TITLETRANSLIT:;
#SUBTITLETRANSLIT:;
#ARTISTTRANSLIT:;
#GENRE:SUPER EUROBEAT;
#ORIGIN:;
#CREDIT:;
#BANNER:;
#BACKGROUND:;
#PREVIEWVID:;
#JACKET:;
#CDIMAGE:;
#DISCIMAGE:;
#LYRICSPATH:;
#CDTITLE:;
#MUSIC:Go Sunny Go Sunny.ogg;
#OFFSET:-0.222000;
#SAMPLESTART:61.368500;
#SAMPLELENGTH:15.000000;
#SELECTABLE:YES;
#BPMS:0.000=157.000;
#STOPS:;
#DELAYS:;
#WARPS:;
#TIMESIGNATURES:0.000=4=4;
#TICKCOUNTS:0.000=4;
#COMBOS:0.000=1;
#SPEEDS:0.000=1.000=0.000=0;
#SCROLLS:0.000=1.000;
#FAKES:;
#LABELS:0.000=Song Start;
#BGCHANGES:;
#KEYSOUNDS:;
#ATTACKS:
;

//---------------dance-single - S.A.----------------
#NOTEDATA:;
#CHARTNAME:S.A.;
#STEPSTYPE:dance-single;
#DESCRIPTION:S.A.;
#CHARTSTYLE:;
#DIFFICULTY:Edit;
#METER:5;
#RADARVALUES:0.167536,0.257042,0.168683,0.216879,0.000000,292.000000,250.000000,42.000000,54.000000,236.000000,0.000000,0.000000,0.000000,0.000000,0.167536,0.257042,0.168683,0.216879,0.000000,292.000000,250.000000,42.000000,54.000000,236.000000,0.000000,0.000000,0.000000,0.000000;
#CREDIT:;
#NOTES:
0000
0000
0000
0000
,
0000
0000
0000
0000
,
0000
0000
0000
0000
,
0000
0000
0000
0000
,
0000
0000
0000
0000
,
0000
0000
0000
0000
,
0000
0000
0000
0000
,
0000
0000
0000
0000
,
0010
0010
0000
0000
,
MMMM
0000
0000
0000
,
0100
0100
0000
0000
,
0000
0000
0000
0000
,
0010
0100
0000
0000
,
MMMM
0000
0000
0000
,
2002
0000
0000
0000
,
0000
0000
0000
3003
,
2000
3000
MMMM
0000
,
0002
0003
0010
0100
,
0020
0030
MMMM
0000
,
1000
0100
0010
0001
,
0002
0003
MMMM
0000
,
2000
3000
0100
0010
,
0200
0300
MMMM
0000
,
0001
0010
0100
1000
,
0020
0000
0000
0030
,
MMMM
0000
0100
0100
,
0200
0000
0000
0300
,
MMMM
0000
0010
0010
,
0002
0000
0000
0003
,
MMMM
0000
1000
1000
,
2000
0000
0000
3000
,
MMMM
0000
0001
0001
,
1000
0000
MMMM
0000
,
0001
0000
MMMM
0000
,
0010
0000
MMMM
0000
,
0100
0000
MMMM
0000
,
0020
0000
0000
0030
,
0200
0000
0000
0300
,
2000
0000
0000
3000
,
0002
0000
0000
0003
,
1001
0000
1001
0000
,
0010
0000
MMMM
0000
,
0110
0000
1001
0000
,
0000
0000
0010
0010
,
1001
0000
1001
0000
,
0100
0000
MMMM
0000
,
0110
0000
1001
0000
,
0000
0000
0100
0100
,
0110
0000
0110
0000
,
0001
0000
MMMM
0000
,
1001
0000
0110
0000
,
0000
0000
0001
0001
,
0110
0000
0110
0000
,
1000
0000
MMMM
0000
,
1001
0000
0110
0000
,
0000
0000
1000
1000
,
2000
3000
MMMM
0000
,
0002
0003
0010
0100
,
0020
0030
MMMM
0000
,
1000
0100
0010
0001
,
0002
0003
MMMM
0000
,
2000
3000
0100
0010
,
0200
0300
MMMM
0000
,
0001
0010
0100
1000
,
0020
0000
0000
0030
,
MMMM
0000
0100
0100
,
0200
0000
0000
0300
,
MMMM
0000
0010
0010
,
0002
0000
0000
0003
,
MMMM
0000
1000
1000
,
2000
0000
0000
3000
,
MMMM
0000
0001
0001
,
1000
0000
MMMM
0000
,
0001
0000
MMMM
0000
,
0010
0000
MMMM
0000
,
0100
0000
MMMM
0000
,
0020
0000
0000
0030
,
0200
0000
0000
0300
,
2000
0000
0000
3000
,
0002
0000
0000
0003
,
1001
0000
1001
0000
,
0010
0000
MMMM
0000
,
0110
0000
1001
0000
,
0000
0000
0010
0010
,
1001
0000
1001
0000
,
0100
0000
MMMM
0000
,
0110
0000
1001
0000
,
0000
0000
0100
0100
,
0110
0000
0110
0000
,
0001
0000
MMMM
0000
,
1001
0000
0110
0000
,
0000
0000
0001
0001
,
0110
0000
0110
0000
,
1000
0000
MMMM
0000
,
1001
0000
0110
0000
,
0000
0000
1000
1000
,
2000
3000
MMMM
0000
,
0002
0003
0010
0100
,
0020
0030
MMMM
0000
,
1000
0100
0010
0001
,
0002
0003
MMMM
0000
,
2000
3000
0100
0010
,
0200
0300
MMMM
0000
,
0001
0010
0100
1000
,
0010
0000
0010
0000
,
MMMM
0000
0000
0000
,
0100
0000
0100
0000
,
MMMM
0000
0000
0000
,
0001
0000
0001
0000
,
MMMM
0000
0000
0000
,
1000
0000
1000
0000
,
MMMM
0000
0000
0000
,
0010
0010
0000
0000
,
MMMM
0000
0000
0000
,
0100
0100
0000
0000
,
0000
0000
0000
0000
,
0010
0100
0000
0000
,
MMMM
0000
0000
0000
,
2002
0000
0000
0000
,
0000
0000
0000
3003
,
1000
0000
MMMM
0000
,
0001
0000
MMMM
0000
,
0010
0000
MMMM
0000
,
0100
0000
MMMM
0000
,
0020
0000
0000
0030
,
0200
0000
0000
0300
,
2000
0000
0000
3000
,
0002
0000
0000
0003
,
1001
0000
1001
0000
,
0010
0000
MMMM
0000
,
0110
0000
1001
0000
,
0000
0000
0010
0010
,
1001
0000
1001
0000
,
0100
0000
MMMM
0000
,
0110
0000
1001
0000
,
0000
0000
0100
0100
,
0010
0000
0010
0000
,
1000
0000
0010
0001
,
0100
0000
0100
0000
,
0001
0000
0100
1000
,
0001
0000
0001
0000
,
0010
0000
0001
0100
,
1000
0000
1000
0000
,
0100
0000
1000
0010
,
2000
3000
MMMM
0000
,
0002
0003
0010
0100
,
0020
0030
MMMM
0000
,
1000
0100
0010
0001
,
0002
0003
MMMM
0000
,
2000
3000
0100
0010
,
0200
0300
MMMM
0000
,
0001
0010
0100
1000
,
0002
0003
MMMM
0000
,
2000
3000
0100
0010
,
0200
0300
MMMM
0000
,
0001
0010
0100
1000
,
2000
3000
MMMM
0000
,
0002
0003
0010
0100
,
0020
0030
MMMM
0000
,
1000
0100
0010
0001
,
MMMM
0000
0000
0000
;

//---------------dance-single - ----------------
#NOTEDATA:;
#CHARTNAME:;
#STEPSTYPE:dance-single;
#DESCRIPTION:;
#CHARTSTYLE:;
#DIFFICULTY:Easy;
#METER:5;
#RADARVALUES:0.181306,0.257042,0.108439,0.200814,0.000000,316.000000,289.000000,27.000000,50.000000,0.000000,0.000000,0.000000,0.000000,0.000000,0.181306,0.257042,0.108439,0.200814,0.000000,316.000000,289.000000,27.000000,50.000000,0.000000,0.000000,0.000000,0.000000,0.000000;
#CREDIT:;
#NOTES:
// measure 0
0000
0000
0000
0000
,  // measure 1
0000
0000
0000
0000
,  // measure 2
0000
0000
0000
0000
,  // measure 3
0000
0000
0000
0000
,  // measure 4
0000
0000
0000
0000
,  // measure 5
0000
0000
0000
0000
,  // measure 6
0000
0000
0000
0000
,  // measure 7
0000
0000
0000
0000
,  // measure 8
0010
0010
0000
0000
,  // measure 9
1000
1000
0000
0000
,  // measure 10
0001
1000
0000
0000
,  // measure 11
0000
0000
0000
0000
,  // measure 12
0100
0100
0000
0000
,  // measure 13
0001
0001
0000
0000
,  // measure 14
1000
0001
0000
0000
,  // measure 15
0110
0010
0000
0000
,  // measure 16
0200
0000
0310
0000
,  // measure 17
0200
0000
0301
0000
,  // measure 18
2000
0000
3001
0000
,  // measure 19
1000
0100
0001
0010
,  // measure 20
0020
0000
0130
0000
,  // measure 21
0020
0000
1030
0000
,  // measure 22
0002
0000
1003
0000
,  // measure 23
0001
0010
1000
0100
,  // measure 24
0020
0000
0000
0030
,  // measure 25
0010
0000
0010
0100
,  // measure 26
0200
0000
0000
0300
,  // measure 27
0100
0000
0100
0010
,  // measure 28
0002
0000
0000
0003
,  // measure 29
0001
0000
0001
1000
,  // measure 30
2000
0000
0000
3000
,  // measure 31
1000
0000
1000
0001
,  // measure 32
2000
0000
0000
0000
,  // measure 33
0000
0000
0000
3000
,  // measure 34
0002
0000
0000
0000
,  // measure 35
0000
0000
0000
0003
,  // measure 36
0200
0000
0000
0000
,  // measure 37
0000
0000
0000
0300
,  // measure 38
0020
0000
0000
0000
,  // measure 39
0000
0000
0000
0030
,  // measure 40
1001
0000
0010
0000
,  // measure 41
1000
0000
0001
0000
,  // measure 42
0110
0000
0010
0000
,  // measure 43
1000
0001
1000
0000
,  // measure 44
1001
0000
0100
0000
,  // measure 45
0001
0000
1000
0000
,  // measure 46
0110
0000
0100
0000
,  // measure 47
0001
1000
0001
0000
,  // measure 48
0110
0000
0001
0000
,  // measure 49
0010
0000
0100
0000
,  // measure 50
1001
0000
0001
0000
,  // measure 51
0010
0100
0010
0000
,  // measure 52
0110
0000
1000
0000
,  // measure 53
0100
0000
0010
0000
,  // measure 54
1001
0000
1000
0000
,  // measure 55
0100
0010
0100
0000
,  // measure 56
0200
0000
0310
0000
,  // measure 57
0200
0000
0301
0000
,  // measure 58
2000
0000
3001
0000
,  // measure 59
1000
0100
0001
0010
,  // measure 60
0020
0000
0130
0000
,  // measure 61
0020
0000
1030
0000
,  // measure 62
0002
0000
1003
0000
,  // measure 63
0001
0010
1000
0100
,  // measure 64
0020
0000
0000
0030
,  // measure 65
0010
0000
0010
0100
,  // measure 66
0200
0000
0000
0300
,  // measure 67
0100
0000
0100
0010
,  // measure 68
0002
0000
0000
0003
,  // measure 69
0001
0000
0001
1000
,  // measure 70
2000
0000
0000
3000
,  // measure 71
1000
0000
1000
0001
,  // measure 72
2000
0000
0000
0000
,  // measure 73
0000
0000
0000
3000
,  // measure 74
0002
0000
0000
0000
,  // measure 75
0000
0000
0000
0003
,  // measure 76
0200
0000
0000
0000
,  // measure 77
0000
0000
0000
0300
,  // measure 78
0020
0000
0000
0000
,  // measure 79
0000
0000
0000
0030
,  // measure 80
1001
0000
0010
0000
,  // measure 81
1000
0000
0001
0000
,  // measure 82
0110
0000
0010
0000
,  // measure 83
1000
0001
1000
0000
,  // measure 84
1001
0000
0100
0000
,  // measure 85
0001
0000
1000
0000
,  // measure 86
0110
0000
0100
0000
,  // measure 87
0001
1000
0001
0000
,  // measure 88
0110
0000
0001
0000
,  // measure 89
0010
0000
0100
0000
,  // measure 90
1001
0000
0001
0000
,  // measure 91
0010
0100
0010
0000
,  // measure 92
0110
0000
1000
0000
,  // measure 93
0100
0000
0010
0000
,  // measure 94
1001
0000
1000
0000
,  // measure 95
0100
0010
0100
0000
,  // measure 96
0200
0000
0310
0000
,  // measure 97
0200
0000
0301
0000
,  // measure 98
2000
0000
3001
0000
,  // measure 99
1000
0100
0001
0010
,  // measure 100
0020
0000
0130
0000
,  // measure 101
0020
0000
1030
0000
,  // measure 102
0002
0000
1003
0000
,  // measure 103
0001
0010
1000
0100
,  // measure 104
0010
0000
0000
0000
,  // measure 105
0010
0000
0000
0000
,  // measure 106
0100
0000
0000
0000
,  // measure 107
0100
0000
0000
0000
,  // measure 108
0001
0000
0000
0000
,  // measure 109
0001
0000
0000
0000
,  // measure 110
1000
0000
0000
0000
,  // measure 111
1000
0000
0000
0000
,  // measure 112
0010
0010
0000
0000
,  // measure 113
1000
1000
0000
0000
,  // measure 114
0001
1000
0000
0000
,  // measure 115
0000
0000
0000
0000
,  // measure 116
0100
0100
0000
0000
,  // measure 117
0001
0001
0000
0000
,  // measure 118
1000
0001
0000
0000
,  // measure 119
0110
0010
0000
0000
,  // measure 120
2000
0000
0000
0000
,  // measure 121
0000
0000
0000
3000
,  // measure 122
0002
0000
0000
0000
,  // measure 123
0000
0000
0000
0003
,  // measure 124
0200
0000
0000
0000
,  // measure 125
0000
0000
0000
0300
,  // measure 126
0020
0000
0000
0000
,  // measure 127
0000
0000
0000
0030
,  // measure 128
1001
0000
0010
0000
,  // measure 129
1000
0000
0001
0000
,  // measure 130
0110
0000
0010
0000
,  // measure 131
1000
0001
1000
0000
,  // measure 132
1001
0000
0100
0000
,  // measure 133
0001
0000
1000
0000
,  // measure 134
0110
0000
0100
0000
,  // measure 135
0001
1000
0001
0000
,  // measure 136
0110
0000
0001
0000
,  // measure 137
0010
0000
0100
0000
,  // measure 138
1001
0000
0001
0000
,  // measure 139
0010
0100
0010
0000
,  // measure 140
0110
0000
1000
0000
,  // measure 141
0100
0000
0010
0000
,  // measure 142
1001
0000
1000
0000
,  // measure 143
0100
0010
0100
0000
,  // measure 144
0200
0000
0310
0000
,  // measure 145
0200
0000
0301
0000
,  // measure 146
2000
0000
3001
0000
,  // measure 147
1000
0100
0001
0010
,  // measure 148
0020
0000
0130
0000
,  // measure 149
0020
0000
1030
0000
,  // measure 150
0002
0000
1003
0000
,  // measure 151
0001
0010
1000
0100
,  // measure 152
0002
0000
1003
0000
,  // measure 153
0002
0000
0013
0000
,  // measure 154
0200
0000
0310
0000
,  // measure 155
0100
0001
0010
1000
,  // measure 156
2000
0000
3001
0000
,  // measure 157
2000
0000
3100
0000
,  // measure 158
0020
0000
0130
0000
,  // measure 159
0010
1000
0100
0001
,  // measure 160
1001
0000
0000
0000
;

//---------------dance-single - ----------------
#NOTEDATA:;
#CHARTNAME:;
#STEPSTYPE:dance-single;
#DESCRIPTION:;
#CHARTSTYLE:;
#DIFFICULTY:Beginner;
#METER:5;
#RADARVALUES:0.170405,0.224911,0.096391,0.200814,0.000000,297.000000,273.000000,24.000000,50.000000,0.000000,0.000000,0.000000,0.000000,0.000000,0.170405,0.224911,0.096391,0.200814,0.000000,297.000000,273.000000,24.000000,50.000000,0.000000,0.000000,0.000000,0.000000,0.000000;
#CREDIT:;
#NOTES:
0000
0000
0000
0000
,
0000
0000
0000
0000
,
0000
0000
0000
0000
,
0000
0000
0000
0000
,
0000
0000
0000
0000
,
0000
0000
0000
0000
,
0000
0000
0000
0000
,
0000
0000
0000
0000
,
0010
0010
0000
0000
,
1000
0000
0000
0000
,
0001
1000
0000
0000
,
0000
0000
0000
0000
,
0100
0100
0000
0000
,
0001
0000
0000
0000
,
1000
0001
0000
0000
,
0010
0010
0000
0000
,
0200
0000
0310
0000
,
0200
0000
0301
0000
,
2000
0000
3001
0000
,
1000
0100
0001
0010
,
0020
0000
0130
0000
,
0020
0000
1030
0000
,
0002
0000
1003
0000
,
0001
0010
1000
0100
,
0020
0000
0000
0030
,
0010
0000
0010
0100
,
0200
0000
0000
0300
,
0100
0000
0100
0010
,
0002
0000
0000
0003
,
0001
0000
0001
1000
,
2000
0000
0000
3000
,
1000
0000
1000
0001
,
2000
0000
0000
0000
,
0000
0000
0000
3000
,
0002
0000
0000
0000
,
0000
0000
0000
0003
,
0200
0000
0000
0000
,
0000
0000
0000
0300
,
0020
0000
0000
0000
,
0000
0000
0000
0030
,
1001
0000
0010
0000
,
1000
0000
0001
0000
,
0110
0000
0010
0000
,
1000
0000
1000
0000
,
1001
0000
0100
0000
,
0001
0000
1000
0000
,
0110
0000
0100
0000
,
0001
0000
0001
0000
,
0110
0000
0001
0000
,
0010
0000
0100
0000
,
1001
0000
0001
0000
,
0010
0000
0010
0000
,
0110
0000
1000
0000
,
0100
0000
0010
0000
,
1001
0000
1000
0000
,
0100
0000
0100
0000
,
0200
0000
0310
0000
,
0200
0000
0301
0000
,
2000
0000
3001
0000
,
1000
0100
0001
0010
,
0020
0000
0130
0000
,
0020
0000
1030
0000
,
0002
0000
1003
0000
,
0001
0010
1000
0100
,
0020
0000
0000
0030
,
0010
0000
0010
0100
,
0200
0000
0000
0300
,
0100
0000
0100
0010
,
0002
0000
0000
0003
,
0001
0000
0001
1000
,
2000
0000
0000
3000
,
1000
0000
1000
0001
,
2000
0000
0000
0000
,
0000
0000
0000
3000
,
0002
0000
0000
0000
,
0000
0000
0000
0003
,
0200
0000
0000
0000
,
0000
0000
0000
0300
,
0020
0000
0000
0000
,
0000
0000
0000
0030
,
1001
0000
0010
0000
,
1000
0000
0001
0000
,
0110
0000
0010
0000
,
1000
0000
1000
0000
,
1001
0000
0100
0000
,
0001
0000
1000
0000
,
0110
0000
0100
0000
,
0001
0000
0001
0000
,
0110
0000
0001
0000
,
0010
0000
0100
0000
,
1001
0000
0001
0000
,
0010
0000
0010
0000
,
0110
0000
1000
0000
,
0100
0000
0010
0000
,
1001
0000
1000
0000
,
0100
0000
0100
0000
,
0200
0000
0310
0000
,
0200
0000
0301
0000
,
2000
0000
3001
0000
,
1000
0100
0001
0010
,
0020
0000
0130
0000
,
0020
0000
1030
0000
,
0002
0000
1003
0000
,
0001
0010
1000
0100
,
0010
0000
0000
0000
,
0010
0000
0000
0000
,
0100
0000
0000
0000
,
0100
0000
0000
0000
,
0001
0000
0000
0000
,
0001
0000
0000
0000
,
1000
0000
0000
0000
,
1000
0000
0000
0000
,
0010
0010
0000
0000
,
1000
0000
0000
0000
,
0001
1000
0000
0000
,
0000
0000
0000
0000
,
0100
0100
0000
0000
,
0001
0000
0000
0000
,
1000
0001
0000
0000
,
0010
0010
0000
0000
,
2000
0000
0000
0000
,
0000
0000
0000
3000
,
0002
0000
0000
0000
,
0000
0000
0000
0003
,
0200
0000
0000
0000
,
0000
0000
0000
0300
,
0020
0000
0000
0000
,
0000
0000
0000
0030
,
1001
0000
0010
0000
,
1000
0000
0001
0000
,
0110
0000
0010
0000
,
1000
0000
1000
0000
,
1001
0000
0100
0000
,
0001
0000
1000
0000
,
0110
0000
0100
0000
,
0001
0000
0001
0000
,
0110
0000
0001
0000
,
0010
0000
0100
0000
,
1001
0000
0001
0000
,
0010
0000
0010
0000
,
0110
0000
1000
0000
,
0100
0000
0010
0000
,
1001
0000
1000
0000
,
0100
0000
0100
0000
,
0200
0000
0310
0000
,
0200
0000
0301
0000
,
2000
0000
3001
0000
,
1000
0100
0001
0010
,
0020
0000
0130
0000
,
0020
0000
1030
0000
,
0002
0000
1003
0000
,
0001
0010
1000
0100
,
0002
0000
1003
0000
,
0002
0000
0013
0000
,
0200
0000
0310
0000
,
0100
0001
0010
1000
,
2000
0000
3001
0000
,
2000
0000
3100
0000
,
0020
0000
0130
0000
,
0010
1000
0100
0001
,
0100
0000
0000
0000
;

//---------------dance-single - ----------------
#NOTEDATA:;
#CHARTNAME:;
#STEPSTYPE:dance-single;
#DESCRIPTION:;
#CHARTSTYLE:;
#DIFFICULTY:Medium;
#METER:5;
#RADARVALUES:0.196224,0.289172,0.124504,0.200814,0.000000,342.000000,311.000000,31.000000,50.000000,0.000000,0.000000,0.000000,0.000000,0.000000,0.196224,0.289172,0.124504,0.200814,0.000000,342.000000,311.000000,31.000000,50.000000,0.000000,0.000000,0.000000,0.000000,0.000000;
#CREDIT:;
#NOTES:
0000
0000
0000
0000
,
0000
0000
0000
0000
,
0000
0000
0000
0000
,
0000
0000
0000
0000
,
0000
0000
0000
0000
,
0000
0000
0000
0000
,
0000
0000
0000
0000
,
0000
0000
0000
0000
,
0110
0010
0000
0000
,
1000
1000
0000
0000
,
0001
1000
0000
0000
,
0000
0000
0000
0000
,
0110
0100
0000
0000
,
0001
0001
0000
0000
,
1000
0001
0000
0000
,
0110
0010
0000
0000
,
0200
0000
0310
0000
,
0200
0000
0301
0000
,
2000
0000
3001
0001
,
1000
0100
0001
0010
,
0020
0000
0130
0000
,
0020
0000
1030
0000
,
0002
0000
1003
1000
,
0001
0010
1000
0100
,
0020
0000
0000
0030
,
0010
0000
0010
0100
,
0200
0000
0000
0300
,
0100
0000
0100
0010
,
0002
0000
0000
0003
,
0001
0000
0001
1000
,
2000
0000
0000
3000
,
1000
0000
1000
0001
,
2000
0000
0000
0000
,
0001
0000
0000
3000
,
0002
0000
0000
0000
,
1000
0000
0000
0003
,
0200
0000
0000
0000
,
0010
0000
0000
0300
,
0020
0000
0000
0000
,
0100
0000
0000
0030
,
1001
0000
0010
0000
,
1000
0000
0001
0000
,
0110
0000
0010
0000
,
1000
0001
1000
0000
,
1001
0000
0100
0000
,
0001
0000
1000
0000
,
0110
0000
0100
0000
,
0001
1000
0001
0000
,
0110
0000
0001
0000
,
0010
0000
0100
0000
,
1001
0000
0001
0000
,
0010
0100
0010
0000
,
0110
0000
1000
0000
,
0100
0000
0010
0000
,
1001
0000
1000
0000
,
0100
0010
0100
0000
,
0200
0000
0310
0000
,
0200
0000
0301
0000
,
2000
0000
3001
0001
,
1000
0100
0001
0010
,
0020
0000
0130
0000
,
0020
0000
1030
0000
,
0002
0000
1003
1000
,
0001
0010
1000
0100
,
0020
0000
0000
0030
,
0010
0000
0010
0100
,
0200
0000
0000
0300
,
0100
0000
0100
0010
,
0002
0000
0000
0003
,
0001
0000
0001
1000
,
2000
0000
0000
3000
,
1000
0000
1000
0001
,
2000
0000
0000
0000
,
0001
0000
0000
3000
,
0002
0000
0000
0000
,
1000
0000
0000
0003
,
0200
0000
0000
0000
,
0010
0000
0000
0300
,
0020
0000
0000
0000
,
0100
0000
0000
0030
,
1001
0000
0010
0000
,
1000
0000
0001
0000
,
0110
0000
0010
0000
,
1000
0001
1000
0000
,
1001
0000
0100
0000
,
0001
0000
1000
0000
,
0110
0000
0100
0000
,
0001
1000
0001
0000
,
0110
0000
0001
0000
,
0010
0000
0100
0000
,
1001
0000
0001
0000
,
0010
0100
0010
0000
,
0110
0000
1000
0000
,
0100
0000
0010
0000
,
1001
0000
1000
0000
,
0100
0010
0100
0000
,
0200
0000
0310
0000
,
0200
0000
0301
0000
,
2000
0000
3001
0001
,
1000
0100
0001
0010
,
0020
0000
0130
0000
,
0020
0000
1030
0000
,
0002
0000
1003
1000
,
0001
0010
1000
0100
,
0010
0000
0000
0000
,
0010
0000
0000
0000
,
0100
0000
0000
0000
,
0100
0000
0000
0000
,
0001
0000
0000
0000
,
0001
0000
0000
0000
,
1000
0000
0000
0000
,
1000
0000
0000
0000
,
0110
0010
0000
0000
,
1000
1000
0000
0000
,
0001
1000
0000
0000
,
0000
0000
0000
0000
,
0110
0100
0000
0000
,
0001
0001
0000
0000
,
1000
0001
0000
0000
,
0110
0010
0000
0000
,
2000
0000
0000
0000
,
0001
0000
0000
3000
,
0002
0000
0000
0000
,
1000
0000
0000
0003
,
0200
0000
0000
0000
,
0010
0000
0000
0300
,
0020
0000
0000
0000
,
0100
0000
0000
0030
,
1001
0000
0010
0000
,
1000
0000
0001
0000
,
0110
0000
0010
0000
,
1000
0001
1000
0000
,
1001
0000
0100
0000
,
0001
0000
1000
0000
,
0110
0000
0100
0000
,
0001
1000
0001
0000
,
0110
0000
0001
0000
,
0010
0000
0100
0000
,
1001
0000
0001
0000
,
0010
0100
0010
0000
,
0110
0000
1000
0000
,
0100
0000
0010
0000
,
1001
0000
1000
0000
,
0100
0010
0100
0000
,
0200
0000
0310
0000
,
0200
0000
0301
0000
,
2000
0000
3001
0001
,
1000
0100
0001
0010
,
0020
0000
0130
0000
,
0020
0000
1030
0000
,
0002
0000
1003
1000
,
0001
0010
1000
0100
,
0002
0000
1003
0000
,
0002
0000
0013
0000
,
0200
0000
0310
0010
,
0100
0001
0010
1000
,
2000
0000
3001
0000
,
2000
0000
3100
0000
,
0020
0000
0130
0100
,
0010
1000
0100
0001
,
1001
0000
0000
0000
;

//---------------dance-single - ----------------
#NOTEDATA:;
#CHARTNAME:;
#STEPSTYPE:dance-single;
#DESCRIPTION:;
#CHARTSTYLE:;
#DIFFICULTY:Hard;
#METER:6;
#RADARVALUES:0.206551,0.289172,0.140570,0.200814,0.000000,360.000000,325.000000,35.000000,50.000000,0.000000,0.000000,0.000000,0.000000,0.000000,0.206551,0.289172,0.140570,0.200814,0.000000,360.000000,325.000000,35.000000,50.000000,0.000000,0.000000,0.000000,0.000000,0.000000;
#CREDIT:;
#NOTES:
0000
0000
0000
0000
,
0000
0000
0000
0000
,
0000
0000
0000
0000
,
0000
0000
0000
0000
,
0000
0000
0000
0000
,
0000
0000
0000
0000
,
0000
0000
0000
0000
,
0000
0000
0000
0000
,
0110
0010
0000
0000
,
1000
1000
0000
0000
,
0101
1000
0000
0000
,
0000
0000
0000
0000
,
0110
0100
0000
0000
,
0001
0001
0000
0000
,
1010
0001
0000
0000
,
0110
0010
0000
0000
,
0200
0000
0310
0010
,
0200
0000
0301
0000
,
2000
0000
3001
0001
,
1000
0100
0001
0010
,
0020
0000
0130
0100
,
0020
0000
1030
0000
,
0002
0000
1003
1000
,
0001
0010
1000
0100
,
0020
0000
0000
0030
,
0010
0000
0010
0100
,
0200
0000
0000
0300
,
0100
0000
0100
0010
,
0002
0000
0000
0003
,
0001
0000
0001
1000
,
2000
0000
0000
3000
,
1000
0000
1000
0001
,
2000
0000
0000
0000
,
0001
0000
0000
3000
,
0002
0000
0000
0000
,
1000
0000
0000
0003
,
0200
0000
0000
0000
,
0010
0000
0000
0300
,
0020
0000
0000
0000
,
0100
0000
0000
0030
,
1001
0000
0010
0000
,
1000
0000
0001
0000
,
0110
0000
0010
0000
,
1000
0001
1000
0000
,
1001
0000
0100
0000
,
0001
0000
1000
0000
,
0110
0000
0100
0000
,
0001
1000
0001
0000
,
0110
0000
0001
0000
,
0010
0000
0100
0000
,
1001
0000
0001
0000
,
0010
0100
0010
0000
,
0110
0000
1000
0000
,
0100
0000
0010
0000
,
1001
0000
1000
0000
,
0100
0010
0100
0000
,
0200
0000
0310
0010
,
0200
0000
0301
0000
,
2000
0000
3001
0001
,
1000
0100
0001
0010
,
0020
0000
0130
0100
,
0020
0000
1030
0000
,
0002
0000
1003
1000
,
0001
0010
1000
0100
,
0020
0000
0000
0030
,
0010
0000
0010
0100
,
0200
0000
0000
0300
,
0100
0000
0100
0010
,
0002
0000
0000
0003
,
0001
0000
0001
1000
,
2000
0000
0000
3000
,
1000
0000
1000
0001
,
2000
0000
0000
0000
,
0001
0000
0000
3000
,
0002
0000
0000
0000
,
1000
0000
0000
0003
,
0200
0000
0000
0000
,
0010
0000
0000
0300
,
0020
0000
0000
0000
,
0100
0000
0000
0030
,
1001
0000
0010
0000
,
1000
0000
0001
0000
,
0110
0000
0010
0000
,
1000
0001
1000
0000
,
1001
0000
0100
0000
,
0001
0000
1000
0000
,
0110
0000
0100
0000
,
0001
1000
0001
0000
,
0110
0000
0001
0000
,
0010
0000
0100
0000
,
1001
0000
0001
0000
,
0010
0100
0010
0000
,
0110
0000
1000
0000
,
0100
0000
0010
0000
,
1001
0000
1000
0000
,
0100
0010
0100
0000
,
0200
0000
0310
0010
,
0200
0000
0301
0000
,
2000
0000
3001
0001
,
1000
0100
0001
0010
,
0020
0000
0130
0100
,
0020
0000
1030
0000
,
0002
0000
1003
1000
,
0001
0010
1000
0100
,
0010
0000
0010
0000
,
0010
0000
0000
0000
,
0100
0000
0100
0000
,
0100
0000
0000
0000
,
0001
0000
0001
0000
,
0001
0000
0000
0000
,
1000
0000
1000
0000
,
1000
0000
0000
0000
,
0110
0010
0000
0000
,
1000
1000
0000
0000
,
0101
1000
0000
0000
,
0000
0000
0000
0000
,
0110
0100
0000
0000
,
0001
0001
0000
0000
,
1010
0001
0000
0000
,
0110
0010
0000
0000
,
2000
0000
0000
0000
,
0001
0000
0000
3000
,
0002
0000
0000
0000
,
1000
0000
0000
0003
,
0200
0000
0000
0000
,
0010
0000
0000
0300
,
0020
0000
0000
0000
,
0100
0000
0000
0030
,
1001
0000
0010
0000
,
1000
0000
0001
0000
,
0110
0000
0010
0000
,
1000
0001
1000
0000
,
1001
0000
0100
0000
,
0001
0000
1000
0000
,
0110
0000
0100
0000
,
0001
1000
0001
0000
,
0110
0000
0001
0000
,
0010
0000
0100
0000
,
1001
0000
0001
0000
,
0010
0100
0010
0000
,
0110
0000
1000
0000
,
0100
0000
0010
0000
,
1001
0000
1000
0000
,
0100
0010
0100
0000
,
0200
0000
0310
0010
,
0200
0000
0301
0000
,
2000
0000
3001
0001
,
1000
0100
0001
0010
,
0020
0000
0130
0100
,
0020
0000
1030
0000
,
0002
0000
1003
1000
,
0001
0010
1000
0100
,
0002
0000
1003
1000
,
0002
0000
0013
0000
,
0200
0000
0310
0010
,
0100
0001
0010
1000
,
2000
0000
3001
0001
,
2000
0000
3100
0000
,
0020
0000
0130
0100
,
0010
1000
0100
0001
,
1001
0000
0000
0000
;

//---------------dance-single - ----------------
#NOTEDATA:;
#CHARTNAME:;
#STEPSTYPE:dance-single;
#DESCRIPTION:;
#CHARTSTYLE:;
#DIFFICULTY:Challenge;
#METER:6;
#RADARVALUES:0.221469,0.289172,0.140570,0.200814,0.000000,386.000000,351.000000,35.000000,50.000000,0.000000,0.000000,0.000000,0.000000,0.000000,0.221469,0.289172,0.140570,0.200814,0.000000,386.000000,351.000000,35.000000,50.000000,0.000000,0.000000,0.000000,0.000000,0.000000;
#CREDIT:;
#NOTES:
0000
0000
0000
0000
,
0000
0000
0000
0000
,
0000
0000
0000
0000
,
0000
0000
0000
0000
,
0000
0000
0000
0000
,
0000
0000
0000
0000
,
0000
0000
0000
0000
,
0000
0000
0000
0000
,
0110
0010
0000
0000
,
1000
1000
0000
0000
,
0101
1000
0000
0000
,
0000
0000
0000
0000
,
0110
0100
0000
0000
,
0001
0001
0000
0000
,
1010
0001
0000
0000
,
0110
0010
0000
0000
,
0200
0000
0310
0010
,
0200
0000
0301
0100
,
2000
0000
3001
0001
,
1000
0100
0001
0010
,
0020
0000
0130
0100
,
0020
0000
1030
0010
,
0002
0000
1003
1000
,
0001
0010
1000
0100
,
0020
0000
0100
0030
,
0010
0000
0010
0100
,
0200
0000
0000
0300
,
0100
0000
0100
0010
,
0002
0000
1000
0003
,
0001
0000
0001
1000
,
2000
0000
0000
3000
,
1000
0000
1000
0001
,
2000
0000
0000
0000
,
0001
0000
0000
3000
,
0002
0000
0000
0000
,
1000
0000
0000
0003
,
0200
0000
0000
0000
,
0010
0000
0000
0300
,
0020
0000
0000
0000
,
0100
0000
0000
0030
,
1001
0000
0010
0000
,
1000
0000
0001
0000
,
0110
0000
0010
0000
,
1000
0001
1000
0001
,
1001
0000
0100
0000
,
0001
0000
1000
0000
,
0110
0000
0100
0000
,
0001
1000
0001
1000
,
0110
0000
0001
0000
,
0010
0000
0100
0000
,
1001
0000
0001
0000
,
0010
0100
0010
0100
,
0110
0000
1000
0000
,
0100
0000
0010
0000
,
1001
0000
1000
0000
,
0100
0010
0100
0010
,
0200
0000
0310
0010
,
0200
0000
0301
0100
,
2000
0000
3001
0001
,
1000
0100
0001
0010
,
0020
0000
0130
0100
,
0020
0000
1030
0010
,
0002
0000
1003
1000
,
0001
0010
1000
0100
,
0020
0000
0100
0030
,
0010
0000
0010
0100
,
0200
0000
0000
0300
,
0100
0000
0100
0010
,
0002
0000
1000
0003
,
0001
0000
0001
1000
,
2000
0000
0000
3000
,
1000
0000
1000
0001
,
2000
0000
0000
0000
,
0001
0000
0000
3000
,
0002
0000
0000
0000
,
1000
0000
0000
0003
,
0200
0000
0000
0000
,
0010
0000
0000
0300
,
0020
0000
0000
0000
,
0100
0000
0000
0030
,
1001
0000
0010
0000
,
1000
0000
0001
0000
,
0110
0000
0010
0000
,
1000
0001
1000
0001
,
1001
0000
0100
0000
,
0001
0000
1000
0000
,
0110
0000
0100
0000
,
0001
1000
0001
1000
,
0110
0000
0001
0000
,
0010
0000
0100
0000
,
1001
0000
0001
0000
,
0010
0100
0010
0100
,
0110
0000
1000
0000
,
0100
0000
0010
0000
,
1001
0000
1000
0000
,
0100
0010
0100
0010
,
0200
0000
0310
0010
,
0200
0000
0301
0100
,
2000
0000
3001
0001
,
1000
0100
0001
0010
,
0020
0000
0130
0100
,
0020
0000
1030
0010
,
0002
0000
1003
1000
,
0001
0010
1000
0100
,
0010
0000
0010
0000
,
0010
0000
0000
0000
,
0100
0000
0100
0000
,
0100
0000
0000
0000
,
0001
0000
0001
0000
,
0001
0000
0000
0000
,
1000
0000
1000
0000
,
1000
0000
0000
0000
,
0110
0010
0000
0000
,
1000
1000
0000
0000
,
0101
1000
0000
0000
,
0000
0000
0000
0000
,
0110
0100
0000
0000
,
0001
0001
0000
0000
,
1010
0001
0000
0000
,
0110
0010
0000
0000
,
2000
0000
0000
0000
,
0001
0000
0000
3000
,
0002
0000
0000
0000
,
1000
0000
0000
0003
,
0200
0000
0000
0000
,
0010
0000
0000
0300
,
0020
0000
0000
0000
,
0100
0000
0000
0030
,
1001
0000
0010
0000
,
1000
0000
0001
0000
,
0110
0000
0010
0000
,
1000
0001
1000
0001
,
1001
0000
0100
0000
,
0001
0000
1000
0000
,
0110
0000
0100
0000
,
0001
1000
0001
1000
,
0110
0000
0001
0000
,
0010
0000
0100
0000
,
1001
0000
0001
0000
,
0010
0100
0010
0100
,
0110
0000
1000
0000
,
0100
0000
0010
0000
,
1001
0000
1000
0000
,
0100
0010
0100
0010
,
0200
0000
0310
0010
,
0200
0000
0301
0100
,
2000
0000
3001
0001
,
1000
0100
0001
0010
,
0020
0000
0130
0100
,
0020
0000
1030
0010
,
0002
0000
1003
1000
,
0001
0010
1000
0100
,
0002
0000
1003
1000
,
0002
0000
0013
0001
,
0200
0000
0310
0010
,
0100
0001
0010
1000
,
2000
0000
3001
0001
,
2000
0000
3100
1000
,
0020
0000
0130
0100
,
0010
1000
0100
0001
,
1001
0000
0000
0000
;
