#VERSION:0.83;
#TITLE:Exceed;
#SUBTITLE:(form Thunder Force II);
#ARTIST:SEGA;
#TITLETRANSLIT:;
#SUBTITLETRANSLIT:;
#ARTISTTRANSLIT:;
#GENRE:;
#ORIGIN:;
#CREDIT:;
#BANNER:;
#BACKGROUND:;
#PREVIEWVID:;
#JACKET:;
#CDIMAGE:;
#DISCIMAGE:;
#LYRICSPATH:;
#CDTITLE:;
#MUSIC:Exceed (Thunder Force II).ogg;
#OFFSET:-0.000000;
#SAMPLESTART:5.373606;
#SAMPLELENGTH:15.000000;
#SELECTABLE:YES;
#BPMS:0.000=178.651;
#STOPS:;
#DELAYS:;
#WARPS:;
#TIMESIGNATURES:0.000=4=4;
#TICKCOUNTS:0.000=4;
#COMBOS:0.000=1;
#SPEEDS:0.000=1.000=0.000=0;
#SCROLLS:0.000=1.000;
#FAKES:;
#LABELS:0.000=Song Start;
#BGCHANGES:;
#KEYSOUNDS:;
#ATTACKS:
;

//---------------dance-single - ----------------
#NOTEDATA:;
#CHARTNAME:;
#STEPSTYPE:dance-single;
#DESCRIPTION:;
#CHARTSTYLE:;
#DIFFICULTY:Easy;
#METER:12;
#RADARVALUES:0.452297,0.486267,0.120231,0.440846,0.033397,237.000000,228.000000,9.000000,33.000000,0.000000,0.000000,0.000000,0.000000,0.000000,0.452297,0.486267,0.120231,0.440846,0.033397,237.000000,228.000000,9.000000,33.000000,0.000000,0.000000,0.000000,0.000000,0.000000;
#CREDIT:;
#NOTES:
// measure 0
2000
0000
0000
0000
0001
0010
0001
3000
,  // measure 1
0002
0000
0000
0000
1000
0100
1000
0003
,  // measure 2
0020
0000
0000
0000
0100
0001
0100
0030
,  // measure 3
0200
0000
0000
0000
0010
1000
0010
0300
,  // measure 4
2000
0001
3020
0001
,  // measure 5
0032
1000
0203
0010
,  // measure 6
0320
0000
0000
0000
,  // measure 7
0100
0000
0100
0130
,  // measure 8
1000
1000
0010
0000
0010
0100
0001
0000
,  // measure 9
0001
0010
0100
0000
0010
0001
1000
0000
,  // measure 10
0010
0100
0010
0000
1000
0010
0001
0000
,  // measure 11
0010
0110
1000
1001
,  // measure 12
0002
1000
0203
1000
,  // measure 13
2300
0001
3020
0100
,  // measure 14
0230
0000
0000
0000
,  // measure 15
0010
0000
0010
0310
,  // measure 16
0001
0001
0100
0000
0100
0010
1000
0000
,  // measure 17
1000
0100
0010
0000
0100
1000
0001
0000
,  // measure 18
0100
0010
0100
0000
0001
0100
1000
0000
,  // measure 19
0100
0110
0001
1001
,  // measure 20
0020
0100
0032
0100
,  // measure 21
0203
0010
2300
0001
,  // measure 22
3002
0000
0000
0000
,  // measure 23
1000
0000
1000
1003
,  // measure 24
0010
0010
0001
0000
0001
1000
0100
0000
,  // measure 25
0100
0001
1000
0000
0001
0100
0010
0000
,  // measure 26
0001
1000
0001
0000
0010
0001
0100
0000
,  // measure 27
0001
1001
0010
0110
,  // measure 28
0200
0010
2300
0010
,  // measure 29
3020
0100
0032
1000
,  // measure 30
2003
0000
0000
0000
,  // measure 31
0001
0000
0001
3001
,  // measure 32
0100
0100
1000
0000
1000
0001
0010
0000
,  // measure 33
0010
1000
0001
0000
1000
0010
0100
0000
,  // measure 34
1000
0001
1000
0000
0100
1000
0010
0000
,  // measure 35
1000
1001
0100
0110
,  // measure 36
0020
0000
0000
0030
,  // measure 37
1000
0100
0001
0100
1000
0100
0001
0100
,  // measure 38
0200
0000
0000
0300
,  // measure 39
0001
0010
1000
0010
0001
0010
1000
0010
,  // measure 40
0002
0000
0000
0003
,  // measure 41
0010
1000
0100
1000
0010
1000
0100
1000
,  // measure 42
2000
0000
0000
3000
,  // measure 43
0100
0001
0010
0001
0100
0001
0010
0001
,  // measure 44
0020
0000
0000
0030
,  // measure 45
1000
0100
0001
0100
1000
0100
0001
0100
,  // measure 46
0200
0000
0000
0300
,  // measure 47
0001
0010
1000
0010
0001
0010
1000
0010
,  // measure 48
0002
0000
0000
0003
,  // measure 49
0010
1000
0100
1000
0010
1000
0100
1000
,  // measure 50
0220
0000
0000
0330
,  // measure 51
1000
0100
0000
0010
0100
0000
0010
0001
0000
0100
1000
0000
0010
0000
0010
0100
,  // measure 52
0010
0000
0000
0000
;

//---------------dance-single - ----------------
#NOTEDATA:;
#CHARTNAME:;
#STEPSTYPE:dance-single;
#DESCRIPTION:;
#CHARTSTYLE:;
#DIFFICULTY:Beginner;
#METER:11;
#RADARVALUES:0.417945,0.486267,0.120231,0.440846,0.026718,219.000000,210.000000,9.000000,33.000000,0.000000,0.000000,0.000000,0.000000,0.000000,0.417945,0.486267,0.120231,0.440846,0.026718,219.000000,210.000000,9.000000,33.000000,0.000000,0.000000,0.000000,0.000000,0.000000;
#CREDIT:;
#NOTES:
2000
0000
0000
0000
0001
0000
0001
3000
,
0002
0000
0000
0000
1000
0000
1000
0003
,
0020
0000
0000
0000
0100
0000
0100
0030
,
0200
0000
0000
0000
0010
0000
0010
0300
,
2000
0001
3020
0001
,
0032
1000
0203
0010
,
0320
0000
0000
0000
,
0100
0000
0100
0130
,
1000
1000
0010
0000
0010
0100
0001
0000
,
0001
0010
0100
0000
0010
0001
1000
0000
,
0010
0100
0010
0000
1000
0010
0001
0000
,
0110
0000
1001
0000
,
0002
1000
0203
1000
,
2300
0001
3020
0100
,
0230
0000
0000
0000
,
0010
0000
0010
0310
,
0001
0001
0100
0000
0100
0010
1000
0000
,
1000
0100
0010
0000
0100
1000
0001
0000
,
0100
0010
0100
0000
0001
0100
1000
0000
,
0110
0000
1001
0000
,
0020
0100
0032
0100
,
0203
0010
2300
0001
,
3002
0000
0000
0000
,
1000
0000
1000
1003
,
0010
0010
0001
0000
0001
1000
0100
0000
,
0100
0001
1000
0000
0001
0100
0010
0000
,
0001
1000
0001
0000
0010
0001
0100
0000
,
1001
0000
0110
0000
,
0200
0010
2300
0010
,
3020
0100
0032
1000
,
2003
0000
0000
0000
,
0001
0000
0001
3001
,
0100
0100
1000
0000
1000
0001
0010
0000
,
0010
1000
0001
0000
1000
0010
0100
0000
,
1000
0001
1000
0000
0100
1000
0010
0000
,
1000
1001
0100
0110
,
0020
0000
0000
0030
,
1000
0100
0001
0100
1000
0100
0001
0100
,
0200
0000
0000
0300
,
0001
0010
1000
0010
0001
0010
1000
0000
,
0002
0000
0000
0003
,
0010
1000
0100
1000
0010
1000
0100
0000
,
2000
0000
0000
3000
,
0100
0001
0010
0001
0100
0001
0010
0000
,
0020
0000
0000
0030
,
1000
0100
0001
0100
1000
0100
0001
0000
,
0200
0000
0000
0300
,
0001
0010
1000
0010
0001
0010
1000
0000
,
0002
0000
0000
0003
,
0010
1000
0100
1000
0010
1000
0100
0000
,
0220
0000
0000
0330
,
1000
0100
0000
0000
0100
0000
0010
0001
0000
0100
0000
0000
0100
0000
0010
0100
,
0010
0000
0000
0000
;

//---------------dance-single - ----------------
#NOTEDATA:;
#CHARTNAME:;
#STEPSTYPE:dance-single;
#DESCRIPTION:;
#CHARTSTYLE:;
#DIFFICULTY:Medium;
#METER:13;
#RADARVALUES:0.475198,0.521000,0.120231,0.534359,0.040077,249.000000,240.000000,9.000000,40.000000,0.000000,0.000000,0.000000,0.000000,0.000000,0.475198,0.521000,0.120231,0.534359,0.040077,249.000000,240.000000,9.000000,40.000000,0.000000,0.000000,0.000000,0.000000,0.000000;
#CREDIT:;
#NOTES:
2000
0000
0000
0000
0001
0010
0001
3000
,
0002
0000
0000
0000
1000
0100
1000
0003
,
0020
0000
0000
0000
0100
0001
0100
0030
,
0200
0000
0000
0000
0010
1000
0010
0300
,
2000
0001
3020
0001
,
0032
1000
0203
0010
,
0320
0000
0000
0000
,
0100
0000
0000
0000
0100
0000
0100
0130
,
1000
1000
0010
0000
0010
0100
0001
0000
,
0001
0010
0100
0000
0010
0001
1000
0000
,
0010
0100
0010
0000
1000
0010
0001
0000
,
0010
0110
1000
1001
,
0002
1000
0203
1000
,
2300
0001
3020
0100
,
0230
0000
0000
0000
,
0010
0000
0000
0000
0010
0000
0010
0310
,
0001
0001
0100
0000
0100
0010
1000
0000
,
1000
0100
0010
0000
0100
1000
0001
0000
,
0100
0010
0100
0000
0001
0100
1000
0000
,
0100
0110
0001
1001
,
0020
0100
0032
0100
,
0203
0010
2300
0001
,
3002
0000
0000
0000
,
1000
0000
0000
0000
1000
0000
1000
1003
,
0010
0010
0001
0000
0001
1000
0100
0000
,
0100
0001
1000
0000
0001
0100
0010
0000
,
0001
1000
0001
0000
0010
0001
0100
0000
,
0001
1001
0010
0110
,
0200
0010
2300
0010
,
3020
0100
0032
1000
,
2003
0000
0000
0000
,
0001
0000
0000
0000
0001
0000
0001
3001
,
0100
0100
1000
0000
1000
0001
0010
0000
,
0010
1000
0001
0000
1000
0010
0100
0000
,
1000
0001
1000
0000
0100
1000
0010
0000
,
1000
1001
0100
0110
,
0020
0000
0200
0330
,
1000
0100
0001
0100
1000
0100
0001
0100
,
0200
0000
0020
0330
,
0001
0010
1000
0010
0001
0010
1000
0010
,
0002
0000
2000
3003
,
0010
1000
0100
1000
0010
1000
0100
1000
,
2000
0000
0002
3003
,
0100
0001
0010
0001
0100
0001
0010
0001
,
0020
0000
0200
0330
,
1000
0100
0001
0100
1000
0100
0001
0100
,
0200
0000
0020
0330
,
0001
0010
1000
0010
0001
0010
1000
0010
,
0002
0000
2000
3003
,
0010
1000
0100
1000
0010
1000
0100
1000
,
0220
0000
0000
0330
,
1000
0100
0000
0010
0100
0000
0010
0001
0000
0100
1000
0000
0010
0100
0010
0100
,
0010
0000
0000
0000
;

//---------------dance-single - ----------------
#NOTEDATA:;
#CHARTNAME:;
#STEPSTYPE:dance-single;
#DESCRIPTION:;
#CHARTSTYLE:;
#DIFFICULTY:Hard;
#METER:13;
#RADARVALUES:0.498099,0.521000,0.173667,0.534359,0.040077,261.000000,248.000000,13.000000,40.000000,0.000000,0.000000,0.000000,0.000000,0.000000,0.498099,0.521000,0.173667,0.534359,0.040077,261.000000,248.000000,13.000000,40.000000,0.000000,0.000000,0.000000,0.000000,0.000000;
#CREDIT:;
#NOTES:
2000
0000
0001
0000
0001
0010
0001
3000
,
0002
0000
1000
0000
1000
0100
1000
0003
,
0020
0000
0100
0000
0100
0001
0100
0030
,
0200
0000
0010
0000
0010
1000
0010
0300
,
2000
0001
3020
0001
,
0032
1000
0203
0010
,
0320
0000
0000
0000
,
0100
0000
0000
0000
0100
0000
0100
0130
,
1001
1000
0010
0000
0010
0100
0001
0000
,
0001
0010
0100
0000
0010
0001
1000
0000
,
0010
0100
0010
0000
1000
0010
0001
0000
,
0010
0000
0110
0000
1000
0001
1001
0000
,
0002
1000
0203
1000
,
2300
0001
3020
0100
,
0230
0000
0000
0000
,
0010
0000
0000
0000
0010
0000
0010
0310
,
1001
0001
0100
0000
0100
0010
1000
0000
,
1000
0100
0010
0000
0100
1000
0001
0000
,
0100
0010
0100
0000
0001
0100
1000
0000
,
0100
0000
0110
0000
0001
1000
1001
0000
,
0020
0100
0032
0100
,
0203
0010
2300
0001
,
3002
0000
0000
0000
,
1000
0000
0000
0000
1000
0000
1000
1003
,
0110
0010
0001
0000
0001
1000
0100
0000
,
0100
0001
1000
0000
0001
0100
0010
0000
,
0001
1000
0001
0000
0010
0001
0100
0000
,
0001
0000
1001
0000
0010
0100
0110
0000
,
0200
0010
2300
0010
,
3020
0100
0032
1000
,
2003
0000
0000
0000
,
0001
0000
0000
0000
0001
0000
0001
3001
,
0110
0100
1000
0000
1000
0001
0010
0000
,
0010
1000
0001
0000
1000
0010
0100
0000
,
1000
0001
1000
0000
0100
1000
0010
0000
,
1000
0000
1001
0000
0100
0010
0110
0000
,
0020
0000
0000
0000
0200
0000
0000
0330
,
1000
0100
0001
0100
1000
0100
0001
0100
,
0200
0000
0000
0000
0020
0000
0000
0330
,
0001
0010
1000
0010
0001
0010
1000
0010
,
0002
0000
0000
0000
2000
0000
0000
3003
,
0010
1000
0100
1000
0010
1000
0100
1000
,
2000
0000
0000
0000
0002
0000
0000
3003
,
0100
0001
0010
0001
0100
0001
0010
0001
,
0020
0000
0000
0000
0200
0000
0000
0330
,
1000
0100
0001
0100
1000
0100
0001
0100
,
0200
0000
0000
0000
0020
0000
0000
0330
,
0001
0010
1000
0010
0001
0010
1000
0010
,
0002
0000
0000
0000
2000
0000
0000
3003
,
0010
1000
0100
1000
0010
1000
0100
1000
,
0220
0000
0000
0000
0000
0000
0000
0330
,
1000
0100
0000
0010
0100
0000
0010
0001
0000
0100
1000
0000
0010
0100
0010
0100
,
0010
0000
0000
0000
;

//---------------dance-single - ----------------
#NOTEDATA:;
#CHARTNAME:;
#STEPSTYPE:dance-single;
#DESCRIPTION:;
#CHARTSTYLE:;
#DIFFICULTY:Challenge;
#METER:13;
#RADARVALUES:0.526726,0.521000,0.173667,0.534359,0.086833,276.000000,263.000000,13.000000,40.000000,0.000000,0.000000,0.000000,0.000000,0.000000,0.526726,0.521000,0.173667,0.534359,0.086833,276.000000,263.000000,13.000000,40.000000,0.000000,0.000000,0.000000,0.000000,0.000000;
#CREDIT:;
#NOTES:
2000
0000
0001
0000
0001
0010
0001
3000
,
0002
0000
1000
0000
1000
0100
1000
0003
,
0020
0000
0100
0000
0100
0001
0100
0030
,
0200
0000
0010
0000
0010
1000
0010
0300
,
2000
0001
3020
0001
,
0032
1000
0203
0010
,
0320
0000
0000
0000
,
0100
0000
0100
0000
0100
0000
0100
0130
,
1001
1000
0010
0000
0010
0100
0001
0000
,
0001
0010
0100
0000
0010
0001
1000
0000
,
0010
0100
0010
0000
1000
0010
0001
0000
,
0010
0100
0110
0000
1000
0001
1001
0000
,
0002
1000
0203
1000
,
2300
0001
3020
0100
,
0230
0000
0000
0000
,
0010
0000
0010
0000
0010
0000
0010
0310
,
1001
0001
0100
0000
0100
0010
1000
0000
,
1000
0100
0010
0000
0100
1000
0001
0000
,
0100
0010
0100
0000
0001
0100
1000
0000
,
0100
0010
0110
0000
0001
1000
1001
0000
,
0020
0100
0032
0100
,
0203
0010
2300
0001
,
3002
0000
0000
0000
,
1000
0000
1000
0000
1000
0000
1000
1003
,
0110
0010
0001
0000
0001
1000
0100
0000
,
0100
0001
1000
0000
0001
0100
0010
0000
,
0001
1000
0001
0000
0010
0001
0100
0000
,
0001
1000
1001
0000
0010
0100
0110
0000
,
0200
0010
2300
0010
,
3020
0100
0032
1000
,
2003
0000
0000
0000
,
0001
0000
0001
0000
0001
0000
0001
3001
,
0110
0100
1000
0000
1000
0001
0010
0000
,
0010
1000
0001
0000
1000
0010
0100
0000
,
1000
0001
1000
0000
0100
1000
0010
0000
,
1000
0001
1001
0000
0100
0010
0110
0000
,
0020
0000
0000
0000
0200
0000
0000
0330
,
1000
0000
0100
0000
0001
0000
0100
0000
1000
0000
0100
0000
0001
0000
0100
0010
,
0200
0000
0000
0000
0020
0000
0000
0330
,
0001
0000
0010
0000
1000
0000
0010
0000
0001
0000
0010
0000
1000
0000
0010
0100
,
0002
0000
0000
0000
2000
0000
0000
3003
,
0010
0000
1000
0000
0100
0000
1000
0000
0010
0000
1000
0000
0100
0000
1000
0001
,
2000
0000
0000
0000
0002
0000
0000
3003
,
0100
0000
0001
0000
0010
0000
0001
0000
0100
0000
0001
0000
0010
0000
0001
1000
,
0020
0000
0000
0000
0200
0000
0000
0330
,
1000
0000
0100
0000
0001
0000
0100
0000
1000
0000
0100
0000
0001
0000
0100
0010
,
0200
0000
0000
0000
0020
0000
0000
0330
,
0001
0000
0010
0000
1000
0000
0010
0000
0001
0000
0010
0000
1000
0000
0010
0100
,
0002
0000
0000
0000
2000
0000
0000
3003
,
0010
0000
1000
0000
0100
0000
1000
0000
0010
0000
1000
0000
0100
0000
1000
0001
,
0220
0000
0000
0000
0000
0000
0000
0330
,
1000
0100
0000
0010
0100
0000
0010
0001
0000
0100
1000
0000
0010
0100
0010
0100
,
0010
0000
0000
0000
;
