#TITLE:Enduro Racer Main Theme;
#SUBTITLE:(form Enduro Racer);
#ARTIST:SEGA;
#TITLETRANSLIT:;
#SUBTITLETRANSLIT:;
#ARTISTTRANSLIT:;
#GENRE:;
#CREDIT:;
#BANNER:;
#BACKGROUND:;
#LYRICSPATH:;
#CDTITLE:;
#MUSIC:Enduro Racer Main Theme.ogg;
#OFFSET:-0.038000;
#SAMPLESTART:42.119396;
#SAMPLELENGTH:15.000000;
#SELECTABLE:YES;
#DISPLAYBPM:0.000000:180.000000;
#BPMS:0.000000=179.651993
;
#STOPS:122.000000=0.668000
;
#BGCHANGES:;
#KEYSOUNDS:;
#ATTACKS:;

//---------------dance-single - ----------------
#NOTES:
     dance-single:
     :
     Easy:
     12:
     0.532367,0.915836,0.100417,0.282654,0.738248,1002.000000,975.000000,27.000000,76.000000,0.000000,0.000000,0.532367,0.915836,0.100417,0.282654,0.738248,1002.000000,975.000000,27.000000,76.000000,0.000000,0.000000:
// measure 0
0000
0000
0000
0000
,  // measure 1
0000
0000
0000
0000
,  // measure 2
0020
0000
0100
0130
,  // measure 3
2000
0000
0000
0000
3020
0000
0000
0030
,  // measure 4
0100
0010
0100
0000
0000
0000
0010
0100
0010
0000
0000
0000
,  // measure 5
1000
0100
0010
0001
0010
0100
1000
0100
,  // measure 6
0200
0000
0010
0310
,  // measure 7
0002
0000
0000
0000
0203
0000
0000
0300
,  // measure 8
0010
0100
0010
0000
0000
0000
0100
0010
0100
0000
0000
0000
,  // measure 9
0001
0010
0100
1000
0100
0010
0001
0010
,  // measure 10
0002
0000
1000
1003
,  // measure 11
0020
0000
0000
0000
0032
0000
0000
0003
,  // measure 12
1000
0001
1000
0000
0000
0000
0001
1000
0001
0000
0000
0000
,  // measure 13
0010
1000
0001
0100
0001
1000
0010
1000
,  // measure 14
2000
0000
0001
3001
,  // measure 15
0200
0000
0000
0000
2300
0000
0000
3000
,  // measure 16
0001
1000
0001
0000
0000
0000
1000
0001
1000
0000
0000
0000
,  // measure 17
0100
0001
1000
0010
1000
0001
0100
0001
,  // measure 18
0020
0000
0100
0130
,  // measure 19
2000
0000
0000
0000
3020
0000
0000
0030
,  // measure 20
0100
0010
0100
0000
0000
0000
0010
0100
0010
0000
0000
0000
,  // measure 21
1000
0100
0010
0001
0010
0100
1000
0100
,  // measure 22
0200
0000
0010
0310
,  // measure 23
0002
0000
0000
0000
0203
0000
0000
0300
,  // measure 24
0010
0100
0010
0000
0000
0000
0100
0010
0100
0000
0000
0000
,  // measure 25
0001
0010
0100
1000
0100
0010
0001
0010
,  // measure 26
1000
0001
1000
0001
1000
0001
1000
0000
0000
1001
0000
0000
,  // measure 27
0001
1000
0001
1000
0001
1000
0001
0000
0000
1001
0000
0000
,  // measure 28
0010
0100
0010
0100
0010
0100
0010
0000
0000
0110
0000
0000
,  // measure 29
0100
0010
0100
0010
0100
0010
0100
0000
0000
0110
0000
0000
,  // measure 30
1001
1001
1001
1001
2002
3003
1001
0000
,  // measure 31
0020
0000
0000
0000
,  // measure 32
0100
0000
0000
0100
0000
0000
1030
0000
0100
0000
0010
0000
,  // measure 33
0002
0000
0010
0000
,  // measure 34
2003
0000
0010
0000
,  // measure 35
3020
0000
0100
0000
,  // measure 36
2030
0000
0000
3010
,  // measure 37
0010
0002
0000
0000
0000
0000
1000
0000
0000
0000
0000
0000
,  // measure 38
1000
0000
1000
0003
,  // measure 39
0200
0000
0000
0000
,  // measure 40
0010
0000
0000
0010
0000
0000
0301
0000
0010
0000
0100
0000
,  // measure 41
2000
0000
0100
0000
,  // measure 42
3002
0000
0100
0000
,  // measure 43
0203
0000
0010
0000
,  // measure 44
0302
0000
0000
0103
,  // measure 45
0100
2000
0000
0000
0000
0000
0001
0000
0000
0000
0000
0000
,  // measure 46
0001
0000
0001
3000
,  // measure 47
1000
0000
0000
0000
0000
0000
1000
0010
0000
0001
0010
0000
,  // measure 48
0100
0000
0000
0000
0000
0000
0100
0001
0000
0001
0100
0000
,  // measure 49
0010
0000
0001
0000
0010
0000
0100
0000
0010
0000
0100
0000
,  // measure 50
1000
0000
0000
0000
0000
0000
0100
0010
0000
0001
0010
0000
,  // measure 51
0001
0000
0000
0000
0000
0000
0001
0100
0000
1000
0100
0000
,  // measure 52
0010
0000
0000
0000
0000
0000
0010
1000
0000
1000
0010
0000
,  // measure 53
0100
0000
1000
0000
0100
0000
0010
0000
0100
0000
0010
0000
,  // measure 54
0001
0000
0000
0000
0000
0000
0010
0100
0000
1000
0100
0000
,  // measure 55
0010
0000
0000
0000
0000
0000
0010
0001
0000
0100
0001
0000
,  // measure 56
1000
0000
0000
0000
0000
0000
1000
0100
0000
0100
1000
0000
,  // measure 57
0001
0000
0100
0000
0001
0000
1000
0000
0001
0000
1000
0000
,  // measure 58
0010
0000
0000
0000
0000
0000
1000
0001
0000
0100
0001
0000
,  // measure 59
0100
0000
0000
0000
0000
0000
0100
1000
0000
0010
1000
0000
,  // measure 60
0001
0000
0000
0000
0000
0000
0001
0010
0000
0010
0001
0000
,  // measure 61
0010
0000
0000
0010
0000
0000
0000
0000
0000
0000
0000
0000
0100
0000
0000
0100
,  // measure 62
0000
0000
0000
0000
0000
0000
1000
0100
0010
0001
1000
0001
,  // measure 63
0200
0000
0000
0000
,  // measure 64
0010
0000
0000
0010
0000
0000
0301
0000
0010
0000
0100
0000
,  // measure 65
2000
0000
0100
0000
,  // measure 66
3002
0000
0100
0000
,  // measure 67
0203
0000
0010
0000
,  // measure 68
0302
0000
0000
0103
,  // measure 69
0100
2000
0000
0000
0000
0000
0001
0000
0000
0000
0000
0000
,  // measure 70
0001
0000
0001
3000
,  // measure 71
0020
0000
0000
0000
,  // measure 72
0100
0000
0000
0100
0000
0000
1030
0000
0100
0000
0010
0000
,  // measure 73
0002
0000
0010
0000
,  // measure 74
2003
0000
0010
0000
,  // measure 75
3020
0000
0100
0000
,  // measure 76
2030
0000
0000
3010
,  // measure 77
0010
0002
0000
0000
0000
0000
1000
0000
0000
0000
0000
0000
,  // measure 78
1000
0000
1000
0003
,  // measure 79
0001
0000
0000
0000
0000
0000
0001
0100
0000
1000
0100
0000
,  // measure 80
0010
0000
0000
0000
0000
0000
0010
1000
0000
1000
0010
0000
,  // measure 81
0100
0000
1000
0000
0100
0000
0010
0000
0100
0000
0010
0000
,  // measure 82
0001
0000
0000
0000
0000
0000
0010
0100
0000
1000
0100
0000
,  // measure 83
1000
0000
0000
0000
0000
0000
1000
0010
0000
0001
0010
0000
,  // measure 84
0100
0000
0000
0000
0000
0000
0100
0001
0000
0001
0100
0000
,  // measure 85
0010
0000
0001
0000
0010
0000
0100
0000
0010
0000
0100
0000
,  // measure 86
1000
0000
0000
0000
0000
0000
0100
0010
0000
0001
0010
0000
,  // measure 87
0100
0000
0000
0000
0000
0000
0100
1000
0000
0010
1000
0000
,  // measure 88
0001
0000
0000
0000
0000
0000
0001
0010
0000
0010
0001
0000
,  // measure 89
1000
0000
0010
0000
1000
0000
0001
0000
1000
0000
0001
0000
,  // measure 90
0100
0000
0000
0000
0000
0000
0001
1000
0000
0010
1000
0000
,  // measure 91
0010
0000
0000
0000
0000
0000
0010
0001
0000
0100
0001
0000
,  // measure 92
1000
0000
0000
0000
0000
0000
1000
0100
0000
0100
1000
0000
,  // measure 93
0010
0000
0000
0010
0000
0000
0000
0000
0000
0000
0000
0000
0100
0000
0000
0100
,  // measure 94
0000
0000
0000
0000
0000
0000
1000
0100
0010
0001
1000
0001
,  // measure 95
0100
0000
0000
0100
0000
0000
0000
0000
0000
0000
0000
0000
0010
0000
0000
0010
,  // measure 96
0000
0000
0000
0000
0000
0000
0001
0010
0100
1000
0001
1000
,  // measure 97
0010
0010
0010
0010
,  // measure 98
1000
0001
1000
0001
1000
0001
1000
0001
,  // measure 99
0010
0000
0000
0010
0000
0000
0100
0000
0010
0000
1000
0000
0100
0000
0010
0000
1000
0000
0100
0000
0010
0000
1000
0000
,  // measure 100
0100
0000
0000
0100
0000
0000
0010
0000
0100
0000
0001
0000
0010
0000
0100
0000
0001
0000
0010
0000
0100
0000
0001
0000
,  // measure 101
1000
0000
0000
1000
0000
0000
1000
0000
0100
0000
0010
0000
0100
0000
0010
0000
0001
0000
0010
0000
0001
0000
1000
0000
,  // measure 102
0010
0100
0010
0100
1000
0000
1000
0000
0110
0000
0000
0000
1001
0000
0000
0000
,  // measure 103
0100
0000
0000
0100
0000
0000
0010
0000
0100
0000
0001
0000
0010
0000
0100
0000
0001
0000
0010
0000
0100
0000
0001
0000
,  // measure 104
0010
0000
0000
0010
0000
0000
0100
0000
0010
0000
1000
0000
0100
0000
0010
0000
1000
0000
0100
0000
0010
0000
1000
0000
,  // measure 105
0001
0000
0000
0001
0000
0000
0001
0000
0010
0000
0100
0000
0010
0000
0100
0000
1000
0000
0100
0000
1000
0000
0001
0000
,  // measure 106
0100
0010
0100
0010
0001
0000
0001
0000
0110
0000
0000
0000
1001
0000
0000
0000
,  // measure 107
1000
0000
0100
0000
0010
0000
0001
1000
0001
1000
0010
0100
,  // measure 108
0001
0000
0010
0000
0100
0000
1000
0001
1000
0001
0100
0010
,  // measure 109
0010
0000
1000
0000
0001
0000
0100
0010
0100
0010
0001
1000
,  // measure 110
0100
0000
0001
0000
1000
0000
0010
0100
0010
0100
1000
0001
,  // measure 111
1000
0000
0100
0000
0010
0000
0001
1000
0001
1000
0010
0100
,  // measure 112
0001
0000
0010
0000
0100
0000
1000
0001
1000
0001
0100
0010
,  // measure 113
1000
0001
1000
0001
1000
0001
1000
0001
1000
0001
1000
0001
,  // measure 114
0100
0000
0010
0000
0100
0000
0010
0000
0100
0000
0010
0000
0100
0000
0000
0200
0000
0000
0000
0000
0000
0300
0000
0000
,  // measure 115
1000
0010
1000
0001
0010
1000
0010
0001
,  // measure 116
0100
0010
0000
1000
0100
0000
0010
0001
0000
0010
0100
0000
,  // measure 117
0001
0100
0001
1000
0100
0001
0100
1000
,  // measure 118
0010
0100
0000
0001
0010
0000
0100
1000
0000
0100
0010
0000
,  // measure 119
0010
0001
0010
0100
0001
0010
0001
0100
,  // measure 120
1000
0001
0000
0010
1000
0000
0001
0100
0000
0001
1000
0000
,  // measure 121
0100
1000
0100
0010
1000
0100
1000
0010
,  // measure 122
0001
1000
0000
0100
0001
0000
1000
0010
0000
1000
0001
0000
,  // measure 123
1000
0010
0000
0000
0100
0001
0000
0000
1000
0010
0000
0000
0100
0001
0000
0000
,  // measure 124
0001
0100
0000
0000
0010
1000
0000
0000
0001
0100
0000
0000
0010
1000
0000
0000
,  // measure 125
1000
0000
0000
0100
0000
0000
1000
0000
0000
0100
0000
0000
0001
0000
0100
0000
0001
0000
0100
0000
0001
0000
0100
0000
,  // measure 126
0001
0000
0000
0010
0000
0000
0001
0000
0000
0010
0000
0000
1000
0000
0010
0000
1000
0000
0010
0000
1000
0000
0010
0000
,  // measure 127
0100
1000
0000
0000
0100
0010
0000
0000
0001
0010
0000
0000
1000
0001
0000
0000
,  // measure 128
0010
0001
0000
0000
0010
0100
0000
0000
1000
0100
0000
0000
0001
1000
0000
0000
,  // measure 129
0001
0000
0010
0000
0100
0000
1000
0000
0000
0001
0000
0000
1000
0000
0100
0000
0010
0000
0001
0000
0000
1000
0000
0000
,  // measure 130
1001
1001
1001
1001
1001
0000
1001
0000
,  // measure 131
2000
0000
0000
0000
,  // measure 132
0010
0010
0000
3000
,  // measure 133
0002
0000
0000
0000
,  // measure 134
0000
0000
0000
0003
,  // measure 135
0002
0000
0000
0000
,  // measure 136
0100
0100
0000
0003
,  // measure 137
2000
0000
0000
0000
,  // measure 138
0000
0000
0000
3000
,  // measure 139
0020
0000
0000
0000
,  // measure 140
0001
0001
0000
0030
,  // measure 141
0200
0000
0000
0000
,  // measure 142
0000
0000
0000
0300
,  // measure 143
0200
0000
0000
0000
,  // measure 144
1000
1000
0000
0300
,  // measure 145
0020
0000
0000
0000
,  // measure 146
0000
0000
0000
0030
,  // measure 147
2000
0000
0000
0000
,  // measure 148
0000
0000
0000
3000
,  // measure 149
0002
0000
0000
0000
,  // measure 150
0000
0000
0000
0000
0000
0000
0003
0000
1000
0000
0000
0000
,  // measure 151
0200
0000
0320
0000
0032
0000
2003
0000
3200
0000
0320
0000
,  // measure 152
0032
0000
0023
0000
0230
0000
0320
0000
0230
0000
2300
0000
,  // measure 153
3002
0000
2003
0000
3002
0000
2003
0000
3002
0000
2003
0000
,  // measure 154
0002
0000
0000
0000
0000
0000
0000
0000
0000
0000
0000
3003
,  // measure 155
0100
0000
0000
0010
0001
0010
0100
0000
0000
1000
0001
1000
,  // measure 156
0010
0000
0000
0100
1000
0100
0010
0000
0000
0001
1000
0001
,  // measure 157
1000
0100
0010
0001
1000
0100
0010
0001
1000
0100
0010
0001
,  // measure 158
0200
0000
0000
0300
,  // measure 159
1000
0100
0000
0000
0000
0000
0000
0000
0010
0100
0000
0000
0000
0000
0000
0000
,  // measure 160
1000
0000
0001
0000
1000
0000
0001
0000
1000
0000
0001
0000
0020
0000
0000
0000
0000
0000
0000
0000
0000
0030
0000
0000
,  // measure 161
0100
0000
0000
1000
0100
0010
0001
0010
0100
0001
0010
1000
,  // measure 162
1001
1001
1001
1001
1001
0000
1001
0000
,  // measure 163
1000
0000
0000
0000
0000
0000
1000
0010
0000
0001
0010
0000
,  // measure 164
0100
0000
0000
0000
0000
0000
0100
0001
0000
0001
0100
0000
,  // measure 165
0010
0000
0001
0000
0010
0000
0100
0000
0010
0000
0100
0000
,  // measure 166
1000
0000
0000
0000
0000
0000
0100
0010
0000
0001
0010
0000
,  // measure 167
0001
0000
0000
0000
0000
0000
0001
0100
0000
1000
0100
0000
,  // measure 168
0010
0000
0000
0000
0000
0000
0010
1000
0000
1000
0010
0000
,  // measure 169
0100
0000
1000
0000
0100
0000
0010
0000
0100
0000
0010
0000
,  // measure 170
0001
0000
0000
0000
0000
0000
0010
0100
0000
1000
0100
0000
,  // measure 171
0010
0000
0000
0000
0000
0000
0010
0001
0000
0100
0001
0000
,  // measure 172
1000
0000
0000
0000
0000
0000
1000
0100
0000
0100
1000
0000
,  // measure 173
0001
0000
0100
0000
0001
0000
1000
0000
0001
0000
1000
0000
,  // measure 174
0010
0000
0000
0000
0000
0000
1000
0001
0000
0100
0001
0000
,  // measure 175
0100
0000
0000
0000
0000
0000
0100
1000
0000
0010
1000
0000
,  // measure 176
0001
0000
0000
0000
0000
0000
0001
0010
0000
0010
0001
0000
,  // measure 177
0010
0000
0000
0010
0000
0000
0000
0000
0000
0000
0000
0000
0100
0000
0000
0100
,  // measure 178
0000
0000
0000
0000
0000
0000
1000
0100
0010
0001
1000
0001
,  // measure 179
0001
0000
0000
0000
0000
0000
0001
0100
0000
1000
0100
0000
,  // measure 180
0010
0000
0000
0000
0000
0000
0010
1000
0000
1000
0010
0000
,  // measure 181
0100
0000
1000
0000
0100
0000
0010
0000
0100
0000
0010
0000
,  // measure 182
0001
0000
0000
0000
0000
0000
0010
0100
0000
1000
0100
0000
,  // measure 183
1000
0000
0000
0000
0000
0000
1000
0010
0000
0001
0010
0000
,  // measure 184
0100
0000
0000
0000
0000
0000
0100
0001
0000
0001
0100
0000
,  // measure 185
0010
0000
0001
0000
0010
0000
0100
0000
0010
0000
0100
0000
,  // measure 186
1000
0000
0000
0000
0000
0000
0100
0010
0000
0001
0010
0000
,  // measure 187
0100
0000
0000
0000
0000
0000
0100
1000
0000
0010
1000
0000
,  // measure 188
0001
0000
0000
0000
0000
0000
0001
0010
0000
0010
0001
0000
,  // measure 189
1000
0000
0010
0000
1000
0000
0001
0000
1000
0000
0001
0000
,  // measure 190
0100
0000
0000
0000
0000
0000
0001
1000
0000
0010
1000
0000
,  // measure 191
0010
0000
0000
0000
0000
0000
0010
0001
0000
0100
0001
0000
,  // measure 192
1000
0000
0000
0000
0000
0000
1000
0100
0000
0100
1000
0000
,  // measure 193
0010
0000
0000
0010
0000
0000
0000
0000
0000
0000
0000
0000
0100
0000
0000
0100
,  // measure 194
0000
0000
0000
0000
0000
0000
1000
0100
0010
0001
1000
0001
,  // measure 195
0100
0000
0000
0100
0000
0000
0000
0000
0000
0000
0000
0000
0010
0000
0000
0010
,  // measure 196
0000
0000
0000
0000
0000
0000
0001
0010
0100
1000
0001
1000
,  // measure 197
0110
0000
0000
0000
;

//---------------dance-single - ----------------
#NOTES:
     dance-single:
     :
     Beginner:
     11:
     0.512709,0.915836,0.100417,0.282654,0.682461,965.000000,938.000000,27.000000,76.000000,0.000000,0.000000,0.512709,0.915836,0.100417,0.282654,0.682461,965.000000,938.000000,27.000000,76.000000,0.000000,0.000000:
0000
0000
0000
0000
,
0000
0000
0000
0000
,
0020
0000
0100
0130
,
2000
0000
0000
0000
3020
0000
0000
0030
,
0100
0010
0100
0000
0000
0000
0010
0100
0010
0000
0000
0000
,
1000
0100
0010
0001
0010
0100
1000
0000
,
0200
0000
0010
0310
,
0002
0000
0000
0000
0203
0000
0000
0300
,
0010
0100
0010
0000
0000
0000
0100
0010
0100
0000
0000
0000
,
0001
0010
0100
1000
0100
0010
0001
0000
,
0002
0000
1000
1003
,
0020
0000
0000
0000
0032
0000
0000
0003
,
1000
0001
1000
0000
0000
0000
0001
1000
0001
0000
0000
0000
,
0010
1000
0001
0100
0001
1000
0010
0000
,
2000
0000
0001
3001
,
0200
0000
0000
0000
2300
0000
0000
3000
,
0001
1000
0001
0000
0000
0000
1000
0001
1000
0000
0000
0000
,
0100
0001
1000
0010
1000
0001
0100
0000
,
0020
0000
0100
0130
,
2000
0000
0000
0000
3020
0000
0000
0030
,
0100
0010
0100
0000
0000
0000
0010
0100
0010
0000
0000
0000
,
1000
0100
0010
0001
0010
0100
1000
0000
,
0200
0000
0010
0310
,
0002
0000
0000
0000
0203
0000
0000
0300
,
0010
0100
0010
0000
0000
0000
0100
0010
0100
0000
0000
0000
,
0001
0010
0100
1000
0100
0010
0001
0000
,
1000
0001
1000
0001
1000
0001
1000
0000
0000
1001
0000
0000
,
0001
1000
0001
1000
0001
1000
0001
0000
0000
1001
0000
0000
,
0010
0100
0010
0100
0010
0100
0010
0000
0000
0110
0000
0000
,
0100
0010
0100
0010
0100
0010
0100
0000
0000
0110
0000
0000
,
1001
1001
1001
1001
2002
3003
1001
0000
,
0020
0000
0000
0000
,
0100
0000
0000
0100
0000
0000
1030
0000
0100
0000
0010
0000
,
0002
0000
0010
0000
,
2003
0000
0010
0000
,
3020
0000
0100
0000
,
2030
0000
0000
3010
,
0010
0002
0000
0000
0000
0000
1000
0000
0000
0000
0000
0000
,
1000
0000
1000
0003
,
0200
0000
0000
0000
,
0010
0000
0000
0010
0000
0000
0301
0000
0010
0000
0100
0000
,
2000
0000
0100
0000
,
3002
0000
0100
0000
,
0203
0000
0010
0000
,
0302
0000
0000
0103
,
0100
2000
0000
0000
0000
0000
0001
0000
0000
0000
0000
0000
,
0001
0000
0001
3000
,
1000
0000
0000
0000
0000
0000
1000
0010
0000
0001
0010
0000
,
0100
0000
0000
0000
0000
0000
0100
0001
0000
0001
0100
0000
,
0010
0000
0001
0000
0010
0000
0100
0000
0010
0000
0100
0000
,
1000
0000
0000
0000
0000
0000
0100
0010
0000
0001
0010
0000
,
0001
0000
0000
0000
0000
0000
0001
0100
0000
1000
0100
0000
,
0010
0000
0000
0000
0000
0000
0010
1000
0000
1000
0010
0000
,
0100
0000
1000
0000
0100
0000
0010
0000
0100
0000
0010
0000
,
0001
0000
0000
0000
0000
0000
0010
0100
0000
1000
0100
0000
,
0010
0000
0000
0000
0000
0000
0010
0001
0000
0100
0001
0000
,
1000
0000
0000
0000
0000
0000
1000
0100
0000
0100
1000
0000
,
0001
0000
0100
0000
0001
0000
1000
0000
0001
0000
1000
0000
,
0010
0000
0000
0000
0000
0000
1000
0001
0000
0100
0001
0000
,
0100
0000
0000
0000
0000
0000
0100
1000
0000
0010
1000
0000
,
0001
0000
0000
0000
0000
0000
0001
0010
0000
0010
0001
0000
,
0010
0000
0000
0010
0000
0000
0000
0000
0000
0000
0000
0000
0100
0000
0000
0100
,
0000
0000
0000
0000
0000
0000
1000
0100
0010
0001
1000
0000
,
0200
0000
0000
0000
,
0010
0000
0000
0010
0000
0000
0301
0000
0010
0000
0100
0000
,
2000
0000
0100
0000
,
3002
0000
0100
0000
,
0203
0000
0010
0000
,
0302
0000
0000
0103
,
0100
2000
0000
0000
0000
0000
0001
0000
0000
0000
0000
0000
,
0001
0000
0001
3000
,
0020
0000
0000
0000
,
0100
0000
0000
0100
0000
0000
1030
0000
0100
0000
0010
0000
,
0002
0000
0010
0000
,
2003
0000
0010
0000
,
3020
0000
0100
0000
,
2030
0000
0000
3010
,
0010
0002
0000
0000
0000
0000
1000
0000
0000
0000
0000
0000
,
1000
0000
1000
0003
,
0001
0000
0000
0000
0000
0000
0001
0100
0000
1000
0100
0000
,
0010
0000
0000
0000
0000
0000
0010
1000
0000
1000
0010
0000
,
0100
0000
1000
0000
0100
0000
0010
0000
0100
0000
0010
0000
,
0001
0000
0000
0000
0000
0000
0010
0100
0000
1000
0100
0000
,
1000
0000
0000
0000
0000
0000
1000
0010
0000
0001
0010
0000
,
0100
0000
0000
0000
0000
0000
0100
0001
0000
0001
0100
0000
,
0010
0000
0001
0000
0010
0000
0100
0000
0010
0000
0100
0000
,
1000
0000
0000
0000
0000
0000
0100
0010
0000
0001
0010
0000
,
0100
0000
0000
0000
0000
0000
0100
1000
0000
0010
1000
0000
,
0001
0000
0000
0000
0000
0000
0001
0010
0000
0010
0001
0000
,
1000
0000
0010
0000
1000
0000
0001
0000
1000
0000
0001
0000
,
0100
0000
0000
0000
0000
0000
0001
1000
0000
0010
1000
0000
,
0010
0000
0000
0000
0000
0000
0010
0001
0000
0100
0001
0000
,
1000
0000
0000
0000
0000
0000
1000
0100
0000
0100
1000
0000
,
0010
0000
0000
0010
0000
0000
0000
0000
0000
0000
0000
0000
0100
0000
0000
0100
,
0000
0000
0000
0000
0000
0000
1000
0100
0010
0001
1000
0000
,
0100
0000
0000
0100
0000
0000
0000
0000
0000
0000
0000
0000
0010
0000
0000
0010
,
0000
0000
0000
0000
0000
0000
0001
0010
0100
1000
0001
0000
,
0010
0010
0010
0010
,
1000
0001
1000
0001
1000
0001
1000
0001
,
0010
0000
0000
0010
0000
0000
0100
0000
0000
0000
1000
0000
0100
0000
0010
0000
1000
0000
0100
0000
0010
0000
1000
0000
,
0100
0000
0000
0100
0000
0000
0010
0000
0000
0000
0001
0000
0010
0000
0100
0000
0001
0000
0010
0000
0100
0000
0001
0000
,
1000
0000
0000
1000
0000
0000
1000
0000
0100
0000
0010
0000
0100
0000
0010
0000
0001
0000
0010
0000
0001
0000
1000
0000
,
0010
0100
0010
0100
1000
0000
1000
0000
0110
0000
0000
0000
1001
0000
0000
0000
,
0100
0000
0000
0100
0000
0000
0010
0000
0000
0000
0001
0000
0010
0000
0100
0000
0001
0000
0010
0000
0100
0000
0001
0000
,
0010
0000
0000
0010
0000
0000
0100
0000
0000
0000
1000
0000
0100
0000
0010
0000
1000
0000
0100
0000
0010
0000
1000
0000
,
0001
0000
0000
0001
0000
0000
0001
0000
0010
0000
0100
0000
0010
0000
0100
0000
1000
0000
0100
0000
1000
0000
0001
0000
,
0100
0010
0100
0010
0001
0000
0001
0000
0110
0000
0000
0000
1001
0000
0000
0000
,
1000
0000
0100
0000
0010
0000
0001
1000
0001
1000
0010
0000
,
0001
0000
0010
0000
0100
0000
1000
0001
1000
0001
0100
0000
,
0010
0000
1000
0000
0001
0000
0100
0010
0100
0010
0001
0000
,
0100
0000
0001
0000
1000
0000
0010
0100
0010
0100
1000
0000
,
1000
0000
0100
0000
0010
0000
0001
1000
0001
1000
0010
0000
,
0001
0000
0010
0000
0100
0000
1000
0001
1000
0001
0100
0000
,
1000
0001
1000
0001
1000
0001
1000
0001
1000
0001
1000
0001
,
0100
0000
0010
0000
0100
0000
0010
0000
0100
0000
0010
0000
0100
0000
0000
0200
0000
0000
0000
0000
0000
0300
0000
0000
,
1000
0010
1000
0001
0010
1000
0010
0001
,
0100
0010
0000
1000
0100
0000
0010
0001
0000
0010
0100
0000
,
0001
0100
0001
1000
0100
0001
0100
1000
,
0010
0100
0000
0001
0010
0000
0100
1000
0000
0100
0010
0000
,
0010
0001
0010
0100
0001
0010
0001
0100
,
1000
0001
0000
0010
1000
0000
0001
0100
0000
0001
1000
0000
,
0100
1000
0100
0010
1000
0100
1000
0010
,
0001
1000
0000
0100
0001
0000
1000
0010
0000
1000
0001
0000
,
1000
0010
0000
0000
0100
0001
0000
0000
1000
0010
0000
0000
0100
0001
0000
0000
,
0001
0100
0000
0000
0010
1000
0000
0000
0001
0100
0000
0000
0010
1000
0000
0000
,
1000
0100
1000
0100
0001
0100
0001
0100
,
0001
0010
0001
0010
1000
0010
1000
0010
,
0100
1000
0000
0000
0100
0010
0000
0000
0001
0010
0000
0000
1000
0001
0000
0000
,
0010
0001
0000
0000
0010
0100
0000
0000
1000
0100
0000
0000
0001
1000
0000
0000
,
0001
0000
0010
0000
0000
0000
1000
0000
0000
0001
0000
0000
1000
0000
0100
0000
0000
0000
0001
0000
0000
1000
0000
0000
,
1001
1001
1001
1001
1001
0000
1001
0000
,
2000
0000
0000
0000
,
0010
0000
0000
3000
,
0002
0000
0000
0000
,
0000
0000
0000
0003
,
0002
0000
0000
0000
,
0100
0000
0000
0003
,
2000
0000
0000
0000
,
0000
0000
0000
3000
,
0020
0000
0000
0000
,
0001
0000
0000
0030
,
0200
0000
0000
0000
,
0000
0000
0000
0300
,
0200
0000
0000
0000
,
1000
0000
0000
0300
,
0020
0000
0000
0000
,
0000
0000
0000
0030
,
2000
0000
0000
0000
,
0000
0000
0000
3000
,
0002
0000
0000
0000
,
0000
0000
0000
0000
0000
0000
0003
0000
1000
0000
0000
0000
,
0200
0000
0320
0000
0032
0000
2003
0000
3200
0000
0320
0000
,
0032
0000
0023
0000
0230
0000
0320
0000
0230
0000
2300
0000
,
3002
0000
2003
0000
3002
0000
2003
0000
3002
0000
2003
0000
,
0002
0000
0000
0000
0000
0000
0000
0000
0000
0000
0000
3003
,
0100
0000
0000
0010
0001
0010
0100
0000
0000
1000
0001
1000
,
0010
0000
0000
0100
1000
0100
0010
0000
0000
0001
1000
0001
,
1000
0000
0100
0000
0010
0000
0001
0000
1000
0100
0010
0001
,
0200
0000
0000
0300
,
1000
0100
0000
0000
0000
0000
0000
0000
0010
0100
0000
0000
0000
0000
0000
0000
,
1000
0000
0001
0000
1000
0000
0001
0000
1000
0000
0001
0000
0020
0000
0000
0000
0000
0000
0000
0000
0000
0030
0000
0000
,
0100
0000
0000
1000
0100
0010
0001
0010
0100
0001
0010
0000
,
1001
1001
1001
1001
1001
0000
1001
0000
,
1000
0000
0000
0000
0000
0000
1000
0010
0000
0001
0010
0000
,
0100
0000
0000
0000
0000
0000
0100
0001
0000
0001
0100
0000
,
0010
0000
0001
0000
0010
0000
0100
0000
0010
0000
0100
0000
,
1000
0000
0000
0000
0000
0000
0100
0010
0000
0001
0010
0000
,
0001
0000
0000
0000
0000
0000
0001
0100
0000
1000
0100
0000
,
0010
0000
0000
0000
0000
0000
0010
1000
0000
1000
0010
0000
,
0100
0000
1000
0000
0100
0000
0010
0000
0100
0000
0010
0000
,
0001
0000
0000
0000
0000
0000
0010
0100
0000
1000
0100
0000
,
0010
0000
0000
0000
0000
0000
0010
0001
0000
0100
0001
0000
,
1000
0000
0000
0000
0000
0000
1000
0100
0000
0100
1000
0000
,
0001
0000
0100
0000
0001
0000
1000
0000
0001
0000
1000
0000
,
0010
0000
0000
0000
0000
0000
1000
0001
0000
0100
0001
0000
,
0100
0000
0000
0000
0000
0000
0100
1000
0000
0010
1000
0000
,
0001
0000
0000
0000
0000
0000
0001
0010
0000
0010
0001
0000
,
0010
0000
0000
0010
0000
0000
0000
0000
0000
0000
0000
0000
0100
0000
0000
0100
,
0000
0000
0000
0000
0000
0000
1000
0100
0010
0001
1000
0000
,
0001
0000
0000
0000
0000
0000
0001
0100
0000
1000
0100
0000
,
0010
0000
0000
0000
0000
0000
0010
1000
0000
1000
0010
0000
,
0100
0000
1000
0000
0100
0000
0010
0000
0100
0000
0010
0000
,
0001
0000
0000
0000
0000
0000
0010
0100
0000
1000
0100
0000
,
1000
0000
0000
0000
0000
0000
1000
0010
0000
0001
0010
0000
,
0100
0000
0000
0000
0000
0000
0100
0001
0000
0001
0100
0000
,
0010
0000
0001
0000
0010
0000
0100
0000
0010
0000
0100
0000
,
1000
0000
0000
0000
0000
0000
0100
0010
0000
0001
0010
0000
,
0100
0000
0000
0000
0000
0000
0100
1000
0000
0010
1000
0000
,
0001
0000
0000
0000
0000
0000
0001
0010
0000
0010
0001
0000
,
1000
0000
0010
0000
1000
0000
0001
0000
1000
0000
0001
0000
,
0100
0000
0000
0000
0000
0000
0001
1000
0000
0010
1000
0000
,
0010
0000
0000
0000
0000
0000
0010
0001
0000
0100
0001
0000
,
1000
0000
0000
0000
0000
0000
1000
0100
0000
0100
1000
0000
,
0010
0000
0000
0010
0000
0000
0000
0000
0000
0000
0000
0000
0100
0000
0000
0100
,
0000
0000
0000
0000
0000
0000
1000
0100
0010
0001
1000
0000
,
0100
0000
0000
0100
0000
0000
0000
0000
0000
0000
0000
0000
0010
0000
0000
0010
,
0000
0000
0000
0000
0000
0000
0001
0010
0100
1000
0001
0000
,
0110
0000
0000
0000
;

//---------------dance-single - ----------------
#NOTES:
     dance-single:
     :
     Medium:
     12:
     0.545650,0.915836,0.122731,0.290092,0.740107,1027.000000,994.000000,33.000000,78.000000,0.000000,0.000000,0.545650,0.915836,0.122731,0.290092,0.740107,1027.000000,994.000000,33.000000,78.000000,0.000000,0.000000:
0000
0000
0000
0000
,
0000
0000
0000
0000
,
0020
0100
0100
0130
,
2000
0000
0000
0000
3020
0000
0000
0030
,
0100
0010
0100
0000
0000
0000
0010
0100
0010
0000
0000
0000
,
1000
0100
0010
0001
0010
0100
1000
0100
,
0200
0010
0010
0310
,
0002
0000
0000
0000
0203
0000
0000
0300
,
0010
0100
0010
0000
0000
0000
0100
0010
0100
0000
0000
0000
,
0001
0010
0100
1000
0100
0010
0001
0010
,
0002
1000
1000
1003
,
0020
0000
0000
0000
0032
0000
0000
0003
,
1000
0001
1000
0000
0000
0000
0001
1000
0001
0000
0000
0000
,
0010
1000
0001
0100
0001
1000
0010
1000
,
2000
0001
0001
3001
,
0200
0000
0000
0000
2300
0000
0000
3000
,
0001
1000
0001
0000
0000
0000
1000
0001
1000
0000
0000
0000
,
0100
0001
1000
0010
1000
0001
0100
0001
,
0020
0100
0100
0130
,
2000
0000
0000
0000
3020
0000
0000
0030
,
0100
0010
0100
0000
0000
0000
0010
0100
0010
0000
0000
0000
,
1000
0100
0010
0001
0010
0100
1000
0100
,
0200
0010
0010
0310
,
0002
0000
0000
0000
0203
0000
0000
0300
,
0010
0100
0010
0000
0000
0000
0100
0010
0100
0000
0000
0000
,
0001
0010
0100
1000
0100
0010
0001
0010
,
1000
0001
1000
0001
1000
0001
1000
0000
0000
1001
0000
0000
,
0001
1000
0001
1000
0001
1000
0001
0000
0000
1001
0000
0000
,
0010
0100
0010
0100
0010
0100
0010
0000
0000
0110
0000
0000
,
0100
0010
0100
0010
0100
0010
0100
0000
0000
0110
0000
0000
,
1001
1001
1001
1001
2002
3003
1001
0000
,
0020
0000
0000
0000
,
0100
0000
0000
0100
0000
0000
1030
0000
0100
0000
0010
0000
,
0002
0000
0010
0000
,
2003
0000
0010
0000
,
3020
0000
0100
0000
,
2030
0000
0000
3010
,
0010
0002
0000
0000
0000
0000
1000
0000
0000
0000
0000
0000
,
1000
0000
1000
1003
,
0200
0000
0000
0000
,
0010
0000
0000
0010
0000
0000
0301
0000
0010
0000
0100
0000
,
2000
0000
0100
0000
,
3002
0000
0100
0000
,
0203
0000
0010
0000
,
0302
0000
0000
0103
,
0100
2000
0000
0000
0000
0000
0001
0000
0000
0000
0000
0000
,
0001
0000
0001
3001
,
1000
0000
0000
0000
0000
0000
1000
0010
0000
0001
0010
0000
,
0100
0000
0000
0000
0000
0000
0100
0001
0000
0001
0100
0000
,
0010
0000
0001
0000
0010
0000
0100
0000
0010
0000
0100
0000
,
1000
0000
0000
0000
0000
0000
0100
0010
0000
0001
0010
0000
,
0001
0000
0000
0000
0000
0000
0001
0100
0000
1000
0100
0000
,
0010
0000
0000
0000
0000
0000
0010
1000
0000
1000
0010
0000
,
0100
0000
1000
0000
0100
0000
0010
0000
0100
0000
0010
0000
,
0001
0000
0000
0000
0000
0000
0010
0100
0000
1000
0100
0000
,
0010
0000
0000
0000
0000
0000
0010
0001
0000
0100
0001
0000
,
1000
0000
0000
0000
0000
0000
1000
0100
0000
0100
1000
0000
,
0001
0000
0100
0000
0001
0000
1000
0000
0001
0000
1000
0000
,
0010
0000
0000
0000
0000
0000
1000
0001
0000
0100
0001
0000
,
0100
0000
0000
0000
0000
0000
0100
1000
0000
0010
1000
0000
,
0001
0000
0000
0000
0000
0000
0001
0010
0000
0010
0001
0000
,
0010
0000
0000
0010
0000
0000
0000
0000
0000
0000
0000
0000
0100
0000
0000
0100
,
0000
0000
0000
0000
0000
0000
1100
0100
0010
0001
1000
0001
,
0200
0000
0000
0000
,
0010
0000
0000
0010
0000
0000
0301
0000
0010
0000
0100
0000
,
2000
0000
0100
0000
,
3002
0000
0100
0000
,
0203
0000
0010
0000
,
0302
0000
0000
0103
,
0100
2000
0000
0000
0000
0000
0001
0000
0000
0000
0000
0000
,
0001
0000
0001
3001
,
0020
0000
0000
0000
,
0100
0000
0000
0100
0000
0000
1030
0000
0100
0000
0010
0000
,
0002
0000
0010
0000
,
2003
0000
0010
0000
,
3020
0000
0100
0000
,
2030
0000
0000
3010
,
0010
0002
0000
0000
0000
0000
1000
0000
0000
0000
0000
0000
,
1000
0000
1000
1003
,
0001
0000
0000
0000
0000
0000
0001
0100
0000
1000
0100
0000
,
0010
0000
0000
0000
0000
0000
0010
1000
0000
1000
0010
0000
,
0100
0000
1000
0000
0100
0000
0010
0000
0100
0000
0010
0000
,
0001
0000
0000
0000
0000
0000
0010
0100
0000
1000
0100
0000
,
1000
0000
0000
0000
0000
0000
1000
0010
0000
0001
0010
0000
,
0100
0000
0000
0000
0000
0000
0100
0001
0000
0001
0100
0000
,
0010
0000
0001
0000
0010
0000
0100
0000
0010
0000
0100
0000
,
1000
0000
0000
0000
0000
0000
0100
0010
0000
0001
0010
0000
,
0100
0000
0000
0000
0000
0000
0100
1000
0000
0010
1000
0000
,
0001
0000
0000
0000
0000
0000
0001
0010
0000
0010
0001
0000
,
1000
0000
0010
0000
1000
0000
0001
0000
1000
0000
0001
0000
,
0100
0000
0000
0000
0000
0000
0001
1000
0000
0010
1000
0000
,
0010
0000
0000
0000
0000
0000
0010
0001
0000
0100
0001
0000
,
1000
0000
0000
0000
0000
0000
1000
0100
0000
0100
1000
0000
,
0010
0000
0000
0010
0000
0000
0000
0000
0000
0000
0000
0000
0100
0000
0000
0100
,
0000
0000
0000
0000
0000
0000
1100
0100
0010
0001
1000
0001
,
0100
0000
0000
0100
0000
0000
0000
0000
0000
0000
0000
0000
0010
0000
0000
0010
,
0000
0000
0000
0000
0000
0000
1001
0010
0100
1000
0001
1000
,
0010
0010
0010
0010
,
1000
0001
1000
0001
1000
0001
1000
0001
,
0010
0000
0000
0010
0000
0000
0100
0000
0010
0000
1000
0000
0100
0000
0010
0000
1000
0000
0100
0000
0010
0000
1000
0000
,
0100
0000
0000
0100
0000
0000
0010
0000
0100
0000
0001
0000
0010
0000
0100
0000
0001
0000
0010
0000
0100
0000
0001
0000
,
1000
0000
0000
1000
0000
0000
1000
0000
0100
0000
0010
0000
0100
0000
0010
0000
0001
0000
0010
0000
0001
0000
1000
0000
,
0010
0100
0010
0100
1000
0000
1000
0000
0110
0000
0000
0000
1001
0000
0000
0000
,
0100
0000
0000
0100
0000
0000
0010
0000
0100
0000
0001
0000
0010
0000
0100
0000
0001
0000
0010
0000
0100
0000
0001
0000
,
0010
0000
0000
0010
0000
0000
0100
0000
0010
0000
1000
0000
0100
0000
0010
0000
1000
0000
0100
0000
0010
0000
1000
0000
,
0001
0000
0000
0001
0000
0000
0001
0000
0010
0000
0100
0000
0010
0000
0100
0000
1000
0000
0100
0000
1000
0000
0001
0000
,
0100
0010
0100
0010
0001
0000
0001
0000
0110
0000
0000
0000
1001
0000
0000
0000
,
1000
0000
0100
0000
0010
0000
0001
1000
0001
1000
0010
0100
,
0001
0000
0010
0000
0100
0000
1000
0001
1000
0001
0100
0010
,
0010
0000
1000
0000
0001
0000
0100
0010
0100
0010
0001
1000
,
0100
0000
0001
0000
1000
0000
0010
0100
0010
0100
1000
0001
,
1000
0000
0100
0000
0010
0000
0001
1000
0001
1000
0010
0100
,
0001
0000
0010
0000
0100
0000
1000
0001
1000
0001
0100
0010
,
1000
0001
1000
0001
1000
0001
1000
0001
1000
0001
1000
0001
,
0100
0000
0010
0000
0100
0000
0010
0000
0100
0000
0010
0000
0100
0000
0000
0200
0000
0000
0000
0000
0000
0300
0000
0000
,
1000
0010
1000
0001
0010
1000
0010
0001
,
0100
0010
0000
1000
0100
0000
0010
0001
0000
0010
0100
0000
,
0001
0100
0001
1000
0100
0001
0100
1000
,
0010
0100
0000
0001
0010
0000
0100
1000
0000
0100
0010
0000
,
0010
0001
0010
0100
0001
0010
0001
0100
,
1000
0001
0000
0010
1000
0000
0001
0100
0000
0001
1000
0000
,
0100
1000
0100
0010
1000
0100
1000
0010
,
0001
1000
0000
0100
0001
0000
1000
0010
0000
1000
0001
0000
,
1000
0010
0000
0000
0100
0001
0000
0000
1000
0010
0000
0000
0100
0001
0000
0000
,
0001
0100
0000
0000
0010
1000
0000
0000
0001
0100
0000
0000
0010
1000
0000
0000
,
1000
0000
0000
0100
0000
0000
1000
0000
0000
0100
0000
0000
0001
0000
0100
0000
0001
0000
0100
0000
0001
0000
0100
0000
,
0001
0000
0000
0010
0000
0000
0001
0000
0000
0010
0000
0000
1000
0000
0010
0000
1000
0000
0010
0000
1000
0000
0010
0000
,
0100
1000
0000
0000
0100
0010
0000
0000
0001
0010
0000
0000
1000
0001
0000
0000
,
0010
0001
0000
0000
0010
0100
0000
0000
1000
0100
0000
0000
0001
1000
0000
0000
,
0001
0000
0010
0000
0100
0000
1000
0000
0000
0001
0000
0000
1000
0000
0100
0000
0010
0000
0001
0000
0000
1000
0000
0000
,
1001
1001
1001
1001
1001
0000
1001
0000
,
2000
0000
0000
0000
,
0010
0010
0000
3000
,
0002
0000
0000
0000
,
1000
0000
1000
0003
,
0002
0000
0000
0000
,
0100
0100
0000
0003
,
2000
0000
0000
0000
,
0001
0000
0001
3000
,
0020
0000
0000
0000
,
0001
0001
0000
0030
,
0200
0000
0000
0000
,
0010
0000
0010
0300
,
0200
0000
0000
0000
,
1000
1000
0000
0300
,
0020
0000
0000
0000
,
0100
0000
0100
0030
,
2000
0000
0000
0000
,
0000
0000
0000
3000
,
0002
0000
0000
0000
,
0000
0000
0000
0000
0000
0000
0003
0000
2000
0000
3002
0000
,
0203
0000
0320
0000
0032
0000
2003
0000
3200
0000
0320
0000
,
0032
0000
0023
0000
0230
0000
0320
0000
0230
0000
2300
0000
,
3002
0000
2003
0000
3002
0000
2003
0000
3002
0000
2003
0000
,
0002
0000
0000
0000
0000
0000
0000
0000
0000
0000
0000
3003
,
0100
0000
0000
0010
0001
0010
0100
0000
0000
1000
0001
1000
,
0010
0000
0000
0100
1000
0100
0010
0000
0000
0001
1000
0001
,
1000
0100
0010
0001
1000
0100
0010
0001
1000
0100
0010
0001
,
0200
0000
0000
0300
,
1000
0100
0000
0000
0000
0000
0000
0000
0010
0100
0000
0000
0000
0000
0000
0000
,
1000
0000
0001
0000
1000
0000
0001
0000
1000
0000
0001
0000
0020
0000
0000
0000
0000
0000
0000
0000
0000
0030
0000
0000
,
0100
0000
0000
1000
0100
0010
0001
0010
0100
0001
0010
1000
,
1001
1001
1001
1001
1001
0000
1001
0000
,
1000
0000
0000
0000
0000
0000
1000
0010
0000
0001
0010
0000
,
0100
0000
0000
0000
0000
0000
0100
0001
0000
0001
0100
0000
,
0010
0000
0001
0000
0010
0000
0100
0000
0010
0000
0100
0000
,
1000
0000
0000
0000
0000
0000
0100
0010
0000
0001
0010
0000
,
0001
0000
0000
0000
0000
0000
0001
0100
0000
1000
0100
0000
,
0010
0000
0000
0000
0000
0000
0010
1000
0000
1000
0010
0000
,
0100
0000
1000
0000
0100
0000
0010
0000
0100
0000
0010
0000
,
0001
0000
0000
0000
0000
0000
0010
0100
0000
1000
0100
0000
,
0010
0000
0000
0000
0000
0000
0010
0001
0000
0100
0001
0000
,
1000
0000
0000
0000
0000
0000
1000
0100
0000
0100
1000
0000
,
0001
0000
0100
0000
0001
0000
1000
0000
0001
0000
1000
0000
,
0010
0000
0000
0000
0000
0000
1000
0001
0000
0100
0001
0000
,
0100
0000
0000
0000
0000
0000
0100
1000
0000
0010
1000
0000
,
0001
0000
0000
0000
0000
0000
0001
0010
0000
0010
0001
0000
,
0010
0000
0000
0010
0000
0000
0000
0000
0000
0000
0000
0000
0100
0000
0000
0100
,
0000
0000
0000
0000
0000
0000
1001
0100
0010
0001
1000
0001
,
0001
0000
0000
0000
0000
0000
0001
0100
0000
1000
0100
0000
,
0010
0000
0000
0000
0000
0000
0010
1000
0000
1000
0010
0000
,
0100
0000
1000
0000
0100
0000
0010
0000
0100
0000
0010
0000
,
0001
0000
0000
0000
0000
0000
0010
0100
0000
1000
0100
0000
,
1000
0000
0000
0000
0000
0000
1000
0010
0000
0001
0010
0000
,
0100
0000
0000
0000
0000
0000
0100
0001
0000
0001
0100
0000
,
0010
0000
0001
0000
0010
0000
0100
0000
0010
0000
0100
0000
,
1000
0000
0000
0000
0000
0000
0100
0010
0000
0001
0010
0000
,
0100
0000
0000
0000
0000
0000
0100
1000
0000
0010
1000
0000
,
0001
0000
0000
0000
0000
0000
0001
0010
0000
0010
0001
0000
,
1000
0000
0010
0000
1000
0000
0001
0000
1000
0000
0001
0000
,
0100
0000
0000
0000
0000
0000
0001
1000
0000
0010
1000
0000
,
0010
0000
0000
0000
0000
0000
0010
0001
0000
0100
0001
0000
,
1000
0000
0000
0000
0000
0000
1000
0100
0000
0100
1000
0000
,
0010
0000
0000
0010
0000
0000
0000
0000
0000
0000
0000
0000
0100
0000
0000
0100
,
0000
0000
0000
0000
0000
0000
1010
0100
0010
0001
1000
0001
,
0100
0000
0000
0100
0000
0000
0000
0000
0000
0000
0000
0000
0010
0000
0000
0010
,
0000
0000
0000
0000
0000
0000
0101
0010
0100
1000
0001
1000
,
0110
0000
0000
0000
;

//---------------dance-single - ----------------
#NOTES:
     dance-single:
     :
     Hard:
     13:
     0.554682,0.915836,0.122731,0.290092,0.740107,1044.000000,1011.000000,33.000000,78.000000,0.000000,0.000000,0.554682,0.915836,0.122731,0.290092,0.740107,1044.000000,1011.000000,33.000000,78.000000,0.000000,0.000000:
0000
0000
0000
0000
,
0000
0000
0000
0000
,
0020
0100
0100
0130
,
2000
0000
0000
0000
3020
0000
0000
0030
,
0100
0010
0100
0000
0000
0000
0010
0100
0010
0000
0000
0000
,
1000
0100
0010
0001
0010
0100
1000
0100
,
0200
0010
0010
0310
,
0002
0000
0000
0000
0203
0000
0000
0300
,
0010
0100
0010
0000
0000
0000
0100
0010
0100
0000
0000
0000
,
0001
0010
0100
1000
0100
0010
0001
0010
,
0002
1000
1000
1003
,
0020
0000
0000
0000
0032
0000
0000
0003
,
1000
0001
1000
0000
0000
0000
0001
1000
0001
0000
0000
0000
,
0010
1000
0001
0100
0001
1000
0010
1000
,
2000
0001
0001
3001
,
0200
0000
0000
0000
2300
0000
0000
3000
,
0001
1000
0001
0000
0000
0000
1000
0001
1000
0000
0000
0000
,
0100
0001
1000
0010
1000
0001
0100
0001
,
0020
0100
0100
0130
,
2000
0000
0000
0000
3020
0000
0000
0030
,
0100
0010
0100
0000
0000
0000
0010
0100
0010
0000
0000
0000
,
1000
0100
0010
0001
0010
0100
1000
0100
,
0200
0010
0010
0310
,
0002
0000
0000
0000
0203
0000
0000
0300
,
0010
0100
0010
0000
0000
0000
0100
0010
0100
0000
0000
0000
,
0001
0010
0100
1000
0100
0010
0001
0010
,
1000
0001
1000
0001
1000
0001
1000
0000
0000
1001
0000
0000
,
0001
1000
0001
1000
0001
1000
0001
0000
0000
1001
0000
0000
,
0010
0100
0010
0100
0010
0100
0010
0000
0000
0110
0000
0000
,
0100
0010
0100
0010
0100
0010
0100
0000
0000
0110
0000
0000
,
1001
1001
1001
1001
2002
3003
1001
0000
,
0020
0000
0000
0000
,
0100
0000
0000
0100
0000
0000
1030
0000
0100
0000
0010
0000
,
0002
0000
0010
0000
,
2003
0000
0010
0000
,
3020
0000
0100
0000
,
2030
0000
0000
3010
,
0010
0002
0000
0000
0000
0000
1000
0000
0000
0000
0000
0000
,
1000
0000
1000
1003
,
0200
0000
0000
0000
,
0010
0000
0000
0010
0000
0000
0301
0000
0010
0000
0100
0000
,
2000
0000
0100
0000
,
3002
0000
0100
0000
,
0203
0000
0010
0000
,
0302
0000
0000
0103
,
0100
2000
0000
0000
0000
0000
0001
0000
0000
0000
0000
0000
,
0001
0000
0001
3001
,
1000
0000
0000
0001
0000
0000
1000
0010
0000
0001
0010
0000
,
0100
0000
0000
0000
0000
0000
0100
0001
0000
0001
0100
0000
,
0010
0000
0001
0000
0010
0000
0100
0000
0010
0000
0100
0000
,
1000
0000
0000
0000
0000
0000
0100
0010
0000
0001
0010
0000
,
0001
0000
0000
1000
0000
0000
0001
0100
0000
1000
0100
0000
,
0010
0000
0000
0000
0000
0000
0010
1000
0000
1000
0010
0000
,
0100
0000
1000
0000
0100
0000
0010
0000
0100
0000
0010
0000
,
0001
0000
0000
0000
0000
0000
0010
0100
0000
1000
0100
0000
,
0010
0000
0000
0100
0000
0000
0010
0001
0000
0100
0001
0000
,
1000
0000
0000
0000
0000
0000
1000
0100
0000
0100
1000
0000
,
0001
0000
0100
0000
0001
0000
1000
0000
0001
0000
1000
0000
,
0010
0000
0000
0000
0000
0000
1000
0001
0000
0100
0001
0000
,
0100
0000
0000
0010
0000
0000
0100
1000
0000
0010
1000
0000
,
0001
0000
0000
0000
0000
0000
0001
0010
0000
0010
0001
0000
,
0010
0000
0000
0010
0000
0000
0000
0000
0000
0000
0000
0000
0100
0000
0000
0100
,
0000
0000
0000
0000
0000
0000
1100
0100
0010
0001
1000
0001
,
0200
0000
0000
0000
,
0010
0000
0000
0010
0000
0000
0301
0000
0010
0000
0100
0000
,
2000
0000
0100
0000
,
3002
0000
0100
0000
,
0203
0000
0010
0000
,
0302
0000
0000
0103
,
0100
2000
0000
0000
0000
0000
0001
0000
0000
0000
0000
0000
,
0001
0000
0001
3001
,
0020
0000
0000
0000
,
0100
0000
0000
0100
0000
0000
1030
0000
0100
0000
0010
0000
,
0002
0000
0010
0000
,
2003
0000
0010
0000
,
3020
0000
0100
0000
,
2030
0000
0000
3010
,
0010
0002
0000
0000
0000
0000
1000
0000
0000
0000
0000
0000
,
1000
0000
1000
1003
,
0001
0000
0000
1000
0000
0000
0001
0100
0000
1000
0100
0000
,
0010
0000
0000
0000
0000
0000
0010
1000
0000
1000
0010
0000
,
0100
0000
1000
0000
0100
0000
0010
0000
0100
0000
0010
0000
,
0001
0000
0000
0000
0000
0000
0010
0100
0000
1000
0100
0000
,
1000
0000
0000
0001
0000
0000
1000
0010
0000
0001
0010
0000
,
0100
0000
0000
0000
0000
0000
0100
0001
0000
0001
0100
0000
,
0010
0000
0001
0000
0010
0000
0100
0000
0010
0000
0100
0000
,
1000
0000
0000
0000
0000
0000
0100
0010
0000
0001
0010
0000
,
0100
0000
0000
0010
0000
0000
0100
1000
0000
0010
1000
0000
,
0001
0000
0000
0000
0000
0000
0001
0010
0000
0010
0001
0000
,
1000
0000
0010
0000
1000
0000
0001
0000
1000
0000
0001
0000
,
0100
0000
0000
0000
0000
0000
0001
1000
0000
0010
1000
0000
,
0010
0000
0000
0100
0000
0000
0010
0001
0000
0100
0001
0000
,
1000
0000
0000
0000
0000
0000
1000
0100
0000
0100
1000
0000
,
0010
0000
0000
0010
0000
0000
0000
0000
0000
0000
0000
0000
0100
0000
0000
0100
,
0000
0000
0000
0000
0000
0000
1100
0100
0010
0001
1000
0001
,
0100
0000
0000
0100
0000
0000
0000
0000
0000
0000
0000
0000
0010
0000
0000
0010
,
0000
0000
0000
0000
0000
0000
1001
0010
0100
1000
0001
1000
,
0010
0000
0010
0000
0010
0000
0010
0100
,
1000
0001
1000
0001
1000
0001
1000
0001
,
0010
0000
0000
0010
0000
0000
0100
0000
0010
0000
1000
0000
0100
0000
0010
0000
1000
0000
0100
0000
0010
0000
1000
0000
,
0100
0000
0000
0100
0000
0000
0010
0000
0100
0000
0001
0000
0010
0000
0100
0000
0001
0000
0010
0000
0100
0000
0001
0000
,
1000
0000
0000
1000
0000
0000
1000
0000
0100
0000
0010
0000
0100
0000
0010
0000
0001
0000
0010
0000
0001
0000
1000
0000
,
0010
0100
0010
0100
1000
0000
1000
0000
0110
0000
0000
0000
1001
0000
0000
0000
,
0100
0000
0000
0100
0000
0000
0010
0000
0100
0000
0001
0000
0010
0000
0100
0000
0001
0000
0010
0000
0100
0000
0001
0000
,
0010
0000
0000
0010
0000
0000
0100
0000
0010
0000
1000
0000
0100
0000
0010
0000
1000
0000
0100
0000
0010
0000
1000
0000
,
0001
0000
0000
0001
0000
0000
0001
0000
0010
0000
0100
0000
0010
0000
0100
0000
1000
0000
0100
0000
1000
0000
0001
0000
,
0100
0010
0100
0010
0001
0000
0001
0000
0110
0000
0000
0000
1001
0000
0000
0000
,
1000
0000
0100
0000
0010
0000
0001
1000
0001
1000
0010
0100
,
0001
0000
0010
0000
0100
0000
1000
0001
1000
0001
0100
0010
,
0010
0000
1000
0000
0001
0000
0100
0010
0100
0010
0001
1000
,
0100
0000
0001
0000
1000
0000
0010
0100
0010
0100
1000
0001
,
1000
0000
0100
0000
0010
0000
0001
1000
0001
1000
0010
0100
,
0001
0000
0010
0000
0100
0000
1000
0001
1000
0001
0100
0010
,
1000
0001
1000
0001
1000
0001
1000
0001
1000
0001
1000
0001
,
0100
0000
0010
0000
0100
0000
0010
0000
0100
0000
0010
0000
0100
0000
0000
0200
0000
0000
0000
0000
0000
0300
0000
0000
,
1000
0010
1000
0001
0010
1000
0010
0001
,
0100
0010
0000
1000
0100
0000
0010
0001
0000
0010
0100
0000
,
0001
0100
0001
1000
0100
0001
0100
1000
,
0010
0100
0000
0001
0010
0000
0100
1000
0000
0100
0010
0000
,
0010
0001
0010
0100
0001
0010
0001
0100
,
1000
0001
0000
0010
1000
0000
0001
0100
0000
0001
1000
0000
,
0100
1000
0100
0010
1000
0100
1000
0010
,
0001
1000
0000
0100
0001
0000
1000
0010
0000
1000
0001
0000
,
1000
0010
0000
0000
0100
0001
0000
0000
1000
0010
0000
0000
0100
0001
0000
0000
,
0001
0100
0000
0000
0010
1000
0000
0000
0001
0100
0000
0000
0010
1000
0000
0000
,
1000
0000
0000
0100
0000
0000
1000
0000
0000
0100
0000
0000
0001
0000
0100
0000
0001
0000
0100
0000
0001
0000
0100
0000
,
0001
0000
0000
0010
0000
0000
0001
0000
0000
0010
0000
0000
1000
0000
0010
0000
1000
0000
0010
0000
1000
0000
0010
0000
,
0100
1000
0000
0000
0100
0010
0000
0000
0001
0010
0000
0000
1000
0001
0000
0000
,
0010
0001
0000
0000
0010
0100
0000
0000
1000
0100
0000
0000
0001
1000
0000
0000
,
0001
0000
0010
0000
0100
0000
1000
0000
0000
0001
0000
0000
1000
0000
0100
0000
0010
0000
0001
0000
0000
1000
0000
0000
,
1001
1001
1001
1001
1001
0000
1001
0000
,
2000
0000
0000
0000
,
0010
0010
0000
3000
,
0002
0000
0000
0000
,
1000
0000
1000
0003
,
0002
0000
0000
0000
,
0100
0100
0000
0003
,
2000
0000
0000
0000
,
0001
0000
0001
3000
,
0020
0000
0000
0000
,
0001
0001
0000
0030
,
0200
0000
0000
0000
,
0010
0000
0010
0300
,
0200
0000
0000
0000
,
1000
1000
0000
0300
,
0020
0000
0000
0000
,
0100
0000
0100
0030
,
2000
0000
0000
0000
,
0000
0000
0000
3000
,
0002
0000
0000
0000
,
0000
0000
0000
0000
0000
0000
0003
0000
2000
0000
3002
0000
,
0203
0000
0320
0000
0032
0000
2003
0000
3200
0000
0320
0000
,
0032
0000
0023
0000
0230
0000
0320
0000
0230
0000
2300
0000
,
3002
0000
2003
0000
3002
0000
2003
0000
3002
0000
2003
0000
,
0002
0000
0000
0000
0000
0000
0000
0000
0000
0000
0000
3003
,
0100
0000
0000
0010
0001
0010
0100
0000
0000
1000
0001
1000
,
0010
0000
0000
0100
1000
0100
0010
0000
0000
0001
1000
0001
,
1000
0100
0010
0001
1000
0100
0010
0001
1000
0100
0010
0001
,
0200
0000
0000
0300
,
1000
0100
0000
0000
0000
0000
0000
0000
0010
0100
0000
0000
0000
0000
0000
0000
,
1000
0000
0001
0000
1000
0000
0001
0000
1000
0000
0001
0000
0020
0000
0000
0000
0000
0000
0000
0000
0000
0030
0000
0000
,
0100
0000
0000
1000
0100
0010
0001
0010
0100
0001
0010
1000
,
1001
1001
1001
1001
1001
0000
1001
0000
,
1000
0000
0000
0001
0000
0000
1000
0010
0000
0001
0010
0000
,
0100
0000
0000
0000
0000
0000
0100
0001
0000
0001
0100
0000
,
0010
0000
0001
0000
0010
0000
0100
0000
0010
0000
0100
0000
,
1000
0000
0000
0000
0000
0000
0100
0010
0000
0001
0010
0000
,
0001
0000
0000
1000
0000
0000
0001
0100
0000
1000
0100
0000
,
0010
0000
0000
0000
0000
0000
0010
1000
0000
1000
0010
0000
,
0100
0000
1000
0000
0100
0000
0010
0000
0100
0000
0010
0000
,
0001
0000
0000
0000
0000
0000
0010
0100
0000
1000
0100
0000
,
0010
0000
0000
0100
0000
0000
0010
0001
0000
0100
0001
0000
,
1000
0000
0000
0000
0000
0000
1000
0100
0000
0100
1000
0000
,
0001
0000
0100
0000
0001
0000
1000
0000
0001
0000
1000
0000
,
0010
0000
0000
0000
0000
0000
1000
0001
0000
0100
0001
0000
,
0100
0000
0000
0010
0000
0000
0100
1000
0000
0010
1000
0000
,
0001
0000
0000
0000
0000
0000
0001
0010
0000
0010
0001
0000
,
0010
0000
0000
0010
0000
0000
0000
0000
0000
0000
0000
0000
0100
0000
0000
0100
,
0000
0000
0000
0000
0000
0000
1001
0100
0010
0001
1000
0001
,
0001
0000
0000
1000
0000
0000
0001
0100
0000
1000
0100
0000
,
0010
0000
0000
0000
0000
0000
0010
1000
0000
1000
0010
0000
,
0100
0000
1000
0000
0100
0000
0010
0000
0100
0000
0010
0000
,
0001
0000
0000
0000
0000
0000
0010
0100
0000
1000
0100
0000
,
1000
0000
0000
0001
0000
0000
1000
0010
0000
0001
0010
0000
,
0100
0000
0000
0000
0000
0000
0100
0001
0000
0001
0100
0000
,
0010
0000
0001
0000
0010
0000
0100
0000
0010
0000
0100
0000
,
1000
0000
0000
0000
0000
0000
0100
0010
0000
0001
0010
0000
,
0100
0000
0000
0010
0000
0000
0100
1000
0000
0010
1000
0000
,
0001
0000
0000
0000
0000
0000
0001
0010
0000
0010
0001
0000
,
1000
0000
0010
0000
1000
0000
0001
0000
1000
0000
0001
0000
,
0100
0000
0000
0000
0000
0000
0001
1000
0000
0010
1000
0000
,
0010
0000
0000
0100
0000
0000
0010
0001
0000
0100
0001
0000
,
1000
0000
0000
0000
0000
0000
1000
0100
0000
0100
1000
0000
,
0010
0000
0000
0010
0000
0000
0000
0000
0000
0000
0000
0000
0100
0000
0000
0100
,
0000
0000
0000
0000
0000
0000
1010
0100
0010
0001
1000
0001
,
0100
0000
0000
0100
0000
0000
0000
0000
0000
0000
0000
0000
0010
0000
0000
0010
,
0000
0000
0000
0000
0000
0000
0101
0010
0100
1000
0001
1000
,
0110
0000
0000
0000
;

//---------------dance-single - ----------------
#NOTES:
     dance-single:
     :
     Challenge:
     13:
     0.573277,0.952469,0.126450,0.301250,0.751265,1079.000000,1045.000000,34.000000,81.000000,0.000000,0.000000,0.573277,0.952469,0.126450,0.301250,0.751265,1079.000000,1045.000000,34.000000,81.000000,0.000000,0.000000:
0000
0000
0000
0000
,
0000
0000
0000
0000
,
0020
0100
0100
0130
,
2000
0000
0010
0000
3020
0000
0000
0030
,
0100
0010
0100
0000
0000
0000
0010
0100
0010
0000
0000
0000
,
1000
0100
0010
0001
0010
0100
1000
0100
,
0200
0010
0010
0310
,
0002
0000
0100
0000
0203
0000
0000
0300
,
0010
0100
0010
0000
0000
0000
0100
0010
0100
0000
0000
0000
,
0001
0010
0100
1000
0100
0010
0001
0010
,
0002
1000
1000
1003
,
0020
0000
0001
0000
0032
0000
0000
0003
,
1000
0001
1000
0000
0000
0000
0001
1000
0001
0000
0000
0000
,
0010
1000
0001
0100
0001
1000
0010
1000
,
2000
0001
0001
3001
,
0200
0000
1000
0000
2300
0000
0000
3000
,
0001
1000
0001
0000
0000
0000
1000
0001
1000
0000
0000
0000
,
0100
0001
1000
0010
1000
0001
0100
0001
,
0020
0100
0100
0130
,
2000
0000
0010
0000
3020
0000
0000
0030
,
0100
0010
0100
0000
0000
0000
0010
0100
0010
0000
0000
0000
,
1000
0100
0010
0001
0010
0100
1000
0100
,
0200
0010
0010
0310
,
0002
0000
0100
0000
0203
0000
0000
0300
,
0010
0100
0010
0000
0000
0000
0100
0010
0100
0000
0000
0000
,
0001
0010
0100
1000
0100
0010
0001
0010
,
1000
0001
1000
0001
1000
0001
1000
0000
0000
1001
0000
0000
,
0001
1000
0001
1000
0001
1000
0001
0000
0000
1001
0000
0000
,
0010
0100
0010
0100
0010
0100
0010
0000
0000
0110
0000
0000
,
0100
0010
0100
0010
0100
0010
0100
0000
0000
0110
0000
0000
,
1001
1001
1001
1001
2002
3003
1001
0000
,
0020
0000
0100
0000
,
0100
0000
0000
0100
0000
0000
1030
0000
0100
0000
0010
0000
,
0002
0000
0010
0000
,
2003
0000
0010
0000
,
3020
0000
0100
0000
,
2030
0000
0000
3010
,
0010
0002
0000
0000
0000
0000
1000
0000
0000
0000
0000
0000
,
1000
0000
1000
1003
,
0200
0000
0010
0000
,
0010
0000
0000
0010
0000
0000
0301
0000
0010
0000
0100
0000
,
2000
0000
0100
0000
,
3002
0000
0100
0000
,
0203
0000
0010
0000
,
0302
0000
0000
0103
,
0100
2000
0000
0000
0000
0000
0001
0000
0000
0000
0000
0000
,
0001
0000
0001
3001
,
1000
0000
0000
0001
0000
0000
1000
0010
0000
0001
0010
0000
,
0100
0000
0000
0000
0000
0000
0100
0001
0000
0001
0100
0000
,
0010
0000
0001
0000
0010
0000
0100
0000
0010
0000
0100
0000
,
1000
0000
0000
0001
0000
0000
0100
0010
0000
0001
0010
0000
,
0001
0000
0000
1000
0000
0000
0001
0100
0000
1000
0100
0000
,
0010
0000
0000
0000
0000
0000
0010
1000
0000
1000
0010
0000
,
0100
0000
1000
0000
0100
0000
0010
0000
0100
0000
0010
0000
,
0001
0000
0000
1000
0000
0000
0010
0100
0000
1000
0100
0000
,
0010
0000
0000
0100
0000
0000
0010
0001
0000
0100
0001
0000
,
1000
0000
0000
0000
0000
0000
1000
0100
0000
0100
1000
0000
,
0001
0000
0100
0000
0001
0000
1000
0000
0001
0000
1000
0000
,
0010
0000
0000
0100
0000
0000
1000
0001
0000
0100
0001
0000
,
0100
0000
0000
0010
0000
0000
0100
1000
0000
0010
1000
0000
,
0001
0000
0000
0000
0000
0000
0001
0010
0000
0010
0001
0000
,
0010
0000
0000
0010
0000
0000
0000
0000
0000
0000
0000
0000
0100
0000
0000
0100
,
0000
0000
0000
0000
0000
0000
1100
0100
0010
0001
1000
0001
,
0200
0000
0010
0000
,
0010
0000
0000
0010
0000
0000
0301
0000
0010
0000
0100
0000
,
2000
0000
0100
0000
,
3002
0000
0100
0000
,
0203
0000
0010
0000
,
0302
0000
0000
0103
,
0100
2000
0000
0000
0000
0000
0001
0000
0000
0000
0000
0000
,
0001
0000
0001
3001
,
0020
0000
0100
0000
,
0100
0000
0000
0100
0000
0000
1030
0000
0100
0000
0010
0000
,
0002
0000
0010
0000
,
2003
0000
0010
0000
,
3020
0000
0100
0000
,
2030
0000
0000
3010
,
0010
0002
0000
0000
0000
0000
1000
0000
0000
0000
0000
0000
,
1000
0000
1000
1003
,
0001
0000
0000
1000
0000
0000
0001
0100
0000
1000
0100
0000
,
0010
0000
0000
0000
0000
0000
0010
1000
0000
1000
0010
0000
,
0100
0000
1000
0000
0100
0000
0010
0000
0100
0000
0010
0000
,
0001
0000
0000
1000
0000
0000
0010
0100
0000
1000
0100
0000
,
1000
0000
0000
0001
0000
0000
1000
0010
0000
0001
0010
0000
,
0100
0000
0000
0000
0000
0000
0100
0001
0000
0001
0100
0000
,
0010
0000
0001
0000
0010
0000
0100
0000
0010
0000
0100
0000
,
1000
0000
0000
0001
0000
0000
0100
0010
0000
0001
0010
0000
,
0100
0000
0000
0010
0000
0000
0100
1000
0000
0010
1000
0000
,
0001
0000
0000
0000
0000
0000
0001
0010
0000
0010
0001
0000
,
1000
0000
0010
0000
1000
0000
0001
0000
1000
0000
0001
0000
,
0100
0000
0000
0010
0000
0000
0001
1000
0000
0010
1000
0000
,
0010
0000
0000
0100
0000
0000
0010
0001
0000
0100
0001
0000
,
1000
0000
0000
0000
0000
0000
1000
0100
0000
0100
1000
0000
,
0010
0000
0000
0010
0000
0000
0000
0000
0000
0000
0000
0000
0100
0000
0000
0100
,
0000
0000
0000
0000
0000
0000
1100
0100
0010
0001
1000
0001
,
0100
0000
0000
0100
0000
0000
0000
0000
0000
0000
0000
0000
0010
0000
0000
0010
,
0000
0000
0000
0000
0000
0000
1001
0010
0100
1000
0001
1000
,
0010
0000
0010
0000
0010
0000
0010
0100
,
1000
0001
1000
0001
1000
0001
1000
0001
,
0010
0000
0000
1000
0000
0000
0010
0000
0000
0000
0000
0000
0100
0000
0000
0000
0010
0000
0000
0000
1000
0000
0000
0000
0100
0000
0000
0000
0010
0000
0000
0000
1000
0000
0000
0000
0100
0000
0000
0000
0010
0000
0000
0000
1000
0000
0000
0000
,
0100
0000
0000
0001
0000
0000
0100
0000
0000
0000
0000
0000
0010
0000
0000
0000
0100
0000
0000
0000
0001
0000
0000
0000
0010
0000
0000
0000
0100
0000
0000
0000
0001
0000
0000
0000
0010
0000
0000
0000
0100
0000
0000
0000
0001
0000
0000
0000
,
1000
0000
0000
0001
0000
0000
1000
0000
0000
0000
0000
0000
1000
0000
0000
0000
0100
0000
0000
0000
0010
0000
0000
0000
0100
0000
0000
0000
0010
0000
0000
0000
0001
0000
0000
0000
0010
0000
0000
0000
0001
0000
0000
0000
1000
0000
0000
0000
,
0010
0100
0010
0100
1000
0000
1000
0000
0110
0000
0000
0000
1001
0000
0000
0000
,
0100
0000
0000
0001
0000
0000
0100
0000
0000
0000
0000
0000
0010
0000
0000
0000
0100
0000
0000
0000
0001
0000
0000
0000
0010
0000
0000
0000
0100
0000
0000
0000
0001
0000
0000
0000
0010
0000
0000
0000
0100
0000
0000
0000
0001
0000
0000
0000
,
0010
0000
0000
1000
0000
0000
0010
0000
0000
0000
0000
0000
0100
0000
0000
0000
0010
0000
0000
0000
1000
0000
0000
0000
0100
0000
0000
0000
0010
0000
0000
0000
1000
0000
0000
0000
0100
0000
0000
0000
0010
0000
0000
0000
1000
0000
0000
0000
,
0001
0000
0000
1000
0000
0000
0001
0000
0000
0000
0000
0000
0001
0000
0000
0000
0010
0000
0000
0000
0100
0000
0000
0000
0010
0000
0000
0000
0100
0000
0000
0000
1000
0000
0000
0000
0100
0000
0000
0000
1000
0000
0000
0000
0001
0000
0000
0000
,
0100
0010
0100
0010
0001
0000
0001
0000
0110
0000
0000
0000
1001
0000
0000
0000
,
1000
0000
0100
0000
0010
0000
0001
1000
0001
1000
0010
0100
,
0001
0000
0010
0000
0100
0000
1000
0001
1000
0001
0100
0010
,
0010
0000
1000
0000
0001
0000
0100
0010
0100
0010
0001
1000
,
0100
0000
0001
0000
1000
0000
0010
0100
0010
0100
1000
0001
,
1000
0000
0100
0000
0010
0000
0001
1000
0001
1000
0010
0100
,
0001
0000
0010
0000
0100
0000
1000
0001
1000
0001
0100
0010
,
1000
0001
1000
0001
1000
0001
1000
0001
1000
0001
1000
0001
,
0100
0000
0010
0000
0100
0000
0010
0000
0100
0000
0010
0000
0100
0000
0000
0220
0000
0000
0000
0000
0000
0330
0000
0000
,
1000
0010
1000
0001
0010
1000
0010
0001
,
0100
0010
0000
1000
0100
0000
0010
0001
0000
0010
0100
0000
,
0001
0100
0001
1000
0100
0001
0100
1000
,
0010
0100
0000
0001
0010
0000
0100
1000
0000
0100
0010
0000
,
0010
0001
0010
0100
0001
0010
0001
0100
,
1000
0001
0000
0010
1000
0000
0001
0100
0000
0001
1000
0000
,
0100
1000
0100
0010
1000
0100
1000
0010
,
0001
1000
0000
0100
0001
0000
1000
0010
0000
1000
0001
0000
,
1000
0010
0000
0000
0100
0001
0000
0000
1000
0010
0000
0000
0100
0001
0000
0000
,
0001
0100
0000
0000
0010
1000
0000
0000
0001
0100
0000
0000
0010
1000
0000
0000
,
1000
0000
0000
0100
0000
0000
1000
0000
0000
0100
0000
0000
0001
0000
0100
0000
0001
0000
0100
0000
0001
0000
0100
0000
,
0001
0000
0000
0010
0000
0000
0001
0000
0000
0010
0000
0000
1000
0000
0010
0000
1000
0000
0010
0000
1000
0000
0010
0000
,
0100
1000
0000
0000
0100
0010
0000
0000
0001
0010
0000
0000
1000
0001
0000
0000
,
0010
0001
0000
0000
0010
0100
0000
0000
1000
0100
0000
0000
0001
1000
0000
0000
,
0001
0000
0010
0000
0100
0000
1000
0000
0000
0001
0000
0000
1000
0000
0100
0000
0010
0000
0001
0000
0000
1000
0000
0000
,
1001
1001
1001
1001
1001
0000
1001
0000
,
2000
0000
0000
0000
,
0010
0010
0000
3000
,
0002
0000
0000
0000
,
1000
0000
1000
1003
,
0002
0000
0000
0000
,
0100
0100
0000
0003
,
2000
0000
0000
0000
,
0001
0000
0001
3001
,
0020
0000
0000
0000
,
0001
0001
0000
0030
,
0200
0000
0000
0000
,
0010
0000
0010
0310
,
0200
0000
0000
0000
,
1000
1000
0000
0300
,
0020
0000
0000
0000
,
0100
0000
0100
0130
,
2000
0000
0000
0000
,
0002
0000
0000
3003
,
0002
0000
0000
0000
,
2000
0000
0000
0000
0000
0000
3003
0000
2000
0000
3002
0000
,
0203
0000
0320
0000
0032
0000
2003
0000
3200
0000
0320
0000
,
0032
0000
0023
0000
0230
0000
0320
0000
0230
0000
2300
0000
,
3002
0000
2003
0000
3002
0000
2003
0000
3002
0000
2003
0000
,
0002
0000
0000
0000
0000
0000
0000
0000
0000
0000
0000
3003
,
0100
0000
0000
0010
0001
0010
0100
0000
0000
1000
0001
1000
,
0010
0000
0000
0100
1000
0100
0010
0000
0000
0001
1000
0001
,
1000
0100
0010
0001
1000
0100
0010
0001
1000
0100
0010
0001
,
0200
0000
0000
0300
,
1000
0100
0000
0000
0000
0000
0000
0000
0010
0100
0000
0000
0000
0000
0000
0000
,
1000
0000
0001
0000
1000
0000
0001
0000
1000
0000
0001
0000
0020
0000
0000
0000
0000
0000
0000
0000
0000
0030
0000
0000
,
0100
0000
0000
1000
0100
0010
0001
0010
0100
0001
0010
1000
,
1001
1001
1001
1001
1001
0000
1001
0000
,
1000
0000
0000
0001
0000
0000
1000
0010
0000
0001
0010
0000
,
0100
0000
0000
0000
0000
0000
0100
0001
0000
0001
0100
0000
,
0010
0000
0001
0000
0010
0000
0100
0000
0010
0000
0100
0000
,
1000
0000
0000
0001
0000
0000
0100
0010
0000
0001
0010
0000
,
0001
0000
0000
1000
0000
0000
0001
0100
0000
1000
0100
0000
,
0010
0000
0000
0000
0000
0000
0010
1000
0000
1000
0010
0000
,
0100
0000
1000
0000
0100
0000
0010
0000
0100
0000
0010
0000
,
0001
0000
0000
1000
0000
0000
0010
0100
0000
1000
0100
0000
,
0010
0000
0000
0100
0000
0000
0010
0001
0000
0100
0001
0000
,
1000
0000
0000
0000
0000
0000
1000
0100
0000
0100
1000
0000
,
0001
0000
0100
0000
0001
0000
1000
0000
0001
0000
1000
0000
,
0010
0000
0000
0100
0000
0000
1000
0001
0000
0100
0001
0000
,
0100
0000
0000
0010
0000
0000
0100
1000
0000
0010
1000
0000
,
0001
0000
0000
0000
0000
0000
0001
0010
0000
0010
0001
0000
,
0010
0000
0000
0010
0000
0000
0000
0000
0000
0000
0000
0000
0100
0000
0000
0100
,
0000
0000
0000
0000
0000
0000
1001
0100
0010
0001
1000
0001
,
0001
0000
0000
1000
0000
0000
0001
0100
0000
1000
0100
0000
,
0010
0000
0000
0000
0000
0000
0010
1000
0000
1000
0010
0000
,
0100
0000
1000
0000
0100
0000
0010
0000
0100
0000
0010
0000
,
0001
0000
0000
1000
0000
0000
0010
0100
0000
1000
0100
0000
,
1000
0000
0000
0001
0000
0000
1000
0010
0000
0001
0010
0000
,
0100
0000
0000
0000
0000
0000
0100
0001
0000
0001
0100
0000
,
0010
0000
0001
0000
0010
0000
0100
0000
0010
0000
0100
0000
,
1000
0000
0000
0001
0000
0000
0100
0010
0000
0001
0010
0000
,
0100
0000
0000
0010
0000
0000
0100
1000
0000
0010
1000
0000
,
0001
0000
0000
0000
0000
0000
0001
0010
0000
0010
0001
0000
,
1000
0000
0010
0000
1000
0000
0001
0000
1000
0000
0001
0000
,
0100
0000
0000
0010
0000
0000
0001
1000
0000
0010
1000
0000
,
0010
0000
0000
0100
0000
0000
0010
0001
0000
0100
0001
0000
,
1000
0000
0000
0000
0000
0000
1000
0100
0000
0100
1000
0000
,
0010
0000
0000
0010
0000
0000
0000
0000
0000
0000
0000
0000
0100
0000
0000
0100
,
0000
0000
0000
0000
0000
0000
1010
0100
0010
0001
1000
0001
,
0100
0000
0000
0100
0000
0000
0000
0000
0000
0000
0000
0000
0010
0000
0000
0010
,
0000
0000
0000
0000
0000
0000
0101
0010
0100
1000
0001
1000
,
0110
0000
0000
0000
;
