#VERSION:0.83;
#TITLE:DiSASTER;
#SUBTITLE:(for Next Mix);
#ARTIST:7th DistortioN;
#TITLETRANSLIT:;
#SUBTITLETRANSLIT:;
#ARTISTTRANSLIT:RouteSeven;
#GENRE:SPEEDCORE;
#ORIGIN:;
#CREDIT:;
#BANNER:;
#BACKGROUND:;
#PREVIEWVID:;
#JACKET:;
#CDIMAGE:;
#DISCIMAGE:;
#LYRICSPATH:;
#CDTITLE:;
#MUSIC:DiSASTER.ogg;
#OFFSET:-0.069000;
#SAMPLESTART:15.062000;
#SAMPLELENGTH:15.000000;
#SELECTABLE:YES;
#DISPLAYBPM:0.000000:256.000000;
#BPMS:0.000=128.000,
30.000=64.000,
31.000=256.000,
155.000=64.000,
171.000=128.000,
200.000=64.000,
201.000=256.000;
#STOPS:155.000=0.940,
199.000=0.120,
199.250=0.120,
199.500=0.120,
199.750=0.120,
298.500=0.234,
300.500=0.234,
301.500=0.234;
#DELAYS:;
#WARPS:;
#TIMESIGNATURES:0.000=4=4,
28.000=3=4,
31.000=4=4,
195.000=5=4,
200.000=1=4,
201.000=4=4,
297.000=5=4,
302.000=4=4;
#TICKCOUNTS:0.000=4;
#COMBOS:0.000=1;
#SPEEDS:0.000=1.000=0.000=0;
#SCROLLS:0.000=1.000;
#FAKES:;
#LABELS:0.000=Song Start;
#BGCHANGES:;
#KEYSOUNDS:;
#ATTACKS:
;

//---------------dance-single - ----------------
#NOTEDATA:;
#CHARTNAME:;
#STEPSTYPE:dance-single;
#DESCRIPTION:;
#CHARTSTYLE:;
#DIFFICULTY:Easy;
#METER:18;
#RADARVALUES:1.072857,1.230282,0.349083,0.037739,0.858555,796.000000,759.000000,37.000000,4.000000,0.000000,0.000000,0.000000,0.000000,0.000000,1.072857,1.230282,0.349083,0.037739,0.858555,796.000000,759.000000,37.000000,4.000000,0.000000,0.000000,0.000000,0.000000,0.000000;
#CREDIT:;
#DISPLAYBPM:0.000000:256.000000;
#NOTES:
// measure 0
0000
0000
0000
0000
,  // measure 1
0000
0000
0000
0000
,  // measure 2
0000
0000
0000
0000
,  // measure 3
0000
0000
0000
0000
,  // measure 4
1010
0000
0000
0000
0000
1001
0000
0000
,  // measure 5
0101
0000
0000
0000
0000
1001
0000
0000
,  // measure 6
1001
0000
0000
0000
0000
0110
0000
0000
,  // measure 7
1001
0000
0000
0000
0000
0000
0000
0000
2002
0000
0000
3003
1000
0100
0010
0000
,  // measure 8
0001
0000
1000
0000
0100
0000
0010
0000
0001
0000
0100
0000
0010
0100
0010
0000
,  // measure 9
1000
0000
0100
0000
0010
0000
0001
0000
0010
0000
0100
0000
0001
0010
0100
0000
,  // measure 10
1000
0000
0001
0000
0010
0000
0100
0000
1000
0000
0010
0000
0100
0010
0100
0000
,  // measure 11
0001
0000
0010
0000
0100
0000
1000
0000
0100
0000
0010
0000
0010
1000
0001
0000
,  // measure 12
0100
0000
0010
0000
1000
0000
0001
0000
0100
0000
1000
0000
0001
1000
0001
0000
,  // measure 13
0010
0000
1000
0000
0001
0000
0100
0000
0001
0000
1000
0000
0100
0001
1000
0000
,  // measure 14
0010
0000
0100
0000
0001
0000
1000
0000
0010
0000
0001
0000
1000
0001
1000
0000
,  // measure 15
0100
0000
0001
0000
1000
0000
0010
0000
1000
0000
0001
0000
1000
0100
0010
0000
,  // measure 16
0001
0000
1000
0000
0100
0000
0010
0000
0001
0000
0100
0000
0010
0100
0010
0000
,  // measure 17
1000
0000
0100
0000
0010
0000
0001
0000
0010
0000
0100
0000
0001
0010
0100
0000
,  // measure 18
1000
0000
0001
0000
0010
0000
0100
0000
1000
0000
0010
0000
0100
0010
0100
0000
,  // measure 19
0001
0000
0010
0000
0100
0000
1000
0000
0100
0000
0010
0000
0010
1000
0001
0000
,  // measure 20
0100
0000
0010
0000
1000
0000
0001
0000
0100
0000
1000
0000
0001
1000
0001
0000
,  // measure 21
0010
0000
1000
0000
0001
0000
0100
0000
0001
0000
1000
0000
0100
0001
1000
0000
,  // measure 22
0010
0000
0100
0000
0001
0000
1000
0000
0010
0000
0001
0000
1000
0001
1000
0000
,  // measure 23
0100
0000
0001
0000
1000
0000
0010
0000
1000
0000
0001
0000
0100
0010
0100
1000
,  // measure 24
0010
0000
0010
0000
0100
0000
0100
0000
0001
0000
1000
0000
0010
0100
1000
0000
,  // measure 25
0100
0010
0001
0000
1000
0000
0001
0000
1000
0000
0001
0000
0010
0100
0010
0001
,  // measure 26
0100
0000
0100
0000
0010
0000
0010
0000
1000
0000
0001
0000
0100
0010
0001
0000
,  // measure 27
0010
0100
1000
0000
0001
0000
1000
0000
0001
0000
1000
0000
1000
0001
1000
0010
,  // measure 28
0001
0000
0001
0000
1000
0000
1000
0000
0100
0000
0010
0000
0001
1000
0010
0000
,  // measure 29
1000
0001
0100
0000
0010
0000
0100
0000
0010
0000
0100
0000
0001
1000
0001
0100
,  // measure 30
1000
0000
1000
0000
0001
0000
0001
0000
0010
0000
0100
0000
1000
0001
0100
0000
,  // measure 31
0001
1000
0010
0000
0100
0000
0010
0000
0100
0000
0010
0000
0100
0010
0100
1000
,  // measure 32
0010
0000
0010
0000
0100
0000
0100
0000
0001
0000
1000
0000
0010
0100
1000
0000
,  // measure 33
0100
0010
0001
0000
1000
0000
0001
0000
1000
0000
0001
0000
0010
0100
0010
0001
,  // measure 34
0100
0000
0100
0000
0010
0000
0010
0000
1000
0000
0001
0000
0100
0010
0001
0000
,  // measure 35
0010
0100
1000
0000
0001
0000
1000
0000
0001
0000
1000
0000
1000
0001
1000
0010
,  // measure 36
0001
0000
0001
0000
1000
0000
1000
0000
0100
0000
0010
0000
0001
1000
0010
0000
,  // measure 37
1000
0001
0100
0000
0010
0000
0100
0000
0010
0000
0100
0000
1000
0100
0010
0001
,  // measure 38
1000
0100
0010
0001
1000
0100
0010
0001
1000
0100
0010
0001
1010
0100
1000
0000
,  // measure 39
0101
0010
0001
0000
0100
0100
0100
0000
0010
0010
0010
0000
0101
0010
0001
0000
,  // measure 40
1010
0100
1000
0000
0010
0010
0010
0000
0100
0100
0100
0000
0011
1000
0010
0000
,  // measure 41
1100
0001
0100
0000
1000
1000
1000
0000
0001
0001
0001
0000
1100
0001
0100
0000
,  // measure 42
0011
1000
0010
0000
0001
0001
0001
0000
1000
1000
1000
0000
1000
0100
0010
0100
,  // measure 43
0001
0000
0000
0000
0010
1000
0110
0001
0100
0000
0000
0000
0001
0010
0100
0010
,  // measure 44
1000
0000
0000
0000
0100
0001
0110
1000
0010
0000
0000
0000
0010
1000
0001
1000
,  // measure 45
0100
0000
0000
0000
0001
0010
1001
0100
1000
0000
0000
0000
0100
0001
1000
0001
,  // measure 46
0010
0000
0000
0000
1000
0100
1001
0010
0001
0000
0000
0000
1000
0100
0010
0100
,  // measure 47
0001
0000
0000
0000
0010
1000
0110
0001
0100
0000
0000
0000
0001
0010
0100
0010
,  // measure 48
1000
0000
0000
0000
0100
0001
0110
1000
0010
0000
0000
0000
0010
1000
0001
1000
,  // measure 49
0100
0000
0000
0000
0001
0010
1001
0100
1000
0000
0000
0000
1001
1001
1001
1001
,  // measure 50
2002
0000
0000
3003
1000
0100
0010
0001
0010
0000
0100
0000
0010
0000
0100
0000
,  // measure 51
1000
0000
0100
0000
0001
0010
0100
0000
1000
0100
0010
0000
0100
0000
0001
0000
,  // measure 52
0100
0000
0010
0000
0001
0010
0100
1000
0100
0000
0010
0000
0100
0000
0010
0000
,  // measure 53
0001
0000
0010
0000
1000
0100
0010
0000
0001
0010
0100
0000
0010
0000
1000
0000
,  // measure 54
0010
0000
0100
0000
0010
1000
0001
0100
0001
0000
1000
0000
0001
0000
1000
0000
,  // measure 55
0010
0000
1000
0000
0100
0001
1000
0000
0010
1000
0001
0000
1000
0000
0100
0000
,  // measure 56
1000
0000
0001
0000
0100
0001
1000
0010
1000
0000
0001
0000
1000
0000
0001
0000
,  // measure 57
0100
0000
0001
0000
0010
1000
0001
0000
0100
0001
1000
0000
0001
0000
0010
0000
,  // measure 58
0001
0000
1000
0000
1000
0100
0010
0001
0010
0000
0100
0000
0010
0000
0100
0000
,  // measure 59
1000
0000
0100
0000
0001
0010
0100
0000
1000
0100
0010
0000
0100
0000
0001
0000
,  // measure 60
0100
0000
0010
0000
0001
0010
0100
1000
0100
0000
0010
0000
0100
0000
0010
0000
,  // measure 61
0001
0000
0010
0000
1000
0100
0010
0000
0001
0010
0100
0000
0010
0000
1000
0000
,  // measure 62
0010
0000
0100
0000
0010
1000
0001
0100
0001
0000
1000
0000
0001
0000
1000
0000
,  // measure 63
0010
0000
1000
0000
0100
0001
1000
0000
0010
1000
0001
0000
1000
0000
0100
0000
,  // measure 64
1000
0000
0001
0000
0100
0001
1000
0010
1000
0000
0001
0000
1000
0000
0001
0000
,  // measure 65
0100
0000
0001
0000
0010
1000
0001
0000
0100
0001
1000
0000
0001
0000
0010
0000
,  // measure 66
0001
0000
1000
0000
0100
0010
0100
1000
0010
0000
0010
0000
0110
0000
1000
0000
,  // measure 67
0101
0000
0010
0000
1000
0001
1000
0000
0001
0010
0001
0000
1000
0010
1000
0000
,  // measure 68
0010
0100
1000
0000
0010
0100
0010
0001
0100
0000
0100
0000
0110
0000
0001
0000
,  // measure 69
1010
0000
0100
0000
0001
1000
0001
0000
1000
0100
1000
0000
0001
0100
0001
0000
,  // measure 70
0100
0010
0001
0000
1000
0001
1000
0010
0001
0000
0001
0000
1001
0000
0010
0000
,  // measure 71
1100
0000
0001
0000
0010
0100
0010
0000
0100
0001
0100
0000
0010
0001
0010
0000
,  // measure 72
0001
1000
0010
0000
0001
1000
0001
0100
1000
0000
1000
0000
1001
0000
0100
0000
,  // measure 73
0011
0000
1000
0000
0100
0010
0100
0000
0010
1000
0010
0000
0100
1000
0100
0000
,  // measure 74
1000
0001
0100
0000
0010
0100
0010
0100
0010
0000
0100
0000
0100
0010
0100
0010
,  // measure 75
0000
0000
0010
0000
0100
0010
0100
0000
1000
0100
1000
0100
1000
0000
0100
0000
,  // measure 76
1000
0000
0100
0000
1000
0000
0100
0000
0001
0010
0001
0010
0001
0000
0010
0000
,  // measure 77
0001
0000
0010
0000
0001
0000
0010
0000
0010
1000
0010
1000
0010
0000
1000
0000
,  // measure 78
0010
0000
1000
0000
0010
0000
1000
0000
0100
0001
0100
0001
0100
0000
0001
0000
,  // measure 79
0100
0000
0000
0001
0000
0000
0100
0000
0000
0001
0000
0000
1000
0000
0001
0000
1000
0000
0001
0000
1000
0000
0001
0000
,  // measure 80
1000
0001
1000
0001
1000
0001
1000
0001
1000
0001
1000
0001
,  // measure 81
1000
0001
1000
0001
1000
0001
1000
0000
1001
0000
0000
0000
0000
0000
0000
0000
;

//---------------dance-single - ----------------
#NOTEDATA:;
#CHARTNAME:;
#STEPSTYPE:dance-single;
#DESCRIPTION:;
#CHARTSTYLE:;
#DIFFICULTY:Beginner;
#METER:18;
#RADARVALUES:1.028380,1.230282,0.349083,0.037739,0.702883,763.000000,726.000000,37.000000,4.000000,0.000000,0.000000,0.000000,0.000000,0.000000,1.028380,1.230282,0.349083,0.037739,0.702883,763.000000,726.000000,37.000000,4.000000,0.000000,0.000000,0.000000,0.000000,0.000000;
#CREDIT:;
#DISPLAYBPM:0.000000:256.000000;
#NOTES:
// measure 0
0000
0000
0000
0000
,  // measure 1
0000
0000
0000
0000
,  // measure 2
0000
0000
0000
0000
,  // measure 3
0000
0000
0000
0000
,  // measure 4
1010
0000
0000
0000
0000
1001
0000
0000
,  // measure 5
0101
0000
0000
0000
0000
1001
0000
0000
,  // measure 6
1001
0000
0000
0000
0000
0110
0000
0000
,  // measure 7
1001
0000
0000
0000
0000
0000
0000
0000
2002
0000
0000
3003
1000
0100
0010
0000
,  // measure 8
0001
1000
0100
0010
0001
0100
0010
0100
,  // measure 9
1000
0000
0100
0000
0010
0000
0001
0000
0010
0000
0100
0000
0001
0010
0100
0000
,  // measure 10
1000
0001
0010
0100
1000
0010
0100
0010
,  // measure 11
0001
0000
0010
0000
0100
0000
1000
0000
0100
0000
0010
0000
0010
1000
0001
0000
,  // measure 12
0100
0010
1000
0001
0100
1000
0001
1000
,  // measure 13
0010
0000
1000
0000
0001
0000
0100
0000
0001
0000
1000
0000
0100
0001
1000
0000
,  // measure 14
0010
0100
0001
1000
0010
0001
1000
0001
,  // measure 15
0100
0000
0001
0000
1000
0000
0010
0000
1000
0000
0001
0000
1000
0100
0010
0000
,  // measure 16
0001
1000
0100
0010
0001
0100
0010
0100
,  // measure 17
1000
0000
0100
0000
0010
0000
0001
0000
0010
0000
0100
0000
0001
0010
0100
0000
,  // measure 18
1000
0001
0010
0100
1000
0010
0100
0010
,  // measure 19
0001
0000
0010
0000
0100
0000
1000
0000
0100
0000
0010
0000
0010
1000
0001
0000
,  // measure 20
0100
0010
1000
0001
0100
1000
0001
1000
,  // measure 21
0010
0000
1000
0000
0001
0000
0100
0000
0001
0000
1000
0000
0100
0001
1000
0000
,  // measure 22
0010
0100
0001
1000
0010
0001
1000
0001
,  // measure 23
0100
0000
0001
0000
1000
0000
0010
0000
1000
0000
0001
0000
0100
0010
0100
0000
,  // measure 24
0010
0000
0010
0000
0100
0000
0100
0000
0001
0000
1000
0000
0010
0100
1000
0000
,  // measure 25
0100
0010
0001
0000
1000
0000
0001
0000
1000
0000
0001
0000
0010
0100
0010
0000
,  // measure 26
0100
0000
0100
0000
0010
0000
0010
0000
1000
0000
0001
0000
0100
0010
0001
0000
,  // measure 27
0010
0100
1000
0000
0001
0000
1000
0000
0001
0000
1000
0000
1000
0001
1000
0000
,  // measure 28
0001
0000
0001
0000
1000
0000
1000
0000
0100
0000
0010
0000
0001
1000
0010
0000
,  // measure 29
1000
0001
0100
0000
0010
0000
0100
0000
0010
0000
0100
0000
0001
1000
0001
0000
,  // measure 30
1000
0000
1000
0000
0001
0000
0001
0000
0010
0000
0100
0000
1000
0001
0100
0000
,  // measure 31
0001
1000
0010
0000
0100
0000
0010
0000
0100
0000
0010
0000
0100
0010
0100
0000
,  // measure 32
0010
0000
0010
0000
0100
0000
0100
0000
0001
0000
1000
0000
0010
0100
1000
0000
,  // measure 33
0100
0010
0001
0000
1000
0000
0001
0000
1000
0000
0001
0000
0010
0100
0010
0000
,  // measure 34
0100
0000
0100
0000
0010
0000
0010
0000
1000
0000
0001
0000
0100
0010
0001
0000
,  // measure 35
0010
0100
1000
0000
0001
0000
1000
0000
0001
0000
1000
0000
1000
0001
1000
0000
,  // measure 36
0001
0000
0001
0000
1000
0000
1000
0000
0100
0000
0010
0000
0001
1000
0010
0000
,  // measure 37
1000
0001
0100
0000
0010
0000
0100
0000
0010
0000
0100
0000
1000
0100
0010
0001
,  // measure 38
1000
0100
0010
0001
1000
0100
0010
0001
1000
0100
0010
0001
1010
0100
1000
0000
,  // measure 39
0101
0010
0001
0000
0100
0100
0100
0000
0010
0010
0010
0000
0101
0010
0001
0000
,  // measure 40
1010
0100
1000
0000
0010
0010
0010
0000
0100
0100
0100
0000
0011
1000
0010
0000
,  // measure 41
1100
0001
0100
0000
1000
1000
1000
0000
0001
0001
0001
0000
1100
0001
0100
0000
,  // measure 42
0011
1000
0010
0000
0001
0001
0001
0000
1000
1000
1000
0000
1000
0100
0010
0100
,  // measure 43
0001
0000
0000
0000
0010
1000
0110
0001
0100
0000
0000
0000
0001
0010
0100
0010
,  // measure 44
1000
0000
0000
0000
0100
0001
0110
1000
0010
0000
0000
0000
0010
1000
0001
1000
,  // measure 45
0100
0000
0000
0000
0001
0010
1001
0100
1000
0000
0000
0000
0100
0001
1000
0001
,  // measure 46
0010
0000
0000
0000
1000
0100
1001
0010
0001
0000
0000
0000
1000
0100
0010
0100
,  // measure 47
0001
0000
0000
0000
0010
1000
0110
0001
0100
0000
0000
0000
0001
0010
0100
0010
,  // measure 48
1000
0000
0000
0000
0100
0001
0110
1000
0010
0000
0000
0000
0010
1000
0001
1000
,  // measure 49
0100
0000
0000
0000
0001
0010
1001
0100
1000
0000
0000
0000
1001
1001
1001
0000
,  // measure 50
2002
0000
0000
3003
1000
0100
0010
0000
0010
0000
0100
0000
0010
0000
0100
0000
,  // measure 51
1000
0000
0100
0000
0001
0010
0100
0000
1000
0100
0010
0000
0100
0000
0001
0000
,  // measure 52
0100
0000
0010
0000
0001
0010
0100
0000
0100
0000
0010
0000
0100
0000
0010
0000
,  // measure 53
0001
0000
0010
0000
1000
0100
0010
0000
0001
0010
0100
0000
0010
0000
1000
0000
,  // measure 54
0010
0000
0100
0000
0010
1000
0001
0000
0001
0000
1000
0000
0001
0000
1000
0000
,  // measure 55
0010
0000
1000
0000
0100
0001
1000
0000
0010
1000
0001
0000
1000
0000
0100
0000
,  // measure 56
1000
0000
0001
0000
0100
0001
1000
0000
1000
0000
0001
0000
1000
0000
0001
0000
,  // measure 57
0100
0000
0001
0000
0010
1000
0001
0000
0100
0001
1000
0000
0001
0000
0010
0000
,  // measure 58
0001
0000
1000
0000
1000
0100
0010
0000
0010
0000
0100
0000
0010
0000
0100
0000
,  // measure 59
1000
0000
0100
0000
0001
0010
0100
0000
1000
0100
0010
0000
0100
0000
0001
0000
,  // measure 60
0100
0000
0010
0000
0001
0010
0100
0000
0100
0000
0010
0000
0100
0000
0010
0000
,  // measure 61
0001
0000
0010
0000
1000
0100
0010
0000
0001
0010
0100
0000
0010
0000
1000
0000
,  // measure 62
0010
0000
0100
0000
0010
1000
0001
0000
0001
0000
1000
0000
0001
0000
1000
0000
,  // measure 63
0010
0000
1000
0000
0100
0001
1000
0000
0010
1000
0001
0000
1000
0000
0100
0000
,  // measure 64
1000
0000
0001
0000
0100
0001
1000
0000
1000
0000
0001
0000
1000
0000
0001
0000
,  // measure 65
0100
0000
0001
0000
0010
1000
0001
0000
0100
0001
1000
0000
0001
0000
0010
0000
,  // measure 66
0001
0000
1000
0000
0100
0010
0100
0000
0010
0000
0010
0000
0110
0000
1000
0000
,  // measure 67
0101
0000
0010
0000
1000
0001
1000
0000
0001
0010
0001
0000
1000
0010
1000
0000
,  // measure 68
0010
0100
1000
0000
0010
0100
0010
0000
0100
0000
0100
0000
0110
0000
0001
0000
,  // measure 69
1010
0000
0100
0000
0001
1000
0001
0000
1000
0100
1000
0000
0001
0100
0001
0000
,  // measure 70
0100
0010
0001
0000
1000
0001
1000
0000
0001
0000
0001
0000
1001
0000
0010
0000
,  // measure 71
1100
0000
0001
0000
0010
0100
0010
0000
0100
0001
0100
0000
0010
0001
0010
0000
,  // measure 72
0001
1000
0010
0000
0001
1000
0001
0000
1000
0000
1000
0000
1001
0000
0100
0000
,  // measure 73
0011
0000
1000
0000
0100
0010
0100
0000
0010
1000
0010
0000
0100
1000
0100
0000
,  // measure 74
1000
0001
0100
0000
0010
0100
0010
0000
0010
0000
0100
0000
0100
0010
0110
0010
,  // measure 75
0000
0000
0010
0000
0100
0010
0100
0000
1000
0100
1000
0000
1000
0000
0100
0000
,  // measure 76
1000
0000
0100
0000
1000
0000
0100
0000
0010
0001
0010
0000
0001
0000
0010
0000
,  // measure 77
0001
0000
0010
0000
0001
0000
0010
0000
1000
0010
1000
0000
0010
0000
1000
0000
,  // measure 78
0010
0000
1000
0000
0010
0000
1000
0000
0001
0100
0001
0000
0100
0000
0001
0000
,  // measure 79
0100
0000
0000
0001
0000
0000
0100
0000
0000
0001
0000
0000
1000
0000
0001
0000
1000
0000
0001
0000
1000
0000
0001
0000
,  // measure 80
1000
0001
1000
0001
1000
0001
1000
0001
1000
0001
1000
0001
,  // measure 81
1000
0001
1000
0001
1000
0001
1000
0000
1001
0000
0000
0000
0000
0000
0000
0000
;

//---------------dance-single - ----------------
#NOTEDATA:;
#CHARTNAME:;
#STEPSTYPE:dance-single;
#DESCRIPTION:;
#CHARTSTYLE:;
#DIFFICULTY:Medium;
#METER:18;
#RADARVALUES:1.110596,1.460959,0.367952,0.037739,0.938750,824.000000,785.000000,39.000000,4.000000,0.000000,0.000000,0.000000,0.000000,0.000000,1.110596,1.460959,0.367952,0.037739,0.938750,824.000000,785.000000,39.000000,4.000000,0.000000,0.000000,0.000000,0.000000,0.000000;
#CREDIT:;
#DISPLAYBPM:0.000000:256.000000;
#NOTES:
// measure 0
0000
0000
0000
0000
,  // measure 1
0000
0000
0000
0000
,  // measure 2
0000
0000
0000
0000
,  // measure 3
0000
0000
0000
0000
,  // measure 4
1010
0000
0000
0000
0000
1001
0000
0000
,  // measure 5
0101
0000
0000
0000
0000
1001
0000
0000
,  // measure 6
1001
0000
0000
0000
0000
0110
0000
0000
,  // measure 7
1001
0000
0000
0000
0000
0000
0000
0000
2002
0000
0000
3003
1000
0100
0010
0000
,  // measure 8
0001
0000
1000
0000
0100
0000
0010
0000
0001
0000
0100
0000
0010
0100
0010
0000
,  // measure 9
1000
0000
0100
0000
0010
0000
0001
0000
0010
0000
0100
0000
0001
0010
0100
0000
,  // measure 10
1000
0000
0001
0000
0010
0000
0100
0000
1000
0000
0010
0000
0100
0010
0100
0000
,  // measure 11
0001
0000
0010
0000
0100
0000
1000
0000
0100
0000
0010
0000
0010
1000
0001
0000
,  // measure 12
0100
0000
0010
0000
1000
0000
0001
0000
0100
0000
1000
0000
0001
1000
0001
0000
,  // measure 13
0010
0000
1000
0000
0001
0000
0100
0000
0001
0000
1000
0000
0100
0001
1000
0000
,  // measure 14
0010
0000
0100
0000
0001
0000
1000
0000
0010
0000
0001
0000
1000
0001
1000
0000
,  // measure 15
0100
0000
0001
0000
1000
0000
0010
0000
1000
0000
0001
0000
1000
0100
0010
0000
,  // measure 16
0001
0000
1000
0000
0100
0000
0010
0000
0001
0000
0100
0000
0010
0100
0010
0000
,  // measure 17
1000
0000
0100
0000
0010
0000
0001
0000
0010
0000
0100
0000
0001
0010
0100
0000
,  // measure 18
1000
0000
0001
0000
0010
0000
0100
0000
1000
0000
0010
0000
0100
0010
0100
0000
,  // measure 19
0001
0000
0010
0000
0100
0000
1000
0000
0100
0000
0010
0000
0010
1000
0001
0000
,  // measure 20
0100
0000
0010
0000
1000
0000
0001
0000
0100
0000
1000
0000
0001
1000
0001
0000
,  // measure 21
0010
0000
1000
0000
0001
0000
0100
0000
0001
0000
1000
0000
0100
0001
1000
0000
,  // measure 22
0010
0000
0100
0000
0001
0000
1000
0000
0010
0000
0001
0000
1000
0001
1000
0000
,  // measure 23
0100
0000
0001
0000
1000
0000
0010
0000
1000
0000
0001
0000
0100
0010
0100
1000
,  // measure 24
0010
0000
0010
0000
0100
0000
0100
0000
0001
0000
1000
0000
0010
0100
1000
0000
,  // measure 25
0100
0010
0001
0000
1000
0000
0001
0000
1000
0000
0001
0000
0010
0100
0010
0001
,  // measure 26
0100
0000
0100
0000
0010
0000
0010
0000
1000
0000
0001
0000
0100
0010
0001
0000
,  // measure 27
0010
0100
1000
0000
0001
0000
1000
0000
0001
0000
1000
0000
1000
0001
1000
0010
,  // measure 28
0001
0000
0001
0000
1000
0000
1000
0000
0100
0000
0010
0000
0001
1000
0010
0000
,  // measure 29
1000
0001
0100
0000
0010
0000
0100
0000
0010
0000
0100
0000
0001
1000
0001
0100
,  // measure 30
1000
0000
1000
0000
0001
0000
0001
0000
0010
0000
0100
0000
1000
0001
0100
0000
,  // measure 31
0001
1000
0010
0000
0100
0000
0010
0000
0100
0000
0010
0000
0100
0010
0100
1000
,  // measure 32
0010
0000
0010
0000
0100
0000
0100
0000
0001
0000
1000
0000
0010
0100
1000
0000
,  // measure 33
0100
0010
0001
0000
1000
0000
0001
0000
1000
0000
0001
0000
0010
0100
0010
0001
,  // measure 34
0100
0000
0100
0000
0010
0000
0010
0000
1000
0000
0001
0000
0100
0010
0001
0000
,  // measure 35
0010
0100
1000
0000
0001
0000
1000
0000
0001
0000
1000
0000
1000
0001
1000
0010
,  // measure 36
0001
0000
0001
0000
1000
0000
1000
0000
0100
0000
0010
0000
0001
1000
0010
0000
,  // measure 37
1000
0001
0100
0000
0010
0000
0100
0000
0010
0000
0100
0000
1000
0100
0010
0001
,  // measure 38
1000
0100
0010
0001
1000
0100
0010
0001
1000
0100
0010
0001
1010
0100
1000
0000
,  // measure 39
0101
0000
0010
0000
0001
0000
0000
0000
0100
0010
0100
0010
0100
0000
0000
0000
0010
0100
0010
0100
0010
0000
0000
0000
0101
0000
0010
0000
0001
0000
0000
0000
,  // measure 40
1010
0000
0100
0000
1000
0000
0000
0000
0010
0100
0010
0100
0010
0000
0000
0000
0100
0010
0100
0010
0100
0000
0000
0000
0011
0000
1000
0000
0010
0000
0000
0000
,  // measure 41
1100
0000
0001
0000
0100
0000
0000
0000
1000
0001
1000
0001
1000
0000
0000
0000
0001
1000
0001
1000
0001
0000
0000
0000
1100
0000
0001
0000
0100
0000
0000
0000
,  // measure 42
0011
0000
1000
0000
0010
0000
0000
0000
0001
1000
0001
1000
0001
0000
0000
0000
1000
0001
1000
0001
1000
0000
0000
0000
1000
0000
0100
0000
0010
0000
0100
0000
,  // measure 43
0001
0000
1000
0000
0010
1000
0110
0001
0100
0000
0000
0000
0001
0010
0100
0010
,  // measure 44
1000
0000
0001
0000
0100
0001
0110
1000
0010
0000
0000
0000
0010
1000
0001
1000
,  // measure 45
0100
0000
0010
0000
0001
0010
1001
0100
1000
0000
0000
0000
0100
0001
1000
0001
,  // measure 46
0010
0000
0100
0000
1000
0100
1001
0010
0001
0000
0000
0000
1000
0100
0010
0100
,  // measure 47
0001
0000
1000
0000
0010
1000
0110
0001
0100
0000
0000
0000
0001
0010
0100
0010
,  // measure 48
1000
0000
0001
0000
0100
0001
0110
1000
0010
0000
0000
0000
0010
1000
0001
1000
,  // measure 49
0100
0000
0010
0000
0001
0010
1001
0100
1000
0000
0000
0000
1001
1001
1001
1001
,  // measure 50
2002
0000
0000
3003
1000
0100
0010
0001
0010
0000
0100
0000
0010
0000
0100
0000
,  // measure 51
1000
0000
0100
0000
0001
0010
0100
0000
1000
0100
0010
0000
0100
0000
0001
0000
,  // measure 52
0100
0000
0010
0000
0001
0010
0100
1000
0100
0000
0010
0000
0100
0000
0010
0000
,  // measure 53
0001
0000
0010
0000
1000
0100
0010
0000
0001
0010
0100
0000
0010
0000
1000
0000
,  // measure 54
0010
0000
0100
0000
0010
1000
0001
0100
0001
0000
1000
0000
0001
0000
1000
0000
,  // measure 55
0010
0000
1000
0000
0100
0001
1000
0000
0010
1000
0001
0000
1000
0000
0100
0000
,  // measure 56
1000
0000
0001
0000
0100
0001
1000
0010
1000
0000
0001
0000
1000
0000
0001
0000
,  // measure 57
0100
0000
0001
0000
0010
1000
0001
0000
0100
0001
1000
0000
0001
0000
0010
0000
,  // measure 58
0001
0000
1000
0000
1000
0100
0010
0001
0010
0000
0100
0000
0010
0000
0100
0000
,  // measure 59
1000
0000
0100
0000
0001
0010
0100
0000
1000
0100
0010
0000
0100
0000
0001
0000
,  // measure 60
0100
0000
0010
0000
0001
0010
0100
1000
0100
0000
0010
0000
0100
0000
0010
0000
,  // measure 61
0001
0000
0010
0000
1000
0100
0010
0000
0001
0010
0100
0000
0010
0000
1000
0000
,  // measure 62
0010
0000
0100
0000
0010
1000
0001
0100
0001
0000
1000
0000
0001
0000
1000
0000
,  // measure 63
0010
0000
1000
0000
0100
0001
1000
0000
0010
1000
0001
0000
1000
0000
0100
0000
,  // measure 64
1000
0000
0001
0000
0100
0001
1000
0010
1000
0000
0001
0000
1000
0000
0001
0000
,  // measure 65
0100
0000
0001
0000
0010
1000
0001
0000
0100
0001
1000
0000
0001
0000
0010
0000
,  // measure 66
0001
0000
1000
0000
0100
0010
0100
1000
0010
0000
0010
0000
0110
0000
1000
0000
,  // measure 67
0101
0000
0010
0000
1000
0001
1000
0000
0001
0010
0001
0000
1000
0010
1000
0000
,  // measure 68
0010
0100
1000
0000
0010
0100
0010
0001
0100
0000
0100
0000
0110
0000
0001
0000
,  // measure 69
1010
0000
0100
0000
0001
1000
0001
0000
1000
0100
1000
0000
0001
0100
0001
0000
,  // measure 70
0100
0010
0001
0000
1000
0001
1000
0010
0001
0000
0001
0000
1001
0000
0010
0000
,  // measure 71
1100
0000
0001
0000
0010
0100
0010
0000
0100
0001
0100
0000
0010
0001
0010
0000
,  // measure 72
0001
1000
0010
0000
0001
1000
0001
0100
1000
0000
1000
0000
1001
0000
0100
0000
,  // measure 73
0011
0000
1000
0000
0100
0010
0100
0000
0010
1000
0010
0000
0100
1000
0100
0000
,  // measure 74
1000
0001
0100
0000
0010
0100
0010
0100
0010
0000
0110
0000
0100
0010
0100
0010
,  // measure 75
0000
0000
0110
0000
0100
0010
0100
0000
1000
0100
1000
0100
1000
0000
0100
0000
,  // measure 76
1000
0000
0100
0000
1000
0000
0100
0000
0001
0010
0001
0010
0001
0000
0010
0000
,  // measure 77
0001
0000
0010
0000
0001
0000
0010
0000
0010
1000
0010
1000
0010
0000
1000
0000
,  // measure 78
0010
0000
1000
0000
0010
0000
1000
0000
0100
0001
0100
0001
0100
0000
0001
0000
,  // measure 79
0100
0000
0000
0001
0000
0000
0100
0000
0000
0001
0000
0000
1000
0000
0001
0000
1000
0000
0001
0000
1000
0000
0001
0000
,  // measure 80
1000
0000
0000
0000
0001
0000
0000
0000
1000
0000
0000
0000
0001
0000
0000
0000
1000
0000
0000
0000
0001
0000
0000
0000
1000
0000
0000
0001
0000
0000
1000
0000
0000
0001
0000
0000
1000
0000
0000
0001
0000
0000
1000
0000
0000
0001
0000
0000
,  // measure 81
1000
0001
1000
0001
1000
0001
1000
0001
1001
0000
0000
0000
0000
0000
0000
0000
;

//---------------dance-single - ----------------
#NOTEDATA:;
#CHARTNAME:;
#STEPSTYPE:dance-single;
#DESCRIPTION:;
#CHARTSTYLE:;
#DIFFICULTY:Hard;
#METER:18;
#RADARVALUES:1.151030,1.460959,0.386822,0.037739,1.028380,854.000000,813.000000,41.000000,4.000000,0.000000,0.000000,0.000000,0.000000,0.000000,1.151030,1.460959,0.386822,0.037739,1.028380,854.000000,813.000000,41.000000,4.000000,0.000000,0.000000,0.000000,0.000000,0.000000;
#CREDIT:;
#DISPLAYBPM:0.000000:256.000000;
#NOTES:
// measure 0
0000
0000
0000
0000
,  // measure 1
0000
0000
0000
0000
,  // measure 2
0000
0000
0000
0000
,  // measure 3
0000
0000
0000
0000
,  // measure 4
1010
0000
0000
0000
0000
1001
0000
0000
,  // measure 5
0101
0000
0000
0000
0000
1001
0000
0000
,  // measure 6
1001
0000
0000
0000
0000
0110
0000
0000
,  // measure 7
1001
0000
1001
0000
1001
0000
0000
0000
2002
0000
0000
3003
1000
0100
0010
0000
,  // measure 8
0001
0000
1000
0000
0100
0000
0010
0000
0001
0000
0100
0000
0010
0100
0010
0100
,  // measure 9
1000
0000
0100
0000
0010
0000
0001
0000
0010
0000
0100
0000
0001
0010
0100
0000
,  // measure 10
1000
0000
0001
0000
0010
0000
0100
0000
1000
0000
0010
0000
0100
0010
0100
0010
,  // measure 11
0001
0000
0010
0000
0100
0000
1000
0000
0100
0000
0010
0000
0010
1000
0001
0000
,  // measure 12
0100
0000
0010
0000
1000
0000
0001
0000
0100
0000
1000
0000
0001
1000
0001
1000
,  // measure 13
0010
0000
1000
0000
0001
0000
0100
0000
0001
0000
1000
0000
0100
0001
1000
0000
,  // measure 14
0010
0000
0100
0000
0001
0000
1000
0000
0010
0000
0001
0000
1000
0001
1000
0001
,  // measure 15
0100
0000
0001
0000
1000
0000
0010
0000
1000
0000
0001
0000
1000
0100
0010
0000
,  // measure 16
0001
0000
1000
0000
0100
0000
0010
0000
0001
0000
0100
0000
0010
0100
0010
0100
,  // measure 17
1000
0000
0100
0000
0010
0000
0001
0000
0010
0000
0100
0000
0001
0010
0100
0000
,  // measure 18
1000
0000
0001
0000
0010
0000
0100
0000
1000
0000
0010
0000
0100
0010
0100
0010
,  // measure 19
0001
0000
0010
0000
0100
0000
1000
0000
0100
0000
0010
0000
0010
1000
0001
0000
,  // measure 20
0100
0000
0010
0000
1000
0000
0001
0000
0100
0000
1000
0000
0001
1000
0001
1000
,  // measure 21
0010
0000
1000
0000
0001
0000
0100
0000
0001
0000
1000
0000
0100
0001
1000
0000
,  // measure 22
0010
0000
0100
0000
0001
0000
1000
0000
0010
0000
0001
0000
1000
0001
1000
0001
,  // measure 23
0100
0000
0001
0000
1000
0000
0010
0000
1000
0000
0001
0000
0100
0010
0100
1000
,  // measure 24
0010
0000
0010
0000
0100
0000
0100
0000
0001
0000
1000
0000
0010
0100
1000
0001
,  // measure 25
0100
0010
0001
0000
1000
0000
0001
0000
1000
0000
0001
0000
0010
0100
0010
0001
,  // measure 26
0100
0000
0100
0000
0010
0000
0010
0000
1000
0000
0001
0000
0100
0010
0001
1000
,  // measure 27
0010
0100
1000
0000
0001
0000
1000
0000
0001
0000
1000
0000
1000
0001
1000
0010
,  // measure 28
0001
0000
0001
0000
1000
0000
1000
0000
0100
0000
0010
0000
0001
1000
0010
0100
,  // measure 29
1000
0001
0100
0000
0010
0000
0100
0000
0010
0000
0100
0000
0001
1000
0001
0100
,  // measure 30
1000
0000
1000
0000
0001
0000
0001
0000
0010
0000
0100
0000
1000
0001
0100
0010
,  // measure 31
0001
1000
0010
0000
0100
0000
0010
0000
0100
0000
0010
0000
0100
0010
0100
1000
,  // measure 32
0010
0000
0010
0000
0100
0000
0100
0000
0001
0000
1000
0000
0010
0100
1000
0001
,  // measure 33
0100
0010
0001
0000
1000
0000
0001
0000
1000
0000
0001
0000
0010
0100
0010
0001
,  // measure 34
0100
0000
0100
0000
0010
0000
0010
0000
1000
0000
0001
0000
0100
0010
0001
1000
,  // measure 35
0010
0100
1000
0000
0001
0000
1000
0000
0001
0000
1000
0000
1000
0001
1000
0010
,  // measure 36
0001
0000
0001
0000
1000
0000
1000
0000
0100
0000
0010
0000
0001
1000
0010
0100
,  // measure 37
1000
0001
0100
0000
0010
0000
0100
0000
0010
0000
0100
0000
1000
0100
0010
0001
,  // measure 38
1000
0100
0010
0001
1000
0100
0010
0001
1000
0100
0010
0001
1010
0100
1000
0000
,  // measure 39
0101
0000
0010
0000
0001
0000
0000
0000
0100
0010
0100
0010
0100
0000
0000
0000
0010
0100
0010
0100
0010
0000
0000
0000
0101
0000
0010
0000
0001
0000
0000
0000
,  // measure 40
1010
0000
0100
0000
1000
0000
0000
0000
0010
0100
0010
0100
0010
0000
0000
0000
0100
0010
0100
0010
0100
0000
0000
0000
0011
0000
1000
0000
0010
0000
0000
0000
,  // measure 41
1100
0000
0001
0000
0100
0000
0000
0000
1000
0001
1000
0001
1000
0000
0000
0000
0001
1000
0001
1000
0001
0000
0000
0000
1100
0000
0001
0000
0100
0000
0000
0000
,  // measure 42
0011
0000
1000
0000
0010
0000
0000
0000
0001
1000
0001
1000
0001
0000
0000
0000
1000
0001
1000
0001
1000
0000
0000
0000
1000
0000
0100
0000
0010
0000
0100
0000
,  // measure 43
0001
0000
1000
0000
0010
1000
0110
0001
0100
0000
1000
0000
0001
0010
0100
0010
,  // measure 44
1000
0000
0001
0000
0100
0001
0110
1000
0010
0000
0001
0000
0010
1000
0001
1000
,  // measure 45
0100
0000
0010
0000
0001
0010
1001
0100
1000
0000
0010
0000
0100
0001
1000
0001
,  // measure 46
0010
0000
0100
0000
1000
0100
1001
0010
0001
0000
0100
0000
1000
0100
0010
0100
,  // measure 47
0001
0000
1000
0000
0010
1000
0110
0001
0100
0000
1000
0000
0001
0010
0100
0010
,  // measure 48
1000
0000
0001
0000
0100
0001
0110
1000
0010
0000
0001
0000
0010
1000
0001
1000
,  // measure 49
0100
0000
0010
0000
0001
0010
1001
0100
1000
0000
0010
0000
1001
1001
1001
1001
,  // measure 50
2002
0000
0000
3003
1000
0100
0010
0001
0010
0000
0100
0000
0010
0000
0100
0000
,  // measure 51
1000
0000
0100
0000
0001
0010
0100
0000
1000
0100
0010
0000
0100
0000
0001
0000
,  // measure 52
0100
0000
0010
0000
0001
0010
0100
1000
0100
0000
0010
0000
0100
0000
0010
0000
,  // measure 53
0001
0000
0010
0000
1000
0100
0010
0000
0001
0010
0100
0000
0010
0000
1000
0000
,  // measure 54
0010
0000
0100
0000
0010
1000
0001
0100
0001
0000
1000
0000
0001
0000
1000
0000
,  // measure 55
0010
0000
1000
0000
0100
0001
1000
0000
0010
1000
0001
0000
1000
0000
0100
0000
,  // measure 56
1000
0000
0001
0000
0100
0001
1000
0010
1000
0000
0001
0000
1000
0000
0001
0000
,  // measure 57
0100
0000
0001
0000
0010
1000
0001
0000
0100
0001
1000
0000
0001
0000
0010
0000
,  // measure 58
0001
0000
1000
0000
1000
0100
0010
0001
0010
0000
0100
0000
0010
0000
0100
0000
,  // measure 59
1000
0000
0100
0000
0001
0010
0100
0000
1000
0100
0010
0000
0100
0000
0001
0000
,  // measure 60
0100
0000
0010
0000
0001
0010
0100
1000
0100
0000
0010
0000
0100
0000
0010
0000
,  // measure 61
0001
0000
0010
0000
1000
0100
0010
0000
0001
0010
0100
0000
0010
0000
1000
0000
,  // measure 62
0010
0000
0100
0000
0010
1000
0001
0100
0001
0000
1000
0000
0001
0000
1000
0000
,  // measure 63
0010
0000
1000
0000
0100
0001
1000
0000
0010
1000
0001
0000
1000
0000
0100
0000
,  // measure 64
1000
0000
0001
0000
0100
0001
1000
0010
1000
0000
0001
0000
1000
0000
0001
0000
,  // measure 65
0100
0000
0001
0000
0010
1000
0001
0000
0100
0001
1000
0000
0001
0000
0010
0000
,  // measure 66
0001
0000
1000
0000
0100
0010
0100
1000
0010
0000
0010
0000
0110
0000
1000
0000
,  // measure 67
0101
0000
0010
0000
1000
0001
1000
0000
0001
0010
0001
0010
1000
0010
1000
0000
,  // measure 68
0010
0100
1000
0000
0010
0100
0010
0001
0100
0000
0100
0000
0110
0000
0001
0000
,  // measure 69
1010
0000
0100
0000
0001
1000
0001
0000
1000
0100
1000
0100
0001
0100
0001
0000
,  // measure 70
0100
0010
0001
0000
1000
0001
1000
0010
0001
0000
0001
0000
1001
0000
0010
0000
,  // measure 71
1100
0000
0001
0000
0010
0100
0010
0000
0100
0001
0100
0001
0010
0001
0010
0000
,  // measure 72
0001
1000
0010
0000
0001
1000
0001
0100
1000
0000
1000
0000
1001
0000
0100
0000
,  // measure 73
0011
0000
1000
0000
0100
0010
0100
0000
0010
1000
0010
1000
0100
1000
0100
0000
,  // measure 74
1000
0001
0100
0000
0010
0100
0010
0100
0010
0000
0110
0000
0100
0010
0100
0010
,  // measure 75
0000
0000
0110
0000
0100
0010
0100
0000
1000
0100
1000
0100
1000
0000
0100
0000
,  // measure 76
1000
0000
0100
0000
1000
0000
0100
0000
0001
0010
0001
0010
0001
0000
0010
0000
,  // measure 77
0001
0000
0010
0000
0001
0000
0010
0000
0010
1000
0010
1000
0010
0000
1000
0000
,  // measure 78
0010
0000
1000
0000
0010
0000
1000
0000
0100
0001
0100
0001
0100
0000
0001
0000
,  // measure 79
0100
0000
0000
0001
0000
0000
0100
0000
0000
0001
0000
0000
1000
0000
0001
0000
1000
0000
0001
0000
1000
0000
0001
0000
,  // measure 80
1000
0000
0000
0000
0001
0000
0000
0000
1000
0000
0000
0000
0001
0000
0000
0000
1000
0000
0000
0000
0001
0000
0000
0000
1000
0000
0000
0001
0000
0000
1000
0000
0000
0001
0000
0000
1000
0000
0000
0001
0000
0000
1000
0000
0000
0001
0000
0000
,  // measure 81
1000
0001
1000
0001
1000
0001
1000
0001
1001
0000
0000
0000
0000
0000
0000
0000
;

//---------------dance-single - ----------------
#NOTEDATA:;
#CHARTNAME:;
#STEPSTYPE:dance-single;
#DESCRIPTION:;
#CHARTSTYLE:;
#DIFFICULTY:Challenge;
#METER:19;
#RADARVALUES:1.182030,1.460959,0.396256,0.037739,1.108574,877.000000,835.000000,42.000000,4.000000,0.000000,0.000000,0.000000,0.000000,0.000000,1.182030,1.460959,0.396256,0.037739,1.108574,877.000000,835.000000,42.000000,4.000000,0.000000,0.000000,0.000000,0.000000,0.000000;
#CREDIT:;
#DISPLAYBPM:0.000000:256.000000;
#NOTES:
// measure 0
0000
0000
0000
0000
,  // measure 1
0000
0000
0000
0000
,  // measure 2
0000
0000
0000
0000
,  // measure 3
0000
0000
0000
0000
,  // measure 4
1010
0000
0000
0000
0000
1001
0000
0000
,  // measure 5
0101
0000
0000
0000
0000
1001
0000
0000
,  // measure 6
1001
0000
0000
0000
0000
0110
0000
0000
,  // measure 7
1001
0000
1001
0000
1001
0000
0000
0000
2002
0000
0000
3003
1000
0100
0010
0000
,  // measure 8
0001
0000
1000
0000
0100
0000
0010
0000
0001
0000
0100
0000
0010
0100
0010
0100
,  // measure 9
1000
0000
0100
0000
0010
0000
0001
0000
0010
0000
0100
0000
0001
0010
0100
0000
,  // measure 10
1000
0000
0001
0000
0010
0000
0100
0000
1000
0000
0010
0000
0100
0010
0100
0010
,  // measure 11
0001
0000
0010
0000
0100
0000
1000
0000
0100
0000
0010
0000
0010
1000
0001
0000
,  // measure 12
0100
0000
0010
0000
1000
0000
0001
0000
0100
0000
1000
0000
0001
1000
0001
1000
,  // measure 13
0010
0000
1000
0000
0001
0000
0100
0000
0001
0000
1000
0000
0100
0001
1000
0000
,  // measure 14
0010
0000
0100
0000
0001
0000
1000
0000
0010
0000
0001
0000
1000
0001
1000
0001
,  // measure 15
0100
0000
0001
0000
1000
0000
0010
0000
1000
0000
0001
0000
1000
0100
0010
0000
,  // measure 16
0001
0000
1000
0000
0100
0000
0010
0000
0001
0000
0100
0000
0010
0100
0010
0100
,  // measure 17
1000
0000
0100
0000
0010
0000
0001
0000
0010
0000
0100
0000
0001
0010
0100
0000
,  // measure 18
1000
0000
0001
0000
0010
0000
0100
0000
1000
0000
0010
0000
0100
0010
0100
0010
,  // measure 19
0001
0000
0010
0000
0100
0000
1000
0000
0100
0000
0010
0000
0010
1000
0001
0000
,  // measure 20
0100
0000
0010
0000
1000
0000
0001
0000
0100
0000
1000
0000
0001
1000
0001
1000
,  // measure 21
0010
0000
1000
0000
0001
0000
0100
0000
0001
0000
1000
0000
0100
0001
1000
0000
,  // measure 22
0010
0000
0100
0000
0001
0000
1000
0000
0010
0000
0001
0000
1000
0001
1000
0001
,  // measure 23
0100
0000
0001
0000
1000
0000
0010
0000
1000
0000
0001
0000
0100
0010
0100
1000
,  // measure 24
0010
0000
0010
0000
0100
0000
0100
0000
0001
0000
1000
0000
0010
0100
1000
0001
,  // measure 25
0100
0010
0001
0000
1000
0000
0001
0000
1000
0000
0001
0000
0010
0100
0010
0001
,  // measure 26
0100
0000
0100
0000
0010
0000
0010
0000
1000
0000
0001
0000
0100
0010
0001
1000
,  // measure 27
0010
0100
1000
0000
0001
0000
1000
0000
0001
0000
1000
0000
1000
0001
1000
0010
,  // measure 28
0001
0000
0001
0000
1000
0000
1000
0000
0100
0000
0010
0000
0001
1000
0010
0100
,  // measure 29
1000
0001
0100
0000
0010
0000
0100
0000
0010
0000
0100
0000
0001
1000
0001
0100
,  // measure 30
1000
0000
1000
0000
0001
0000
0001
0000
0010
0000
0100
0000
1000
0001
0100
0010
,  // measure 31
0001
1000
0010
0000
0100
0000
0010
0000
0100
0000
0010
0000
0100
0010
0100
1000
,  // measure 32
0010
0000
0010
0000
0100
0000
0100
0000
0001
0000
1000
0000
0010
0100
1000
0001
,  // measure 33
0100
0010
0001
0000
1000
0000
0001
0000
1000
0000
0001
0000
0010
0100
0010
0001
,  // measure 34
0100
0000
0100
0000
0010
0000
0010
0000
1000
0000
0001
0000
0100
0010
0001
1000
,  // measure 35
0010
0100
1000
0000
0001
0000
1000
0000
0001
0000
1000
0000
1000
0001
1000
0010
,  // measure 36
0001
0000
0001
0000
1000
0000
1000
0000
0100
0000
0010
0000
0001
1000
0010
0100
,  // measure 37
1000
0001
0100
0000
0010
0000
0100
0000
0010
0000
0100
0000
1000
0100
0010
0001
,  // measure 38
1000
0100
0010
0001
1000
0100
0010
0001
1000
0100
0010
0001
1010
0100
1000
0000
,  // measure 39
0101
0000
0010
0000
0001
0000
0000
0000
0100
0010
0100
0010
0100
0000
0000
0000
0010
0100
0010
0100
0010
0000
0000
0000
0101
0000
0010
0000
0001
0000
0000
0000
,  // measure 40
1010
0000
0100
0000
1000
0000
0000
0000
0010
0100
0010
0100
0010
0000
0000
0000
0100
0010
0100
0010
0100
0000
0000
0000
0011
0000
1000
0000
0010
0000
0000
0000
,  // measure 41
1100
0000
0001
0000
0100
0000
0000
0000
1000
0001
1000
0001
1000
0000
0000
0000
0001
1000
0001
1000
0001
0000
0000
0000
1100
0000
0001
0000
0100
0000
0000
0000
,  // measure 42
0011
0000
1000
0000
0010
0000
0000
0000
0001
1000
0001
1000
0001
0000
0000
0000
1000
0001
1000
0001
1000
0000
0000
0000
1000
0000
0100
0000
0010
0000
0100
0000
,  // measure 43
0001
0000
1000
0000
0010
1000
0110
0001
0100
0000
1000
0000
0001
0010
0100
0010
,  // measure 44
1000
0000
0001
0000
0100
0001
0110
1000
0010
0000
0001
0000
0010
1000
0001
1000
,  // measure 45
0100
0000
0010
0000
0001
0010
1001
0100
1000
0000
0010
0000
0100
0001
1000
0001
,  // measure 46
0010
0000
0100
0000
1000
0100
1001
0010
0001
0000
0100
0000
1000
0100
0010
0100
,  // measure 47
0001
0000
1000
0000
0010
1000
0110
0001
0100
0000
1000
0000
0001
0010
0100
0010
,  // measure 48
1000
0000
0001
0000
0100
0001
0110
1000
0010
0000
0001
0000
0010
1000
0001
1000
,  // measure 49
0100
0000
0010
0000
0001
0010
1001
0100
1000
0000
0010
0000
1001
1001
1001
1001
,  // measure 50
2002
0000
0000
3003
1000
0100
0010
0001
0010
0000
0100
0000
0010
0000
0100
0000
,  // measure 51
1000
0000
0100
0000
0001
0010
0100
0000
1000
0100
0010
0000
0100
0000
0001
0000
,  // measure 52
0100
0000
0010
0000
0001
0010
0100
1000
0100
0000
0010
0000
0100
0000
0010
0000
,  // measure 53
0001
0000
0010
0000
1000
0100
0010
0000
0001
0010
0100
0000
0010
0000
1000
0000
,  // measure 54
0010
0000
0100
0000
0010
1000
0001
0100
0001
0000
1000
0000
0001
0000
1000
0000
,  // measure 55
0010
0000
1000
0000
0100
0001
1000
0000
0010
1000
0001
0000
1000
0000
0100
0000
,  // measure 56
1000
0000
0001
0000
0100
0001
1000
0010
1000
0000
0001
0000
1000
0000
0001
0000
,  // measure 57
0100
0000
0001
0000
0010
1000
0001
0000
0100
0001
1000
0000
0001
0000
0010
0000
,  // measure 58
0001
0000
1000
0000
1000
0100
0010
0001
0010
0000
0100
0000
0010
0000
0100
0000
,  // measure 59
1000
0000
0100
0000
0001
0010
0100
0000
1000
0100
0010
0000
0100
0000
0001
0000
,  // measure 60
0100
0000
0010
0000
0001
0010
0100
1000
0100
0000
0010
0000
0100
0000
0010
0000
,  // measure 61
0001
0000
0010
0000
1000
0100
0010
0000
0001
0010
0100
0000
0010
0000
1000
0000
,  // measure 62
0010
0000
0100
0000
0010
1000
0001
0100
0001
0000
1000
0000
0001
0000
1000
0000
,  // measure 63
0010
0000
1000
0000
0100
0001
1000
0000
0010
1000
0001
0000
1000
0000
0100
0000
,  // measure 64
1000
0000
0001
0000
0100
0001
1000
0010
1000
0000
0001
0000
1000
0000
0001
0000
,  // measure 65
0100
0000
0001
0000
0010
1000
0001
0000
0100
0001
1000
0000
0001
0000
0010
0000
,  // measure 66
0001
0000
1000
0000
0100
0010
0100
1000
0010
0000
0010
0000
0110
0000
1000
0000
,  // measure 67
0101
0000
0010
0000
1000
0001
1000
0100
0001
0010
0001
0010
1000
0010
1000
0001
,  // measure 68
0010
0100
1000
0000
0010
0100
0010
0001
0100
0000
0100
0000
0110
0000
0001
0000
,  // measure 69
1010
0000
0100
0000
0001
1000
0001
0010
1000
0100
1000
0100
0001
0100
0001
1000
,  // measure 70
0100
0010
0001
0000
1000
0001
1000
0010
0001
0000
0001
0000
1001
0000
0010
0000
,  // measure 71
1100
0000
0001
0000
0010
0100
0010
1000
0100
0001
0100
0001
0010
0001
0010
0100
,  // measure 72
0001
1000
0010
0000
0001
1000
0001
0100
1000
0000
1000
0000
1001
0000
0100
0000
,  // measure 73
0011
0000
1000
0000
0100
0010
0100
0001
0010
1000
0010
1000
0100
1000
0100
0010
,  // measure 74
1000
0001
0100
0000
0010
0100
0010
0100
0010
0100
0110
0000
0100
0010
0100
0010
,  // measure 75
0100
0000
0110
0000
0100
0010
0110
0000
1000
0100
1000
0100
1000
0100
1000
0100
,  // measure 76
1000
0000
0100
0000
1000
0000
0100
0000
0001
0010
0001
0010
0001
0010
0001
0010
,  // measure 77
0001
0000
0010
0000
0001
0000
0010
0000
0010
1000
0010
1000
0010
1000
0010
1000
,  // measure 78
0010
0000
1000
0000
0010
0000
1000
0000
0100
0001
0100
0001
0100
0001
0100
0001
,  // measure 79
0100
0000
0001
0000
0100
0000
0001
0000
1000
0001
1000
0001
1000
0001
1000
0001
,  // measure 80
1000
0000
0000
0001
0000
0000
1000
0000
0000
0001
0000
0000
1000
0000
0000
0001
0000
0000
1000
0000
0001
0000
0000
0000
1000
0000
0000
0001
0000
0000
1000
0000
0000
0001
0000
0000
1000
0000
0000
0001
0000
0000
1000
0000
0000
0001
0000
0000
,  // measure 81
1000
0001
1000
0001
1000
0001
1000
0001
1001
0000
0000
0000
0000
0000
0000
0000
;
