#TITLE:夜明け;
#SUBTITLE:;
#ARTIST:mzsrz;
#TITLETRANSLIT:Dawn;
#SUBTITLETRANSLIT:;
#ARTISTTRANSLIT:;
#GENRE:;
#CREDIT:;
#BANNER:;
#BACKGROUND:;
#LYRICSPATH:;
#CDTITLE:;
#MUSIC:Dawn.ogg;
#OFFSET:0.123000;
#SAMPLESTART:36.824368;
#SAMPLELENGTH:15.000000;
#SELECTABLE:YES;
#BPMS:0.000000=190.000000
;
#STOPS:
;
#BGCHANGES:;
#KEYSOUNDS:;
#ATTACKS:;

//---------------dance-single - ----------------
#NOTES:
     dance-single:
     :
     Easy:
     9:
     0.365636,0.549742,0.226592,0.066947,0.000000,497.000000,453.000000,44.000000,13.000000,0.000000,0.000000,0.365636,0.549742,0.226592,0.066947,0.000000,497.000000,453.000000,44.000000,13.000000,0.000000,0.000000:
// measure 0
0000
0000
0000
0000
,  // measure 1
0000
0000
0000
0000
,  // measure 2
0000
0000
0000
0000
,  // measure 3
0000
0000
0000
0000
,  // measure 4
0000
0000
0000
0000
,  // measure 5
0000
0000
0000
0000
,  // measure 6
0000
0000
0000
0000
,  // measure 7
0000
0000
0000
0000
,  // measure 8
0000
0000
0000
0000
,  // measure 9
1000
0000
1000
0000
,  // measure 10
0010
0000
0100
0000
,  // measure 11
0001
0000
0001
0000
,  // measure 12
0100
0000
0010
0000
,  // measure 13
0010
0000
0010
0000
,  // measure 14
0001
0000
1000
0000
,  // measure 15
0100
0000
0100
0000
,  // measure 16
1000
0000
0001
0000
,  // measure 17
1000
0100
0010
0000
0010
0000
0100
0000
,  // measure 18
0001
1000
0010
1000
,  // measure 19
0001
0010
0100
0000
0100
0000
0010
0000
,  // measure 20
1000
0001
0100
0001
,  // measure 21
0010
1000
0001
0000
0001
0000
1000
0000
,  // measure 22
0100
0010
0001
0010
,  // measure 23
0100
0001
1000
0000
1000
0000
0001
0000
,  // measure 24
0010
0100
1000
0100
,  // measure 25
0010
0000
0010
0000
,  // measure 26
0010
0000
0010
0000
,  // measure 27
0020
0000
0000
0000
,  // measure 28
0200
0000
0000
0330
,  // measure 29
1001
0000
0000
0000
,  // measure 30
1000
0010
0100
0000
,  // measure 31
0010
0100
0010
0000
1000
0000
0100
0000
,  // measure 32
0001
0100
0010
0000
,  // measure 33
0100
0010
0100
0000
0001
0000
0010
0000
,  // measure 34
0010
0001
1000
0000
,  // measure 35
0001
1000
0001
0000
0010
0000
1000
0000
,  // measure 36
0100
1000
0001
0000
,  // measure 37
1000
0001
1000
0000
0100
0000
0001
0000
,  // measure 38
1000
0010
0100
0000
,  // measure 39
0010
0100
0010
0000
1000
0000
0100
0000
,  // measure 40
0001
0100
0010
0000
,  // measure 41
0100
0010
0100
0000
0001
0000
0010
0000
,  // measure 42
0010
0001
1000
0000
,  // measure 43
0001
1000
0001
0000
0010
0000
1000
0000
,  // measure 44
0100
1000
0001
0000
,  // measure 45
1000
0001
1000
0000
0100
0000
0001
0000
,  // measure 46
1010
0010
0110
0010
,  // measure 47
0110
0100
1010
0100
,  // measure 48
0101
0100
0110
0100
,  // measure 49
0110
0010
0101
0010
,  // measure 50
0011
0001
1001
0001
,  // measure 51
1001
1000
0011
1000
,  // measure 52
2002
0000
0000
0000
,  // measure 53
0000
0000
3003
0000
,  // measure 54
0020
0000
0000
0000
,  // measure 55
0000
0000
0000
0000
,  // measure 56
0000
0000
0000
0000
,  // measure 57
0030
0000
0000
0000
,  // measure 58
1000
0000
1000
0000
,  // measure 59
0010
0000
0100
0000
,  // measure 60
0001
0000
0001
0000
,  // measure 61
0100
0000
0010
0000
,  // measure 62
0010
0000
0010
0000
,  // measure 63
0001
0000
1000
0000
,  // measure 64
0100
0000
0100
0000
,  // measure 65
1000
0000
0001
0000
,  // measure 66
1000
0000
1000
0000
,  // measure 67
0010
0000
0100
0000
,  // measure 68
0001
0000
0001
0000
,  // measure 69
0100
0000
0010
0000
,  // measure 70
0010
0000
0010
0000
,  // measure 71
0001
0000
1000
0000
,  // measure 72
0100
0000
0100
0000
,  // measure 73
1000
0000
0001
0000
,  // measure 74
1000
0100
0010
0000
0010
0000
0100
0000
,  // measure 75
0001
1000
0010
1000
,  // measure 76
0001
0010
0100
0000
0100
0000
0010
0000
,  // measure 77
1000
0001
0100
0001
,  // measure 78
0010
1000
0001
0000
0001
0000
1000
0000
,  // measure 79
0100
0010
0001
0010
,  // measure 80
0100
0001
1000
0000
1000
0000
0001
0000
,  // measure 81
0010
0100
1000
0100
,  // measure 82
0010
0000
0010
0000
,  // measure 83
0010
0000
0010
0000
,  // measure 84
0020
0000
0000
0000
,  // measure 85
0200
0000
0000
0330
,  // measure 86
1001
0000
0000
0000
,  // measure 87
1000
0010
0100
0000
,  // measure 88
0010
0100
0010
0000
1000
0000
0100
0000
,  // measure 89
0001
0100
0010
0000
,  // measure 90
0100
0010
0100
0000
0001
0000
0010
0000
,  // measure 91
0010
0001
1000
0000
,  // measure 92
0001
1000
0001
0000
0010
0000
1000
0000
,  // measure 93
0100
1000
0001
0000
,  // measure 94
1000
0001
1000
0000
0100
0000
0001
0000
,  // measure 95
1000
0010
0100
0000
,  // measure 96
0010
0100
0010
0000
1000
0000
0100
0000
,  // measure 97
0001
0100
0010
0000
,  // measure 98
0100
0010
0100
0000
0001
0000
0010
0000
,  // measure 99
0010
0001
1000
0000
,  // measure 100
0001
1000
0001
0000
0010
0000
1000
0000
,  // measure 101
0100
1000
0001
0000
,  // measure 102
1000
0001
1000
0000
0100
0000
0001
0000
,  // measure 103
2000
0000
3010
0000
,  // measure 104
1000
0001
1000
0010
,  // measure 105
0002
0000
0103
0000
,  // measure 106
0001
1000
0001
0100
,  // measure 107
0020
0000
0031
0000
,  // measure 108
0010
0100
0010
0001
,  // measure 109
0200
0000
1300
0000
,  // measure 110
0100
0010
0100
1000
,  // measure 111
1000
0000
1000
0000
,  // measure 112
0010
0000
0100
0000
,  // measure 113
0001
0000
0001
0000
,  // measure 114
0100
0000
0010
0000
,  // measure 115
0010
0000
0010
0000
,  // measure 116
0001
0000
1000
0000
,  // measure 117
0100
0000
0100
0000
,  // measure 118
1000
0000
0001
0000
,  // measure 119
0010
0000
0010
0000
,  // measure 120
0010
0000
0010
0000
,  // measure 121
1000
0010
0100
0000
,  // measure 122
0010
0100
0010
0000
1000
0000
0100
0000
,  // measure 123
0001
0100
0010
0000
,  // measure 124
0100
0010
0100
0000
0001
0000
0010
0000
,  // measure 125
0010
0001
1000
0000
,  // measure 126
0001
1000
0001
0000
0010
0000
1000
0000
,  // measure 127
0100
1000
0001
0000
,  // measure 128
1000
0001
1000
0000
0100
0000
0001
0000
,  // measure 129
1000
0010
0100
0000
,  // measure 130
0010
0100
0010
0000
1000
0000
0100
0000
,  // measure 131
0001
0100
0010
0000
,  // measure 132
0100
0010
0100
0000
0001
0000
0010
0000
,  // measure 133
0010
0001
1000
0000
,  // measure 134
0001
1000
0001
0000
0010
0000
1000
0000
,  // measure 135
0100
1000
0001
0000
,  // measure 136
1000
0001
1000
0000
0100
0000
0001
0000
,  // measure 137
1010
0010
0110
0010
,  // measure 138
0110
0100
1010
0100
,  // measure 139
0101
0100
0110
0100
,  // measure 140
0110
0010
0101
0010
,  // measure 141
0011
0001
1001
0001
,  // measure 142
1001
1000
0011
1000
,  // measure 143
1100
1000
1001
1000
,  // measure 144
1001
0001
1100
0001
,  // measure 145
1010
0010
0110
0010
,  // measure 146
0110
0100
1010
0100
,  // measure 147
0101
0100
0110
0100
,  // measure 148
0110
0010
0101
0010
,  // measure 149
0011
0001
1001
0001
,  // measure 150
1001
1000
0011
1000
,  // measure 151
2002
0000
0000
0000
,  // measure 152
0000
0000
3003
0000
;

//---------------dance-single - ----------------
#NOTES:
     dance-single:
     :
     Beginner:
     8:
     0.334738,0.510475,0.175093,0.066947,0.000000,455.000000,421.000000,34.000000,13.000000,0.000000,0.000000,0.334738,0.510475,0.175093,0.066947,0.000000,455.000000,421.000000,34.000000,13.000000,0.000000,0.000000:
0000
0000
0000
0000
,
0000
0000
0000
0000
,
0000
0000
0000
0000
,
0000
0000
0000
0000
,
0000
0000
0000
0000
,
0000
0000
0000
0000
,
0000
0000
0000
0000
,
0000
0000
0000
0000
,
0000
0000
0000
0000
,
1000
0000
1000
0000
,
0010
0000
0100
0000
,
0001
0000
0001
0000
,
0100
0000
0010
0000
,
0010
0000
0010
0000
,
0001
0000
1000
0000
,
0100
0000
0100
0000
,
1000
0000
0001
0000
,
1000
0100
0010
0000
0000
0000
0100
0000
,
0001
1000
0010
1000
,
0001
0010
0100
0000
0000
0000
0010
0000
,
1000
0001
0100
0001
,
0010
1000
0001
0000
0000
0000
1000
0000
,
0100
0010
0001
0010
,
0100
0001
1000
0000
0000
0000
0001
0000
,
0010
0100
1000
0100
,
0010
0000
0010
0000
,
0010
0000
0010
0000
,
0020
0000
0000
0000
,
0200
0000
0000
0330
,
1001
0000
0000
0000
,
1000
0010
0100
0000
,
0010
0100
0010
0000
0000
0000
0100
0000
,
0001
0100
0010
0000
,
0100
0010
0100
0000
0000
0000
0010
0000
,
0010
0001
1000
0000
,
0001
1000
0001
0000
0000
0000
1000
0000
,
0100
1000
0001
0000
,
1000
0001
1000
0000
0000
0000
0001
0000
,
1000
0010
0100
0000
,
0010
0100
0010
0000
0000
0000
0100
0000
,
0001
0100
0010
0000
,
0100
0010
0100
0000
0000
0000
0010
0000
,
0010
0001
1000
0000
,
0001
1000
0001
0000
0000
0000
1000
0000
,
0100
1000
0001
0000
,
1000
0001
1000
0000
0000
0000
0001
0000
,
1010
0010
0010
0010
,
0110
0100
1010
0100
,
0101
0100
0100
0100
,
0110
0010
0101
0010
,
0011
0001
0001
0001
,
1001
1000
0011
1000
,
2002
0000
0000
0000
,
0000
0000
3003
0000
,
0020
0000
0000
0000
,
0000
0000
0000
0000
,
0000
0000
0000
0000
,
0030
0000
0000
0000
,
1000
0000
1000
0000
,
0010
0000
0100
0000
,
0001
0000
0001
0000
,
0100
0000
0010
0000
,
0010
0000
0010
0000
,
0001
0000
1000
0000
,
0100
0000
0100
0000
,
1000
0000
0001
0000
,
1000
0000
1000
0000
,
0010
0000
0100
0000
,
0001
0000
0001
0000
,
0100
0000
0010
0000
,
0010
0000
0010
0000
,
0001
0000
1000
0000
,
0100
0000
0100
0000
,
1000
0000
0001
0000
,
1000
0100
0010
0000
0000
0000
0100
0000
,
0001
1000
0010
1000
,
0001
0010
0100
0000
0000
0000
0010
0000
,
1000
0001
0100
0001
,
0010
1000
0001
0000
0000
0000
1000
0000
,
0100
0010
0001
0010
,
0100
0001
1000
0000
0000
0000
0001
0000
,
0010
0100
1000
0100
,
0010
0000
0010
0000
,
0010
0000
0010
0000
,
0020
0000
0000
0000
,
0200
0000
0000
0330
,
1001
0000
0000
0000
,
1000
0010
0100
0000
,
0010
0100
0010
0000
0000
0000
0100
0000
,
0001
0100
0010
0000
,
0100
0010
0100
0000
0000
0000
0010
0000
,
0010
0001
1000
0000
,
0001
1000
0001
0000
0000
0000
1000
0000
,
0100
1000
0001
0000
,
1000
0001
1000
0000
0000
0000
0001
0000
,
1000
0010
0100
0000
,
0010
0100
0010
0000
0000
0000
0100
0000
,
0001
0100
0010
0000
,
0100
0010
0100
0000
0000
0000
0010
0000
,
0010
0001
1000
0000
,
0001
1000
0001
0000
0000
0000
1000
0000
,
0100
1000
0001
0000
,
1000
0001
1000
0000
0000
0000
0001
0000
,
2000
0000
3010
0000
,
1000
0001
1000
0010
,
0002
0000
0103
0000
,
0001
1000
0001
0100
,
0020
0000
0031
0000
,
0010
0100
0010
0001
,
0200
0000
1300
0000
,
0100
0010
0100
1000
,
1000
0000
1000
0000
,
0010
0000
0100
0000
,
0001
0000
0001
0000
,
0100
0000
0010
0000
,
0010
0000
0010
0000
,
0001
0000
1000
0000
,
0100
0000
0100
0000
,
1000
0000
0001
0000
,
0010
0000
0010
0000
,
0010
0000
0010
0000
,
1000
0010
0100
0000
,
0010
0100
0010
0000
0000
0000
0100
0000
,
0001
0100
0010
0000
,
0100
0010
0100
0000
0000
0000
0010
0000
,
0010
0001
1000
0000
,
0001
1000
0001
0000
0000
0000
1000
0000
,
0100
1000
0001
0000
,
1000
0001
1000
0000
0000
0000
0001
0000
,
1000
0010
0100
0000
,
0010
0100
0010
0000
0000
0000
0100
0000
,
0001
0100
0010
0000
,
0100
0010
0100
0000
0000
0000
0010
0000
,
0010
0001
1000
0000
,
0001
1000
0001
0000
0000
0000
1000
0000
,
0100
1000
0001
0000
,
1000
0001
1000
0000
0000
0000
0001
0000
,
1010
0010
0010
0010
,
0110
0100
1010
0100
,
0101
0100
0100
0100
,
0110
0010
0101
0010
,
0011
0001
0001
0001
,
1001
1000
0011
1000
,
1100
1000
1000
1000
,
1001
0001
1100
0001
,
1010
0010
0010
0010
,
0110
0100
1010
0100
,
0101
0100
0100
0100
,
0110
0010
0101
0010
,
0011
0001
0001
0001
,
1001
1000
0011
1000
,
2002
0000
0000
0000
,
0000
0000
3003
0000
;

//---------------dance-single - ----------------
#NOTES:
     dance-single:
     :
     Medium:
     9:
     0.403156,0.549742,0.226592,0.066947,0.000000,548.000000,504.000000,44.000000,13.000000,0.000000,0.000000,0.403156,0.549742,0.226592,0.066947,0.000000,548.000000,504.000000,44.000000,13.000000,0.000000,0.000000:
0000
0000
0000
0000
,
0000
0000
0000
0000
,
0000
0000
0000
0000
,
0000
0000
0000
0000
,
0000
0000
0000
0000
,
0000
0000
0000
0000
,
0000
0000
0000
0000
,
0000
0000
0000
0000
,
0000
0000
0000
0000
,
1000
0000
1000
0000
,
0010
0000
0100
0100
,
0001
0000
0001
0000
,
0100
0000
0010
0010
,
0010
0000
0010
0000
,
0001
0000
1000
1000
,
0100
0000
0100
0000
,
1000
0000
0001
0001
,
1000
0100
0010
0000
0010
0000
0100
0000
,
0001
0010
1000
0000
0010
0000
1000
0000
,
0001
0010
0100
0000
0100
0000
0010
0000
,
1000
0100
0001
0000
0100
0000
0001
0000
,
0010
1000
0001
0000
0001
0000
1000
0000
,
0100
0001
0010
0000
0001
0000
0010
0000
,
0100
0001
1000
0000
1000
0000
0001
0000
,
0010
1000
0100
0000
1000
0000
0100
0000
,
0010
0000
0010
0000
,
0010
0000
0010
0010
,
0020
0000
0000
0000
,
0200
0000
0000
0330
,
1001
0000
0000
0000
,
1000
0010
0100
1000
,
0010
0100
0010
0000
1000
0000
0100
0000
,
0001
0100
0010
0001
,
0100
0010
0100
0000
0001
0000
0010
0000
,
0010
0001
1000
0010
,
0001
1000
0001
0000
0010
0000
1000
0000
,
0100
1000
0001
0100
,
1000
0001
1000
0000
0100
0000
0001
0000
,
1000
0010
0100
1000
,
0010
0100
0010
0000
1000
0000
0100
0000
,
0001
0100
0010
0001
,
0100
0010
0100
0000
0001
0000
0010
0000
,
0010
0001
1000
0010
,
0001
1000
0001
0000
0010
0000
1000
0000
,
0100
1000
0001
0100
,
1000
0001
1000
0000
0100
0000
0001
0000
,
1010
0010
0110
0010
,
0110
0100
1010
0100
,
0101
0100
0110
0100
,
0110
0010
0101
0010
,
0011
0001
1001
0001
,
1001
1000
0011
1000
,
2002
0000
0000
0000
,
0000
0000
3003
0000
,
0020
0000
0000
0000
,
0000
0000
0000
0000
,
0000
0000
0000
0000
,
0030
0000
0000
0000
,
1000
0000
1000
0000
,
0010
0000
0100
0100
,
0001
0000
0001
0000
,
0100
0000
0010
0010
,
0010
0000
0010
0000
,
0001
0000
1000
1000
,
0100
0000
0100
0000
,
1000
0000
0001
0001
,
1000
0000
1000
0000
,
0010
0000
0100
0100
,
0001
0000
0001
0000
,
0100
0000
0010
0010
,
0010
0000
0010
0000
,
0001
0000
1000
1000
,
0100
0000
0100
0000
,
1000
0000
0001
0001
,
1000
0100
0010
0000
0010
0000
0100
0000
,
0001
0010
1000
0000
0010
0000
1000
0000
,
0001
0010
0100
0000
0100
0000
0010
0000
,
1000
0100
0001
0000
0100
0000
0001
0000
,
0010
1000
0001
0000
0001
0000
1000
0000
,
0100
0001
0010
0000
0001
0000
0010
0000
,
0100
0001
1000
0000
1000
0000
0001
0000
,
0010
1000
0100
0000
1000
0000
0100
0000
,
0010
0000
0010
0000
,
0010
0000
0010
0010
,
0020
0000
0000
0000
,
0200
0000
0000
0330
,
1001
0000
0000
0000
,
1000
0010
0100
1000
,
0010
0100
0010
0000
1000
0000
0100
0000
,
0001
0100
0010
0001
,
0100
0010
0100
0000
0001
0000
0010
0000
,
0010
0001
1000
0010
,
0001
1000
0001
0000
0010
0000
1000
0000
,
0100
1000
0001
0100
,
1000
0001
1000
0000
0100
0000
0001
0000
,
1000
0010
0100
1000
,
0010
0100
0010
0000
1000
0000
0100
0000
,
0001
0100
0010
0001
,
0100
0010
0100
0000
0001
0000
0010
0000
,
0010
0001
1000
0010
,
0001
1000
0001
0000
0010
0000
1000
0000
,
0100
1000
0001
0100
,
1000
0001
1000
0000
0100
0000
0001
0000
,
2000
0000
0010
3000
,
1000
0001
1000
0010
,
0002
0000
0100
0003
,
0001
1000
0001
0100
,
0020
0000
0001
0030
,
0010
0100
0010
0001
,
0200
0000
1000
0300
,
0100
0010
0100
1000
,
1000
0000
1000
0000
,
0010
0000
0100
0100
,
0001
0000
0001
0000
,
0100
0000
0010
0010
,
0010
0000
0010
0000
,
0001
0000
1000
1000
,
0100
0000
0100
0000
,
1000
0000
0001
0001
,
0010
0000
0010
0000
,
0010
0000
0010
0010
,
1000
0010
0100
1000
,
0010
0100
0010
0000
1000
0000
0100
0000
,
0001
0100
0010
0001
,
0100
0010
0100
0000
0001
0000
0010
0000
,
0010
0001
1000
0010
,
0001
1000
0001
0000
0010
0000
1000
0000
,
0100
1000
0001
0100
,
1000
0001
1000
0000
0100
0000
0001
0000
,
1000
0010
0100
1000
,
0010
0100
0010
0000
1000
0000
0100
0000
,
0001
0100
0010
0001
,
0100
0010
0100
0000
0001
0000
0010
0000
,
0010
0001
1000
0010
,
0001
1000
0001
0000
0010
0000
1000
0000
,
0100
1000
0001
1000
,
1000
0001
1000
0000
0100
0000
0001
0000
,
1010
0010
0110
0010
,
0110
0100
1010
0100
,
0101
0100
0110
0100
,
0110
0010
0101
0010
,
0011
0001
1001
0001
,
1001
1000
0011
1000
,
1100
1000
1001
1000
,
1001
0001
1100
0001
,
1010
0010
0110
0010
,
0110
0100
1010
0100
,
0101
0100
0110
0100
,
0110
0010
0101
0010
,
0011
0001
1001
0001
,
1001
1000
0011
1000
,
2002
0000
0000
0000
,
0000
0000
3003
0000
;

//---------------dance-single - ----------------
#NOTES:
     dance-single:
     :
     Hard:
     10:
     0.412720,0.589009,0.226592,0.066947,0.000000,561.000000,517.000000,44.000000,13.000000,0.000000,0.000000,0.412720,0.589009,0.226592,0.066947,0.000000,561.000000,517.000000,44.000000,13.000000,0.000000,0.000000:
0000
0000
0000
0000
,
0000
0000
0000
0000
,
0000
0000
0000
0000
,
0000
0000
0000
0000
,
0000
0000
0000
0000
,
0000
0000
0000
0000
,
0000
0000
0000
0000
,
0000
0000
0000
0000
,
0000
0000
0000
0000
,
1000
0000
1000
0000
,
0010
0000
0100
0100
,
0001
0000
0001
0000
,
0100
0000
0010
0010
,
0010
0000
0010
0000
,
0001
0000
1000
1000
,
0100
0000
0100
0000
,
1000
0000
0001
0001
,
1000
0100
0010
0000
0010
0000
0100
0000
,
0001
0010
1000
0000
0010
0000
1000
0000
,
0001
0010
0100
0000
0100
0000
0010
0000
,
1000
0100
0001
0000
0100
0000
0001
0000
,
0010
1000
0001
0000
0001
0000
1000
0000
,
0100
0001
0010
0000
0001
0000
0010
0000
,
0100
0001
1000
0000
1000
0000
0001
0000
,
0010
1000
0100
0000
1000
0000
0100
0000
,
0010
0000
0010
0000
,
0010
0010
0010
0010
,
0020
0000
0000
0000
,
0200
0000
0000
0330
,
1001
0000
0000
0000
,
1000
0010
0100
1000
,
0010
0100
0010
0000
1000
0000
0100
0000
,
0001
0100
0010
0001
,
0100
0010
0100
0000
0001
0000
0010
0000
,
0010
0001
1000
0010
,
0001
1000
0001
0000
0010
0000
1000
0000
,
0100
1000
0001
0100
,
1000
0001
1000
0000
0100
0000
0001
0000
,
1000
0010
0100
1000
,
0010
0100
0010
0000
1000
0000
0100
0000
,
0001
0100
0010
0001
,
0100
0010
0100
0000
0001
0000
0010
0000
,
0010
0001
1000
0010
,
0001
1000
0001
0000
0010
0000
1000
0000
,
0100
1000
0001
0100
,
1000
0001
1000
0000
0100
0000
0001
0000
,
1010
0010
0110
0010
,
0110
0000
0100
0100
1010
0000
0100
0000
,
0101
0100
0110
0100
,
0110
0000
0010
0010
0101
0000
0010
0000
,
0011
0001
1001
0001
,
1001
0000
1000
1000
0011
0000
1000
0000
,
2002
0000
0000
0000
,
0000
0000
3003
0000
,
0020
0000
0000
0000
,
0000
0000
0000
0000
,
0000
0000
0000
0000
,
0030
0000
0000
0000
,
1000
0000
1000
0000
,
0010
0000
0100
0100
,
0001
0000
0001
0000
,
0100
0000
0010
0010
,
0010
0000
0010
0000
,
0001
0000
1000
1000
,
0100
0000
0100
0000
,
1000
0000
0001
0001
,
1000
0000
1000
0000
,
0010
0000
0100
0100
,
0001
0000
0001
0000
,
0100
0000
0010
0010
,
0010
0000
0010
0000
,
0001
0000
1000
1000
,
0100
0000
0100
0000
,
1000
0000
0001
0001
,
1000
0100
0010
0000
0010
0000
0100
0000
,
0001
0010
1000
0000
0010
0000
1000
0000
,
0001
0010
0100
0000
0100
0000
0010
0000
,
1000
0100
0001
0000
0100
0000
0001
0000
,
0010
1000
0001
0000
0001
0000
1000
0000
,
0100
0001
0010
0000
0001
0000
0010
0000
,
0100
0001
1000
0000
1000
0000
0001
0000
,
0010
1000
0100
0000
1000
0000
0100
0000
,
0010
0000
0010
0000
,
0010
0010
0010
0010
,
0020
0000
0000
0000
,
0200
0000
0000
0330
,
1001
0000
0000
0000
,
1000
0010
0100
1000
,
0010
0100
0010
0000
1000
0000
0100
0000
,
0001
0100
0010
0001
,
0100
0010
0100
0000
0001
0000
0010
0000
,
0010
0001
1000
0010
,
0001
1000
0001
0000
0010
0000
1000
0000
,
0100
1000
0001
0100
,
1000
0001
1000
0000
0100
0000
0001
0000
,
1000
0010
0100
1000
,
0010
0100
0010
0000
1000
0000
0100
0000
,
0001
0100
0010
0001
,
0100
0010
0100
0000
0001
0000
0010
0000
,
0010
0001
1000
0010
,
0001
1000
0001
0000
0010
0000
1000
0000
,
0100
1000
0001
0100
,
1000
0001
1000
0000
0100
0000
0001
0000
,
2000
0000
0010
3000
,
1000
0001
1000
0010
,
0002
0000
0100
0003
,
0001
1000
0001
0100
,
0020
0000
0001
0030
,
0010
0100
0010
0001
,
0200
0000
1000
0300
,
0100
0010
0100
1000
,
1000
0000
1000
0000
,
0010
0000
0100
0100
,
0001
0000
0001
0000
,
0100
0000
0010
0010
,
0010
0000
0010
0000
,
0001
0000
1000
1000
,
0100
0000
0100
0000
,
1000
0000
0001
0001
,
0010
0000
0010
0000
,
0010
0010
0010
0010
,
1000
0010
0100
1000
,
0010
0100
0010
0000
1000
0000
0100
0000
,
0001
0100
0010
0001
,
0100
0010
0100
0000
0001
0000
0010
0000
,
0010
0001
1000
0010
,
0001
1000
0001
0000
0010
0000
1000
0000
,
0100
1000
0001
0100
,
1000
0001
1000
0000
0100
0000
0001
0000
,
1000
0010
0100
1000
,
0010
0100
0010
0000
1000
0000
0100
0000
,
0001
0100
0010
0001
,
0100
0010
0100
0000
0001
0000
0010
0000
,
0010
0001
1000
0010
,
0001
1000
0001
0000
0010
0000
1000
0000
,
0100
1000
0001
1000
,
1000
0001
1000
0000
0100
0000
0001
0000
,
1010
0010
0110
0010
,
0110
0000
0100
0000
1010
0100
0100
0000
,
0101
0100
0110
0100
,
0110
0000
0010
0000
0101
0010
0010
0000
,
0011
0001
1001
0001
,
1001
0000
1000
0000
0011
1000
1000
0000
,
1100
1000
1001
1000
,
1001
0000
0001
0000
1100
0001
0001
0000
,
1010
0010
0110
0010
,
0110
0000
0100
0000
1010
0100
0100
0000
,
0101
0100
0110
0100
,
0110
0000
0010
0000
0101
0010
0010
0000
,
0011
0001
1001
0001
,
1001
0000
1000
0000
0011
1000
1000
0000
,
2002
0000
0000
0000
,
0000
0000
3003
0000
;

//---------------dance-single - ----------------
#NOTES:
     dance-single:
     :
     Challenge:
     10:
     0.442148,0.589009,0.226592,0.066947,0.000000,601.000000,557.000000,44.000000,13.000000,0.000000,0.000000,0.442148,0.589009,0.226592,0.066947,0.000000,601.000000,557.000000,44.000000,13.000000,0.000000,0.000000:
0000
0000
0000
0000
,
0000
0000
0000
0000
,
0000
0000
0000
0000
,
0000
0000
0000
0000
,
0000
0000
0000
0000
,
0000
0000
0000
0000
,
0000
0000
0000
0000
,
0000
0000
0000
0000
,
0000
0000
0000
0000
,
1000
0010
1000
0000
,
0010
0000
0100
0100
,
0001
0100
0001
0000
,
0100
0000
0010
0010
,
0010
0001
0010
0000
,
0001
0000
1000
1000
,
0100
1000
0100
0000
,
1000
0000
0001
0001
,
1000
0100
0010
0000
0010
0000
0100
0000
,
0001
0010
1000
0000
0010
0000
1000
0000
,
0001
0010
0100
0000
0100
0000
0010
0000
,
1000
0100
0001
0000
0100
0000
0001
0000
,
0010
1000
0001
0000
0001
0000
1000
0000
,
0100
0001
0010
0000
0001
0000
0010
0000
,
0100
0001
1000
0000
1000
0000
0001
0000
,
0010
1000
0100
0000
1000
0000
0100
0000
,
0010
0000
0010
0000
,
0010
0010
0010
0010
,
0020
0000
0000
0000
,
0200
0000
0000
0330
,
1001
0000
0000
0000
,
1000
0100
0010
0000
0100
0000
1000
0000
,
0010
0100
0010
0000
1000
0000
0100
0000
,
0001
0010
0100
0000
0010
0000
0001
0000
,
0100
0010
0100
0000
0001
0000
0010
0000
,
0010
1000
0001
0000
1000
0000
0010
0000
,
0001
1000
0001
0000
0010
0000
1000
0000
,
0100
0001
1000
0000
0001
0000
0100
0000
,
1000
0001
1000
0000
0100
0000
0001
0000
,
1000
0100
0010
0000
0100
0000
1000
0000
,
0010
0100
0010
0000
1000
0000
0100
0000
,
0001
0010
0100
0000
0010
0000
0001
0000
,
0100
0010
0100
0000
0001
0000
0010
0000
,
0010
1000
0001
0000
1000
0000
0010
0000
,
0001
1000
0001
0000
0010
0000
1000
0000
,
0100
0001
1000
0000
0001
0000
0100
0000
,
1000
0001
1000
0000
0100
0000
0001
0000
,
1010
0010
0110
0010
,
0110
0000
0100
0100
1010
0000
0100
0000
,
0101
0100
0110
0100
,
0110
0000
0010
0010
0101
0000
0010
0000
,
0011
0001
1001
0001
,
1001
0000
1000
1000
0011
0000
1000
0000
,
2002
0000
0000
0000
,
0000
0000
3003
0000
,
0020
0000
0000
0000
,
0000
0000
0000
0000
,
0000
0000
0000
0000
,
0030
0000
0000
0000
,
1000
0010
1000
0000
,
0010
0000
0100
0100
,
0001
0100
0001
0000
,
0100
0000
0010
0010
,
0010
0001
0010
0000
,
0001
0000
1000
1000
,
0100
1000
0100
0000
,
1000
0000
0001
0001
,
1000
0010
1000
0000
,
0010
0000
0100
0100
,
0001
0100
0001
0000
,
0100
0000
0010
0010
,
0010
0001
0010
0000
,
0001
0000
1000
1000
,
0100
1000
0100
0000
,
1000
0000
0001
0001
,
1000
0100
0010
0000
0010
0000
0100
0000
,
0001
0010
1000
0000
0010
0000
1000
0000
,
0001
0010
0100
0000
0100
0000
0010
0000
,
1000
0100
0001
0000
0100
0000
0001
0000
,
0010
1000
0001
0000
0001
0000
1000
0000
,
0100
0001
0010
0000
0001
0000
0010
0000
,
0100
0001
1000
0000
1000
0000
0001
0000
,
0010
1000
0100
0000
1000
0000
0100
0000
,
0010
0000
0010
0000
,
0010
0010
0010
0010
,
0020
0000
0000
0000
,
0200
0000
0000
0330
,
1001
0000
0000
0000
,
1000
0100
0010
0000
0100
0000
1000
0000
,
0010
0100
0010
0000
1000
0000
0100
0000
,
0001
0010
0100
0000
0010
0000
0001
0000
,
0100
0010
0100
0000
0001
0000
0010
0000
,
0010
1000
0001
0000
1000
0000
0010
0000
,
0001
1000
0001
0000
0010
0000
1000
0000
,
0100
0001
1000
0000
0001
0000
0100
0000
,
1000
0001
1000
0000
0100
0000
0001
0000
,
1000
0100
0010
0000
0100
0000
1000
0000
,
0010
0100
0010
0000
1000
0000
0100
0000
,
0001
0010
0100
0000
0010
0000
0001
0000
,
0100
0010
0100
0000
0001
0000
0010
0000
,
0010
1000
0001
0000
1000
0000
0010
0000
,
0001
1000
0001
0000
0010
0000
1000
0000
,
0100
0001
1000
0000
0001
0000
0100
0000
,
1000
0001
1000
0000
0100
0000
0001
0000
,
2000
0000
0010
3000
,
1000
0001
1000
0010
,
0002
0000
0100
0003
,
0001
1000
0001
0100
,
0020
0000
0001
0030
,
0010
0100
0010
0001
,
0200
0000
1000
0300
,
0100
0010
0100
1000
,
1000
0010
1000
0000
,
0010
0000
0100
0100
,
0001
0100
0001
0000
,
0100
0000
0010
0010
,
0010
0001
0010
0000
,
0001
0000
1000
1000
,
0100
1000
0100
0000
,
1000
0000
0001
0001
,
0010
0000
0010
0000
,
0010
0010
0010
0010
,
1000
0100
0010
0000
0100
0000
1000
0000
,
0010
0100
0010
0000
1000
0000
0100
0000
,
0001
0010
0100
0000
0010
0000
0001
0000
,
0100
0010
0100
0000
0001
0000
0010
0000
,
0010
1000
0001
0000
1000
0000
0010
0000
,
0001
1000
0001
0000
0010
0000
1000
0000
,
0100
0001
1000
0000
0001
0000
0100
0000
,
1000
0001
1000
0000
0100
0000
0001
0000
,
1000
0100
0010
0000
0100
0000
1000
0000
,
0010
0100
0010
0000
1000
0000
0100
0000
,
0001
0010
0100
0000
0010
0000
0001
0000
,
0100
0010
0100
0000
0001
0000
0010
0000
,
0010
1000
0001
0000
1000
0000
0010
0000
,
0001
1000
0001
0000
0010
0000
1000
0000
,
0100
0001
1000
0000
0001
0000
1000
0000
,
1000
0001
1000
0000
0100
0000
0001
0000
,
1010
0010
0110
0010
,
0110
0000
0100
0000
1010
0100
0100
0000
,
0101
0100
0110
0100
,
0110
0000
0010
0000
0101
0010
0010
0000
,
0011
0001
1001
0001
,
1001
0000
1000
0000
0011
1000
1000
0000
,
1100
1000
1001
1000
,
1001
0000
0001
0000
1100
0001
0001
0000
,
1010
0010
0110
0010
,
0110
0000
0100
0000
1010
0100
0100
0000
,
0101
0100
0110
0100
,
0110
0000
0010
0000
0101
0010
0010
0000
,
0011
0001
1001
0001
,
1001
0000
1000
0000
0011
1000
1000
0000
,
2002
0000
0000
0000
,
0000
0000
3003
0000
;
