#VERSION:0.83;
#TITLE:DESIGNED LOVE;
#SUBTITLE:;
#ARTIST:GEMS COMPANY;
#TITLETRANSLIT:Designed Love;
#SUBTITLETRANSLIT:;
#ARTISTTRANSLIT:Gems Company;
#GENRE:;
#ORIGIN:;
#CREDIT:;
#BANNER:;
#BACKGROUND:;
#PREVIEWVID:;
#JACKET:;
#CDIMAGE:;
#DISCIMAGE:;
#LYRICSPATH:;
#CDTITLE:;
#MUSIC:DESIGNED LOVE.ogg;
#OFFSET:-0.257000;
#SAMPLESTART:66.718536;
#SAMPLELENGTH:15.000000;
#SELECTABLE:YES;
#BPMS:0.000=130.000;
#STOPS:;
#DELAYS:;
#WARPS:;
#TIMESIGNATURES:0.000=4=4;
#TICKCOUNTS:0.000=4;
#COMBOS:0.000=1;
#SPEEDS:0.000=1.000=0.000=0;
#SCROLLS:0.000=1.000;
#FAKES:;
#LABELS:0.000=Song Start;
#BGCHANGES:;
#KEYSOUNDS:;
#ATTACKS:
;

//---------------dance-single - ----------------
#NOTEDATA:;
#CHARTNAME:;
#STEPSTYPE:dance-single;
#DESCRIPTION:;
#CHARTSTYLE:;
#DIFFICULTY:Easy;
#METER:11;
#RADARVALUES:0.469211,0.565012,0.017517,0.175172,0.275896,750.000000,746.000000,4.000000,40.000000,0.000000,0.000000,0.000000,0.000000,0.000000,0.469211,0.565012,0.017517,0.175172,0.275896,750.000000,746.000000,4.000000,40.000000,0.000000,0.000000,0.000000,0.000000,0.000000;
#CREDIT:;
#NOTES:
// measure 0
0000
0000
0000
0000
,  // measure 1
0000
0000
0000
0000
,  // measure 2
0000
0000
0000
0000
,  // measure 3
0000
0000
0000
0000
,  // measure 4
1000
0000
0000
0000
,  // measure 5
1000
0000
0000
0000
,  // measure 6
0001
0000
0000
0000
,  // measure 7
0001
0000
0000
0000
,  // measure 8
1000
0000
0010
0000
1000
0000
0000
0000
0001
0010
0100
1000
0000
0000
1000
0100
,  // measure 9
0010
0001
0000
0010
0000
0000
0010
0000
0100
0000
0000
0100
0000
0000
0100
0000
,  // measure 10
1000
0100
0000
0000
0100
0010
0000
0000
0010
0001
0000
0000
0001
0010
0000
0000
,  // measure 11
1000
0001
1000
0001
0010
0000
0010
0000
0100
0010
0000
0000
0010
0100
0000
0000
,  // measure 12
0001
0000
0100
0000
0001
0000
0000
0000
1000
0100
0010
0001
0000
0000
0001
0010
,  // measure 13
0100
1000
0000
0100
0000
0000
0100
0000
0010
0000
0000
0010
0000
0000
0010
0000
,  // measure 14
0001
0010
0000
0000
0010
0100
0000
0000
0100
1000
0000
0000
1000
0100
0000
0000
,  // measure 15
0001
1000
0001
1000
0100
0000
0100
0000
0010
0100
0000
0000
0100
0010
0000
0000
,  // measure 16
2000
0000
0000
0001
0000
0000
0001
0000
3020
0000
0000
0100
0000
0000
0130
0000
,  // measure 17
0002
0000
0000
1000
0000
0000
1000
0000
0203
0000
0000
0010
0000
0000
0310
0000
,  // measure 18
1000
1000
0001
0001
,  // measure 19
1000
0100
0010
0001
,  // measure 20
0010
0100
1000
0001
0010
0100
0010
0010
,  // measure 21
0100
0000
0100
0000
0100
0010
0100
0010
0100
0000
0100
0010
0200
0000
0000
0300
,  // measure 22
0001
0001
1000
1000
,  // measure 23
0001
0010
0100
1000
,  // measure 24
0100
0010
0001
1000
0100
0010
0100
0100
,  // measure 25
0010
0000
0010
0000
0010
0100
0010
0100
0010
0000
0010
0100
0020
0000
0000
0030
,  // measure 26
0200
0000
0010
0010
,  // measure 27
0310
0100
1000
0100
0010
0001
1000
0100
,  // measure 28
0020
0000
0100
0100
,  // measure 29
0130
0010
0001
0010
0100
1000
0001
0010
,  // measure 30
0000
0100
0100
0100
0100
0100
0000
0000
,  // measure 31
0000
0010
0010
0010
0010
0010
0000
0000
,  // measure 32
1000
0100
0001
0100
1000
0100
0001
0100
,  // measure 33
0001
0010
1000
0010
0001
0010
1000
0010
,  // measure 34
1000
0000
0001
0000
1000
0000
0001
0000
1000
0001
1000
0001
1000
0001
1000
0000
,  // measure 35
2002
0000
0000
3003
,  // measure 36
1000
1000
0010
0010
,  // measure 37
0100
0010
0001
1000
0100
0010
0100
0010
,  // measure 38
0001
0001
0100
0100
,  // measure 39
0010
0100
1000
0001
0010
0100
0010
0100
,  // measure 40
0010
0010
0001
0001
,  // measure 41
1000
0001
0100
0010
1000
0001
1000
0001
,  // measure 42
0100
0100
1000
1000
,  // measure 43
0001
1000
0010
0100
0001
1000
0001
1000
,  // measure 44
2000
0000
0000
0001
0000
0000
0001
0000
3020
0000
0000
0100
0000
0000
0130
0000
,  // measure 45
0002
0000
0000
1000
0000
0000
1000
0000
0203
0000
0000
0010
0000
0000
0310
0000
,  // measure 46
0020
0000
0000
0100
0000
0000
0100
0000
0032
0000
0000
1000
0000
0000
1003
0000
,  // measure 47
0200
0000
0000
0010
0000
0000
0010
0000
2300
0000
0000
0001
0000
0000
3001
0000
,  // measure 48
2002
0000
0000
3003
,  // measure 49
1000
0000
0010
0000
1000
0000
0000
0000
0001
0010
0100
1000
0000
0000
1000
0100
,  // measure 50
0010
0001
0000
0010
0000
0000
0010
0000
0100
0000
0000
0100
0000
0000
0100
0000
,  // measure 51
1000
0100
0000
0000
0100
0010
0000
0000
0010
0001
0000
0000
0001
0010
0000
0000
,  // measure 52
1000
0001
1000
0001
0010
0000
0010
0000
0100
0010
0000
0000
0010
0100
0000
0000
,  // measure 53
0001
0000
0100
0000
0001
0000
0000
0000
1000
0100
0010
0001
0000
0000
0001
0010
,  // measure 54
0100
1000
0000
0100
0000
0000
0100
0000
0010
0000
0000
0010
0000
0000
0010
0000
,  // measure 55
0001
0010
0000
0000
0010
0100
0000
0000
0100
1000
0000
0000
1000
0100
0000
0000
,  // measure 56
0001
1000
0001
1000
0100
0000
0100
0000
0010
0100
0000
0000
0100
0010
0000
0000
,  // measure 57
1000
1000
0001
0001
,  // measure 58
1000
0100
0010
0001
,  // measure 59
0010
0100
1000
0001
0010
0100
0010
0010
,  // measure 60
0100
0000
0100
0000
0100
0010
0100
0010
0100
0000
0100
0010
0200
0000
0000
0300
,  // measure 61
0001
0001
1000
1000
,  // measure 62
0001
0010
0100
1000
,  // measure 63
0100
0010
0001
1000
0100
0010
0100
0100
,  // measure 64
0010
0000
0010
0000
0010
0100
0010
0100
0010
0000
0010
0100
0020
0000
0000
0030
,  // measure 65
0200
0000
0010
0010
,  // measure 66
0310
0100
1000
0100
0010
0001
1000
0100
,  // measure 67
0020
0000
0100
0100
,  // measure 68
0130
0010
0001
0010
0100
1000
0001
0010
,  // measure 69
0000
0100
0100
0100
0100
0100
0000
0000
,  // measure 70
0000
0010
0010
0010
0010
0010
0000
0000
,  // measure 71
1000
0100
0001
0100
1000
0100
0001
0100
,  // measure 72
0001
0010
1000
0010
0001
0010
1000
0010
,  // measure 73
1000
0000
0001
0000
1000
0000
0001
0000
1000
0001
1000
0001
1000
0001
1000
0000
,  // measure 74
2002
0000
0000
3003
,  // measure 75
1000
1000
0010
0010
,  // measure 76
0100
0010
0001
1000
0100
0010
0100
0010
,  // measure 77
0001
0001
0100
0100
,  // measure 78
0010
0100
1000
0001
0010
0100
0010
0100
,  // measure 79
0010
0010
0001
0001
,  // measure 80
1000
0001
0100
0010
1000
0001
1000
0001
,  // measure 81
0100
0100
1000
1000
,  // measure 82
0001
1000
0010
0100
0001
1000
0001
1000
,  // measure 83
1000
1000
0010
0010
,  // measure 84
0100
0010
0001
1000
0100
0010
0100
0010
,  // measure 85
0001
0001
0100
0100
,  // measure 86
0010
0100
1000
0001
0010
0100
0010
0100
,  // measure 87
0010
0010
0001
0001
,  // measure 88
1000
0001
0100
0010
1000
0001
1000
0001
,  // measure 89
0100
0100
1000
1000
,  // measure 90
0001
1000
0010
0100
0001
1000
0001
1000
,  // measure 91
0000
0000
0000
0000
,  // measure 92
1000
1000
0010
0010
,  // measure 93
0100
0010
0001
1000
0100
0010
0100
0010
,  // measure 94
0001
0001
0100
0100
,  // measure 95
0010
0100
1000
0001
0010
0100
0010
0100
,  // measure 96
0010
0010
0001
0001
,  // measure 97
1000
0001
0100
0010
1000
0001
1000
0001
,  // measure 98
0100
0100
1000
1000
,  // measure 99
0001
1000
0010
0100
0001
1000
0001
1000
,  // measure 100
1000
1000
0010
0010
,  // measure 101
0100
0010
0001
1000
0100
0010
0100
0010
,  // measure 102
0001
0001
0100
0100
,  // measure 103
0010
0100
1000
0001
0010
0100
0010
0100
,  // measure 104
0010
0010
0001
0001
,  // measure 105
1000
0001
0100
0010
1000
0001
1000
0001
,  // measure 106
0100
0100
1000
1000
,  // measure 107
0001
1000
0010
0100
0001
1000
0001
1000
,  // measure 108
2000
0000
0000
0001
0000
0000
0001
0000
3020
0000
0000
0100
0000
0000
0130
0000
,  // measure 109
0002
0000
0000
1000
0000
0000
1000
0000
0203
0000
0000
0010
0000
0000
0310
0000
,  // measure 110
0020
0000
0000
0100
0000
0000
0100
0000
0032
0000
0000
1000
0000
0000
1003
0000
,  // measure 111
0200
0000
0000
0010
0000
0000
0010
0000
2300
0000
0000
0001
0000
0000
3001
0000
,  // measure 112
2002
0000
0000
3003
,  // measure 113
1000
0000
0010
0000
1000
0000
0000
0000
0001
0010
0100
1000
0000
0000
1000
0100
,  // measure 114
0010
0001
0000
0010
0000
0000
0010
0000
0100
0000
0000
0100
0000
0000
0100
0000
,  // measure 115
1000
0100
0000
0000
0100
0010
0000
0000
0010
0001
0000
0000
0001
0010
0000
0000
,  // measure 116
1000
0001
1000
0001
0010
0000
0010
0000
0100
0010
0000
0000
0010
0100
0000
0000
,  // measure 117
0001
0000
0100
0000
0001
0000
0000
0000
1000
0100
0010
0001
0000
0000
0001
0010
,  // measure 118
0100
1000
0000
0100
0000
0000
0100
0000
0010
0000
0000
0010
0000
0000
0010
0000
,  // measure 119
0001
0010
0000
0000
0010
0100
0000
0000
0100
1000
0000
0000
1000
0100
0000
0000
,  // measure 120
0001
1000
0001
1000
0100
0000
0100
0000
0010
0100
0000
0000
0100
0010
0000
0000
,  // measure 121
2000
0000
0000
0001
0000
0000
0001
0000
3020
0000
0000
0100
0000
0000
0130
0000
,  // measure 122
0002
0000
0000
1000
0000
0000
1000
0000
0203
0000
0000
0010
0000
0000
0310
0000
;

//---------------dance-single - ----------------
#NOTEDATA:;
#CHARTNAME:;
#STEPSTYPE:dance-single;
#DESCRIPTION:;
#CHARTSTYLE:;
#DIFFICULTY:Beginner;
#METER:11;
#RADARVALUES:0.439181,0.511201,0.017517,0.175172,0.223344,702.000000,698.000000,4.000000,40.000000,0.000000,0.000000,0.000000,0.000000,0.000000,0.439181,0.511201,0.017517,0.175172,0.223344,702.000000,698.000000,4.000000,40.000000,0.000000,0.000000,0.000000,0.000000,0.000000;
#CREDIT:;
#NOTES:
// measure 0
0000
0000
0000
0000
,  // measure 1
0000
0000
0000
0000
,  // measure 2
0000
0000
0000
0000
,  // measure 3
0000
0000
0000
0000
,  // measure 4
1000
0000
0000
0000
,  // measure 5
1000
0000
0000
0000
,  // measure 6
0001
0000
0000
0000
,  // measure 7
0001
0000
0000
0000
,  // measure 8
1000
0000
0010
0000
1000
0000
0000
0000
0001
0010
0100
0000
0000
0000
1000
0100
,  // measure 9
0010
0001
0000
0010
0000
0000
0010
0000
0100
0000
0000
0100
0000
0000
0100
0000
,  // measure 10
1000
0100
0000
0000
0100
0010
0000
0000
0010
0001
0000
0000
0001
0010
0000
0000
,  // measure 11
1000
0001
1000
0000
0010
0000
0010
0000
0100
0010
0000
0000
0010
0100
0000
0000
,  // measure 12
0001
0000
0100
0000
0001
0000
0000
0000
1000
0100
0010
0000
0000
0000
0001
0010
,  // measure 13
0100
1000
0000
0100
0000
0000
0100
0000
0010
0000
0000
0010
0000
0000
0010
0000
,  // measure 14
0001
0010
0000
0000
0010
0100
0000
0000
0100
1000
0000
0000
1000
0100
0000
0000
,  // measure 15
0001
1000
0001
0000
0100
0000
0100
0000
0010
0100
0000
0000
0100
0010
0000
0000
,  // measure 16
2000
0000
0000
0001
0000
0000
0001
0000
3020
0000
0000
0100
0000
0000
0130
0000
,  // measure 17
0002
0000
0000
1000
0000
0000
1000
0000
0203
0000
0000
0010
0000
0000
0310
0000
,  // measure 18
1000
1000
0001
0001
,  // measure 19
1000
0100
0010
0001
,  // measure 20
0010
0100
1000
0001
0010
0100
0010
0000
,  // measure 21
0100
0000
0100
0000
0100
0010
0100
0000
0100
0000
0100
0010
0200
0000
0000
0300
,  // measure 22
0001
0001
1000
1000
,  // measure 23
0001
0010
0100
1000
,  // measure 24
0100
0010
0001
1000
0100
0010
0100
0000
,  // measure 25
0010
0000
0010
0000
0010
0100
0010
0000
0010
0000
0010
0100
0020
0000
0000
0030
,  // measure 26
0200
0000
0010
0010
,  // measure 27
0310
0100
1000
0100
0010
0001
1000
0100
,  // measure 28
0020
0000
0100
0100
,  // measure 29
0130
0010
0001
0010
0100
1000
0001
0010
,  // measure 30
0000
0100
0100
0100
0100
0100
0000
0000
,  // measure 31
0000
0010
0010
0010
0010
0010
0000
0000
,  // measure 32
1000
0100
0001
0100
1000
0100
0001
0100
,  // measure 33
0001
0010
1000
0010
0001
0010
1000
0010
,  // measure 34
1000
0000
0001
0000
1000
0000
0001
0000
1000
0000
0001
0000
1000
0001
1000
0000
,  // measure 35
2002
0000
0000
3003
,  // measure 36
1000
1000
0010
0010
,  // measure 37
0100
0010
0001
1000
0100
0010
0100
0000
,  // measure 38
0001
0001
0100
0100
,  // measure 39
0010
0100
1000
0001
0010
0100
0010
0000
,  // measure 40
0010
0010
0001
0001
,  // measure 41
1000
0001
0100
0010
1000
0001
1000
0000
,  // measure 42
0100
0100
1000
1000
,  // measure 43
0001
1000
0010
0100
0001
1000
0001
0000
,  // measure 44
2000
0000
0000
0001
0000
0000
0001
0000
3020
0000
0000
0100
0000
0000
0130
0000
,  // measure 45
0002
0000
0000
1000
0000
0000
1000
0000
0203
0000
0000
0010
0000
0000
0310
0000
,  // measure 46
0020
0000
0000
0100
0000
0000
0100
0000
0032
0000
0000
1000
0000
0000
1003
0000
,  // measure 47
0200
0000
0000
0010
0000
0000
0010
0000
2300
0000
0000
0001
0000
0000
3001
0000
,  // measure 48
2002
0000
0000
3003
,  // measure 49
1000
0000
0010
0000
1000
0000
0000
0000
0001
0010
0100
0000
0000
0000
1000
0100
,  // measure 50
0010
0000
0000
0010
0000
0000
0010
0000
0100
0000
0000
0100
0000
0000
0100
0000
,  // measure 51
1000
0100
0000
0000
0100
0010
0000
0000
0010
0001
0000
0000
0001
0010
0000
0000
,  // measure 52
1000
0001
1000
0000
0010
0000
0010
0000
0100
0010
0000
0000
0010
0100
0000
0000
,  // measure 53
0001
0000
0100
0000
0001
0000
0000
0000
1000
0100
0010
0000
0000
0000
0001
0010
,  // measure 54
0100
0000
0000
0100
0000
0000
0100
0000
0010
0000
0000
0010
0000
0000
0010
0000
,  // measure 55
0001
0010
0000
0000
0010
0100
0000
0000
0100
1000
0000
0000
1000
0100
0000
0000
,  // measure 56
0001
1000
0001
0000
0100
0000
0100
0000
0010
0100
0000
0000
0100
0010
0000
0000
,  // measure 57
1000
1000
0001
0001
,  // measure 58
1000
0100
0010
0001
,  // measure 59
0010
0100
1000
0001
0010
0100
0010
0000
,  // measure 60
0100
0000
0100
0000
0100
0010
0100
0000
0100
0000
0100
0010
0200
0000
0000
0300
,  // measure 61
0001
0001
1000
1000
,  // measure 62
0001
0010
0100
1000
,  // measure 63
0100
0010
0001
1000
0100
0010
0100
0000
,  // measure 64
0010
0000
0010
0000
0010
0100
0010
0000
0010
0000
0010
0100
0020
0000
0000
0030
,  // measure 65
0200
0000
0010
0010
,  // measure 66
0310
0100
1000
0100
0010
0001
1000
0100
,  // measure 67
0020
0000
0100
0100
,  // measure 68
0130
0010
0001
0010
0100
1000
0001
0010
,  // measure 69
0000
0100
0100
0100
0100
0100
0000
0000
,  // measure 70
0000
0010
0010
0010
0010
0010
0000
0000
,  // measure 71
1000
0100
0001
0100
1000
0100
0001
0100
,  // measure 72
0001
0010
1000
0010
0001
0010
1000
0010
,  // measure 73
1000
0000
0001
0000
1000
0000
0001
0000
1000
0000
0001
0000
1000
0001
1000
0000
,  // measure 74
2002
0000
0000
3003
,  // measure 75
1000
1000
0010
0010
,  // measure 76
0100
0010
0001
1000
0100
0010
0100
0000
,  // measure 77
0001
0001
0100
0100
,  // measure 78
0010
0100
1000
0001
0010
0100
0010
0000
,  // measure 79
0010
0010
0001
0001
,  // measure 80
1000
0001
0100
0010
1000
0001
1000
0000
,  // measure 81
0100
0100
1000
1000
,  // measure 82
0001
1000
0010
0100
0001
1000
0001
0000
,  // measure 83
1000
1000
0010
0010
,  // measure 84
0100
0010
0001
1000
0100
0010
0100
0000
,  // measure 85
0001
0001
0100
0100
,  // measure 86
0010
0100
1000
0001
0010
0100
0010
0000
,  // measure 87
0010
0010
0001
0001
,  // measure 88
1000
0001
0100
0010
1000
0001
1000
0000
,  // measure 89
0100
0100
1000
1000
,  // measure 90
0001
1000
0010
0100
0001
1000
0001
0000
,  // measure 91
0000
0000
0000
0000
,  // measure 92
1000
1000
0010
0010
,  // measure 93
0100
0010
0001
1000
0100
0010
0100
0000
,  // measure 94
0001
0001
0100
0100
,  // measure 95
0010
0100
1000
0001
0010
0100
0010
0000
,  // measure 96
0010
0010
0001
0001
,  // measure 97
1000
0001
0100
0010
1000
0001
1000
0000
,  // measure 98
0100
0100
1000
1000
,  // measure 99
0001
1000
0010
0100
0001
1000
0001
0000
,  // measure 100
1000
1000
0010
0010
,  // measure 101
0100
0010
0001
1000
0100
0010
0100
0000
,  // measure 102
0001
0001
0100
0100
,  // measure 103
0010
0100
1000
0001
0010
0100
0010
0000
,  // measure 104
0010
0010
0001
0001
,  // measure 105
1000
0001
0100
0010
1000
0001
1000
0000
,  // measure 106
0100
0100
1000
1000
,  // measure 107
0001
1000
0010
0100
0001
1000
0001
0000
,  // measure 108
2000
0000
0000
0001
0000
0000
0001
0000
3020
0000
0000
0100
0000
0000
0130
0000
,  // measure 109
0002
0000
0000
1000
0000
0000
1000
0000
0203
0000
0000
0010
0000
0000
0310
0000
,  // measure 110
0020
0000
0000
0100
0000
0000
0100
0000
0032
0000
0000
1000
0000
0000
1003
0000
,  // measure 111
0200
0000
0000
0010
0000
0000
0010
0000
2300
0000
0000
0001
0000
0000
3001
0000
,  // measure 112
2002
0000
0000
3003
,  // measure 113
1000
0000
0010
0000
1000
0000
0000
0000
0001
0010
0100
0000
0000
0000
1000
0100
,  // measure 114
0010
0000
0000
0010
0000
0000
0010
0000
0100
0000
0000
0100
0000
0000
0100
0000
,  // measure 115
1000
0100
0000
0000
0100
0010
0000
0000
0010
0001
0000
0000
0001
0010
0000
0000
,  // measure 116
1000
0001
1000
0000
0010
0000
0010
0000
0100
0010
0000
0000
0010
0100
0000
0000
,  // measure 117
0001
0000
0100
0000
0001
0000
0000
0000
1000
0100
0010
0000
0000
0000
0001
0010
,  // measure 118
0100
0000
0000
0100
0000
0000
0100
0000
0010
0000
0000
0010
0000
0000
0010
0000
,  // measure 119
0001
0010
0000
0000
0010
0100
0000
0000
0100
1000
0000
0000
1000
0100
0000
0000
,  // measure 120
0001
1000
0001
0000
0100
0000
0100
0000
0010
0100
0000
0000
0100
0010
0000
0000
,  // measure 121
2000
0000
0000
0001
0000
0000
0001
0000
3020
0000
0000
0100
0000
0000
0130
0000
,  // measure 122
0002
0000
0000
1000
0000
0000
1000
0000
0203
0000
0000
0010
0000
0000
0310
0000
;

//---------------dance-single - ----------------
#NOTEDATA:;
#CHARTNAME:;
#STEPSTYPE:dance-single;
#DESCRIPTION:;
#CHARTSTYLE:;
#DIFFICULTY:Medium;
#METER:11;
#RADARVALUES:0.497989,0.565012,0.140138,0.175172,0.275896,796.000000,764.000000,32.000000,40.000000,0.000000,0.000000,0.000000,0.000000,0.000000,0.497989,0.565012,0.140138,0.175172,0.275896,796.000000,764.000000,32.000000,40.000000,0.000000,0.000000,0.000000,0.000000,0.000000;
#CREDIT:;
#NOTES:
// measure 0
0000
0000
0000
0000
,  // measure 1
0000
0000
0000
0000
,  // measure 2
0000
0000
0000
0000
,  // measure 3
0000
0000
0000
0000
,  // measure 4
1000
0000
0000
0000
,  // measure 5
1000
0000
1000
0000
,  // measure 6
0001
0000
0000
0000
,  // measure 7
0001
0000
0001
0000
,  // measure 8
1000
0000
0010
0000
1000
0000
0000
0000
0001
0010
0100
1000
0001
0000
1000
0100
,  // measure 9
0010
0001
1000
0010
0000
0000
0010
0000
0100
0000
0000
0100
0000
0000
0100
0000
,  // measure 10
1000
0100
0000
0000
0100
0010
0000
0000
0010
0001
0000
0000
0001
0010
0000
0000
,  // measure 11
1000
0001
1000
0001
0010
0000
0010
0000
0100
0010
0000
0000
0010
0100
0000
0000
,  // measure 12
0001
0000
0100
0000
0001
0000
0000
0000
1000
0100
0010
0001
1000
0000
0001
0010
,  // measure 13
0100
1000
0001
0100
0000
0000
0100
0000
0010
0000
0000
0010
0000
0000
0010
0000
,  // measure 14
0001
0010
0000
0000
0010
0100
0000
0000
0100
1000
0000
0000
1000
0100
0000
0000
,  // measure 15
0001
1000
0001
1000
0100
0000
0100
0000
0010
0100
0000
0000
0100
0010
0000
0000
,  // measure 16
2000
0000
0000
0001
0000
0000
0001
0000
3020
0000
0000
0100
0000
0000
0130
0000
,  // measure 17
0002
0000
0000
1000
0000
0000
1000
0000
0203
0000
0000
0010
0000
0000
0310
0000
,  // measure 18
1001
1000
0001
0001
,  // measure 19
1000
0100
0010
0001
,  // measure 20
0010
0100
1000
0001
0010
0100
0010
0010
,  // measure 21
0100
0000
0100
0000
0100
0010
0100
0010
0100
0000
0100
0010
0200
0000
0000
0300
,  // measure 22
1001
0001
1000
1000
,  // measure 23
0001
0010
0100
1000
,  // measure 24
0100
0010
0001
1000
0100
0010
0100
0100
,  // measure 25
0010
0000
0010
0000
0010
0100
0010
0100
0010
0000
0010
0100
0020
0000
0000
0030
,  // measure 26
0210
0010
0010
0010
,  // measure 27
0310
0100
1000
0100
0010
0001
1000
0100
,  // measure 28
0120
0100
0100
0100
,  // measure 29
0130
0010
0001
0010
0100
1000
0001
0010
,  // measure 30
0000
0100
0100
0100
0100
0100
0000
0000
,  // measure 31
0000
0010
0010
0010
0010
0010
0000
0000
,  // measure 32
1000
0100
0001
0100
1000
0100
0001
0100
,  // measure 33
0001
0010
1000
0010
0001
0010
1000
0010
,  // measure 34
1000
0000
0001
0000
1000
0000
0001
0000
1000
0001
1000
0001
1000
0001
1000
0000
,  // measure 35
2002
0000
0000
3003
,  // measure 36
1001
1000
0010
0010
,  // measure 37
0100
0010
0001
1000
0100
0010
0100
0010
,  // measure 38
1001
0001
0100
0100
,  // measure 39
0010
0100
1000
0001
0010
0100
0010
0100
,  // measure 40
0110
0010
0001
0001
,  // measure 41
1000
0001
0100
0010
1000
0001
1000
0001
,  // measure 42
0110
0100
1000
1000
,  // measure 43
0001
1000
0010
0100
0001
1000
0001
1000
,  // measure 44
2000
0000
0000
0001
0000
0000
0001
0000
3020
0000
0000
0100
0000
0000
0130
0000
,  // measure 45
0002
0000
0000
1000
0000
0000
1000
0000
0203
0000
0000
0010
0000
0000
0310
0000
,  // measure 46
0020
0000
0000
0100
0000
0000
0100
0000
0032
0000
0000
1000
0000
0000
1003
0000
,  // measure 47
0200
0000
0000
0010
0000
0000
0010
0000
2300
0000
0000
0001
0000
0000
3001
0000
,  // measure 48
2002
0000
0000
3003
,  // measure 49
1000
0000
0010
0000
1000
0000
0000
0000
0001
0010
0100
1000
0001
0000
1000
0100
,  // measure 50
0010
0001
1000
0010
0000
0000
0010
0000
0100
0000
0000
0100
0000
0000
0100
0000
,  // measure 51
1000
0100
0000
0000
0100
0010
0000
0000
0010
0001
0000
0000
0001
0010
0000
0000
,  // measure 52
1000
0001
1000
0001
0010
0000
0010
0000
0100
0010
0000
0000
0010
0100
0000
0000
,  // measure 53
0001
0000
0100
0000
0001
0000
0000
0000
1000
0100
0010
0001
1000
0000
0001
0010
,  // measure 54
0100
1000
0001
0100
0000
0000
0100
0000
0010
0000
0000
0010
0000
0000
0010
0000
,  // measure 55
0001
0010
0000
0000
0010
0100
0000
0000
0100
1000
0000
0000
1000
0100
0000
0000
,  // measure 56
0001
1000
0001
1000
0100
0000
0100
0000
0010
0100
0000
0000
0100
0010
0000
0000
,  // measure 57
1001
1000
0001
0001
,  // measure 58
1000
0100
0010
0001
,  // measure 59
0010
0100
1000
0001
0010
0100
0010
0010
,  // measure 60
0100
0000
0100
0000
0100
0010
0100
0010
0100
0000
0100
0010
0200
0000
0000
0300
,  // measure 61
1001
0001
1000
1000
,  // measure 62
0001
0010
0100
1000
,  // measure 63
0100
0010
0001
1000
0100
0010
0100
0100
,  // measure 64
0010
0000
0010
0000
0010
0100
0010
0100
0010
0000
0010
0100
0020
0000
0000
0030
,  // measure 65
0210
0010
0010
0010
,  // measure 66
0310
0100
1000
0100
0010
0001
1000
0100
,  // measure 67
0120
0100
0100
0100
,  // measure 68
0130
0010
0001
0010
0100
1000
0001
0010
,  // measure 69
0000
0100
0100
0100
0100
0100
0000
0000
,  // measure 70
0000
0010
0010
0010
0010
0010
0000
0000
,  // measure 71
1000
0100
0001
0100
1000
0100
0001
0100
,  // measure 72
0001
0010
1000
0010
0001
0010
1000
0010
,  // measure 73
1000
0000
0001
0000
1000
0000
0001
0000
1000
0001
1000
0001
1000
0001
1000
0000
,  // measure 74
2002
0000
0000
3003
,  // measure 75
1001
1000
0010
0010
,  // measure 76
0100
0010
0001
1000
0100
0010
0100
0010
,  // measure 77
1001
0001
0100
0100
,  // measure 78
0010
0100
1000
0001
0010
0100
0010
0100
,  // measure 79
0110
0010
0001
0001
,  // measure 80
1000
0001
0100
0010
1000
0001
1000
0001
,  // measure 81
0110
0100
1000
1000
,  // measure 82
0001
1000
0010
0100
0001
1000
0001
1000
,  // measure 83
1001
1000
0010
0010
,  // measure 84
0100
0010
0001
1000
0100
0010
0100
0010
,  // measure 85
1001
0001
0100
0100
,  // measure 86
0010
0100
1000
0001
0010
0100
0010
0100
,  // measure 87
0110
0010
0001
0001
,  // measure 88
1000
0001
0100
0010
1000
0001
1000
0001
,  // measure 89
0110
0100
1000
1000
,  // measure 90
0001
1000
0010
0100
0001
1000
0001
1000
,  // measure 91
0000
0000
0000
0000
,  // measure 92
1001
1000
0010
0010
,  // measure 93
0100
0010
0001
1000
0100
0010
0100
0010
,  // measure 94
1001
0001
0100
0100
,  // measure 95
0010
0100
1000
0001
0010
0100
0010
0100
,  // measure 96
0110
0010
0001
0001
,  // measure 97
1000
0001
0100
0010
1000
0001
1000
0001
,  // measure 98
0110
0100
1000
1000
,  // measure 99
0001
1000
0010
0100
0001
1000
0001
1000
,  // measure 100
1001
1000
0010
0010
,  // measure 101
0100
0010
0001
1000
0100
0010
0100
0010
,  // measure 102
1001
0001
0100
0100
,  // measure 103
0010
0100
1000
0001
0010
0100
0010
0100
,  // measure 104
0110
0010
0001
0001
,  // measure 105
1000
0001
0100
0010
1000
0001
1000
0001
,  // measure 106
0110
0100
1000
1000
,  // measure 107
0001
1000
0010
0100
0001
1000
0001
1000
,  // measure 108
2000
0000
0000
0001
0000
0000
0001
0000
3020
0000
0000
0100
0000
0000
0130
0000
,  // measure 109
0002
0000
0000
1000
0000
0000
1000
0000
0203
0000
0000
0010
0000
0000
0310
0000
,  // measure 110
0020
0000
0000
0100
0000
0000
0100
0000
0032
0000
0000
1000
0000
0000
1003
0000
,  // measure 111
0200
0000
0000
0010
0000
0000
0010
0000
2300
0000
0000
0001
0000
0000
3001
0000
,  // measure 112
2002
0000
0000
3003
,  // measure 113
1000
0000
0010
0000
1000
0000
0000
0000
0001
0010
0100
1000
0001
0000
1000
0100
,  // measure 114
0010
0001
1000
0010
0000
0000
0010
0000
0100
0000
0000
0100
0000
0000
0100
0000
,  // measure 115
1000
0100
0000
0000
0100
0010
0000
0000
0010
0001
0000
0000
0001
0010
0000
0000
,  // measure 116
1000
0001
1000
0001
0010
0000
0010
0000
0100
0010
0000
0000
0010
0100
0000
0000
,  // measure 117
0001
0000
0100
0000
0001
0000
0000
0000
1000
0100
0010
0001
1000
0000
0001
0010
,  // measure 118
0100
1000
0001
0100
0000
0000
0100
0000
0010
0000
0000
0010
0000
0000
0010
0000
,  // measure 119
0001
0010
0000
0000
0010
0100
0000
0000
0100
1000
0000
0000
1000
0100
0000
0000
,  // measure 120
0001
1000
0001
1000
0100
0000
0100
0000
0010
0100
0000
0000
0100
0010
0000
0000
,  // measure 121
2000
0000
0000
0001
0000
0000
0001
0000
3020
0000
0000
0100
0000
0000
0130
0000
,  // measure 122
0002
0000
0000
1000
0000
0000
1000
0000
0203
0000
0000
0010
0000
0000
0310
0000
;

//---------------dance-single - ----------------
#NOTEDATA:;
#CHARTNAME:;
#STEPSTYPE:dance-single;
#DESCRIPTION:;
#CHARTSTYLE:;
#DIFFICULTY:Hard;
#METER:12;
#RADARVALUES:0.528018,0.591917,0.315310,0.175172,0.275896,844.000000,772.000000,72.000000,40.000000,0.000000,0.000000,0.000000,0.000000,0.000000,0.528018,0.591917,0.315310,0.175172,0.275896,844.000000,772.000000,72.000000,40.000000,0.000000,0.000000,0.000000,0.000000,0.000000;
#CREDIT:;
#NOTES:
// measure 0
0000
0000
0000
0000
,  // measure 1
0000
0000
0000
0000
,  // measure 2
0000
0000
0000
0000
,  // measure 3
0000
0000
0000
0000
,  // measure 4
1000
0000
1000
0000
,  // measure 5
1000
0000
1000
0000
,  // measure 6
0001
0000
0001
0000
,  // measure 7
0001
0000
0001
0000
,  // measure 8
1000
0000
0010
0000
1000
0000
0010
0000
0001
0010
0100
1000
0001
0000
1000
0100
,  // measure 9
0010
0001
1000
0010
0000
0000
0010
0000
0100
0000
0000
0100
0000
0000
0100
0000
,  // measure 10
1000
0100
0000
0000
0100
0010
0000
0000
0010
0001
0000
0000
0001
0010
0000
0000
,  // measure 11
1000
0001
1000
0001
0010
0000
0010
0000
0100
0010
0000
0000
0010
0100
0000
0000
,  // measure 12
0001
0000
0100
0000
0001
0000
0100
0000
1000
0100
0010
0001
1000
0000
0001
0010
,  // measure 13
0100
1000
0001
0100
0000
0000
0100
0000
0010
0000
0000
0010
0000
0000
0010
0000
,  // measure 14
0001
0010
0000
0000
0010
0100
0000
0000
0100
1000
0000
0000
1000
0100
0000
0000
,  // measure 15
0001
1000
0001
1000
0100
0000
0100
0000
0010
0100
0000
0000
0100
0010
0000
0000
,  // measure 16
2001
0000
0000
0001
0000
0000
0001
0000
3020
0000
0000
0100
0000
0000
0130
0000
,  // measure 17
1002
0000
0000
1000
0000
0000
1000
0000
0203
0000
0000
0010
0000
0000
0310
0000
,  // measure 18
1001
1000
0001
0001
,  // measure 19
1001
0100
0010
0001
,  // measure 20
0010
0100
1000
0001
0010
0100
0010
0010
,  // measure 21
0100
0000
0100
0000
0100
0010
0100
0010
0100
0000
0100
0010
0200
0000
0000
0300
,  // measure 22
1001
0001
1000
1000
,  // measure 23
1001
0010
0100
1000
,  // measure 24
0100
0010
0001
1000
0100
0010
0100
0100
,  // measure 25
0010
0000
0010
0000
0010
0100
0010
0100
0010
0000
0010
0100
0020
0000
0000
0030
,  // measure 26
0210
0010
0010
0010
,  // measure 27
0310
0100
1000
0100
0010
0001
1000
0100
,  // measure 28
0120
0100
0100
0100
,  // measure 29
0130
0010
0001
0010
0100
1000
0001
0010
,  // measure 30
0000
0100
0100
0100
0100
0100
0000
0000
,  // measure 31
0000
0010
0010
0010
0010
0010
0000
0000
,  // measure 32
1001
0100
0001
0100
1000
0100
0001
0100
,  // measure 33
1001
0010
1000
0010
0001
0010
1000
0010
,  // measure 34
1000
0000
0001
0000
1000
0000
0001
0000
1000
0001
1000
0001
1000
0001
1000
0000
,  // measure 35
2002
0000
0000
3003
,  // measure 36
1001
1000
0110
0010
,  // measure 37
0100
0010
0001
1000
0100
0010
0100
0010
,  // measure 38
1001
0001
0110
0100
,  // measure 39
0010
0100
1000
0001
0010
0100
0010
0100
,  // measure 40
0110
0010
1001
0001
,  // measure 41
1000
0001
0100
0010
1000
0001
1000
0001
,  // measure 42
0110
0100
1001
1000
,  // measure 43
0001
1000
0010
0100
0001
1000
0001
1000
,  // measure 44
2001
0000
0000
0001
0000
0000
0001
0000
3020
0000
0000
0100
0000
0000
0130
0000
,  // measure 45
1002
0000
0000
1000
0000
0000
1000
0000
0203
0000
0000
0010
0000
0000
0310
0000
,  // measure 46
0120
0000
0000
0100
0000
0000
0100
0000
0032
0000
0000
1000
0000
0000
1003
0000
,  // measure 47
0210
0000
0000
0010
0000
0000
0010
0000
2300
0000
0000
0001
0000
0000
3001
0000
,  // measure 48
2002
0000
0000
3003
,  // measure 49
1000
0000
0010
0000
1000
0000
0010
0000
0001
0010
0100
1000
0001
0000
1000
0100
,  // measure 50
0010
0001
1000
0010
0000
0000
0010
0000
0100
0000
0000
0100
0000
0000
0100
0000
,  // measure 51
1000
0100
0000
0000
0100
0010
0000
0000
0010
0001
0000
0000
0001
0010
0000
0000
,  // measure 52
1000
0001
1000
0001
0010
0000
0010
0000
0100
0010
0000
0000
0010
0100
0000
0000
,  // measure 53
0001
0000
0100
0000
0001
0000
0100
0000
1000
0100
0010
0001
1000
0000
0001
0010
,  // measure 54
0100
1000
0001
0100
0000
0000
0100
0000
0010
0000
0000
0010
0000
0000
0010
0000
,  // measure 55
0001
0010
0000
0000
0010
0100
0000
0000
0100
1000
0000
0000
1000
0100
0000
0000
,  // measure 56
0001
1000
0001
1000
0100
0000
0100
0000
0010
0100
0000
0000
0100
0010
0000
0000
,  // measure 57
1001
1000
0001
0001
,  // measure 58
1001
0100
0010
0001
,  // measure 59
0010
0100
1000
0001
0010
0100
0010
0010
,  // measure 60
0100
0000
0100
0000
0100
0010
0100
0010
0100
0000
0100
0010
0200
0000
0000
0300
,  // measure 61
1001
0001
1000
1000
,  // measure 62
1001
0010
0100
1000
,  // measure 63
0100
0010
0001
1000
0100
0010
0100
0100
,  // measure 64
0010
0000
0010
0000
0010
0100
0010
0100
0010
0000
0010
0100
0020
0000
0000
0030
,  // measure 65
0210
0010
0010
0010
,  // measure 66
0310
0100
1000
0100
0010
0001
1000
0100
,  // measure 67
0120
0100
0100
0100
,  // measure 68
0130
0010
0001
0010
0100
1000
0001
0010
,  // measure 69
0000
0100
0100
0100
0100
0100
0000
0000
,  // measure 70
0000
0010
0010
0010
0010
0010
0000
0000
,  // measure 71
1001
0100
0001
0100
1000
0100
0001
0100
,  // measure 72
1001
0010
1000
0010
0001
0010
1000
0010
,  // measure 73
1000
0000
0001
0000
1000
0000
0001
0000
1000
0001
1000
0001
1000
0001
1000
0000
,  // measure 74
2002
0000
0000
3003
,  // measure 75
1001
1000
0110
0010
,  // measure 76
0100
0010
0001
1000
0100
0010
0100
0010
,  // measure 77
1001
0001
0110
0100
,  // measure 78
0010
0100
1000
0001
0010
0100
0010
0100
,  // measure 79
0110
0010
1001
0001
,  // measure 80
1000
0001
0100
0010
1000
0001
1000
0001
,  // measure 81
0110
0100
1001
1000
,  // measure 82
0001
1000
0010
0100
0001
1000
0001
1000
,  // measure 83
1001
1000
0110
0010
,  // measure 84
0100
0010
0001
1000
0100
0010
0100
0010
,  // measure 85
1001
0001
0110
0100
,  // measure 86
0010
0100
1000
0001
0010
0100
0010
0100
,  // measure 87
0110
0010
1001
0001
,  // measure 88
1000
0001
0100
0010
1000
0001
1000
0001
,  // measure 89
0110
0100
1001
1000
,  // measure 90
0001
1000
0010
0100
0001
1000
0001
1000
,  // measure 91
0000
0000
0000
0000
,  // measure 92
1001
1000
0110
0010
,  // measure 93
0100
0010
0001
1000
0100
0010
0100
0010
,  // measure 94
1001
0001
0110
0100
,  // measure 95
0010
0100
1000
0001
0010
0100
0010
0100
,  // measure 96
0110
0010
1001
0001
,  // measure 97
1000
0001
0100
0010
1000
0001
1000
0001
,  // measure 98
0110
0100
1001
1000
,  // measure 99
0001
1000
0010
0100
0001
1000
0001
1000
,  // measure 100
1001
1000
0110
0010
,  // measure 101
0100
0010
0001
1000
0100
0010
0100
0010
,  // measure 102
1001
0001
0110
0100
,  // measure 103
0010
0100
1000
0001
0010
0100
0010
0100
,  // measure 104
0110
0010
1001
0001
,  // measure 105
1000
0001
0100
0010
1000
0001
1000
0001
,  // measure 106
0110
0100
1001
1000
,  // measure 107
0001
1000
0010
0100
0001
1000
0001
1000
,  // measure 108
2001
0000
0000
0001
0000
0000
0001
0000
3020
0000
0000
0100
0000
0000
0130
0000
,  // measure 109
1002
0000
0000
1000
0000
0000
1000
0000
0203
0000
0000
0010
0000
0000
0310
0000
,  // measure 110
0120
0000
0000
0100
0000
0000
0100
0000
0032
0000
0000
1000
0000
0000
1003
0000
,  // measure 111
0210
0000
0000
0010
0000
0000
0010
0000
2300
0000
0000
0001
0000
0000
3001
0000
,  // measure 112
2002
0000
0000
3003
,  // measure 113
1000
0000
0010
0000
1000
0000
0010
0000
0001
0010
0100
1000
0001
0000
1000
0100
,  // measure 114
0010
0001
1000
0010
0000
0000
0010
0000
0100
0000
0000
0100
0000
0000
0100
0000
,  // measure 115
1000
0100
0000
0000
0100
0010
0000
0000
0010
0001
0000
0000
0001
0010
0000
0000
,  // measure 116
1000
0001
1000
0001
0010
0000
0010
0000
0100
0010
0000
0000
0010
0100
0000
0000
,  // measure 117
0001
0000
0100
0000
0001
0000
0100
0000
1000
0100
0010
0001
1000
0000
0001
0010
,  // measure 118
0100
1000
0001
0100
0000
0000
0100
0000
0010
0000
0000
0010
0000
0000
0010
0000
,  // measure 119
0001
0010
0000
0000
0010
0100
0000
0000
0100
1000
0000
0000
1000
0100
0000
0000
,  // measure 120
0001
1000
0001
1000
0100
0000
0100
0000
0010
0100
0000
0000
0100
0010
0000
0000
,  // measure 121
2001
0000
0000
0001
0000
0000
0001
0000
3020
0000
0000
0100
0000
0000
0130
0000
,  // measure 122
1002
0000
0000
1000
0000
0000
1000
0000
0203
0000
0000
0010
0000
0000
0310
0000
;

//---------------dance-single - ----------------
#NOTEDATA:;
#CHARTNAME:;
#STEPSTYPE:dance-single;
#DESCRIPTION:;
#CHARTSTYLE:;
#DIFFICULTY:Challenge;
#METER:12;
#RADARVALUES:0.558048,0.591917,0.350344,0.175172,0.350344,892.000000,812.000000,80.000000,40.000000,0.000000,0.000000,0.000000,0.000000,0.000000,0.558048,0.591917,0.350344,0.175172,0.350344,892.000000,812.000000,80.000000,40.000000,0.000000,0.000000,0.000000,0.000000,0.000000;
#CREDIT:;
#NOTES:
0000
0000
0000
0000
,
0000
0000
0000
0000
,
0000
0000
0000
0000
,
0000
0000
0000
0000
,
1000
0000
1000
0000
,
1000
0000
1000
0000
,
0001
0000
0001
0000
,
0001
0000
0001
0000
,
1000
0000
0010
0000
1000
0000
0010
0000
0001
0010
0100
1000
0001
0000
1000
0100
,
0010
0001
1000
0010
0000
0000
0010
0000
0100
0010
0000
0100
0000
0000
0100
0000
,
1000
0100
0000
0000
0100
0010
0000
0000
0010
0001
0000
0000
0001
0010
1000
0000
,
1000
0001
1000
0001
0010
0000
0010
0000
0100
0010
0000
0000
0010
0100
0000
0000
,
0001
0000
0100
0000
0001
0000
0100
0000
1000
0100
0010
0001
1000
0000
0001
0010
,
0100
1000
0001
0100
0000
0000
0100
0000
0010
0100
0000
0010
0000
0000
0010
0000
,
0001
0010
0000
0000
0010
0100
0000
0000
0100
1000
0000
0000
1000
0100
0001
0000
,
0001
1000
0001
1000
0100
0000
0100
0000
0010
0100
0000
0000
0100
0010
0000
0000
,
2001
0000
0000
0001
0000
0000
0001
0000
3020
0000
0000
0100
0000
0000
0130
0000
,
1002
0000
0000
1000
0000
0000
1000
0000
0203
0000
0000
0010
0000
0000
0310
0000
,
1001
1000
1001
0001
,
1001
0100
0010
0001
,
0010
0100
1000
0001
0010
0100
0010
0010
,
0100
0010
0100
0000
0100
0010
0100
0010
0100
0000
0100
0010
0200
0000
0000
0300
,
1001
0001
1001
1000
,
1001
0010
0100
1000
,
0100
0010
0001
1000
0100
0010
0100
0100
,
0010
0100
0010
0000
0010
0100
0010
0100
0010
0000
0010
0100
0020
0000
0000
0030
,
0210
0010
0010
0010
,
0310
0000
0100
0000
1000
0000
0100
0000
0010
0000
0001
0000
1000
0001
0100
0000
,
0120
0100
0100
0100
,
0130
0000
0010
0000
0001
0000
0010
0000
0100
0000
1000
0000
0001
1000
0010
0000
,
0000
0110
0100
0100
0100
0100
0000
0000
,
0000
0110
0010
0010
0010
0010
0000
0000
,
1001
0100
0001
0100
1000
0100
0001
0100
,
1001
0010
1000
0010
0001
0010
1000
0010
,
1000
0000
0001
0000
1000
0000
0001
0000
1000
0001
1000
0001
1000
0001
1000
0000
,
2002
0000
0000
3003
,
1001
1000
0110
0010
,
0100
0000
0010
0000
0001
0000
1000
0000
0100
0000
0010
0000
0100
0010
0100
0000
,
1001
0001
0110
0100
,
0010
0000
0100
0000
1000
0000
0001
0000
0010
0000
0100
0000
0010
0100
0010
0000
,
0110
0010
1001
0001
,
1000
0000
0001
0000
0100
0000
0010
0000
1000
0000
0001
0000
1000
0001
1000
0000
,
0110
0100
1001
1000
,
0001
0000
1000
0000
0010
0000
0100
0000
0001
0000
1000
0000
0001
1000
0001
0000
,
2001
0000
0000
0001
0000
0000
0001
0000
3020
0000
0000
0100
0000
0000
0130
0000
,
1002
0000
0000
1000
0000
0000
1000
0000
0203
0000
0000
0010
0000
0000
0310
0000
,
0120
0000
0000
0100
0000
0000
0100
0000
0032
0000
0000
1000
0000
0000
1003
0000
,
0210
0000
0000
0010
0000
0000
0010
0000
2300
0000
0000
0001
0000
0000
3001
0000
,
2002
0000
0000
3003
,
1000
0000
0010
0000
1000
0000
0010
0000
0001
0010
0100
1000
0001
0000
1000
0100
,
0010
0001
1000
0010
0000
0000
0010
0000
0100
0010
0000
0100
0000
0000
0100
0000
,
1000
0100
0000
0000
0100
0010
0000
0000
0010
0001
0000
0000
0001
0010
1000
0000
,
1000
0001
1000
0001
0010
0000
0010
0000
0100
0010
0000
0000
0010
0100
0000
0000
,
0001
0000
0100
0000
0001
0000
0100
0000
1000
0100
0010
0001
1000
0000
0001
0010
,
0100
1000
0001
0100
0000
0000
0100
0000
0010
0100
0000
0010
0000
0000
0010
0000
,
0001
0010
0000
0000
0010
0100
0000
0000
0100
1000
0000
0000
1000
0100
0001
0000
,
0001
1000
0001
1000
0100
0000
0100
0000
0010
0100
0000
0000
0100
0010
0000
0000
,
1001
1000
1001
0001
,
1001
0100
0010
0001
,
0010
0100
1000
0001
0010
0100
0010
0010
,
0100
0010
0100
0000
0100
0010
0100
0010
0100
0000
0100
0010
0200
0000
0000
0300
,
1001
0001
1001
1000
,
1001
0010
0100
1000
,
0100
0010
0001
1000
0100
0010
0100
0100
,
0010
0100
0010
0000
0010
0100
0010
0100
0010
0000
0010
0100
0020
0000
0000
0030
,
0210
0010
0010
0010
,
0310
0000
0100
0000
1000
0000
0100
0000
0010
0000
0001
0000
1000
0001
0100
0000
,
0120
0100
0100
0100
,
0130
0000
0010
0000
0001
0000
0010
0000
0100
0000
1000
0000
0001
1000
0010
0000
,
0000
0110
0100
0100
0100
0100
0000
0000
,
0000
0110
0010
0010
0010
0010
0000
0000
,
1001
0100
0001
0100
1000
0100
0001
0100
,
1001
0010
1000
0010
0001
0010
1000
0010
,
1000
0000
0001
0000
1000
0000
0001
0000
1000
0001
1000
0001
1000
0001
1000
0000
,
2002
0000
0000
3003
,
1001
1000
0110
0010
,
0100
0000
0010
0000
0001
0000
1000
0000
0100
0000
0010
0000
0100
0010
0100
0000
,
1001
0001
0110
0100
,
0010
0000
0100
0000
1000
0000
0001
0000
0010
0000
0100
0000
0010
0100
0010
0000
,
0110
0010
1001
0001
,
1000
0000
0001
0000
0100
0000
0010
0000
1000
0000
0001
0000
1000
0001
1000
0000
,
0110
0100
1001
1000
,
0001
0000
1000
0000
0010
0000
0100
0000
0001
0000
1000
0000
0001
1000
0001
0000
,
1001
1000
0110
0010
,
0100
0000
0010
0000
0001
0000
1000
0000
0100
0000
0010
0000
0100
0010
0100
0000
,
1001
0001
0110
0100
,
0010
0000
0100
0000
1000
0000
0001
0000
0010
0000
0100
0000
0010
0100
0010
0000
,
0110
0010
1001
0001
,
1000
0000
0001
0000
0100
0000
0010
0000
1000
0000
0001
0000
1000
0001
1000
0000
,
0110
0100
1001
1000
,
0001
0000
1000
0000
0010
0000
0100
0000
0001
0000
1000
0000
0001
1000
0001
0000
,
0000
0000
0000
0000
,
1001
1000
0110
0010
,
0100
0000
0010
0000
0001
0000
1000
0000
0100
0000
0010
0000
0100
0010
0100
0000
,
1001
0001
0110
0100
,
0010
0000
0100
0000
1000
0000
0001
0000
0010
0000
0100
0000
0010
0100
0010
0000
,
0110
0010
1001
0001
,
1000
0000
0001
0000
0100
0000
0010
0000
1000
0000
0001
0000
1000
0001
1000
0000
,
0110
0100
1001
1000
,
0001
0000
1000
0000
0010
0000
0100
0000
0001
0000
1000
0000
0001
1000
0001
0000
,
1001
1000
0110
0010
,
0100
0000
0010
0000
0001
0000
1000
0000
0100
0000
0010
0000
0100
0010
0100
0000
,
1001
0001
0110
0100
,
0010
0000
0100
0000
1000
0000
0001
0000
0010
0000
0100
0000
0010
0100
0010
0000
,
0110
0010
1001
0001
,
1000
0000
0001
0000
0100
0000
0010
0000
1000
0000
0001
0000
1000
0001
1000
0000
,
0110
0100
1001
1000
,
0001
0000
1000
0000
0010
0000
0100
0000
0001
0000
1000
0000
0001
1000
0001
0000
,
2001
0000
0000
0001
0000
0000
0001
0000
3020
0000
0000
0100
0000
0000
0130
0000
,
1002
0000
0000
1000
0000
0000
1000
0000
0203
0000
0000
0010
0000
0000
0310
0000
,
0120
0000
0000
0100
0000
0000
0100
0000
0032
0000
0000
1000
0000
0000
1003
0000
,
0210
0000
0000
0010
0000
0000
0010
0000
2300
0000
0000
0001
0000
0000
3001
0000
,
2002
0000
0000
3003
,
1000
0000
0010
0000
1000
0000
0010
0000
0001
0010
0100
1000
0001
0000
1000
0100
,
0010
0001
1000
0010
0000
0000
0010
0000
0100
0010
0000
0100
0000
0000
0100
0000
,
1000
0100
0000
0000
0100
0010
0000
0000
0010
0001
0000
0000
0001
0010
1000
0000
,
1000
0001
1000
0001
0010
0000
0010
0000
0100
0010
0000
0000
0010
0100
0000
0000
,
0001
0000
0100
0000
0001
0000
0100
0000
1000
0100
0010
0001
1000
0000
0001
0010
,
0100
1000
0001
0100
0000
0000
0100
0000
0010
0100
0000
0010
0000
0000
0010
0000
,
0001
0010
0000
0000
0010
0100
0000
0000
0100
1000
0000
0000
1000
0100
0001
0000
,
0001
1000
0001
1000
0100
0000
0100
0000
0010
0100
0000
0000
0100
0010
0000
0000
,
2001
0000
0000
0001
0000
0000
0001
0000
3020
0000
0000
0100
0000
0000
0130
0000
,
1002
0000
0000
1000
0000
0000
1000
0000
0203
0000
0000
0010
0000
0000
0310
0000
;
