#VERSION:0.83;
#TITLE:CITRUS;
#SUBTITLE:;
#ARTIST:Da-iCE;
#TITLETRANSLIT:;
#SUBTITLETRANSLIT:;
#ARTISTTRANSLIT:;
#GENRE:;
#ORIGIN:;
#CREDIT:;
#BANNER:;
#BACKGROUND:;
#PREVIEWVID:;
#JACKET:;
#CDIMAGE:;
#DISCIMAGE:;
#LYRICSPATH:;
#CDTITLE:;
#MUSIC:CITRUS.ogg;
#OFFSET:0.137000;
#SAMPLESTART:48.155682;
#SAMPLELENGTH:15.000000;
#SELECTABLE:YES;
#BPMS:0.000=164.000;
#STOPS:;
#DELAYS:;
#WARPS:;
#TIMESIGNATURES:0.000=4=4;
#TICKCOUNTS:0.000=4;
#COMBOS:0.000=1;
#SPEEDS:0.000=1.000=0.000=0;
#SCROLLS:0.000=1.000;
#FAKES:;
#LABELS:0.000=Song Start;
#BGCHANGES:;
#KEYSOUNDS:;
#ATTACKS:
;

//---------------dance-single - ----------------
#NOTEDATA:;
#CHARTNAME:;
#STEPSTYPE:dance-single;
#DESCRIPTION:;
#CHARTSTYLE:;
#DIFFICULTY:Easy;
#METER:4;
#RADARVALUES:0.128677,0.165872,0.008042,0.217142,0.000000,224.000000,222.000000,2.000000,54.000000,0.000000,0.000000,0.000000,0.000000,0.000000,0.128677,0.165872,0.008042,0.217142,0.000000,224.000000,222.000000,2.000000,54.000000,0.000000,0.000000,0.000000,0.000000,0.000000;
#CREDIT:;
#NOTES:
// measure 0
0000
0000
0000
0000
,  // measure 1
1000
0000
0000
0000
,  // measure 2
1000
0000
0000
0000
,  // measure 3
0001
0000
0000
0000
,  // measure 4
0001
0000
0000
0000
,  // measure 5
0010
0000
0000
0000
,  // measure 6
0010
0000
0000
0000
,  // measure 7
0100
0000
0000
0000
,  // measure 8
0100
0000
0000
0000
,  // measure 9
1000
0000
0000
0000
,  // measure 10
1000
0000
0000
0000
,  // measure 11
0001
0000
0000
0000
,  // measure 12
1000
0000
0000
0000
,  // measure 13
0001
0000
0000
0000
,  // measure 14
0001
0000
0000
0000
,  // measure 15
1000
0000
0000
0000
,  // measure 16
0001
0000
0000
0000
,  // measure 17
0010
0000
0000
0000
,  // measure 18
0010
0000
0000
0000
,  // measure 19
0100
0000
0000
0000
,  // measure 20
0010
0000
0000
0000
,  // measure 21
0100
0000
0000
0000
,  // measure 22
0100
0000
0000
0000
,  // measure 23
0010
0000
0000
0000
,  // measure 24
0100
0000
0000
0000
,  // measure 25
1000
0000
0000
0000
,  // measure 26
0010
0100
0010
0000
,  // measure 27
0001
0000
0000
0000
,  // measure 28
0100
0010
0100
0000
,  // measure 29
0010
0000
0000
0000
,  // measure 30
0001
1000
0001
0000
,  // measure 31
0100
0000
0000
0000
,  // measure 32
1000
0001
1000
0000
,  // measure 33
2000
0000
0000
3000
,  // measure 34
0020
0000
0130
0000
,  // measure 35
0002
0000
0000
0003
,  // measure 36
0200
0000
0310
0000
,  // measure 37
0020
0000
0000
0030
,  // measure 38
0002
0000
1003
0000
,  // measure 39
0200
0000
0000
0300
,  // measure 40
2000
0000
3001
0000
,  // measure 41
2000
0000
0000
3000
,  // measure 42
0020
0000
0130
0000
,  // measure 43
0002
0000
0000
0003
,  // measure 44
0200
0000
0310
0000
,  // measure 45
0020
0000
0000
0030
,  // measure 46
0002
0000
1003
0000
,  // measure 47
0200
0000
0000
0300
,  // measure 48
2000
0000
3001
0000
,  // measure 49
0001
0000
0001
0000
,  // measure 50
0010
0000
1000
0000
,  // measure 51
1000
0000
1000
0000
,  // measure 52
0100
0000
0001
0000
,  // measure 53
0100
0000
0100
0000
,  // measure 54
0001
0000
0010
0000
,  // measure 55
0010
0000
0010
0000
,  // measure 56
1000
0000
0100
0000
,  // measure 57
1000
0000
0000
0000
,  // measure 58
1000
0000
0000
0000
,  // measure 59
0001
0000
0000
0000
,  // measure 60
0001
0000
0000
0000
,  // measure 61
0010
0000
0000
0000
,  // measure 62
0010
0000
0000
0000
,  // measure 63
0100
0000
0000
0000
,  // measure 64
0100
0000
0000
0000
,  // measure 65
1000
0000
0000
0000
,  // measure 66
1000
0000
0000
0000
,  // measure 67
0001
0000
0000
0000
,  // measure 68
1000
0000
0000
0000
,  // measure 69
0001
0000
0000
0000
,  // measure 70
0001
0000
0000
0000
,  // measure 71
1000
0000
0000
0000
,  // measure 72
0001
0000
0000
0000
,  // measure 73
0010
0000
0000
0000
,  // measure 74
0010
0000
0000
0000
,  // measure 75
0100
0000
0000
0000
,  // measure 76
0010
0000
0000
0000
,  // measure 77
0100
0000
0000
0000
,  // measure 78
0100
0000
0000
0000
,  // measure 79
0010
0000
0000
0000
,  // measure 80
0100
0000
0000
0000
,  // measure 81
1000
0000
0000
0000
,  // measure 82
0010
0100
0010
0000
,  // measure 83
0001
0000
0000
0000
,  // measure 84
0100
0010
0100
0000
,  // measure 85
0010
0000
0000
0000
,  // measure 86
0001
1000
0001
0000
,  // measure 87
0100
0000
0000
0000
,  // measure 88
1000
0001
1000
0000
,  // measure 89
2000
0000
0000
3000
,  // measure 90
0020
0000
0130
0000
,  // measure 91
0002
0000
0000
0003
,  // measure 92
0200
0000
0310
0000
,  // measure 93
0020
0000
0000
0030
,  // measure 94
0002
0000
1003
0000
,  // measure 95
0200
0000
0000
0300
,  // measure 96
2000
0000
3001
0000
,  // measure 97
2000
0000
0000
3000
,  // measure 98
0020
0000
0130
0000
,  // measure 99
0002
0000
0000
0003
,  // measure 100
0200
0000
0310
0000
,  // measure 101
0020
0000
0000
0030
,  // measure 102
0002
0000
1003
0000
,  // measure 103
0200
0000
0000
0300
,  // measure 104
2000
0000
3001
0000
,  // measure 105
0001
0000
0001
0000
,  // measure 106
0010
0000
1000
0000
,  // measure 107
1000
0000
1000
0000
,  // measure 108
0100
0000
0001
0000
,  // measure 109
0100
0000
0100
0000
,  // measure 110
0001
0000
0010
0000
,  // measure 111
0010
0000
0010
0000
,  // measure 112
1000
0000
0100
0000
,  // measure 113
1000
0000
0000
0000
,  // measure 114
1000
0000
0000
0000
,  // measure 115
0001
0000
0000
0000
,  // measure 116
0001
0000
0000
0000
,  // measure 117
0010
0000
0000
0000
,  // measure 118
0010
0000
0000
0000
,  // measure 119
0100
0000
0000
0000
,  // measure 120
0100
0000
0000
0000
,  // measure 121
2000
0000
0000
0000
,  // measure 122
0000
0000
0000
3000
,  // measure 123
0002
0000
0000
0000
,  // measure 124
0000
0000
0000
0003
,  // measure 125
0020
0000
0000
0000
,  // measure 126
0000
0000
0000
0030
,  // measure 127
0200
0000
0000
0000
,  // measure 128
0000
0000
0000
0300
,  // measure 129
2002
0000
0000
0000
,  // measure 130
0000
0000
0000
0000
,  // measure 131
0000
0000
0000
0000
,  // measure 132
0000
0000
0000
3003
,  // measure 133
2000
0000
0000
3000
,  // measure 134
0020
0000
0130
0000
,  // measure 135
0002
0000
0000
0003
,  // measure 136
0200
0000
0310
0000
,  // measure 137
0020
0000
0000
0030
,  // measure 138
0002
0000
1003
0000
,  // measure 139
0200
0000
0000
0300
,  // measure 140
2000
0000
3001
0000
,  // measure 141
2000
0000
0000
3000
,  // measure 142
0020
0000
0130
0000
,  // measure 143
0002
0000
0000
0003
,  // measure 144
0200
0000
0310
0000
,  // measure 145
0020
0000
0000
0030
,  // measure 146
0002
0000
1003
0000
,  // measure 147
0200
0000
0000
0300
,  // measure 148
2000
0000
3001
0000
,  // measure 149
1000
0000
0000
0000
,  // measure 150
0010
0100
0010
0000
,  // measure 151
0001
0000
0000
0000
,  // measure 152
0100
0010
0100
0000
,  // measure 153
0010
0000
0000
0000
,  // measure 154
0001
1000
0001
0000
,  // measure 155
0100
0000
0000
0000
,  // measure 156
1000
0001
1000
0000
,  // measure 157
1000
0000
0000
0000
,  // measure 158
1000
0000
0000
0000
,  // measure 159
0001
0000
0000
0000
,  // measure 160
0001
0000
0000
0000
,  // measure 161
0010
0000
0000
0000
,  // measure 162
0010
0000
0000
0000
,  // measure 163
0100
0000
0000
0000
,  // measure 164
0100
0000
0000
0000
,  // measure 165
1001
0000
0000
0000
;

//---------------dance-single - ----------------
#NOTEDATA:;
#CHARTNAME:;
#STEPSTYPE:dance-single;
#DESCRIPTION:;
#CHARTSTYLE:;
#DIFFICULTY:Beginner;
#METER:4;
#RADARVALUES:0.117188,0.132698,0.008042,0.217142,0.000000,204.000000,202.000000,2.000000,54.000000,0.000000,0.000000,0.000000,0.000000,0.000000,0.117188,0.132698,0.008042,0.217142,0.000000,204.000000,202.000000,2.000000,54.000000,0.000000,0.000000,0.000000,0.000000,0.000000;
#CREDIT:;
#NOTES:
// measure 0
0000
0000
0000
0000
,  // measure 1
1000
0000
0000
0000
,  // measure 2
1000
0000
0000
0000
,  // measure 3
0001
0000
0000
0000
,  // measure 4
0001
0000
0000
0000
,  // measure 5
0010
0000
0000
0000
,  // measure 6
0010
0000
0000
0000
,  // measure 7
0100
0000
0000
0000
,  // measure 8
0100
0000
0000
0000
,  // measure 9
1000
0000
0000
0000
,  // measure 10
1000
0000
0000
0000
,  // measure 11
0001
0000
0000
0000
,  // measure 12
1000
0000
0000
0000
,  // measure 13
0001
0000
0000
0000
,  // measure 14
0001
0000
0000
0000
,  // measure 15
1000
0000
0000
0000
,  // measure 16
0001
0000
0000
0000
,  // measure 17
0010
0000
0000
0000
,  // measure 18
0010
0000
0000
0000
,  // measure 19
0100
0000
0000
0000
,  // measure 20
0010
0000
0000
0000
,  // measure 21
0100
0000
0000
0000
,  // measure 22
0100
0000
0000
0000
,  // measure 23
0010
0000
0000
0000
,  // measure 24
0100
0000
0000
0000
,  // measure 25
1000
0000
0000
0000
,  // measure 26
0010
0000
0010
0000
,  // measure 27
0001
0000
0000
0000
,  // measure 28
0100
0000
0100
0000
,  // measure 29
0010
0000
0000
0000
,  // measure 30
0001
0000
0001
0000
,  // measure 31
0100
0000
0000
0000
,  // measure 32
1000
0000
1000
0000
,  // measure 33
2000
0000
0000
3000
,  // measure 34
0020
0000
0130
0000
,  // measure 35
0002
0000
0000
0003
,  // measure 36
0200
0000
0310
0000
,  // measure 37
0020
0000
0000
0030
,  // measure 38
0002
0000
1003
0000
,  // measure 39
0200
0000
0000
0300
,  // measure 40
2000
0000
3001
0000
,  // measure 41
2000
0000
0000
3000
,  // measure 42
0020
0000
0130
0000
,  // measure 43
0002
0000
0000
0003
,  // measure 44
0200
0000
0310
0000
,  // measure 45
0020
0000
0000
0030
,  // measure 46
0002
0000
1003
0000
,  // measure 47
0200
0000
0000
0300
,  // measure 48
2000
0000
3001
0000
,  // measure 49
0001
0000
0000
0000
,  // measure 50
0010
0000
1000
0000
,  // measure 51
1000
0000
0000
0000
,  // measure 52
0100
0000
0001
0000
,  // measure 53
0100
0000
0000
0000
,  // measure 54
0001
0000
0010
0000
,  // measure 55
0010
0000
0000
0000
,  // measure 56
1000
0000
0100
0000
,  // measure 57
1000
0000
0000
0000
,  // measure 58
1000
0000
0000
0000
,  // measure 59
0001
0000
0000
0000
,  // measure 60
0001
0000
0000
0000
,  // measure 61
0010
0000
0000
0000
,  // measure 62
0010
0000
0000
0000
,  // measure 63
0100
0000
0000
0000
,  // measure 64
0100
0000
0000
0000
,  // measure 65
1000
0000
0000
0000
,  // measure 66
1000
0000
0000
0000
,  // measure 67
0001
0000
0000
0000
,  // measure 68
1000
0000
0000
0000
,  // measure 69
0001
0000
0000
0000
,  // measure 70
0001
0000
0000
0000
,  // measure 71
1000
0000
0000
0000
,  // measure 72
0001
0000
0000
0000
,  // measure 73
0010
0000
0000
0000
,  // measure 74
0010
0000
0000
0000
,  // measure 75
0100
0000
0000
0000
,  // measure 76
0010
0000
0000
0000
,  // measure 77
0100
0000
0000
0000
,  // measure 78
0100
0000
0000
0000
,  // measure 79
0010
0000
0000
0000
,  // measure 80
0100
0000
0000
0000
,  // measure 81
1000
0000
0000
0000
,  // measure 82
0010
0000
0010
0000
,  // measure 83
0001
0000
0000
0000
,  // measure 84
0100
0000
0100
0000
,  // measure 85
0010
0000
0000
0000
,  // measure 86
0001
0000
0001
0000
,  // measure 87
0100
0000
0000
0000
,  // measure 88
1000
0000
1000
0000
,  // measure 89
2000
0000
0000
3000
,  // measure 90
0020
0000
0130
0000
,  // measure 91
0002
0000
0000
0003
,  // measure 92
0200
0000
0310
0000
,  // measure 93
0020
0000
0000
0030
,  // measure 94
0002
0000
1003
0000
,  // measure 95
0200
0000
0000
0300
,  // measure 96
2000
0000
3001
0000
,  // measure 97
2000
0000
0000
3000
,  // measure 98
0020
0000
0130
0000
,  // measure 99
0002
0000
0000
0003
,  // measure 100
0200
0000
0310
0000
,  // measure 101
0020
0000
0000
0030
,  // measure 102
0002
0000
1003
0000
,  // measure 103
0200
0000
0000
0300
,  // measure 104
2000
0000
3001
0000
,  // measure 105
0001
0000
0000
0000
,  // measure 106
0010
0000
1000
0000
,  // measure 107
1000
0000
0000
0000
,  // measure 108
0100
0000
0001
0000
,  // measure 109
0100
0000
0000
0000
,  // measure 110
0001
0000
0010
0000
,  // measure 111
0010
0000
0000
0000
,  // measure 112
1000
0000
0100
0000
,  // measure 113
1000
0000
0000
0000
,  // measure 114
1000
0000
0000
0000
,  // measure 115
0001
0000
0000
0000
,  // measure 116
0001
0000
0000
0000
,  // measure 117
0010
0000
0000
0000
,  // measure 118
0010
0000
0000
0000
,  // measure 119
0100
0000
0000
0000
,  // measure 120
0100
0000
0000
0000
,  // measure 121
2000
0000
0000
0000
,  // measure 122
0000
0000
0000
3000
,  // measure 123
0002
0000
0000
0000
,  // measure 124
0000
0000
0000
0003
,  // measure 125
0020
0000
0000
0000
,  // measure 126
0000
0000
0000
0030
,  // measure 127
0200
0000
0000
0000
,  // measure 128
0000
0000
0000
0300
,  // measure 129
2002
0000
0000
0000
,  // measure 130
0000
0000
0000
0000
,  // measure 131
0000
0000
0000
0000
,  // measure 132
0000
0000
0000
3003
,  // measure 133
2000
0000
0000
3000
,  // measure 134
0020
0000
0130
0000
,  // measure 135
0002
0000
0000
0003
,  // measure 136
0200
0000
0310
0000
,  // measure 137
0020
0000
0000
0030
,  // measure 138
0002
0000
1003
0000
,  // measure 139
0200
0000
0000
0300
,  // measure 140
2000
0000
3001
0000
,  // measure 141
2000
0000
0000
3000
,  // measure 142
0020
0000
0130
0000
,  // measure 143
0002
0000
0000
0003
,  // measure 144
0200
0000
0310
0000
,  // measure 145
0020
0000
0000
0030
,  // measure 146
0002
0000
1003
0000
,  // measure 147
0200
0000
0000
0300
,  // measure 148
2000
0000
3001
0000
,  // measure 149
1000
0000
0000
0000
,  // measure 150
0010
0000
0010
0000
,  // measure 151
0001
0000
0000
0000
,  // measure 152
0100
0000
0100
0000
,  // measure 153
0010
0000
0000
0000
,  // measure 154
0001
0000
0001
0000
,  // measure 155
0100
0000
0000
0000
,  // measure 156
1000
0000
1000
0000
,  // measure 157
1000
0000
0000
0000
,  // measure 158
1000
0000
0000
0000
,  // measure 159
0001
0000
0000
0000
,  // measure 160
0001
0000
0000
0000
,  // measure 161
0010
0000
0000
0000
,  // measure 162
0010
0000
0000
0000
,  // measure 163
0100
0000
0000
0000
,  // measure 164
0100
0000
0000
0000
,  // measure 165
1001
0000
0000
0000
;

//---------------dance-single - ----------------
#NOTEDATA:;
#CHARTNAME:;
#STEPSTYPE:dance-single;
#DESCRIPTION:;
#CHARTSTYLE:;
#DIFFICULTY:Medium;
#METER:5;
#RADARVALUES:0.145336,0.199047,0.008042,0.217142,0.000000,253.000000,251.000000,2.000000,54.000000,0.000000,0.000000,0.000000,0.000000,0.000000,0.145336,0.199047,0.008042,0.217142,0.000000,253.000000,251.000000,2.000000,54.000000,0.000000,0.000000,0.000000,0.000000,0.000000;
#CREDIT:;
#NOTES:
// measure 0
0000
0000
0000
0000
,  // measure 1
1000
0000
0000
0000
,  // measure 2
1000
0000
0000
0000
,  // measure 3
0001
0000
0000
0000
,  // measure 4
0001
0000
0000
0000
,  // measure 5
0010
0000
0000
0000
,  // measure 6
0010
0000
0000
0000
,  // measure 7
0100
0000
0000
0000
,  // measure 8
0100
0000
0000
0000
,  // measure 9
1000
0000
0000
0000
,  // measure 10
1000
0000
0000
0000
,  // measure 11
0001
0000
0000
0000
,  // measure 12
1000
0000
0000
0000
,  // measure 13
0001
0000
0000
0000
,  // measure 14
0001
0000
0000
0000
,  // measure 15
1000
0000
0000
0000
,  // measure 16
0001
0000
0001
0000
,  // measure 17
0010
0000
0000
0000
,  // measure 18
0010
0000
0000
0000
,  // measure 19
0100
0000
0000
0000
,  // measure 20
0010
0000
0000
0000
,  // measure 21
0100
0000
0000
0000
,  // measure 22
0100
0000
0000
0000
,  // measure 23
0010
0000
0000
0000
,  // measure 24
0100
0000
0100
0000
,  // measure 25
1000
0000
0000
0000
,  // measure 26
0010
0100
0010
0000
,  // measure 27
0001
0000
0000
0000
,  // measure 28
0100
0010
0100
0010
,  // measure 29
0010
0000
0000
0000
,  // measure 30
0001
1000
0001
0000
,  // measure 31
0100
0000
0000
0000
,  // measure 32
1000
0001
1000
0001
,  // measure 33
2000
0000
0000
3000
,  // measure 34
0020
0000
0130
0000
,  // measure 35
0002
0000
0000
0003
,  // measure 36
0200
0000
0310
0010
,  // measure 37
0020
0000
0000
0030
,  // measure 38
0002
0000
1003
0000
,  // measure 39
0200
0000
0000
0300
,  // measure 40
2000
0000
3001
0001
,  // measure 41
2000
0000
0000
3000
,  // measure 42
0020
0000
0130
0000
,  // measure 43
0002
0000
0000
0003
,  // measure 44
0200
0000
0310
0010
,  // measure 45
0020
0000
0000
0030
,  // measure 46
0002
0000
1003
0000
,  // measure 47
0200
0000
0000
0300
,  // measure 48
2000
0000
3001
0001
,  // measure 49
0001
0000
0001
0000
,  // measure 50
0010
0000
1000
0000
,  // measure 51
1000
0000
1000
0000
,  // measure 52
0100
0000
0001
0001
,  // measure 53
0100
0000
0100
0000
,  // measure 54
0001
0000
0010
0000
,  // measure 55
0010
0000
0010
0000
,  // measure 56
1000
0000
0100
0100
,  // measure 57
1000
0000
0000
0000
,  // measure 58
1000
0000
0000
0000
,  // measure 59
0001
0000
0000
0000
,  // measure 60
0001
0000
0000
0000
,  // measure 61
0010
0000
0000
0000
,  // measure 62
0010
0000
0000
0000
,  // measure 63
0100
0000
0000
0000
,  // measure 64
0100
0000
0000
0000
,  // measure 65
1000
0000
0000
0000
,  // measure 66
1000
0000
0000
0000
,  // measure 67
0001
0000
0000
0000
,  // measure 68
1000
0000
0000
0000
,  // measure 69
0001
0000
0000
0000
,  // measure 70
0001
0000
0000
0000
,  // measure 71
1000
0000
0000
0000
,  // measure 72
0001
0000
0001
0000
,  // measure 73
0010
0000
0000
0000
,  // measure 74
0010
0000
0000
0000
,  // measure 75
0100
0000
0000
0000
,  // measure 76
0010
0000
0000
0000
,  // measure 77
0100
0000
0000
0000
,  // measure 78
0100
0000
0000
0000
,  // measure 79
0010
0000
0000
0000
,  // measure 80
0100
0000
0100
0000
,  // measure 81
1000
0000
0000
0000
,  // measure 82
0010
0100
0010
0000
,  // measure 83
0001
0000
0000
0000
,  // measure 84
0100
0010
0100
0010
,  // measure 85
0010
0000
0000
0000
,  // measure 86
0001
1000
0001
0000
,  // measure 87
0100
0000
0000
0000
,  // measure 88
1000
0001
1000
0001
,  // measure 89
2000
0000
0000
3000
,  // measure 90
0020
0000
0130
0000
,  // measure 91
0002
0000
0000
0003
,  // measure 92
0200
0000
0310
0010
,  // measure 93
0020
0000
0000
0030
,  // measure 94
0002
0000
1003
0000
,  // measure 95
0200
0000
0000
0300
,  // measure 96
2000
0000
3001
0001
,  // measure 97
2000
0000
0000
3000
,  // measure 98
0020
0000
0130
0000
,  // measure 99
0002
0000
0000
0003
,  // measure 100
0200
0000
0310
0010
,  // measure 101
0020
0000
0000
0030
,  // measure 102
0002
0000
1003
0000
,  // measure 103
0200
0000
0000
0300
,  // measure 104
2000
0000
3001
0001
,  // measure 105
0001
0000
0001
0000
,  // measure 106
0010
0000
1000
0000
,  // measure 107
1000
0000
1000
0000
,  // measure 108
0100
0000
0001
0001
,  // measure 109
0100
0000
0100
0000
,  // measure 110
0001
0000
0010
0000
,  // measure 111
0010
0000
0010
0000
,  // measure 112
1000
0000
0100
0100
,  // measure 113
1000
0000
0000
0000
,  // measure 114
1000
0000
0000
0000
,  // measure 115
0001
0000
0000
0000
,  // measure 116
0001
0000
0000
0000
,  // measure 117
0010
0000
0000
0000
,  // measure 118
0010
0000
0000
0000
,  // measure 119
0100
0000
0000
0000
,  // measure 120
0100
0000
0000
0000
,  // measure 121
2000
0000
0000
0000
,  // measure 122
0000
0000
0000
3000
,  // measure 123
0002
0000
0000
0000
,  // measure 124
1000
0000
0000
0003
,  // measure 125
0020
0000
0000
0000
,  // measure 126
0000
0000
0000
0030
,  // measure 127
0200
0000
0000
0000
,  // measure 128
0001
0000
0000
0300
,  // measure 129
2002
0000
0000
0000
,  // measure 130
0000
0000
0000
0000
,  // measure 131
0000
0000
0000
0000
,  // measure 132
0000
0000
0000
3003
,  // measure 133
2000
0000
0000
3000
,  // measure 134
0020
0000
0130
0000
,  // measure 135
0002
0000
0000
0003
,  // measure 136
0200
0000
0310
0010
,  // measure 137
0020
0000
0000
0030
,  // measure 138
0002
0000
1003
0000
,  // measure 139
0200
0000
0000
0300
,  // measure 140
2000
0000
3001
0001
,  // measure 141
2000
0000
0000
3000
,  // measure 142
0020
0000
0130
0000
,  // measure 143
0002
0000
0000
0003
,  // measure 144
0200
0000
0310
0010
,  // measure 145
0020
0000
0000
0030
,  // measure 146
0002
0000
1003
0000
,  // measure 147
0200
0000
0000
0300
,  // measure 148
2000
0000
3001
0001
,  // measure 149
1000
0000
0000
0000
,  // measure 150
0010
0100
0010
0000
,  // measure 151
0001
0000
0000
0000
,  // measure 152
0100
0010
0100
0010
,  // measure 153
0010
0000
0000
0000
,  // measure 154
0001
1000
0001
0000
,  // measure 155
0100
0000
0000
0000
,  // measure 156
1000
0001
1000
0001
,  // measure 157
1000
0000
0000
0000
,  // measure 158
1000
0000
0000
0000
,  // measure 159
0001
0000
0000
0000
,  // measure 160
0001
0000
0000
0000
,  // measure 161
0010
0000
0000
0000
,  // measure 162
0010
0000
0000
0000
,  // measure 163
0100
0000
0000
0000
,  // measure 164
0100
0000
0010
0000
,  // measure 165
1001
0000
0000
0000
;

//---------------dance-single - ----------------
#NOTEDATA:;
#CHARTNAME:;
#STEPSTYPE:dance-single;
#DESCRIPTION:;
#CHARTSTYLE:;
#DIFFICULTY:Hard;
#METER:5;
#RADARVALUES:0.161420,0.199047,0.008042,0.217142,0.000000,281.000000,279.000000,2.000000,54.000000,0.000000,0.000000,0.000000,0.000000,0.000000,0.161420,0.199047,0.008042,0.217142,0.000000,281.000000,279.000000,2.000000,54.000000,0.000000,0.000000,0.000000,0.000000,0.000000;
#CREDIT:;
#NOTES:
// measure 0
0000
0000
0000
0000
,  // measure 1
1000
0000
0000
0000
,  // measure 2
1000
0000
0000
0000
,  // measure 3
0001
0000
0000
0000
,  // measure 4
0001
0000
0000
0000
,  // measure 5
0010
0000
0000
0000
,  // measure 6
0010
0000
0000
0000
,  // measure 7
0100
0000
0000
0000
,  // measure 8
0100
0000
0000
0000
,  // measure 9
1000
0000
0000
0000
,  // measure 10
1000
0000
0000
0000
,  // measure 11
0001
0000
0000
0000
,  // measure 12
1000
0000
1000
0000
,  // measure 13
0001
0000
0000
0000
,  // measure 14
0001
0000
0000
0000
,  // measure 15
1000
0000
0000
0000
,  // measure 16
0001
0000
0001
0000
,  // measure 17
0010
0000
0000
0000
,  // measure 18
0010
0000
0000
0000
,  // measure 19
0100
0000
0000
0000
,  // measure 20
0010
0000
0010
0000
,  // measure 21
0100
0000
0000
0000
,  // measure 22
0100
0000
0000
0000
,  // measure 23
0010
0000
0000
0000
,  // measure 24
0100
0000
0100
0000
,  // measure 25
1000
0000
0000
0000
,  // measure 26
0010
0100
0010
0100
,  // measure 27
0001
0000
0000
0000
,  // measure 28
0100
0010
0100
0010
,  // measure 29
0010
0000
0000
0000
,  // measure 30
0001
1000
0001
1000
,  // measure 31
0100
0000
0000
0000
,  // measure 32
1000
0001
1000
0001
,  // measure 33
2000
0000
0000
3000
,  // measure 34
0020
0000
0130
0100
,  // measure 35
0002
0000
0000
0003
,  // measure 36
0200
0000
0310
0010
,  // measure 37
0020
0000
0000
0030
,  // measure 38
0002
0000
1003
1000
,  // measure 39
0200
0000
0000
0300
,  // measure 40
2000
0000
3001
0001
,  // measure 41
2000
0000
0000
3000
,  // measure 42
0020
0000
0130
0100
,  // measure 43
0002
0000
0000
0003
,  // measure 44
0200
0000
0310
0010
,  // measure 45
0020
0000
0000
0030
,  // measure 46
0002
0000
1003
1000
,  // measure 47
0200
0000
0000
0300
,  // measure 48
2000
0000
3001
0001
,  // measure 49
0001
0000
0001
0000
,  // measure 50
0010
0000
1000
1000
,  // measure 51
1000
0000
1000
0000
,  // measure 52
0100
0000
0001
0001
,  // measure 53
0100
0000
0100
0000
,  // measure 54
0001
0000
0010
0010
,  // measure 55
0010
0000
0010
0000
,  // measure 56
1000
0000
0100
0100
,  // measure 57
1000
0000
0000
0000
,  // measure 58
1000
0000
0000
0000
,  // measure 59
0001
0000
0000
0000
,  // measure 60
0001
0000
0000
0000
,  // measure 61
0010
0000
0000
0000
,  // measure 62
0010
0000
0000
0000
,  // measure 63
0100
0000
0000
0000
,  // measure 64
0100
0000
0000
0000
,  // measure 65
1000
0000
0000
0000
,  // measure 66
1000
0000
0000
0000
,  // measure 67
0001
0000
0000
0000
,  // measure 68
1000
0000
1000
0000
,  // measure 69
0001
0000
0000
0000
,  // measure 70
0001
0000
0000
0000
,  // measure 71
1000
0000
0000
0000
,  // measure 72
0001
0000
0001
0000
,  // measure 73
0010
0000
0000
0000
,  // measure 74
0010
0000
0000
0000
,  // measure 75
0100
0000
0000
0000
,  // measure 76
0010
0000
0010
0000
,  // measure 77
0100
0000
0000
0000
,  // measure 78
0100
0000
0000
0000
,  // measure 79
0010
0000
0000
0000
,  // measure 80
0100
0000
0100
0000
,  // measure 81
1000
0000
0000
0000
,  // measure 82
0010
0100
0010
0100
,  // measure 83
0001
0000
0000
0000
,  // measure 84
0100
0010
0100
0010
,  // measure 85
0010
0000
0000
0000
,  // measure 86
0001
1000
0001
1000
,  // measure 87
0100
0000
0000
0000
,  // measure 88
1000
0001
1000
0001
,  // measure 89
2000
0000
0000
3000
,  // measure 90
0020
0000
0130
0100
,  // measure 91
0002
0000
0000
0003
,  // measure 92
0200
0000
0310
0010
,  // measure 93
0020
0000
0000
0030
,  // measure 94
0002
0000
1003
1000
,  // measure 95
0200
0000
0000
0300
,  // measure 96
2000
0000
3001
0001
,  // measure 97
2000
0000
0000
3000
,  // measure 98
0020
0000
0130
0100
,  // measure 99
0002
0000
0000
0003
,  // measure 100
0200
0000
0310
0010
,  // measure 101
0020
0000
0000
0030
,  // measure 102
0002
0000
1003
1000
,  // measure 103
0200
0000
0000
0300
,  // measure 104
2000
0000
3001
0001
,  // measure 105
0001
0000
0001
0000
,  // measure 106
0010
0000
1000
1000
,  // measure 107
1000
0000
1000
0000
,  // measure 108
0100
0000
0001
0001
,  // measure 109
0100
0000
0100
0000
,  // measure 110
0001
0000
0010
0010
,  // measure 111
0010
0000
0010
0000
,  // measure 112
1000
0000
0100
0100
,  // measure 113
1000
0000
0000
0000
,  // measure 114
1000
0000
0000
0000
,  // measure 115
0001
0000
0000
0000
,  // measure 116
0001
0000
0000
0000
,  // measure 117
0010
0000
0000
0000
,  // measure 118
0010
0000
0000
0000
,  // measure 119
0100
0000
0000
0000
,  // measure 120
0100
0000
0000
0000
,  // measure 121
2000
0000
0000
0000
,  // measure 122
0001
0000
0000
3000
,  // measure 123
0002
0000
0000
0000
,  // measure 124
1000
0000
0000
0003
,  // measure 125
0020
0000
0000
0000
,  // measure 126
1000
0000
0000
0030
,  // measure 127
0200
0000
0000
0000
,  // measure 128
0001
0000
0000
0300
,  // measure 129
2002
0000
0000
0000
,  // measure 130
0000
0000
0000
0000
,  // measure 131
0000
0000
0000
0000
,  // measure 132
0000
0000
0000
3003
,  // measure 133
2000
0000
0000
3000
,  // measure 134
0020
0000
0130
0100
,  // measure 135
0002
0000
0000
0003
,  // measure 136
0200
0000
0310
0010
,  // measure 137
0020
0000
0000
0030
,  // measure 138
0002
0000
1003
1000
,  // measure 139
0200
0000
0000
0300
,  // measure 140
2000
0000
3001
0001
,  // measure 141
2000
0000
0000
3000
,  // measure 142
0020
0000
0130
0100
,  // measure 143
0002
0000
0000
0003
,  // measure 144
0200
0000
0310
0010
,  // measure 145
0020
0000
0000
0030
,  // measure 146
0002
0000
1003
1000
,  // measure 147
0200
0000
0000
0300
,  // measure 148
2000
0000
3001
0001
,  // measure 149
1000
0000
0000
0000
,  // measure 150
0010
0100
0010
0100
,  // measure 151
0001
0000
0000
0000
,  // measure 152
0100
0010
0100
0010
,  // measure 153
0010
0000
0000
0000
,  // measure 154
0001
1000
0001
1000
,  // measure 155
0100
0000
0000
0000
,  // measure 156
1000
0001
1000
0001
,  // measure 157
1000
0000
0000
0000
,  // measure 158
1000
0000
0000
0000
,  // measure 159
0001
0000
0000
0000
,  // measure 160
0001
0000
0000
0000
,  // measure 161
0010
0000
0000
0000
,  // measure 162
0010
0000
0000
0000
,  // measure 163
0100
0000
0000
0000
,  // measure 164
0100
0000
0010
0000
,  // measure 165
1001
0000
0000
0000
;

//---------------dance-single - ----------------
#NOTEDATA:;
#CHARTNAME:;
#STEPSTYPE:dance-single;
#DESCRIPTION:;
#CHARTSTYLE:;
#DIFFICULTY:Challenge;
#METER:5;
#RADARVALUES:0.172335,0.232221,0.056296,0.217142,0.000000,300.000000,286.000000,14.000000,54.000000,0.000000,0.000000,0.000000,0.000000,0.000000,0.172335,0.232221,0.056296,0.217142,0.000000,300.000000,286.000000,14.000000,54.000000,0.000000,0.000000,0.000000,0.000000,0.000000;
#CREDIT:;
#NOTES:
// measure 0
0000
0000
0000
0000
,  // measure 1
1000
0000
0000
0000
,  // measure 2
1000
0000
0000
0000
,  // measure 3
0001
0000
0000
0000
,  // measure 4
0001
0000
1000
0000
,  // measure 5
0010
0000
0000
0000
,  // measure 6
0010
0000
0000
0000
,  // measure 7
0100
0000
0000
0000
,  // measure 8
0100
0000
0010
0000
,  // measure 9
1000
0000
0000
0000
,  // measure 10
1000
0000
0000
0000
,  // measure 11
0001
0000
0000
0000
,  // measure 12
1000
0000
1000
0000
,  // measure 13
0001
0000
0000
0000
,  // measure 14
0001
0000
0000
0000
,  // measure 15
1000
0000
0000
0000
,  // measure 16
0001
0000
0001
0000
,  // measure 17
0010
0000
0000
0000
,  // measure 18
0010
0000
0000
0000
,  // measure 19
0100
0000
0000
0000
,  // measure 20
0010
0000
0010
0000
,  // measure 21
0100
0000
0000
0000
,  // measure 22
0100
0000
0000
0000
,  // measure 23
0010
0000
0000
0000
,  // measure 24
0100
0000
0100
0000
,  // measure 25
1000
0000
0000
0000
,  // measure 26
0010
0100
0010
0100
,  // measure 27
0001
0000
0000
0000
,  // measure 28
0100
0010
0100
0010
,  // measure 29
0010
0000
0000
0000
,  // measure 30
0001
1000
0001
1000
,  // measure 31
0100
0000
0000
0000
,  // measure 32
1000
0001
1000
0001
,  // measure 33
2001
0000
0000
3000
,  // measure 34
0020
0000
0130
0100
,  // measure 35
0002
0000
0000
0003
,  // measure 36
0200
0000
0310
0010
,  // measure 37
0120
0000
0000
0030
,  // measure 38
0002
0000
1003
1000
,  // measure 39
0200
0000
0000
0300
,  // measure 40
2000
0000
3001
0001
,  // measure 41
2001
0000
0000
3000
,  // measure 42
0020
0000
0130
0100
,  // measure 43
0002
0000
0000
0003
,  // measure 44
0200
0000
0310
0010
,  // measure 45
0120
0000
0000
0030
,  // measure 46
0002
0000
1003
1000
,  // measure 47
0200
0000
0000
0300
,  // measure 48
2000
0000
3001
0001
,  // measure 49
0001
0000
0001
0000
,  // measure 50
0010
0000
1000
1000
,  // measure 51
1000
0000
1000
0000
,  // measure 52
0100
0000
0001
0001
,  // measure 53
0100
0000
0100
0000
,  // measure 54
0001
0000
0010
0010
,  // measure 55
0010
0000
0010
0000
,  // measure 56
1000
0000
0100
0100
,  // measure 57
1000
0000
0000
0000
,  // measure 58
1000
0000
0000
0000
,  // measure 59
0001
0000
0000
0000
,  // measure 60
0001
0000
1000
0000
,  // measure 61
0010
0000
0000
0000
,  // measure 62
0010
0000
0000
0000
,  // measure 63
0100
0000
0000
0000
,  // measure 64
0100
0000
0010
0000
,  // measure 65
1000
0000
0000
0000
,  // measure 66
1000
0000
0000
0000
,  // measure 67
0001
0000
0000
0000
,  // measure 68
1000
0000
1000
0000
,  // measure 69
0001
0000
0000
0000
,  // measure 70
0001
0000
0000
0000
,  // measure 71
1000
0000
0000
0000
,  // measure 72
0001
0000
0001
0000
,  // measure 73
0010
0000
0000
0000
,  // measure 74
0010
0000
0000
0000
,  // measure 75
0100
0000
0000
0000
,  // measure 76
0010
0000
0010
0000
,  // measure 77
0100
0000
0000
0000
,  // measure 78
0100
0000
0000
0000
,  // measure 79
0010
0000
0000
0000
,  // measure 80
0100
0000
0100
0000
,  // measure 81
1000
0000
0000
0000
,  // measure 82
0010
0100
0010
0100
,  // measure 83
0001
0000
0000
0000
,  // measure 84
0100
0010
0100
0010
,  // measure 85
0010
0000
0000
0000
,  // measure 86
0001
1000
0001
1000
,  // measure 87
0100
0000
0000
0000
,  // measure 88
1000
0001
1000
0001
,  // measure 89
2001
0000
0000
3000
,  // measure 90
0020
0000
0130
0100
,  // measure 91
0002
0000
0000
0003
,  // measure 92
0200
0000
0310
0010
,  // measure 93
0120
0000
0000
0030
,  // measure 94
0002
0000
1003
1000
,  // measure 95
0200
0000
0000
0300
,  // measure 96
2000
0000
3001
0001
,  // measure 97
2001
0000
0000
3000
,  // measure 98
0020
0000
0130
0100
,  // measure 99
0002
0000
0000
0003
,  // measure 100
0200
0000
0310
0010
,  // measure 101
0120
0000
0000
0030
,  // measure 102
0002
0000
1003
1000
,  // measure 103
0200
0000
0000
0300
,  // measure 104
2000
0000
3001
0001
,  // measure 105
0001
0000
0001
0000
,  // measure 106
0010
0000
1000
1000
,  // measure 107
1000
0000
1000
0000
,  // measure 108
0100
0000
0001
0001
,  // measure 109
0100
0000
0100
0000
,  // measure 110
0001
0000
0010
0010
,  // measure 111
0010
0000
0010
0000
,  // measure 112
1000
0000
0100
0100
,  // measure 113
1000
0000
0000
0000
,  // measure 114
1000
0000
0000
0000
,  // measure 115
0001
0000
0000
0000
,  // measure 116
0001
0000
1000
0000
,  // measure 117
0010
0000
0000
0000
,  // measure 118
0010
0000
0000
0000
,  // measure 119
0100
0000
0000
0000
,  // measure 120
0100
0000
0010
0000
,  // measure 121
2000
0000
0000
0000
,  // measure 122
0001
0000
0000
3000
,  // measure 123
0002
0000
0000
0000
,  // measure 124
1000
0000
0000
0003
,  // measure 125
0020
0000
0000
0000
,  // measure 126
1000
0000
0000
0030
,  // measure 127
0200
0000
0000
0000
,  // measure 128
0001
0000
0000
0300
,  // measure 129
2002
0000
0000
0000
,  // measure 130
0000
0000
0000
0000
,  // measure 131
0000
0000
0000
0000
,  // measure 132
0000
0000
0000
3003
,  // measure 133
2001
0000
0000
3000
,  // measure 134
0020
0000
0130
0100
,  // measure 135
0002
0000
0000
0003
,  // measure 136
0200
0000
0310
0010
,  // measure 137
0120
0000
0000
0030
,  // measure 138
0002
0000
1003
1000
,  // measure 139
0200
0000
0000
0300
,  // measure 140
2000
0000
3001
0001
,  // measure 141
2001
0000
0000
3000
,  // measure 142
0020
0000
0130
0100
,  // measure 143
0002
0000
0000
0003
,  // measure 144
0200
0000
0310
0010
,  // measure 145
0120
0000
0000
0030
,  // measure 146
0002
0000
1003
1000
,  // measure 147
0200
0000
0000
0300
,  // measure 148
2000
0000
3001
0001
,  // measure 149
1000
0000
0000
0000
,  // measure 150
0010
0100
0010
0100
,  // measure 151
0001
0000
0000
0000
,  // measure 152
0100
0010
0100
0010
,  // measure 153
0010
0000
0000
0000
,  // measure 154
0001
1000
0001
1000
,  // measure 155
0100
0000
0000
0000
,  // measure 156
1000
0001
1000
0001
,  // measure 157
1000
0000
0000
0000
,  // measure 158
1000
0000
0000
0000
,  // measure 159
0001
0000
0000
0000
,  // measure 160
0001
0000
1000
0000
,  // measure 161
0010
0000
0000
0000
,  // measure 162
0010
0000
0000
0000
,  // measure 163
0100
0000
0000
0000
,  // measure 164
0100
0000
0010
0000
,  // measure 165
1001
0000
0000
0000
;
