#TITLE:Back to Square One;
#SUBTITLE:(form Herzog);
#ARTIST:SEGA;
#TITLETRANSLIT:;
#SUBTITLETRANSLIT:;
#ARTISTTRANSLIT:;
#GENRE:;
#CREDIT:;
#BANNER:;
#BACKGROUND:;
#LYRICSPATH:;
#CDTITLE:;
#MUSIC:Back to Square One.ogg;
#OFFSET:-0.034000;
#SAMPLESTART:0.034000;
#SAMPLELENGTH:15.000000;
#SELECTABLE:YES;
#BPMS:0.000000=214.334000
;
#STOPS:
;
#BGCHANGES:;
#KEYSOUNDS:;
#ATTACKS:;

//---------------dance-single - ----------------
#NOTES:
     dance-single:
     :
     Easy:
     14:
     0.573438,0.571345,0.014650,0.175798,0.000000,274.000000,273.000000,1.000000,12.000000,0.000000,0.000000,0.573438,0.571345,0.014650,0.175798,0.000000,274.000000,273.000000,1.000000,12.000000,0.000000,0.000000:
// measure 0
0002
0000
0100
0003
,  // measure 1
1000
0010
1000
0010
0100
0001
0100
0001
,  // measure 2
2000
0000
0010
3000
,  // measure 3
0001
0100
0001
0100
0010
1000
0010
1000
,  // measure 4
0200
0000
1000
0300
,  // measure 5
0010
0001
0010
0001
1000
0100
1000
0100
,  // measure 6
0020
0000
0001
0030
,  // measure 7
0100
1000
0100
1000
0001
0010
0001
0010
,  // measure 8
0100
0000
0100
0000
0100
0010
0100
1000
,  // measure 9
0010
0000
0010
0000
0010
0100
0010
0001
,  // measure 10
1000
0000
1000
0000
1000
0001
1000
0010
,  // measure 11
0001
0000
0001
0000
0001
1000
0001
0100
,  // measure 12
0020
0000
0130
0100
,  // measure 13
1000
0100
0001
0010
0100
1000
0010
0000
,  // measure 14
0200
0000
0310
0010
,  // measure 15
0001
0010
1000
0100
0010
0001
0100
0000
,  // measure 16
0002
0000
1003
1000
,  // measure 17
0010
1000
0100
0001
1000
0010
0001
0000
,  // measure 18
2000
0000
3001
0001
,  // measure 19
0100
0001
0010
1000
0001
0100
1000
0000
,  // measure 20
0020
0000
0130
0100
,  // measure 21
1000
0100
0001
0010
0100
1000
0010
0000
,  // measure 22
0200
0000
0310
0010
,  // measure 23
0001
0010
1000
0100
0010
0001
0100
0000
,  // measure 24
0002
0000
1003
1000
,  // measure 25
0010
1000
0100
0001
1000
0010
0001
0000
,  // measure 26
2000
0000
3001
0001
,  // measure 27
0100
0001
0010
1000
0001
0100
1000
0000
,  // measure 28
0100
0000
0100
0000
0100
0010
0100
1000
,  // measure 29
0010
0000
0010
0000
0010
0100
0010
0001
,  // measure 30
1000
0000
1000
0000
1000
0001
1000
0010
,  // measure 31
0001
0000
0001
0000
0001
1000
0001
0100
,  // measure 32
0100
0000
0100
0000
0100
0010
0100
1000
,  // measure 33
0010
0000
0010
0000
0010
0100
0010
0001
,  // measure 34
1000
0000
1000
0000
1000
0001
1000
0010
,  // measure 35
0001
0000
0001
0000
0001
1000
0001
0100
,  // measure 36
1000
0000
0100
0000
0001
0010
0100
0000
,  // measure 37
0010
0000
0100
0000
0010
1000
0001
0000
,  // measure 38
0001
0000
0010
0000
1000
0100
0010
0000
,  // measure 39
0100
0000
0010
0000
0100
0001
1000
0000
,  // measure 40
0010
0000
1000
0000
0100
0001
1000
0000
,  // measure 41
0001
0000
1000
0000
0001
0010
0100
0000
,  // measure 42
0100
0000
0001
0000
0010
1000
0001
0000
,  // measure 43
1000
0000
0001
0000
1000
0100
0010
0000
,  // measure 44
1000
0000
0100
0000
0001
0010
0100
0000
,  // measure 45
0010
0000
0100
0000
0010
1000
0001
0000
,  // measure 46
0001
0000
0010
0000
1000
0100
0010
0000
,  // measure 47
0100
0000
0010
0000
0100
0001
1000
0000
,  // measure 48
0001
0000
0010
0000
1000
0100
0010
0000
,  // measure 49
0100
0000
0010
0000
0100
0001
1000
0000
,  // measure 50
1000
0000
0100
0000
0001
0010
0100
0000
,  // measure 51
0010
0000
0100
0000
0010
1000
0001
0000
,  // measure 52
1001
0000
0000
0000
;

//---------------dance-single - ----------------
#NOTES:
     dance-single:
     :
     Beginner:
     13:
     0.523210,0.495166,0.014650,0.175798,0.000000,250.000000,249.000000,1.000000,12.000000,0.000000,0.000000,0.523210,0.495166,0.014650,0.175798,0.000000,250.000000,249.000000,1.000000,12.000000,0.000000,0.000000:
0002
0000
0100
0003
,
1000
0000
1000
0000
0100
0001
0100
0001
,
2000
0000
0010
3000
,
0001
0000
0001
0000
0010
1000
0010
1000
,
0200
0000
1000
0300
,
0010
0000
0010
0000
1000
0100
1000
0100
,
0020
0000
0001
0030
,
0100
0000
0100
0000
0001
0010
0001
0010
,
0100
0000
0100
0000
0100
0010
0100
1000
,
0010
0000
0010
0000
0010
0100
0010
0001
,
1000
0000
1000
0000
1000
0001
1000
0010
,
0001
0000
0001
0000
0001
1000
0001
0100
,
0020
0000
0130
0100
,
1000
0100
0001
0010
0100
0000
0010
0000
,
0200
0000
0310
0010
,
0001
0010
1000
0100
0010
0000
0100
0000
,
0002
0000
1003
1000
,
0010
1000
0100
0001
1000
0000
0001
0000
,
2000
0000
3001
0001
,
0100
0001
0010
1000
0001
0000
1000
0000
,
0020
0000
0130
0100
,
1000
0100
0001
0010
0100
0000
0010
0000
,
0200
0000
0310
0010
,
0001
0010
1000
0100
0010
0000
0100
0000
,
0002
0000
1003
1000
,
0010
1000
0100
0001
1000
0000
0001
0000
,
2000
0000
3001
0001
,
0100
0001
0010
1000
0001
0000
1000
0000
,
0100
0000
0100
0000
0100
0010
0100
1000
,
0010
0000
0010
0000
0010
0100
0010
0001
,
1000
0000
1000
0000
1000
0001
1000
0010
,
0001
0000
0001
0000
0001
1000
0001
0100
,
0100
0000
0100
0000
0100
0010
0100
1000
,
0010
0000
0010
0000
0010
0100
0010
0001
,
1000
0000
1000
0000
1000
0001
1000
0010
,
0001
0000
0001
0000
0001
1000
0001
0100
,
1000
0100
0001
0100
,
0010
0000
0100
0000
0010
1000
0001
0000
,
0001
0010
1000
0010
,
0100
0000
0010
0000
0100
0001
1000
0000
,
0010
1000
0100
1000
,
0001
0000
1000
0000
0001
0010
0100
0000
,
0100
0001
0010
0001
,
1000
0000
0001
0000
1000
0100
0010
0000
,
1000
0100
0001
0100
,
0010
0000
0100
0000
0010
1000
0001
0000
,
0001
0010
1000
0010
,
0100
0000
0010
0000
0100
0001
1000
0000
,
0001
0010
1000
0010
,
0100
0000
0010
0000
0100
0001
1000
0000
,
1000
0100
0001
0100
,
0010
0000
0100
0000
0010
1000
0001
0000
,
1001
0000
0000
0000
;

//---------------dance-single - ----------------
#NOTES:
     dance-single:
     :
     Medium:
     15:
     0.657151,0.609434,0.014650,0.175798,0.000000,314.000000,313.000000,1.000000,12.000000,0.000000,0.000000,0.657151,0.609434,0.014650,0.175798,0.000000,314.000000,313.000000,1.000000,12.000000,0.000000,0.000000:
0002
0000
0100
0103
,
1000
0010
1000
0010
0100
0001
0100
0001
,
2000
0000
0010
3010
,
0001
0100
0001
0100
0010
1000
0010
1000
,
0200
0000
1000
1300
,
0010
0001
0010
0001
1000
0100
1000
0100
,
0020
0000
0001
0031
,
0100
1000
0100
1000
0001
0010
0001
0010
,
0100
0001
0100
0000
0100
0010
0100
1000
,
0010
1000
0010
0000
0010
0100
0010
0001
,
1000
0100
1000
0000
1000
0001
1000
0010
,
0001
0010
0001
0000
0001
1000
0001
0100
,
0020
0100
0130
0100
,
1000
0100
0001
0010
0100
1000
0010
0000
,
0200
0010
0310
0010
,
0001
0010
1000
0100
0010
0001
0100
0000
,
0002
1000
1003
1000
,
0010
1000
0100
0001
1000
0010
0001
0000
,
2000
0001
3001
0001
,
0100
0001
0010
1000
0001
0100
1000
0000
,
0020
0100
0130
0100
,
1000
0100
0001
0010
0100
1000
0010
0000
,
0200
0010
0310
0010
,
0001
0010
1000
0100
0010
0001
0100
0000
,
0002
1000
1003
1000
,
0010
1000
0100
0001
1000
0010
0001
0000
,
2000
0001
3001
0001
,
0100
0001
0010
1000
0001
0100
1000
0000
,
0100
0001
0100
0000
0100
0010
0100
1000
,
0010
1000
0010
0000
0010
0100
0010
0001
,
1000
0100
1000
0000
1000
0001
1000
0010
,
0001
0010
0001
0000
0001
1000
0001
0100
,
0100
0001
0100
0000
0100
0010
0100
1000
,
0010
1000
0010
0000
0010
0100
0010
0001
,
1000
0100
1000
0000
1000
0001
1000
0010
,
0001
0010
0001
0000
0001
1000
0001
0100
,
1000
0010
0100
0000
0001
0010
0100
0000
,
0010
1000
0100
0000
0010
1000
0001
0000
,
0001
0100
0010
0000
1000
0100
0010
0000
,
0100
0001
0010
0000
0100
0001
1000
0000
,
0010
0001
1000
0000
0100
0001
1000
0000
,
0001
0010
1000
0000
0001
0010
0100
0000
,
0100
1000
0001
0000
0010
1000
0001
0000
,
1000
0100
0001
0000
1000
0100
0010
0000
,
1000
0010
0100
0000
0001
0010
0100
0000
,
0010
1000
0100
0000
0010
1000
0001
0000
,
0001
0100
0010
0000
1000
0100
0010
0000
,
0100
0001
0010
0000
0100
0001
1000
0000
,
0001
0100
0010
0000
1000
0100
0010
0000
,
0100
0001
0010
0000
0100
0001
1000
0000
,
1000
0010
0100
0000
0001
0010
0100
0000
,
0010
1000
0100
0000
0010
1000
0001
0000
,
1001
0000
0000
0000
;

//---------------dance-single - ----------------
#NOTES:
     dance-single:
     :
     Hard:
     16:
     0.705287,0.609434,0.073249,0.175798,0.000000,337.000000,332.000000,5.000000,12.000000,0.000000,0.000000,0.705287,0.609434,0.073249,0.175798,0.000000,337.000000,332.000000,5.000000,12.000000,0.000000,0.000000:
0102
0000
0100
0103
,
1000
0010
1000
0010
0100
0001
0100
0001
,
2010
0000
0010
3010
,
0001
0100
0001
0100
0010
1000
0010
1000
,
1200
0000
1000
1300
,
0010
0001
0010
0001
1000
0100
1000
0100
,
0021
0000
0001
0031
,
0100
1000
0100
1000
0001
0010
0001
0010
,
0100
0001
0100
0000
0100
0010
0100
1000
,
0010
1000
0010
0000
0010
0100
0010
0001
,
1000
0100
1000
0000
1000
0001
1000
0010
,
0001
0010
0001
0100
0001
1000
0001
0100
,
0020
0100
0130
0100
,
1000
0100
0001
0010
0100
1000
0010
0100
,
0200
0010
0310
0010
,
0001
0010
1000
0100
0010
0001
0100
0010
,
0002
1000
1003
1000
,
0010
1000
0100
0001
1000
0010
0001
1000
,
2000
0001
3001
0001
,
0100
0001
0010
1000
0001
0100
1000
0001
,
0020
0100
0130
0100
,
1000
0100
0001
0010
0100
1000
0010
0100
,
0200
0010
0310
0010
,
0001
0010
1000
0100
0010
0001
0100
0010
,
0002
1000
1003
1000
,
0010
1000
0100
0001
1000
0010
0001
1000
,
2000
0001
3001
0001
,
0100
0001
0010
1000
0001
0100
1000
0001
,
0100
0001
0100
0000
0100
0010
0100
1000
,
0010
1000
0010
0000
0010
0100
0010
0001
,
1000
0100
1000
0000
1000
0001
1000
0010
,
0001
0010
0001
0100
0001
1000
0001
0100
,
0100
0001
0100
0000
0100
0010
0100
1000
,
0010
1000
0010
0000
0010
0100
0010
0001
,
1000
0100
1000
0000
1000
0001
1000
0010
,
0001
0010
0001
0100
0001
1000
0001
0100
,
1000
0010
0100
0000
0001
0010
0100
0000
,
0010
1000
0100
0000
0010
1000
0001
1000
,
0001
0100
0010
0000
1000
0100
0010
0000
,
0100
0001
0010
0000
0100
0001
1000
0001
,
0010
0001
1000
0000
0100
0001
1000
0000
,
0001
0010
1000
0000
0001
0010
0100
0010
,
0100
1000
0001
0000
0010
1000
0001
0000
,
1000
0100
0001
0000
1000
0100
0010
0100
,
1000
0010
0100
0000
0001
0010
0100
0000
,
0010
1000
0100
0000
0010
1000
0001
1000
,
0001
0100
0010
0000
1000
0100
0010
0000
,
0100
0001
0010
0000
0100
0001
1000
0001
,
0001
0100
0010
0000
1000
0100
0010
0000
,
0100
0001
0010
0000
0100
0001
1000
0001
,
1000
0010
0100
0000
0001
0010
0100
0000
,
0010
1000
0100
0000
0010
1000
0001
1000
,
1001
0000
0000
0000
;

//---------------dance-single - ----------------
#NOTES:
     dance-single:
     :
     Challenge:
     17:
     0.753422,0.609434,0.073249,0.175798,0.000000,360.000000,355.000000,5.000000,12.000000,0.000000,0.000000,0.753422,0.609434,0.073249,0.175798,0.000000,360.000000,355.000000,5.000000,12.000000,0.000000,0.000000:
0102
1000
0100
0103
,
1000
0010
1000
0010
0100
0001
0100
0001
,
2010
0001
0010
3010
,
0001
0100
0001
0100
0010
1000
0010
1000
,
1200
0010
1000
1300
,
0010
0001
0010
0001
1000
0100
1000
0100
,
0021
0100
0001
0031
,
0100
1000
0100
1000
0001
0010
0001
0010
,
0100
0001
0100
0000
0100
0010
0100
1000
,
0010
1000
0010
0001
0010
0100
0010
0001
,
1000
0100
1000
0000
1000
0001
1000
0010
,
0001
0010
0001
0100
0001
1000
0001
0100
,
0020
0000
0100
0000
0130
0000
0100
0010
,
1000
0100
0001
0010
0100
1000
0010
0100
,
0200
0000
0010
0000
0310
0000
0010
0100
,
0001
0010
1000
0100
0010
0001
0100
0010
,
0002
0000
1000
0000
1003
0000
1000
0001
,
0010
1000
0100
0001
1000
0010
0001
1000
,
2000
0000
0001
0000
3001
0000
0001
1000
,
0100
0001
0010
1000
0001
0100
1000
0001
,
0020
0000
0100
0000
0130
0000
0100
0010
,
1000
0100
0001
0010
0100
1000
0010
0100
,
0200
0000
0010
0000
0310
0000
0010
0100
,
0001
0010
1000
0100
0010
0001
0100
0010
,
0002
0000
1000
0000
1003
0000
1000
0001
,
0010
1000
0100
0001
1000
0010
0001
1000
,
2000
0000
0001
0000
3001
0000
0001
1000
,
0100
0001
0010
1000
0001
0100
1000
0001
,
0100
0001
0100
0000
0100
0010
0100
1000
,
0010
1000
0010
0001
0010
0100
0010
0001
,
1000
0100
1000
0000
1000
0001
1000
0010
,
0001
0010
0001
0100
0001
1000
0001
0100
,
0100
0001
0100
0000
0100
0010
0100
1000
,
0010
1000
0010
0001
0010
0100
0010
0001
,
1000
0100
1000
0000
1000
0001
1000
0010
,
0001
0010
0001
0100
0001
1000
0001
0100
,
1000
0010
0100
0000
0001
0010
0100
1000
,
0010
1000
0100
0000
0010
1000
0001
1000
,
0001
0100
0010
0000
1000
0100
0010
0001
,
0100
0001
0010
0000
0100
0001
1000
0001
,
0010
0001
1000
0000
0100
0001
1000
0010
,
0001
0010
1000
0000
0001
0010
0100
0010
,
0100
1000
0001
0000
0010
1000
0001
0100
,
1000
0100
0001
0000
1000
0100
0010
0100
,
1000
0010
0100
0000
0001
0010
0100
1000
,
0010
1000
0100
0000
0010
1000
0001
1000
,
0001
0100
0010
0000
1000
0100
0010
0001
,
0100
0001
0010
0000
0100
0001
1000
0001
,
0001
0100
0010
0000
1000
0100
0010
0001
,
0100
0001
0010
0000
0100
0001
1000
0001
,
1000
0010
0100
0000
0001
0010
0100
1000
,
0010
1000
0100
0000
0010
1000
0001
1000
,
1001
0000
0000
0000
;
