#VERSION:0.83;
#TITLE:BLUE ZONE;
#SUBTITLE:;
#ARTIST:Tatsh & NAOKI;
#TITLETRANSLIT:;
#SUBTITLETRANSLIT:;
#ARTISTTRANSLIT:;
#GENRE:SPEED RAVE;
#ORIGIN:;
#CREDIT:;
#BANNER:;
#BACKGROUND:;
#PREVIEWVID:;
#JACKET:;
#CDIMAGE:;
#DISCIMAGE:;
#LYRICSPATH:;
#CDTITLE:;
#MUSIC:BLUE ZONE.ogg;
#OFFSET:-1.489000;
#SAMPLESTART:40.060429;
#SAMPLELENGTH:15.000000;
#SELECTABLE:YES;
#BPMS:0.000=168.000;
#STOPS:;
#DELAYS:;
#WARPS:;
#TIMESIGNATURES:0.000=4=4;
#TICKCOUNTS:0.000=4;
#COMBOS:0.000=1;
#SPEEDS:0.000=1.000=0.000=0;
#SCROLLS:0.000=1.000;
#FAKES:;
#LABELS:0.000=Song Start;
#BGCHANGES:;
#KEYSOUNDS:;
#ATTACKS:
;

//---------------dance-single - ----------------
#NOTEDATA:;
#CHARTNAME:;
#STEPSTYPE:dance-single;
#DESCRIPTION:;
#CHARTSTYLE:;
#DIFFICULTY:Easy;
#METER:13;
#RADARVALUES:0.669194,0.892726,0.359706,0.237079,0.502771,573.000000,529.000000,44.000000,29.000000,0.000000,0.000000,0.000000,0.000000,0.000000,0.669194,0.892726,0.359706,0.237079,0.502771,573.000000,529.000000,44.000000,29.000000,0.000000,0.000000,0.000000,0.000000,0.000000;
#CREDIT:;
#NOTES:
0000
0000
0000
0000
,
0000
0000
0000
0000
,
0000
0000
0000
0000
,
0000
0000
0000
0000
,
0000
0000
0000
0000
,
0001
0000
1000
0000
0001
0000
0000
0000
0001
0000
1000
0000
0010
0100
1000
0000
,
1000
0000
0001
0000
1000
0000
0000
0000
1000
0000
0001
0000
0100
0010
0001
0000
,
0100
0000
0010
0000
0100
0000
0000
0000
0100
0000
0010
0000
0001
1000
0010
0000
,
0100
0010
0100
0000
0010
0100
0000
0000
0100
0010
0100
0000
0100
0010
0000
0000
,
2002
0000
0000
3003
,
0010
0010
0100
0100
0001
0010
0100
1000
,
0020
0000
0000
0030
,
0100
0000
1000
0000
0010
0000
0001
0000
0100
0000
0001
0000
1000
0100
0001
0000
,
0010
0100
0001
0011
1000
0010
0100
0101
,
0010
1000
0010
0001
0110
0100
0220
0330
,
0200
0000
0000
0300
,
0010
0000
0001
0000
0100
0000
1000
0000
0010
0000
1000
0000
0001
0010
1000
0000
,
0100
0010
1000
1100
0001
0100
0010
1010
,
0100
0001
0100
1000
0110
0010
0220
0330
,
0020
0000
0000
0000
0130
0100
0100
0010
,
1000
0001
0000
0001
0010
0000
1000
0010
0001
0000
0010
1000
0001
0100
0001
0100
,
0002
0000
0000
0000
1003
1000
1000
0001
,
0010
0100
0000
0100
0001
0000
0010
0001
0100
0000
0001
0010
0100
1000
0100
1000
,
0200
0000
0000
0000
0310
0010
0010
0100
,
0001
1000
0000
1000
0100
0000
0001
0100
1000
0000
0100
0001
1000
0010
1000
0010
,
2000
0000
0000
0000
3001
0001
0001
1000
,
0100
0010
0000
0010
1000
0000
0100
1000
0010
0000
1000
0100
0010
0001
0010
0001
,
0100
0000
0100
0000
0010
0100
0000
1000
0001
0000
0000
1000
0010
0000
0010
0100
,
0010
1000
0010
0001
0010
1000
0100
0010
,
0010
0000
0010
0000
0100
0010
0000
0001
1000
0000
0000
0001
0100
0000
0100
0010
,
0100
0001
0100
1000
0100
0001
0010
0100
,
1000
0000
1000
0000
0001
1000
0000
0010
0100
0000
0000
0010
0001
0000
0001
1000
,
0001
0010
0001
0100
0001
0010
1000
0001
,
1010
0101
1010
0101
,
0010
0000
0010
0000
0010
0100
0010
0000
1000
0000
0100
0000
0001
0100
1000
0000
,
0002
0000
0000
0000
,
2000
0000
0000
3003
,
2000
0000
0000
0000
,
0002
0000
0000
3003
,
0200
0000
0000
0000
,
0020
0000
0000
0330
,
0020
0000
0000
0000
,
0200
0000
0000
0330
,
0100
0000
0100
0000
,
0100
0000
0010
0000
0100
0000
0010
0000
0100
0000
0010
0000
0100
0010
0100
0010
,
1000
0100
0010
0001
0100
0010
1000
0100
0010
0001
0100
1000
,
0010
0100
0010
0001
0010
0100
1000
0010
0001
0100
0010
1000
,
0020
0000
0000
0000
,
0200
0000
0000
0000
0000
0000
0330
0000
0010
0000
0100
0000
0010
0100
0010
0100
,
0001
0010
0100
1000
0010
0100
0001
0010
0100
1000
0010
0001
,
0100
0010
0100
1000
0100
0010
0001
0100
1000
0010
0100
0001
,
0200
0000
0000
0000
,
0020
0000
0000
0000
0000
0000
0330
0000
0100
0000
0010
0000
0100
0010
0100
0010
,
0200
0000
0000
0000
0000
0000
0000
0300
,
0110
0000
0110
0000
1000
0100
0001
0100
,
0010
1000
0010
0000
0100
0001
0100
0000
0010
0100
0010
0000
0100
1000
0100
0000
,
0110
0000
0110
0000
0001
0010
1000
0010
,
0100
0001
0100
0000
0010
1000
0010
0000
0100
0010
0100
0000
0010
0001
0010
0000
,
1001
0000
1001
0000
0010
1000
0100
1000
,
0001
0010
0001
0000
1000
0100
1000
0000
0001
1000
0001
0000
1000
0010
1000
0000
,
1001
0000
1001
0000
0100
0001
0010
0001
,
1000
0100
1000
0000
0001
0010
0001
0000
1000
0001
1000
0000
0001
0100
0001
0000
,
0100
0000
0100
0000
0010
0100
0000
1000
0001
0000
0000
1000
0010
0000
0010
0100
,
0010
1000
0010
0001
0010
1000
0100
0010
,
0010
0000
0010
0000
0100
0010
0000
0001
1000
0000
0000
0001
0100
0000
0100
0010
,
0100
0001
0100
1000
0100
0001
0010
0100
,
1000
0000
1000
0000
0001
1000
0000
0010
0100
0000
0000
0010
0001
0000
0001
1000
,
0001
0010
0001
0100
0001
0010
1000
0001
,
1010
0101
1010
0101
,
0010
0000
0010
0000
0010
0100
0010
0000
1000
0000
0100
0000
0001
0100
1000
0000
,
0010
0000
0100
0000
0010
0000
0000
0000
0000
0000
0001
0010
0100
0010
0001
0000
,
0100
0000
0010
0000
0100
0000
0000
0000
0000
0000
1000
0100
0010
0100
1000
0000
,
0001
0000
1000
0000
0001
0000
0000
0000
0000
0000
0100
0001
1000
0001
0100
0000
,
1000
0000
0001
0000
1000
0000
0000
0000
0000
0000
0010
1000
0001
1000
0010
0000
,
0100
0010
0100
0010
,
0100
0010
0100
0010
0100
0010
0100
0010
,
1010
0010
0000
0011
0010
0000
0110
0010
,
0000
1010
0001
0000
1100
0110
0011
1001
,
0101
0100
0000
1100
0100
0000
0110
0100
,
0000
0101
1000
0000
0011
0110
1100
1001
,
1001
2002
0000
0000
,
3003
0220
0000
0000
0000
0000
0000
0000
,
0000
0000
0000
0000
,
0000
0000
0000
0000
,
0330
0000
0000
0000
;

//---------------dance-single - ----------------
#NOTEDATA:;
#CHARTNAME:;
#STEPSTYPE:dance-single;
#DESCRIPTION:;
#CHARTSTYLE:;
#DIFFICULTY:Beginner;
#METER:13;
#RADARVALUES:0.644669,0.824055,0.343356,0.237079,0.433283,552.000000,510.000000,42.000000,29.000000,0.000000,0.000000,0.000000,0.000000,0.000000,0.644669,0.824055,0.343356,0.237079,0.433283,552.000000,510.000000,42.000000,29.000000,0.000000,0.000000,0.000000,0.000000,0.000000;
#CREDIT:;
#NOTES:
0000
0000
0000
0000
,
0000
0000
0000
0000
,
0000
0000
0000
0000
,
0000
0000
0000
0000
,
0000
0000
0000
0000
,
0001
1000
0001
0000
0001
1000
0010
1000
,
1000
0001
1000
0000
1000
0001
0100
0001
,
0100
0010
0100
0000
0100
0010
0001
0010
,
0100
0010
0100
0000
0010
0100
0000
0000
0100
0010
0100
0000
0100
0010
0000
0000
,
2002
0000
0000
3003
,
0010
0010
0100
0100
0001
0010
0100
1000
,
0020
0000
0000
0030
,
0100
1000
0010
0001
0100
0001
1000
0001
,
0010
0100
0001
0011
1000
0010
0100
0101
,
0010
1000
0010
0001
0110
0100
0220
0330
,
0200
0000
0000
0300
,
0010
0001
0100
1000
0010
1000
0001
1000
,
0100
0010
1000
1100
0001
0100
0010
1010
,
0100
0001
0100
1000
0110
0010
0220
0330
,
0020
0000
0000
0000
0130
0100
0100
0010
,
1000
0001
0000
0001
0010
0000
1000
0010
0001
0000
0010
1000
0001
0100
0001
0000
,
0002
0000
0000
0000
1003
1000
1000
0001
,
0010
0100
0000
0100
0001
0000
0010
0001
0100
0000
0001
0010
0100
1000
0100
0000
,
0200
0000
0000
0000
0310
0010
0010
0100
,
0001
1000
0000
1000
0100
0000
0001
0100
1000
0000
0100
0001
1000
0010
1000
0000
,
2000
0000
0000
0000
3001
0001
0001
1000
,
0100
0010
0000
0010
1000
0000
0100
1000
0010
0000
1000
0100
0010
0001
0010
0000
,
0100
0000
0100
0000
0010
0100
0000
1000
0001
0000
0000
1000
0010
0000
0010
0100
,
0010
1000
0010
0001
0010
1000
0100
0010
,
0010
0000
0010
0000
0100
0010
0000
0001
1000
0000
0000
0001
0100
0000
0100
0010
,
0100
0001
0100
1000
0100
0001
0010
0100
,
1000
0000
1000
0000
0001
1000
0000
0010
0100
0000
0000
0010
0001
0000
0001
1000
,
0001
0010
0001
0100
0001
0010
1000
0001
,
1010
0101
1010
0101
,
0010
0000
0010
0000
0010
0100
0010
0000
1000
0000
0100
0000
0001
0100
1000
0000
,
0002
0000
0000
0000
,
2000
0000
0000
3003
,
2000
0000
0000
0000
,
0002
0000
0000
3003
,
0200
0000
0000
0000
,
0020
0000
0000
0330
,
0020
0000
0000
0000
,
0200
0000
0000
0330
,
0100
0000
0100
0000
,
0100
0000
0010
0000
0100
0000
0010
0000
0100
0000
0010
0000
0100
0010
0100
0010
,
1000
0100
0010
0001
0000
0010
1000
0100
0010
0001
0100
1000
,
0010
0100
0010
0001
0000
0100
1000
0010
0001
0100
0010
1000
,
0020
0000
0000
0000
,
0200
0000
0000
0000
0000
0000
0330
0000
0010
0000
0100
0000
0010
0100
0010
0100
,
0001
0010
0100
1000
0000
0100
0001
0010
0100
1000
0010
0001
,
0100
0010
0100
1000
0000
0010
0001
0100
1000
0010
0100
0001
,
0200
0000
0000
0000
,
0020
0000
0000
0000
0000
0000
0330
0000
0100
0000
0010
0000
0100
0010
0100
0010
,
0200
0000
0000
0000
0000
0000
0000
0300
,
0110
0000
0110
0000
1000
0100
0001
0100
,
0010
1000
0010
0000
0100
0001
0100
0000
0010
0100
0010
0000
0100
1000
0100
0000
,
0110
0000
0110
0000
0001
0010
1000
0010
,
0100
0001
0100
0000
0010
1000
0010
0000
0100
0010
0100
0000
0010
0001
0010
0000
,
1001
0000
1001
0000
0010
1000
0100
1000
,
0001
0010
0001
0000
1000
0100
1000
0000
0001
1000
0001
0000
1000
0010
1000
0000
,
1001
0000
1001
0000
0100
0001
0010
0001
,
1000
0100
1000
0000
0001
0010
0001
0000
1000
0001
1000
0000
0001
0100
0001
0000
,
0100
0000
0100
0000
0010
0100
0000
1000
0001
0000
0000
1000
0010
0000
0010
0100
,
0010
1000
0010
0001
0010
1000
0100
0010
,
0010
0000
0010
0000
0100
0010
0000
0001
1000
0000
0000
0001
0100
0000
0100
0010
,
0100
0001
0100
1000
0100
0001
0010
0100
,
1000
0000
1000
0000
0001
1000
0000
0010
0100
0000
0000
0010
0001
0000
0001
1000
,
0001
0010
0001
0100
0001
0010
1000
0001
,
1010
0101
1010
0101
,
0010
0000
0010
0000
0010
0100
0010
0000
1000
0000
0100
0000
0001
0100
1000
0000
,
0010
0000
0100
0000
0010
0000
0000
0000
0000
0000
0001
0000
0100
0010
0001
0000
,
0100
0000
0010
0000
0100
0000
0000
0000
0000
0000
1000
0000
0010
0100
1000
0000
,
0001
0000
1000
0000
0001
0000
0000
0000
0000
0000
0100
0000
1000
0001
0100
0000
,
1000
0000
0001
0000
1000
0000
0000
0000
0000
0000
0010
0000
0001
1000
0010
0000
,
0100
0010
0100
0010
,
0100
0010
0100
0010
0100
0010
0100
0010
,
1010
0010
0000
0011
0010
0000
0110
0010
,
0000
1010
0001
0000
1100
0000
0011
1001
,
0101
0100
0000
1100
0100
0000
0110
0100
,
0000
0101
1000
0000
0011
0000
1100
1001
,
1001
2002
0000
0000
,
3003
0220
0000
0000
0000
0000
0000
0000
,
0000
0000
0000
0000
,
0000
0000
0000
0000
,
0330
0000
0000
0000
;

//---------------dance-single - ----------------
#NOTEDATA:;
#CHARTNAME:;
#STEPSTYPE:dance-single;
#DESCRIPTION:;
#CHARTSTYLE:;
#DIFFICULTY:Medium;
#METER:14;
#RADARVALUES:0.704230,0.892726,0.392407,0.237079,0.588610,603.000000,555.000000,48.000000,29.000000,0.000000,0.000000,0.000000,0.000000,0.000000,0.704230,0.892726,0.392407,0.237079,0.588610,603.000000,555.000000,48.000000,29.000000,0.000000,0.000000,0.000000,0.000000,0.000000;
#CREDIT:;
#NOTES:
0000
0000
0000
0000
,
0000
0000
0000
0000
,
0000
0000
0000
0000
,
0000
0000
0000
0000
,
0000
0000
0000
0000
,
0001
0100
1000
0000
0001
0000
0000
0000
0001
0000
1000
0000
0010
0100
1000
0000
,
1000
0010
0001
0000
1000
0000
0000
0000
1000
0000
0001
0000
0100
0010
0001
0000
,
0100
1000
0010
0000
0100
0000
0000
0000
0100
0000
0010
0000
0001
1000
0010
0000
,
0100
0010
0100
0000
0010
0100
0000
0000
0100
0010
0100
0000
0100
0010
0000
0000
,
2002
0000
0000
3003
,
0110
0010
0100
0100
0001
0010
0100
1000
,
0020
0000
0000
0030
,
0100
0010
1000
0000
0010
0000
0001
0000
0100
0000
0001
0000
1000
0100
0001
0000
,
0010
0100
0001
0011
1000
0010
0100
0101
,
0010
1000
0010
0001
0110
0100
0220
0330
,
0200
0000
0000
0300
,
0010
0100
0001
0000
0100
0000
1000
0000
0010
0000
1000
0000
0001
0010
1000
0000
,
0100
0010
1000
1100
0001
0100
0010
1010
,
0100
0001
0100
1000
0110
0010
0220
0330
,
0020
0000
0000
0000
0000
0000
0000
0000
0130
0000
0100
0000
0100
0010
0100
0000
,
1000
0001
0000
0001
0010
0000
1000
0010
0001
0000
0010
1000
0001
0100
0001
0100
,
0002
0000
0000
0000
0000
0000
0000
0000
1003
0000
1000
0000
1000
0001
1000
0000
,
0010
0100
0000
0100
0001
0000
0010
0001
0100
0000
0001
0010
0100
1000
0100
1000
,
0200
0000
0000
0000
0000
0000
0000
0000
0310
0000
0010
0000
0010
0100
0010
0000
,
0001
1000
0000
1000
0100
0000
0001
0100
1000
0000
0100
0001
1000
0010
1000
0010
,
2000
0000
0000
0000
0000
0000
0000
0000
3001
0000
0001
0000
0001
1000
0001
0000
,
0100
0010
0000
0010
1000
0000
0100
1000
0010
0000
1000
0100
0010
0001
0010
0001
,
0100
0010
0100
0000
0010
0100
0000
1000
0001
0000
0000
1000
0010
0000
0010
0100
,
0010
1000
0010
0001
0010
1000
0100
0010
,
0010
0100
0010
0000
0100
0010
0000
0001
1000
0000
0000
0001
0100
0000
0100
0010
,
0100
0001
0100
1000
0100
0001
0010
0100
,
1000
0001
1000
0000
0001
1000
0000
0010
0100
0000
0000
0010
0001
0000
0001
1000
,
0001
0010
0001
0100
0001
0010
1000
0001
,
1010
0101
1010
0101
,
0010
0000
0010
0000
0010
0100
0010
0000
1000
0000
0100
0000
0001
0100
1000
0010
,
0002
0000
0000
0000
,
2000
0000
0000
3003
,
2000
0000
0000
0000
,
0002
0000
0000
3003
,
0200
0000
0000
0000
,
0020
0000
0000
0330
,
0020
0000
0000
0000
,
0200
0000
0000
0330
,
0100
0100
0100
0000
,
0100
0000
0010
0000
0100
0000
0010
0000
0100
0000
0010
0000
0100
0010
0100
0010
,
1000
0100
0010
0001
0100
0010
1000
0100
0010
0001
0100
1000
,
0010
0100
0010
0001
0010
0100
1000
0010
0001
0100
0010
1000
,
0020
0000
0100
0100
,
0200
0000
0000
0000
0000
0000
0330
0000
0010
0000
0100
0000
0010
0100
0010
0100
,
0001
0010
0100
1000
0010
0100
0001
0010
0100
1000
0010
0001
,
0100
0010
0100
1000
0100
0010
0001
0100
1000
0010
0100
0001
,
0200
0000
0010
0010
,
0020
0000
0000
0000
0000
0000
0330
0000
0100
0000
0010
0000
0100
0010
0100
0010
,
0200
0000
0000
0000
0000
0000
0000
0300
,
0110
0000
0110
0000
1000
0100
0001
0100
,
0010
1000
0010
0000
0100
0001
0100
0000
0010
0100
0010
0000
0100
1000
0100
1000
,
0110
0000
0110
0000
0001
0010
1000
0010
,
0100
0001
0100
0000
0010
1000
0010
0000
0100
0010
0100
0000
0010
0001
0010
0001
,
1001
0000
1001
0000
0010
1000
0100
1000
,
0001
0010
0001
0000
1000
0100
1000
0000
0001
1000
0001
0000
1000
0010
1000
0010
,
1001
0000
1001
0000
0100
0001
0010
0001
,
1000
0100
1000
0000
0001
0010
0001
0000
1000
0001
1000
0000
0001
0100
0001
0100
,
0100
0010
0100
0000
0010
0100
0000
1000
0001
0000
0000
1000
0010
0000
0010
0100
,
0010
1000
0010
0001
0010
1000
0100
0010
,
0010
0100
0010
0000
0100
0010
0000
0001
1000
0000
0000
0001
0100
0000
0100
0010
,
0100
0001
0100
1000
0100
0001
0010
0100
,
1000
0001
1000
0000
0001
1000
0000
0010
0100
0000
0000
0010
0001
0000
0001
1000
,
0001
0010
0001
0100
0001
0010
1000
0001
,
1010
0101
1010
0101
,
0010
0000
0010
0000
0010
0100
0010
0000
1000
0000
0100
0000
0001
0100
1000
0010
,
0010
0000
0100
0000
0110
0000
0000
0000
0000
0000
0001
0010
0100
0010
0001
0000
,
0100
0000
0010
0000
0100
0000
0000
0000
0000
0000
1000
0100
0010
0100
1000
0000
,
0001
0000
1000
0000
1001
0000
0000
0000
0000
0000
0100
0001
1000
0001
0100
0000
,
1000
0000
0001
0000
1001
0000
0000
0000
0000
0000
0010
1000
0001
1000
0010
0000
,
0100
0010
0100
0010
,
0100
0010
0100
0010
0100
0010
0100
0010
,
1010
0010
0000
0011
0010
0000
0110
0010
,
0000
1010
0001
0000
1100
0110
0011
1001
,
0101
0100
0000
1100
0100
0000
0110
0100
,
0000
0101
1000
0000
0011
0110
1100
1001
,
1001
2002
0000
0000
,
3003
0220
0000
0000
0000
0000
0000
0000
,
0000
0000
0000
0000
,
0000
0000
0000
0000
,
0330
0000
0000
0000
;

//---------------dance-single - ----------------
#NOTEDATA:;
#CHARTNAME:;
#STEPSTYPE:dance-single;
#DESCRIPTION:;
#CHARTSTYLE:;
#DIFFICULTY:Hard;
#METER:14;
#RADARVALUES:0.728756,0.892726,0.474158,0.237079,0.621311,624.000000,566.000000,58.000000,29.000000,0.000000,0.000000,0.000000,0.000000,0.000000,0.728756,0.892726,0.474158,0.237079,0.621311,624.000000,566.000000,58.000000,29.000000,0.000000,0.000000,0.000000,0.000000,0.000000;
#CREDIT:;
#NOTES:
0000
0000
0000
0000
,
0000
0000
0000
0000
,
0000
0000
0000
0000
,
0000
0000
0000
0000
,
0000
0000
0000
0000
,
0001
0100
1000
0000
0001
0000
0000
0000
0001
0000
1000
0000
0010
0100
1000
0000
,
1000
0010
0001
0000
1000
0000
0000
0000
1000
0000
0001
0000
0100
0010
0001
0000
,
0100
1000
0010
0000
0100
0000
0000
0000
0100
0000
0010
0000
0001
1000
0010
0000
,
0100
0010
0100
0000
0010
0100
0000
0000
0100
0010
0100
0000
0100
0010
0000
0000
,
2002
0000
0000
3003
,
0110
0010
0100
0100
0001
0010
0100
1000
,
0020
0000
0000
0030
,
0100
0010
1000
0000
0010
0000
0001
0000
0100
0000
0001
0000
1000
0100
0001
0000
,
0010
0110
0001
0011
1000
1010
0100
0101
,
0010
1010
0010
0011
0110
0100
0220
0330
,
0200
0000
0000
0300
,
0010
0100
0001
0000
0100
0000
1000
0000
0010
0000
1000
0000
0001
0010
1000
0000
,
0100
0110
1000
1100
0001
0101
0010
1010
,
0100
0101
0100
1100
0110
0010
0220
0330
,
0020
0000
0000
0000
0000
0000
0000
0000
0130
0000
0100
0000
0100
0010
0100
0000
,
1000
0001
0000
0001
0010
0000
1000
0010
0001
0000
0010
1000
0001
0100
0001
0100
,
0002
0000
0000
0000
0000
0000
0000
0000
1003
0000
1000
0000
1000
0001
1000
0000
,
0010
0100
0000
0100
0001
0000
0010
0001
0100
0000
0001
0010
0100
1000
0100
1000
,
0200
0000
0000
0000
0000
0000
0000
0000
0310
0000
0010
0000
0010
0100
0010
0000
,
0001
1000
0000
1000
0100
0000
0001
0100
1000
0000
0100
0001
1000
0010
1000
0010
,
2000
0000
0000
0000
0000
0000
0000
0000
3001
0000
0001
0000
0001
1000
0001
0000
,
0100
0010
0000
0010
1000
0000
0100
1000
0010
0000
1000
0100
0010
0001
0010
0001
,
0100
0010
0100
0001
0010
0100
0000
1000
0001
0000
0000
1000
0010
0000
0010
0100
,
0010
1000
0010
0001
0010
1000
0100
0010
,
0010
0100
0010
1000
0100
0010
0000
0001
1000
0000
0000
0001
0100
0000
0100
0010
,
0100
0001
0100
1000
0100
0001
0010
0100
,
1000
0001
1000
0100
0001
1000
0000
0010
0100
0000
0000
0010
0001
0000
0001
1000
,
0001
0010
0001
0100
0001
0010
1000
0001
,
1010
0101
1010
0101
,
0010
0000
0010
0100
0010
0100
0010
0000
1000
0000
0100
0000
0001
0100
1000
0010
,
0002
0000
0000
0000
,
2000
0000
0000
3003
,
2000
0000
0000
0000
,
0002
0000
0000
3003
,
0200
0000
0000
0000
,
0020
0000
0000
0330
,
0020
0000
0000
0000
,
0200
0000
0000
0330
,
0100
0100
0100
0000
,
0100
0000
0010
0000
0100
0000
0010
0000
0100
0000
0010
0000
0100
0010
0100
0010
,
1000
0100
0010
0001
0100
0010
1000
0100
0010
0001
0100
1000
,
0010
0100
0010
0001
0010
0100
1000
0010
0001
0100
0010
1000
,
0020
0000
0100
0100
,
0200
0000
0000
0000
0000
0000
0330
0000
0010
0000
0100
0000
0010
0100
0010
0100
,
0001
0010
0100
1000
0010
0100
0001
0010
0100
1000
0010
0001
,
0100
0010
0100
1000
0100
0010
0001
0100
1000
0010
0100
0001
,
0200
0000
0010
0010
,
0020
0000
0000
0000
0000
0000
0330
0000
0100
0000
0010
0000
0100
0010
0100
0010
,
0200
0000
0000
0000
0000
0000
0000
0300
,
0110
0000
0110
0000
1000
0100
0001
0100
,
0010
1000
0010
0000
0100
0001
0100
0000
0010
0100
0010
0000
0100
1000
0100
1000
,
0110
0000
0110
0000
0001
0010
1000
0010
,
0100
0001
0100
0000
0010
1000
0010
0000
0100
0010
0100
0000
0010
0001
0010
0001
,
1001
0000
1001
0000
0010
1000
0100
1000
,
0001
0010
0001
0000
1000
0100
1000
0000
0001
1000
0001
0000
1000
0010
1000
0010
,
1001
0000
1001
0000
0100
0001
0010
0001
,
1000
0100
1000
0000
0001
0010
0001
0000
1000
0001
1000
0000
0001
0100
0001
0100
,
0100
0010
0100
0001
0010
0100
0000
1000
0001
0000
0000
1000
0010
0000
0010
0100
,
0010
1000
0010
0001
0010
1000
0100
0010
,
0010
0100
0010
1000
0100
0010
0000
0001
1000
0000
0000
0001
0100
0000
0100
0010
,
0100
0001
0100
1000
0100
0001
0010
0100
,
1000
0001
1000
0100
0001
1000
0000
0010
0100
0000
0000
0010
0001
0000
0001
1000
,
0001
0010
0001
0100
0001
0010
1000
0001
,
1010
0101
1010
0101
,
0010
0000
0010
0100
0010
0100
0010
0000
1000
0000
0100
0000
0001
0100
1000
0010
,
0010
0000
0100
0000
0110
0000
0000
0000
0000
0000
0001
0010
0100
0010
0001
0000
,
0100
0000
0010
0000
0110
0000
0000
0000
0000
0000
1000
0100
0010
0100
1000
0000
,
0001
0000
1000
0000
1001
0000
0000
0000
0000
0000
0100
0001
1000
0001
0100
0000
,
1000
0000
0001
0000
1001
0000
0000
0000
0000
0000
0010
1000
0001
1000
0010
0000
,
0100
0000
0010
0000
0100
0010
0100
0010
,
0100
0010
0100
0010
0100
0010
0100
0010
,
1010
0010
0000
0011
0010
0000
0110
0010
,
0000
1010
0001
0000
1100
0110
0011
1001
,
0101
0100
0000
1100
0100
0000
0110
0100
,
0000
0101
1000
0000
0011
0110
1100
1001
,
1001
1001
2002
0000
0000
0000
0000
0000
,
3003
0220
0000
0000
0000
0000
0000
0000
,
0000
0000
0000
0000
,
0000
0000
0000
0000
,
0330
0000
0000
0000
;

//---------------dance-single - ----------------
#NOTEDATA:;
#CHARTNAME:;
#STEPSTYPE:dance-single;
#DESCRIPTION:;
#CHARTSTYLE:;
#DIFFICULTY:Challenge;
#METER:14;
#RADARVALUES:0.767296,0.892726,0.515034,0.237079,0.621311,657.000000,594.000000,63.000000,29.000000,0.000000,0.000000,0.000000,0.000000,0.000000,0.767296,0.892726,0.515034,0.237079,0.621311,657.000000,594.000000,63.000000,29.000000,0.000000,0.000000,0.000000,0.000000,0.000000;
#CREDIT:;
#NOTES:
// measure 0
0000
0000
0000
0000
,  // measure 1
0000
0000
0000
0000
,  // measure 2
0000
0000
0000
0000
,  // measure 3
0000
0000
0000
0000
,  // measure 4
0000
0000
0000
0000
,  // measure 5
0001
0100
1000
0000
0001
0000
0100
0000
0001
0000
1000
0000
0010
0100
1000
0000
,  // measure 6
1000
0010
0001
0000
1000
0000
0010
0000
1000
0000
0001
0000
0100
0010
0001
0000
,  // measure 7
0100
1000
0010
0000
0100
0000
1000
0000
0100
0000
0010
0000
0001
1000
0010
0000
,  // measure 8
0100
0010
0100
0000
0010
0100
0010
0000
0100
0010
0100
0000
0100
0010
1000
0000
,  // measure 9
2002
0000
0000
3003
,  // measure 10
0110
0010
0100
0100
1001
0010
0100
1000
,  // measure 11
0020
0000
0100
0130
,  // measure 12
0100
0010
1000
0000
0010
0000
0001
0000
0100
0000
0001
0000
1000
0100
0001
0000
,  // measure 13
0010
0110
0001
0011
1000
1010
0100
0101
,  // measure 14
0010
1010
0010
0011
0110
0100
0220
0330
,  // measure 15
0200
0000
0010
0310
,  // measure 16
0010
0100
0001
0000
0100
0000
1000
0000
0010
0000
1000
0000
0001
0010
1000
0000
,  // measure 17
0100
0110
1000
1100
0001
0101
0010
1010
,  // measure 18
0100
0101
0100
1100
0110
0010
0220
0330
,  // measure 19
0020
0000
0000
0000
0100
0000
0000
0000
0130
0000
0100
0000
0100
0010
0100
0000
,  // measure 20
1000
0001
0000
0001
0010
0000
1000
0010
0001
0000
0010
1000
0001
0100
0001
0100
,  // measure 21
0002
0000
0000
0000
1000
0000
0000
0000
1003
0000
1000
0000
1000
0001
1000
0000
,  // measure 22
0010
0100
0000
0100
0001
0000
0010
0001
0100
0000
0001
0010
0100
1000
0100
1000
,  // measure 23
0200
0000
0000
0000
0010
0000
0000
0000
0310
0000
0010
0000
0010
0100
0010
0000
,  // measure 24
0001
1000
0000
1000
0100
0000
0001
0100
1000
0000
0100
0001
1000
0010
1000
0010
,  // measure 25
2000
0000
0000
0000
0001
0000
0000
0000
3001
0000
0001
0000
0001
1000
0001
0000
,  // measure 26
0100
0010
0000
0010
1000
0000
0100
1000
0010
0000
1000
0100
0010
0001
0010
0001
,  // measure 27
0100
0010
0100
0001
0010
0100
0000
1000
0001
0000
0000
1000
0010
0000
0010
0100
,  // measure 28
0010
1000
0010
0001
0010
1000
0100
0010
,  // measure 29
0010
0100
0010
1000
0100
0010
0000
0001
1000
0000
0000
0001
0100
0000
0100
0010
,  // measure 30
0100
0001
0100
1000
0100
0001
0010
0100
,  // measure 31
1000
0001
1000
0100
0001
1000
0000
0010
0100
0000
0000
0010
0001
0000
0001
1000
,  // measure 32
0001
0010
0001
0100
0001
0010
1000
0001
,  // measure 33
1010
0101
1010
0101
,  // measure 34
0010
0000
0010
0100
0010
0100
0010
0000
1000
0000
0100
0000
0001
0100
1000
0010
,  // measure 35
0002
0000
0000
0000
,  // measure 36
2000
0000
0000
3003
,  // measure 37
2000
0000
0000
0000
,  // measure 38
0002
0000
0000
3003
,  // measure 39
0200
0000
0000
0000
,  // measure 40
0020
0000
0000
0330
,  // measure 41
0020
0000
0000
0000
,  // measure 42
0200
0000
0000
0330
,  // measure 43
0100
0100
0100
0100
,  // measure 44
0100
0000
0010
0000
0100
0000
0010
0000
0100
0000
0010
0000
0100
0010
0100
0010
,  // measure 45
1000
0100
0010
0001
0100
0010
1000
0100
0010
0001
0100
1000
,  // measure 46
0010
0100
0010
0001
0010
0100
1000
0010
0001
0100
0010
1000
,  // measure 47
0120
0100
0100
0100
,  // measure 48
0200
0000
0000
0000
0000
0000
0330
0000
0010
0000
0100
0000
0010
0100
0010
0100
,  // measure 49
0001
0010
0100
1000
0010
0100
0001
0010
0100
1000
0010
0001
,  // measure 50
0100
0010
0100
1000
0100
0010
0001
0100
1000
0010
0100
0001
,  // measure 51
0210
0010
0010
0010
,  // measure 52
0020
0000
0000
0000
0000
0000
0330
0000
0100
0000
0010
0000
0100
0010
0100
0010
,  // measure 53
0200
0000
0000
0000
0010
0000
0010
0300
,  // measure 54
0110
0010
0110
0000
1000
0100
0001
0100
,  // measure 55
0010
1000
0010
0000
0100
0001
0100
0000
0010
0100
0010
0000
0100
1000
0100
1000
,  // measure 56
0110
0100
0110
0000
0001
0010
1000
0010
,  // measure 57
0100
0001
0100
0000
0010
1000
0010
0000
0100
0010
0100
0000
0010
0001
0010
0001
,  // measure 58
1001
0001
1001
0000
0010
1000
0100
1000
,  // measure 59
0001
0010
0001
0000
1000
0100
1000
0000
0001
1000
0001
0000
1000
0010
1000
0010
,  // measure 60
1001
1000
1001
0000
0100
0001
0010
0001
,  // measure 61
1000
0100
1000
0000
0001
0010
0001
0000
1000
0001
1000
0000
0001
0100
0001
0100
,  // measure 62
0100
0010
0100
0001
0010
0100
0000
1000
0001
0000
0000
1000
0010
0000
0010
0100
,  // measure 63
0010
1000
0010
0001
0010
1000
0100
0010
,  // measure 64
0010
0100
0010
1000
0100
0010
0000
0001
1000
0000
0000
0001
0100
0000
0100
0010
,  // measure 65
0100
0001
0100
1000
0100
0001
0010
0100
,  // measure 66
1000
0001
1000
0100
0001
1000
0000
0010
0100
0000
0000
0010
0001
0000
0001
1000
,  // measure 67
0001
0010
0001
0100
0001
0010
1000
0001
,  // measure 68
1010
0101
1010
0101
,  // measure 69
0010
0000
0010
0100
0010
0100
0010
0000
1000
0000
0100
0000
0001
0100
1000
0010
,  // measure 70
0010
0000
0100
0000
0110
0000
0000
0000
0010
0000
0001
0010
0100
0010
0001
0000
,  // measure 71
0100
0000
0010
0000
0110
0000
0000
0000
0100
0000
1000
0100
0010
0100
1000
0000
,  // measure 72
0001
0000
1000
0000
1001
0000
0000
0000
0001
0000
0100
0001
1000
0001
0100
0000
,  // measure 73
1000
0000
0001
0000
1001
0000
0000
0000
1000
0000
0010
1000
0001
1000
0010
0000
,  // measure 74
0100
0010
0100
0010
0100
0010
0100
0010
,  // measure 75
0100
0010
0100
0010
0100
0010
0100
0010
,  // measure 76
1010
0010
0000
0011
0010
0000
0110
0010
,  // measure 77
0000
1010
0011
0000
1100
0110
0011
1001
,  // measure 78
0101
0100
0000
1100
0100
0000
0110
0100
,  // measure 79
0000
0101
1100
0000
0011
0110
1100
1001
,  // measure 80
1001
1001
2002
0000
0000
0000
0000
0000
,  // measure 81
3003
0220
0000
0000
0000
0000
0000
0000
,  // measure 82
0000
0000
0000
0000
,  // measure 83
0000
0000
0000
0000
,  // measure 84
0330
0000
0000
0000
;

//---------------dance-single - Enjoy----------------
#NOTEDATA:;
#CHARTNAME:Enjoy;
#STEPSTYPE:dance-single;
#DESCRIPTION:Enjoy;
#CHARTSTYLE:;
#DIFFICULTY:Edit;
#METER:1;
#RADARVALUES:0.033868,0.103007,0.032701,0.040876,0.000000,29.000000,25.000000,4.000000,5.000000,0.000000,0.000000,0.000000,0.000000,0.000000,0.033868,0.103007,0.032701,0.040876,0.000000,29.000000,25.000000,4.000000,5.000000,0.000000,0.000000,0.000000,0.000000,0.000000;
#CREDIT:;
#NOTES:
// measure 0
0000
0000
0000
0000
,  // measure 1
0000
0000
0000
0000
,  // measure 2
0000
0000
0000
0000
,  // measure 3
0000
0000
0000
0000
,  // measure 4
0000
0000
0000
0000
,  // measure 5
1000
0000
0000
0000
,  // measure 6
0000
0000
0000
0000
,  // measure 7
0001
0000
0000
0000
,  // measure 8
0000
0000
0000
0000
,  // measure 9
0020
0000
0000
0000
,  // measure 10
0000
0000
0000
0030
,  // measure 11
0100
0000
0000
0000
,  // measure 12
0000
0000
0000
0000
,  // measure 13
0000
0000
0000
0000
,  // measure 14
0000
0000
0000
0000
,  // measure 15
0010
0000
0000
0000
,  // measure 16
0000
0000
0000
0000
,  // measure 17
0000
0000
0000
0000
,  // measure 18
0000
0000
0000
0000
,  // measure 19
1000
0000
0000
0000
,  // measure 20
0000
0000
0000
0000
,  // measure 21
0000
0000
0000
0000
,  // measure 22
0000
0000
0000
0000
,  // measure 23
0001
0000
0000
0000
,  // measure 24
0000
0000
0000
0000
,  // measure 25
0000
0000
0000
0000
,  // measure 26
0000
0000
0000
0000
,  // measure 27
0010
0000
0000
0000
,  // measure 28
0000
0000
0000
0000
,  // measure 29
0100
0000
0000
0000
,  // measure 30
0000
0000
0000
0000
,  // measure 31
0010
0000
0000
0000
,  // measure 32
0000
0000
0000
0000
,  // measure 33
0100
0000
0000
0000
,  // measure 34
0000
0000
0000
0000
,  // measure 35
0020
0000
0000
0000
,  // measure 36
0000
0000
0000
0000
,  // measure 37
0000
0000
0000
0000
,  // measure 38
0000
0000
0000
0030
,  // measure 39
0200
0000
0000
0000
,  // measure 40
0000
0000
0000
0000
,  // measure 41
0000
0000
0000
0000
,  // measure 42
0000
0000
0000
0300
,  // measure 43
0000
0000
0000
0000
,  // measure 44
0000
0000
0000
0000
,  // measure 45
1000
0000
0000
0000
,  // measure 46
0000
0000
0000
0000
,  // measure 47
0001
0000
0000
0000
,  // measure 48
0000
0000
0000
0000
,  // measure 49
1000
0000
0000
0000
,  // measure 50
0000
0000
0000
0000
,  // measure 51
0001
0000
0000
0000
,  // measure 52
0000
0000
0000
0000
,  // measure 53
0000
0000
0000
0000
,  // measure 54
0110
0000
0000
0000
,  // measure 55
0000
0000
0000
0000
,  // measure 56
0000
0000
0000
0000
,  // measure 57
0000
0000
0000
0000
,  // measure 58
1001
0000
0000
0000
,  // measure 59
0000
0000
0000
0000
,  // measure 60
0000
0000
0000
0000
,  // measure 61
0000
0000
0000
0000
,  // measure 62
0010
0000
0000
0000
,  // measure 63
0000
0000
0000
0000
,  // measure 64
0000
0000
0000
0000
,  // measure 65
0000
0000
0000
0000
,  // measure 66
0100
0000
0000
0000
,  // measure 67
0000
0000
0000
0000
,  // measure 68
0000
0000
0000
0000
,  // measure 69
0000
0000
0000
0000
,  // measure 70
0010
0000
0000
0000
,  // measure 71
0000
0000
0000
0000
,  // measure 72
0000
0000
0000
0000
,  // measure 73
0000
0000
0000
0000
,  // measure 74
0100
0000
0000
0000
,  // measure 75
0000
0000
0000
0000
,  // measure 76
1001
0000
0000
0000
,  // measure 77
0000
0000
0000
0000
,  // measure 78
0000
0000
0000
0000
,  // measure 79
0000
0000
0000
0000
,  // measure 80
0000
2002
0000
0000
,  // measure 81
0000
0000
0000
0000
,  // measure 82
0000
0000
0000
0000
,  // measure 83
0000
0000
0000
0000
,  // measure 84
3003
0000
0000
0000
;
