#VERSION:0.83;
#TITLE:[ ⫖⌊∄∄◗ ⫖⌊⦰⦰ꗐ ];
#SUBTITLE:;
#ARTIST:かめりあ;
#TITLETRANSLIT:[ BLEED BLOOD ];
#SUBTITLETRANSLIT:;
#ARTISTTRANSLIT:Camellia;
#GENRE:;
#ORIGIN:;
#CREDIT:;
#BANNER:;
#BACKGROUND:;
#PREVIEWVID:;
#JACKET:;
#CDIMAGE:;
#DISCIMAGE:;
#LYRICSPATH:;
#CDTITLE:;
#MUSIC:BLEED BLOOD.ogg;
#OFFSET:-0.471000;
#SAMPLESTART:164.834671;
#SAMPLELENGTH:15.000000;
#SELECTABLE:YES;
#DISPLAYBPM:*;
#BPMS:0.000=165.000,
80.000=330.000,
140.000=165.000,
200.000=330.000,
268.000=165.000,
300.000=330.000,
392.000=165.000,
452.000=330.000,
456.000=82.500,
480.000=165.000,
524.000=330.000,
620.000=165.000,
636.000=330.000,
756.000=660.000,
856.000=165.000,
916.000=330.000,
920.000=165.000;
#STOPS:76.000=0.364,
77.000=0.364,
78.000=0.364,
79.000=0.364,
136.000=0.091,
136.500=0.091,
137.000=0.091,
137.500=0.091,
138.000=0.091,
138.500=0.091,
139.000=0.091,
139.500=0.091,
200.000=0.091,
200.500=0.091,
201.000=0.091,
201.500=0.091,
202.000=0.091,
202.500=0.091,
203.000=0.091,
203.500=0.091,
388.000=0.091,
388.500=0.091,
389.000=0.091,
389.500=0.091,
390.000=0.091,
390.500=0.091,
391.000=0.091,
391.500=0.091,
452.000=0.091,
452.500=0.091,
453.000=0.091,
453.500=0.091,
454.000=0.091,
454.500=0.091,
455.000=0.091,
455.500=0.091,
496.000=0.364,
499.000=0.364,
502.000=0.364,
505.000=0.364,
686.000=0.182,
689.000=0.182,
692.000=0.182,
695.000=0.182,
852.000=0.364,
916.000=0.091,
916.500=0.091,
917.000=0.091,
917.500=0.091,
918.000=0.091,
918.500=0.091,
919.000=0.091,
919.500=0.091;
#DELAYS:;
#WARPS:;
#TIMESIGNATURES:0.000=4=4;
#TICKCOUNTS:0.000=4;
#COMBOS:0.000=1;
#SPEEDS:0.000=1.000=0.000=0;
#SCROLLS:0.000=1.000;
#FAKES:;
#LABELS:0.000=Song Start;
#BGCHANGES:;
#KEYSOUNDS:;
#ATTACKS:
;

//---------------dance-single - ----------------
#NOTEDATA:;
#CHARTNAME:;
#STEPSTYPE:dance-single;
#DESCRIPTION:;
#CHARTSTYLE:;
#DIFFICULTY:Easy;
#METER:24;
#RADARVALUES:1.300616,2.083487,0.731458,0.256788,1.322849,2340.000000,2152.000000,188.000000,66.000000,0.000000,0.000000,0.000000,0.000000,0.000000,1.300616,2.083487,0.731458,0.256788,1.322849,2340.000000,2152.000000,188.000000,66.000000,0.000000,0.000000,0.000000,0.000000,0.000000;
#CREDIT:;
#DISPLAYBPM:83.000000:0.000000;
#NOTES:
// measure 0
0000
0000
0000
0000
,  // measure 1
0000
0000
0000
0000
,  // measure 2
0000
0000
0000
0000
,  // measure 3
0000
0000
0000
0000
,  // measure 4
0000
0000
0000
0000
,  // measure 5
2000
0000
0000
0000
,  // measure 6
0000
0000
0000
3000
,  // measure 7
0002
0000
0000
0000
,  // measure 8
0000
0000
0000
0003
,  // measure 9
1000
0100
0010
0100
0001
0010
0100
0001
1000
0010
0100
1000
0100
0010
0001
0100
,  // measure 10
0001
0010
0100
0010
1000
0100
0010
1000
0001
0100
0010
0001
0010
0100
1000
0010
,  // measure 11
0010
1000
0001
1000
0100
0001
1000
0100
0010
0001
1000
0010
1000
0001
0100
1000
,  // measure 12
0001
0010
0100
1000
0001
0010
0100
1000
0001
0010
0100
1000
0001
0010
0100
1000
0001
0010
0100
1000
0001
0010
0100
1000
,  // measure 13
0002
0000
0000
0000
,  // measure 14
2000
0000
0000
3003
,  // measure 15
2000
0000
0000
0000
,  // measure 16
0002
0000
0000
3003
,  // measure 17
0200
0000
0000
0000
,  // measure 18
0020
0000
0000
0330
,  // measure 19
1001
0110
1001
0110
,  // measure 20
1000
0010
1000
0001
0100
0001
0010
0001
,  // measure 21
1000
0100
0010
0001
0110
0000
0010
0000
0101
0000
0010
0000
1100
0000
0010
0000
,  // measure 22
0001
0100
0001
1000
0010
1000
0100
1000
,  // measure 23
0001
0010
0100
1000
0110
0000
0100
0000
1010
0000
0100
0000
0011
0000
0100
0000
,  // measure 24
0010
0001
0010
0100
1000
0100
0001
0100
,  // measure 25
0010
1000
0001
0100
1001
0000
0001
0000
1100
0000
0001
0000
1010
0000
0001
0000
,  // measure 26
0100
1000
0100
0010
0001
0010
1000
0010
,  // measure 27
0100
0001
1000
0010
1001
0000
1000
0000
0011
0000
1000
0000
0101
0000
1000
0000
,  // measure 28
0010
0100
0010
0000
0100
0000
0100
0000
0001
0000
0001
0000
0010
0000
0010
0000
,  // measure 29
0100
0010
0100
0000
0010
0000
0010
0000
1000
0000
1000
0000
0100
0000
0100
0000
,  // measure 30
0001
1000
0001
0000
1000
0000
1000
0000
0100
0000
0100
0000
0001
0000
0001
0000
,  // measure 31
1000
0001
1000
0000
0001
0000
0001
0000
0010
0000
0010
0000
1000
0000
1000
0000
,  // measure 32
0001
0010
0100
0000
1000
0100
0010
0000
1000
0100
0010
0000
0001
0010
0100
0000
,  // measure 33
0100
0001
1000
0000
0010
1000
0001
0000
0010
1000
0001
0000
0100
0001
1000
0000
,  // measure 34
0100
0100
0100
0100
0010
0010
0010
0010
,  // measure 35
0200
0000
0000
0000
0000
0000
0000
0000
0301
0001
0010
0001
0010
0010
1000
0010
,  // measure 36
1100
0010
0101
0010
1001
0100
1010
0100
0010
0010
0001
0001
0010
0010
0001
0001
,  // measure 37
0020
0000
0000
0000
0000
0000
0000
0000
1030
1000
0100
1000
0100
0100
0001
0100
,  // measure 38
0011
0100
1010
0100
1001
0010
0101
0010
0100
0100
1000
1000
0100
0100
1000
1000
,  // measure 39
2000
0000
0000
0000
0000
0000
0000
0000
3100
0100
0001
0100
0001
0001
0010
0001
,  // measure 40
1010
0001
1100
0001
0110
1000
0011
1000
0001
0001
0100
0100
0001
0001
0100
0100
,  // measure 41
0001
0010
0100
0000
0001
0010
0001
0000
0100
0010
0100
0000
0001
0010
0100
1000
,  // measure 42
1000
0100
0010
0000
1000
0100
1000
0000
0010
0100
0010
0000
1000
0100
0010
0001
,  // measure 43
0200
0000
0000
0000
0000
0000
0310
0100
0010
0100
0010
0100
0010
0100
0010
0100
0001
0010
0001
0010
0001
0010
0001
0010
,  // measure 44
1000
0100
0010
0001
1000
0100
0010
0001
0010
0100
0001
0010
0100
1000
0001
0010
0100
1000
0100
0010
1000
0100
0010
0001
,  // measure 45
0200
0000
0000
0000
0000
0000
0000
0000
0301
0001
0010
0001
0010
0010
1000
0010
,  // measure 46
1100
0010
0101
0010
1001
0100
1010
0100
0010
0010
0001
0001
0010
0010
0001
0001
,  // measure 47
0020
0000
0000
0000
0000
0000
0000
0000
1030
1000
0100
1000
0100
0100
0001
0100
,  // measure 48
0011
0100
1010
0100
1001
0010
0101
0010
0100
0100
1000
1000
0100
0100
1000
1000
,  // measure 49
0001
0010
0100
0000
0001
0010
0001
0000
0100
0010
0100
0000
0001
0010
0100
1000
,  // measure 50
0100
0100
0100
0100
0010
0010
0010
0010
,  // measure 51
0100
0100
0010
0010
0001
0100
0010
1000
,  // measure 52
0001
0010
0100
0001
0010
1000
0100
0100
,  // measure 53
0010
0010
0100
0100
1000
0010
0100
0001
,  // measure 54
1000
0100
0010
1000
0100
0001
0010
0010
,  // measure 55
1000
1000
0001
0001
0100
1000
0001
0010
,  // measure 56
0100
0001
1000
0100
0001
0010
1000
1000
,  // measure 57
0001
0001
1000
1000
0010
0001
1000
0100
,  // measure 58
0010
1000
0001
0010
1000
0100
0001
0001
,  // measure 59
0100
0100
0010
0010
0001
0100
0010
1000
,  // measure 60
0001
0010
0100
0001
0010
1000
0100
0100
,  // measure 61
0010
0010
0100
0100
1000
0010
0100
0001
,  // measure 62
1000
0100
0010
1000
0100
0001
0010
0010
,  // measure 63
1000
1000
0001
0001
0100
1000
0001
0010
,  // measure 64
0100
0001
1000
0100
0001
0010
1000
1000
,  // measure 65
0001
0001
1000
1000
0010
0001
1000
0100
,  // measure 66
0010
1000
0001
0010
1000
0100
0001
0001
,  // measure 67
0200
0000
0000
0000
0000
0000
0000
0000
0301
0001
0010
0001
0010
0010
1000
0010
,  // measure 68
1100
0010
0101
0010
1001
0100
1010
0100
0010
0010
0001
0001
0010
0010
0001
0001
,  // measure 69
0020
0000
0000
0000
0000
0000
0000
0000
1030
1000
0100
1000
0100
0100
0001
0100
,  // measure 70
0011
0100
1010
0100
1001
0010
0101
0010
0100
0100
1000
1000
0100
0100
1000
1000
,  // measure 71
2000
0000
0000
0000
0000
0000
0000
0000
3100
0100
0001
0100
0001
0001
0010
0001
,  // measure 72
1010
0001
1100
0001
0110
1000
0011
1000
0001
0001
0100
0100
0001
0001
0100
0100
,  // measure 73
0002
0000
0000
0000
0000
0000
0000
0000
0013
0010
1000
0010
1000
1000
0100
1000
,  // measure 74
0101
0000
1000
0000
0011
0000
1000
0000
0110
0000
0001
0000
1100
0000
0001
0000
1000
0100
0010
0001
0000
0000
0010
0000
0010
0000
0100
0010
0001
0010
1000
0000
,  // measure 75
1000
0010
1000
0001
0100
0001
0010
0001
,  // measure 76
1000
0100
0010
0001
0110
0000
0010
0000
0101
0000
0010
0000
1100
0000
0010
0000
,  // measure 77
0001
0100
0001
1000
0010
1000
0100
1000
,  // measure 78
0001
0010
0100
1000
0110
0000
0100
0000
1010
0000
0100
0000
0011
0000
0100
0000
,  // measure 79
0010
0001
0010
0100
1000
0100
0001
0100
,  // measure 80
0010
1000
0001
0100
1001
0000
0001
0000
1100
0000
0001
0000
1010
0000
0001
0000
,  // measure 81
0100
1000
0100
0010
0001
0010
1000
0010
,  // measure 82
0100
0001
1000
0010
1001
0000
1000
0000
0011
0000
1000
0000
0101
0000
1000
0000
,  // measure 83
1000
0010
1000
0001
0100
0001
0010
0001
,  // measure 84
1000
0100
0010
0001
0110
0000
0010
0000
0101
0000
0010
0000
1100
0000
0010
0000
,  // measure 85
0001
0100
0001
1000
0010
1000
0100
1000
,  // measure 86
0001
0010
0100
1000
0110
0000
0100
0000
1010
0000
0100
0000
0011
0000
0100
0000
,  // measure 87
0010
0001
0010
0100
1000
0100
0001
0100
,  // measure 88
0010
1000
0001
0100
1001
0000
0001
0000
1100
0000
0001
0000
1010
0000
0001
0000
,  // measure 89
0100
1000
0100
0010
0001
0010
1000
0010
,  // measure 90
0100
0001
1000
0010
1001
0000
1000
0000
0011
0000
1000
0000
0101
0000
1000
0000
,  // measure 91
0010
0100
0010
0000
0100
0000
0100
0000
0001
0000
0001
0000
0010
0000
0010
0000
,  // measure 92
0100
0010
0100
0000
0010
0000
0010
0000
1000
0000
1000
0000
0100
0000
0100
0000
,  // measure 93
0001
1000
0001
0000
1000
0000
1000
0000
0100
0000
0100
0000
0001
0000
0001
0000
,  // measure 94
1000
0001
1000
0000
0001
0000
0001
0000
0010
0000
0010
0000
1000
0000
1000
0000
,  // measure 95
0001
0010
0100
0000
1000
0100
0010
0000
1000
0100
0010
0000
0001
0010
0100
0000
,  // measure 96
0100
0001
1000
0000
0010
1000
0001
0000
0010
1000
0001
0000
0100
0001
1000
0000
,  // measure 97
0100
0100
0100
0100
0010
0010
0010
0010
,  // measure 98
0200
0000
0000
0000
0000
0000
0000
0000
0301
0001
0010
0001
0010
0010
1000
0010
,  // measure 99
1100
0010
0101
0010
1001
0100
1010
0100
0010
0010
0001
0001
0010
0010
0001
0001
,  // measure 100
0020
0000
0000
0000
0000
0000
0000
0000
1030
1000
0100
1000
0100
0100
0001
0100
,  // measure 101
0011
0100
1010
0100
1001
0010
0101
0010
0100
0100
1000
1000
0100
0100
1000
1000
,  // measure 102
2000
0000
0000
0000
0000
0000
0000
0000
3100
0100
0001
0100
0001
0001
0010
0001
,  // measure 103
1010
0001
1100
0001
0110
1000
0011
1000
0001
0001
0100
0100
0001
0001
0100
0100
,  // measure 104
0001
0010
0100
0000
0001
0010
0001
0000
0100
0010
0100
0000
0001
0010
0100
1000
,  // measure 105
1000
0100
0010
0000
1000
0100
1000
0000
0010
0100
0010
0000
1000
0100
0010
0001
,  // measure 106
0200
0000
0000
0000
0000
0000
0310
0100
0010
0100
0010
0100
0010
0100
0010
0100
0001
0010
0001
0010
0001
0010
0001
0010
,  // measure 107
1000
0100
0010
0001
1000
0100
0010
0001
0010
0100
0001
0010
0100
1000
0001
0010
0100
1000
0100
0010
1000
0100
0010
0001
,  // measure 108
0200
0000
0000
0000
0000
0000
0000
0000
0301
0001
0010
0001
0010
0010
1000
0010
,  // measure 109
1100
0010
0101
0010
1001
0100
1010
0100
0010
0010
0001
0001
0010
0010
0001
0001
,  // measure 110
0020
0000
0000
0000
0000
0000
0000
0000
1030
1000
0100
1000
0100
0100
0001
0100
,  // measure 111
0011
0100
1010
0100
1001
0010
0101
0010
0100
0100
1000
1000
0100
0100
1000
1000
,  // measure 112
0001
0010
0100
0000
0001
0010
0001
0000
0100
0010
0100
0000
0001
0010
0100
1000
,  // measure 113
0100
0100
0100
0100
0010
0010
0010
0010
,  // measure 114
2002
0000
0000
0000
,  // measure 115
0000
0000
0000
0000
,  // measure 116
0000
0000
0000
0000
,  // measure 117
0000
0000
0000
3003
,  // measure 118
0220
0000
0000
0000
,  // measure 119
0000
0000
0000
0330
,  // measure 120
1000
0001
1000
0001
1000
0001
1000
0001
1000
0001
1000
0001
1000
0001
1000
0001
,  // measure 121
1000
0001
1000
0001
1000
0001
1000
0001
1000
0001
1000
0001
1000
0001
1000
0001
,  // measure 122
1000
0001
1000
0001
1000
0001
1000
0001
1000
0001
1000
0001
1000
0001
1000
0001
,  // measure 123
1000
0000
0000
0000
0000
0000
0000
0000
0100
0000
0000
0000
0000
0000
0000
0000
0010
0000
0000
0000
0000
0000
0000
0000
0001
0000
0000
0000
0000
0000
0000
0000
1000
0000
0000
0000
0000
0000
0000
0000
0100
0000
0000
0000
0000
0000
0000
0000
0010
0000
0000
0000
0000
0000
0000
0000
0001
0000
0000
0000
0000
0000
0000
0000
1000
0000
0000
0000
0000
0000
0000
0000
0100
0000
0000
0000
0000
0000
0000
0000
0010
0000
0000
0000
0000
0000
0000
0000
0001
0000
0000
0000
0000
0000
0000
0000
1000
0000
0000
0000
0000
0000
0001
0000
0000
0000
0000
0000
1000
0000
0000
0000
0000
0000
0001
0000
0000
0000
0000
0000
1000
0000
0000
0000
0000
0000
0001
0000
0000
0000
0000
0000
1000
0000
0000
0000
0000
0000
0001
0000
0000
0000
0000
0000
1000
0000
0000
0000
0000
0000
0001
0000
0000
0000
0000
0000
1000
0000
0000
0000
0000
0000
0001
0000
0000
0000
0000
0000
1000
0000
0000
0000
0000
0000
0001
0000
0000
0000
0000
0000
1000
0000
0000
0000
0000
0000
0000
0000
0000
0000
0000
0000
,  // measure 124
1010
0001
0001
0101
,  // measure 125
1000
1000
0011
0100
,  // measure 126
0100
1100
0010
0010
,  // measure 127
1000
0100
0010
0100
0001
0010
0100
0001
1000
0010
0100
1000
0100
0010
0001
0100
,  // measure 128
0001
0010
0100
0010
1000
0100
0010
1000
0001
0100
0010
0001
0010
0100
1000
0010
,  // measure 129
0010
1000
0001
1000
0100
0001
1000
0100
0010
0001
1000
0010
1000
0001
0100
1000
,  // measure 130
0001
0010
0100
1000
0001
0010
0100
1000
0001
0010
0100
1000
0001
0010
0100
1000
0001
0010
0100
1000
0001
0010
0100
1000
,  // measure 131
0011
0000
0000
0100
0000
0000
0011
0000
0000
0100
0000
0000
0001
0000
0010
0000
0001
0000
0100
0000
0000
1000
0000
0000
,  // measure 132
0100
0000
0000
0010
0000
0000
0100
0000
0000
1000
0000
0000
0001
0000
0010
0000
0100
0000
1000
0000
0010
0000
0100
0000
,  // measure 133
1100
0000
0000
0010
0000
0000
1100
0000
0000
0010
0000
0000
1000
0000
0100
0000
1000
0000
0010
0000
0000
0001
0000
0000
,  // measure 134
0010
0000
0000
0100
0000
0000
0010
0000
0000
0001
0000
0000
1000
0000
0100
0000
0010
0000
0001
0000
0100
0000
0010
0000
,  // measure 135
0101
0000
0000
1000
0000
0000
0101
0000
0000
1000
0000
0000
0100
0000
0001
0000
0100
0000
1000
0000
0000
0010
0000
0000
,  // measure 136
1000
0000
0000
0001
0000
0000
1000
0000
0000
0010
0000
0000
0100
0000
0001
0000
1000
0000
0010
0000
0001
0000
1000
0000
,  // measure 137
1010
0000
0000
0001
0000
0000
1010
0000
0000
0001
0000
0000
0010
0000
1000
0000
0010
0000
0001
0000
0000
0100
0000
0000
,  // measure 138
0001
0000
0000
1000
0000
0000
0001
0000
0000
0100
0000
0000
0010
0000
1000
0000
0001
0000
0100
0000
1000
0000
0001
0000
,  // measure 139
0011
0000
0000
0100
0000
0000
0011
0000
0000
0100
0000
0000
0001
0000
0010
0000
0001
0000
0100
0000
0000
1000
0000
0000
,  // measure 140
0100
0000
0000
0010
0000
0000
0100
0000
0000
1000
0000
0000
0001
0000
0010
0000
0100
0000
1000
0000
0010
0000
0100
0000
,  // measure 141
1100
0000
0000
0010
0000
0000
1100
0000
0000
0010
0000
0000
1000
0000
0100
0000
1000
0000
0010
0000
0000
0001
0000
0000
,  // measure 142
0010
0000
0000
0100
0000
0000
0010
0000
0000
0001
0000
0000
1000
0000
0100
0000
0010
0000
0001
0000
0100
0000
0010
0000
,  // measure 143
0101
0000
0000
1000
0000
0000
0101
0000
0000
1000
0000
0000
0100
0000
0001
0000
0100
0000
1000
0000
0000
0010
0000
0000
,  // measure 144
1000
0000
0000
0001
0000
0000
1000
0000
0000
0010
0000
0000
0100
0000
0001
0000
1000
0000
0010
0000
0001
0000
1000
0000
,  // measure 145
1010
0000
0000
0001
0000
0000
1010
0000
0000
0001
0000
0000
0010
0000
1000
0000
0010
0000
0001
0000
0000
0100
0000
0000
,  // measure 146
0001
0000
0000
1000
0000
0000
0001
0000
0000
0100
0000
0000
0010
0000
1000
0000
0001
0000
0100
0000
1000
0000
0001
0000
,  // measure 147
0011
0000
0000
0100
0000
0000
0011
0000
0000
0100
0000
0000
0001
0000
0010
0000
0001
0000
0100
0000
0000
1000
0000
0000
,  // measure 148
0100
0000
0000
0010
0000
0000
0100
0000
0000
1000
0000
0000
0001
0000
0010
0000
0100
0000
1000
0000
0010
0000
0100
0000
,  // measure 149
1100
0000
0000
0010
0000
0000
1100
0000
0000
0010
0000
0000
1000
0000
0100
0000
1000
0000
0010
0000
0000
0001
0000
0000
,  // measure 150
0010
0000
0000
0100
0000
0000
0010
0000
0000
0001
0000
0000
1000
0000
0100
0000
0010
0000
0001
0000
0100
0000
0010
0000
,  // measure 151
0101
0000
0000
1000
0000
0000
0101
0000
0000
1000
0000
0000
0100
0000
0001
0000
0100
0000
1000
0000
0000
0010
0000
0000
,  // measure 152
1000
0000
0000
0001
0000
0000
1000
0000
0000
0010
0000
0000
0100
0000
0001
0000
1000
0000
0010
0000
0001
0000
1000
0000
,  // measure 153
1010
0000
0000
0001
0000
0000
1010
0000
0000
0001
0000
0000
0010
0000
1000
0000
0010
0000
0001
0000
0000
0100
0000
0000
,  // measure 154
0001
0000
0000
1000
0000
0000
0001
0000
0000
0100
0000
0000
0010
0000
1000
0000
0001
0000
0100
0000
1000
0000
0001
0000
,  // measure 155
0200
0000
0000
0000
0000
0000
0000
0000
0301
0001
0010
0001
0010
0010
1000
0010
,  // measure 156
1100
0010
0101
0010
1001
0100
1010
0100
0010
0010
0001
0001
0010
0010
0001
0001
,  // measure 157
0020
0000
0000
0000
0000
0000
0000
0000
1030
1000
0100
1000
0100
0100
0001
0100
,  // measure 158
0011
0100
1010
0100
1001
0010
0101
0010
0100
0100
1000
1000
0100
0100
1000
1000
,  // measure 159
0100
0100
0010
0010
0001
0100
0010
1000
,  // measure 160
0001
0010
0100
0001
0010
1000
0100
0100
,  // measure 161
0010
0010
0100
0100
1000
0010
0100
0001
,  // measure 162
1000
0100
0010
1000
0100
0001
0010
0010
,  // measure 163
1000
1000
0001
0001
0100
1000
0001
0010
,  // measure 164
0100
0001
1000
0100
0001
0010
1000
1000
,  // measure 165
0001
0001
1000
1000
0010
0001
1000
0100
,  // measure 166
0010
1000
0001
0010
1000
0100
0001
0001
,  // measure 167
0100
0100
0010
0010
0001
0100
0010
1000
,  // measure 168
0001
0010
0100
0001
0010
1000
0100
0100
,  // measure 169
0010
0010
0100
0100
1000
0010
0100
0001
,  // measure 170
1000
0100
0010
1000
0100
0001
0010
0010
,  // measure 171
1000
0100
0010
0000
0020
0030
0001
0010
,  // measure 172
0100
0000
0200
0300
0010
1000
0001
0000
,  // measure 173
0002
0003
0100
0001
1000
0000
2000
3000
,  // measure 174
0210
0001
0010
0000
1000
0010
1000
0000
,  // measure 175
0010
0001
0010
0000
0010
1000
0010
0300
,  // measure 176
0120
1000
0100
0000
0001
0100
0001
0000
,  // measure 177
0100
1000
0100
0000
0100
0001
0100
0030
,  // measure 178
2001
0100
0001
0000
0010
0001
0010
0000
,  // measure 179
0001
0100
0001
0000
0001
0010
0001
3000
,  // measure 180
1002
0010
1000
0000
0100
1000
0100
0000
,  // measure 181
1000
0010
1000
0000
1000
0100
1000
0003
,  // measure 182
2020
0000
3030
0220
0000
0330
0101
0000
,  // measure 183
0202
0000
0303
0220
0000
0330
1010
0000
,  // measure 184
0022
0000
0033
2002
0000
3003
1100
0000
,  // measure 185
2200
0000
3300
2002
0000
3003
0011
0000
,  // measure 186
1000
0001
1000
0001
1000
0001
1000
0001
,  // measure 187
1000
0001
1000
0001
1000
0001
1000
0001
,  // measure 188
1000
0001
1000
0001
1000
0001
1000
0001
,  // measure 189
1000
0001
1000
0001
1000
0001
1000
0001
,  // measure 190
0001
0100
0010
0001
,  // measure 191
1000
0010
0100
1000
,  // measure 192
0001
0100
0010
0001
,  // measure 193
1000
0010
0100
1000
,  // measure 194
0001
0100
0010
0001
,  // measure 195
1000
0010
0100
1000
,  // measure 196
0001
0100
0010
0001
,  // measure 197
1000
0010
0100
1000
,  // measure 198
0001
0100
0010
0001
,  // measure 199
1000
0010
0100
1000
,  // measure 200
0001
0100
0010
0001
,  // measure 201
1000
0010
0100
1000
,  // measure 202
0001
0100
0010
0001
,  // measure 203
1000
0010
0100
1000
,  // measure 204
0001
0100
0010
0001
,  // measure 205
1000
0010
0100
1000
,  // measure 206
0001
0100
0010
0001
,  // measure 207
1000
0010
0100
1000
,  // measure 208
0001
0100
0010
0001
,  // measure 209
1000
0010
0100
1000
,  // measure 210
0001
0100
0010
0001
,  // measure 211
1000
0010
0100
1000
,  // measure 212
0001
0100
0010
0001
,  // measure 213
2002
0000
0000
3003
,  // measure 214
0200
0000
0000
0000
0000
0000
0000
0000
0301
0001
0010
0001
0010
0010
1000
0010
,  // measure 215
1100
0010
0101
0010
1001
0100
1010
0100
0010
0010
0001
0001
0010
0010
0001
0001
,  // measure 216
0020
0000
0000
0000
0000
0000
0000
0000
1030
1000
0100
1000
0100
0100
0001
0100
,  // measure 217
0011
0100
1010
0100
1001
0010
0101
0010
0100
0100
1000
1000
0100
0100
1000
1000
,  // measure 218
2000
0000
0000
0000
0000
0000
0000
0000
3100
0100
0001
0100
0001
0001
0010
0001
,  // measure 219
1010
0001
1100
0001
0110
1000
0011
1000
0001
0001
0100
0100
0001
0001
0100
0100
,  // measure 220
0001
0010
0100
0000
0001
0010
0001
0000
0100
0010
0100
0000
0001
0010
0100
1000
,  // measure 221
1000
0100
0010
0000
1000
0100
1000
0000
0010
0100
0010
0000
1000
0100
0010
0001
,  // measure 222
0200
0000
0000
0000
0000
0000
0310
0100
0010
0100
0010
0100
0010
0100
0010
0100
0001
0010
0001
0010
0001
0010
0001
0010
,  // measure 223
1000
0100
0010
0001
1000
0100
0010
0001
0010
0100
0001
0010
0100
1000
0001
0010
0100
1000
0100
0010
1000
0100
0010
0001
,  // measure 224
0200
0000
0000
0000
0000
0000
0000
0000
0301
0001
0010
0001
0010
0010
1000
0010
,  // measure 225
1100
0010
0101
0010
1001
0100
1010
0100
0010
0010
0001
0001
0010
0010
0001
0001
,  // measure 226
0020
0000
0000
0000
0000
0000
0000
0000
1030
1000
0100
1000
0100
0100
0001
0100
,  // measure 227
0011
0100
1010
0100
1001
0010
0101
0010
0100
0100
1000
1000
0100
0100
1000
1000
,  // measure 228
0001
0010
0100
0000
0001
0010
0001
0000
0100
0010
0100
0000
0001
0010
0100
1000
,  // measure 229
0100
0100
0100
0100
0010
0010
0010
0010
,  // measure 230
0200
0000
0000
0000
0000
0000
0000
0000
0301
0001
0010
0001
0010
0010
1000
0010
,  // measure 231
1100
0010
0101
0010
1001
0100
1010
0100
0010
0010
0001
0001
0010
0010
0001
0001
,  // measure 232
0020
0000
0000
0000
0000
0000
0000
0000
1030
1000
0100
1000
0100
0100
0001
0100
,  // measure 233
0011
0100
1010
0100
1001
0010
0101
0010
0100
0100
1000
1000
0100
0100
1000
1000
,  // measure 234
2000
0000
0000
0000
0000
0000
0000
0000
3100
0100
0001
0100
0001
0001
0010
0001
,  // measure 235
1010
0001
1100
0001
0110
1000
0011
1000
0001
0001
0100
0100
0001
0001
0100
0100
,  // measure 236
0002
0000
0000
0000
0000
0000
0000
0000
0013
0010
1000
0010
1000
1000
0100
1000
,  // measure 237
0101
0000
1000
0000
0011
0000
1000
0000
0110
0000
0001
0000
1100
0000
0001
0000
1000
0100
0010
0001
0000
0000
0010
0000
0010
0000
0100
0010
0001
0010
1000
0000
,  // measure 238
1001
0000
0000
0000
;

//---------------dance-single - ----------------
#NOTEDATA:;
#CHARTNAME:;
#STEPSTYPE:dance-single;
#DESCRIPTION:;
#CHARTSTYLE:;
#DIFFICULTY:Beginner;
#METER:24;
#RADARVALUES:1.285053,2.083487,0.684769,0.256788,1.291723,2312.000000,2136.000000,176.000000,66.000000,0.000000,0.000000,0.000000,0.000000,0.000000,1.285053,2.083487,0.684769,0.256788,1.291723,2312.000000,2136.000000,176.000000,66.000000,0.000000,0.000000,0.000000,0.000000,0.000000;
#CREDIT:;
#DISPLAYBPM:*;
#NOTES:
// measure 0
0000
0000
0000
0000
,  // measure 1
0000
0000
0000
0000
,  // measure 2
0000
0000
0000
0000
,  // measure 3
0000
0000
0000
0000
,  // measure 4
0000
0000
0000
0000
,  // measure 5
2000
0000
0000
0000
,  // measure 6
0000
0000
0000
3000
,  // measure 7
0002
0000
0000
0000
,  // measure 8
0000
0000
0000
0003
,  // measure 9
1000
0100
0010
0100
0001
0010
0100
0001
1000
0010
0100
1000
0100
0010
0001
0100
,  // measure 10
0001
0010
0100
0010
1000
0100
0010
1000
0001
0100
0010
0001
0010
0100
1000
0010
,  // measure 11
0010
1000
0001
1000
0100
0001
1000
0100
0010
0001
1000
0010
1000
0001
0100
1000
,  // measure 12
0001
0010
0100
1000
0001
0010
0100
1000
0001
0010
0100
1000
0001
0010
0100
1000
0001
0010
0100
1000
0001
0010
0100
1000
,  // measure 13
0002
0000
0000
0000
,  // measure 14
2000
0000
0000
3003
,  // measure 15
2000
0000
0000
0000
,  // measure 16
0002
0000
0000
3003
,  // measure 17
0200
0000
0000
0000
,  // measure 18
0020
0000
0000
0330
,  // measure 19
1001
0110
1001
0110
,  // measure 20
1000
0010
1000
0001
0100
0001
0010
0001
,  // measure 21
1000
0100
0010
0000
0110
0000
0010
0000
0101
0000
0010
0000
1100
0000
0010
0000
,  // measure 22
0001
0100
0001
1000
0010
1000
0100
1000
,  // measure 23
0001
0010
0100
0000
0110
0000
0100
0000
1010
0000
0100
0000
0011
0000
0100
0000
,  // measure 24
0010
0001
0010
0100
1000
0100
0001
0100
,  // measure 25
0010
1000
0001
0000
1001
0000
0001
0000
1100
0000
0001
0000
1010
0000
0001
0000
,  // measure 26
0100
1000
0100
0010
0001
0010
1000
0010
,  // measure 27
0100
0001
1000
0000
1001
0000
1000
0000
0011
0000
1000
0000
0101
0000
1000
0000
,  // measure 28
0010
0100
0010
0000
0100
0000
0100
0000
0001
0000
0001
0000
0010
0000
0010
0000
,  // measure 29
0100
0010
0100
0000
0010
0000
0010
0000
1000
0000
1000
0000
0100
0000
0100
0000
,  // measure 30
0001
1000
0001
0000
1000
0000
1000
0000
0100
0000
0100
0000
0001
0000
0001
0000
,  // measure 31
1000
0001
1000
0000
0001
0000
0001
0000
0010
0000
0010
0000
1000
0000
1000
0000
,  // measure 32
0001
0010
0100
0000
1000
0100
0010
0000
1000
0100
0010
0000
0001
0010
0100
0000
,  // measure 33
0100
0001
1000
0000
0010
1000
0001
0000
0010
1000
0001
0000
0100
0001
1000
0000
,  // measure 34
0100
0100
0100
0100
0010
0010
0010
0010
,  // measure 35
0200
0000
0000
0000
0000
0000
0000
0000
0301
0001
0010
0001
0010
0010
1000
0010
,  // measure 36
1100
0010
0101
0010
1001
0100
1010
0100
0010
0010
0001
0001
0010
0010
0001
0001
,  // measure 37
0020
0000
0000
0000
0000
0000
0000
0000
1030
1000
0100
1000
0100
0100
0001
0100
,  // measure 38
0011
0100
1010
0100
1001
0010
0101
0010
0100
0100
1000
1000
0100
0100
1000
1000
,  // measure 39
2000
0000
0000
0000
0000
0000
0000
0000
3100
0100
0001
0100
0001
0001
0010
0001
,  // measure 40
1010
0001
1100
0001
0110
1000
0011
1000
0001
0001
0100
0100
0001
0001
0100
0100
,  // measure 41
0001
0010
0100
0000
0001
0010
0001
0000
0100
0010
0100
0000
0001
0010
0100
1000
,  // measure 42
1000
0100
0010
0000
1000
0100
1000
0000
0010
0100
0010
0000
1000
0100
0010
0001
,  // measure 43
0200
0000
0000
0000
0000
0000
0310
0100
0010
0100
0010
0100
0010
0100
0010
0100
0001
0010
0001
0010
0001
0010
0001
0010
,  // measure 44
1000
0100
0010
0001
1000
0100
0010
0001
0010
0100
0001
0010
0100
1000
0001
0010
0100
1000
0100
0010
1000
0100
0010
0001
,  // measure 45
0200
0000
0000
0000
0000
0000
0000
0000
0301
0001
0010
0001
0010
0010
1000
0010
,  // measure 46
1100
0010
0101
0010
1001
0100
1010
0100
0010
0010
0001
0001
0010
0010
0001
0001
,  // measure 47
0020
0000
0000
0000
0000
0000
0000
0000
1030
1000
0100
1000
0100
0100
0001
0100
,  // measure 48
0011
0100
1010
0100
1001
0010
0101
0010
0100
0100
1000
1000
0100
0100
1000
1000
,  // measure 49
0001
0010
0100
0000
0001
0010
0001
0000
0100
0010
0100
0000
0001
0010
0100
1000
,  // measure 50
0100
0100
0100
0100
0010
0010
0010
0010
,  // measure 51
0100
0100
0010
0010
0001
0100
0010
1000
,  // measure 52
0001
0010
0100
0001
0010
1000
0100
0100
,  // measure 53
0010
0010
0100
0100
1000
0010
0100
0001
,  // measure 54
1000
0100
0010
1000
0100
0001
0010
0010
,  // measure 55
1000
1000
0001
0001
0100
1000
0001
0010
,  // measure 56
0100
0001
1000
0100
0001
0010
1000
1000
,  // measure 57
0001
0001
1000
1000
0010
0001
1000
0100
,  // measure 58
0010
1000
0001
0010
1000
0100
0001
0001
,  // measure 59
0100
0100
0010
0010
0001
0100
0010
1000
,  // measure 60
0001
0010
0100
0001
0010
1000
0100
0100
,  // measure 61
0010
0010
0100
0100
1000
0010
0100
0001
,  // measure 62
1000
0100
0010
1000
0100
0001
0010
0010
,  // measure 63
1000
1000
0001
0001
0100
1000
0001
0010
,  // measure 64
0100
0001
1000
0100
0001
0010
1000
1000
,  // measure 65
0001
0001
1000
1000
0010
0001
1000
0100
,  // measure 66
0010
1000
0001
0010
1000
0100
0001
0001
,  // measure 67
0200
0000
0000
0000
0000
0000
0000
0000
0301
0001
0010
0001
0010
0010
1000
0010
,  // measure 68
1100
0010
0101
0010
1001
0100
1010
0100
0010
0010
0001
0001
0010
0010
0001
0001
,  // measure 69
0020
0000
0000
0000
0000
0000
0000
0000
1030
1000
0100
1000
0100
0100
0001
0100
,  // measure 70
0011
0100
1010
0100
1001
0010
0101
0010
0100
0100
1000
1000
0100
0100
1000
1000
,  // measure 71
2000
0000
0000
0000
0000
0000
0000
0000
3100
0100
0001
0100
0001
0001
0010
0001
,  // measure 72
1010
0001
1100
0001
0110
1000
0011
1000
0001
0001
0100
0100
0001
0001
0100
0100
,  // measure 73
0002
0000
0000
0000
0000
0000
0000
0000
0013
0010
1000
0010
1000
1000
0100
1000
,  // measure 74
0101
0000
1000
0000
0011
0000
1000
0000
0110
0000
0001
0000
1100
0000
0001
0000
1000
0100
0010
0001
0000
0000
0000
0000
0010
0000
0100
0010
0001
0010
0000
0000
,  // measure 75
1000
0010
1000
0001
0100
0001
0010
0001
,  // measure 76
1000
0100
0010
0000
0110
0000
0010
0000
0101
0000
0010
0000
1100
0000
0010
0000
,  // measure 77
0001
0100
0001
1000
0010
1000
0100
1000
,  // measure 78
0001
0010
0100
0000
0110
0000
0100
0000
1010
0000
0100
0000
0011
0000
0100
0000
,  // measure 79
0010
0001
0010
0100
1000
0100
0001
0100
,  // measure 80
0010
1000
0001
0000
1001
0000
0001
0000
1100
0000
0001
0000
1010
0000
0001
0000
,  // measure 81
0100
1000
0100
0010
0001
0010
1000
0010
,  // measure 82
0100
0001
1000
0000
1001
0000
1000
0000
0011
0000
1000
0000
0101
0000
1000
0000
,  // measure 83
1000
0010
1000
0001
0100
0001
0010
0001
,  // measure 84
1000
0100
0010
0000
0110
0000
0010
0000
0101
0000
0010
0000
1100
0000
0010
0000
,  // measure 85
0001
0100
0001
1000
0010
1000
0100
1000
,  // measure 86
0001
0010
0100
0000
0110
0000
0100
0000
1010
0000
0100
0000
0011
0000
0100
0000
,  // measure 87
0010
0001
0010
0100
1000
0100
0001
0100
,  // measure 88
0010
1000
0001
0000
1001
0000
0001
0000
1100
0000
0001
0000
1010
0000
0001
0000
,  // measure 89
0100
1000
0100
0010
0001
0010
1000
0010
,  // measure 90
0100
0001
1000
0000
1001
0000
1000
0000
0011
0000
1000
0000
0101
0000
1000
0000
,  // measure 91
0010
0100
0010
0000
0100
0000
0100
0000
0001
0000
0001
0000
0010
0000
0010
0000
,  // measure 92
0100
0010
0100
0000
0010
0000
0010
0000
1000
0000
1000
0000
0100
0000
0100
0000
,  // measure 93
0001
1000
0001
0000
1000
0000
1000
0000
0100
0000
0100
0000
0001
0000
0001
0000
,  // measure 94
1000
0001
1000
0000
0001
0000
0001
0000
0010
0000
0010
0000
1000
0000
1000
0000
,  // measure 95
0001
0010
0100
0000
1000
0100
0010
0000
1000
0100
0010
0000
0001
0010
0100
0000
,  // measure 96
0100
0001
1000
0000
0010
1000
0001
0000
0010
1000
0001
0000
0100
0001
1000
0000
,  // measure 97
0100
0100
0100
0100
0010
0010
0010
0010
,  // measure 98
0200
0000
0000
0000
0000
0000
0000
0000
0301
0001
0010
0001
0010
0010
1000
0010
,  // measure 99
1100
0010
0101
0010
1001
0100
1010
0100
0010
0010
0001
0001
0010
0010
0001
0001
,  // measure 100
0020
0000
0000
0000
0000
0000
0000
0000
1030
1000
0100
1000
0100
0100
0001
0100
,  // measure 101
0011
0100
1010
0100
1001
0010
0101
0010
0100
0100
1000
1000
0100
0100
1000
1000
,  // measure 102
2000
0000
0000
0000
0000
0000
0000
0000
3100
0100
0001
0100
0001
0001
0010
0001
,  // measure 103
1010
0001
1100
0001
0110
1000
0011
1000
0001
0001
0100
0100
0001
0001
0100
0100
,  // measure 104
0001
0010
0100
0000
0001
0010
0001
0000
0100
0010
0100
0000
0001
0010
0100
1000
,  // measure 105
1000
0100
0010
0000
1000
0100
1000
0000
0010
0100
0010
0000
1000
0100
0010
0001
,  // measure 106
0200
0000
0000
0000
0000
0000
0310
0100
0010
0100
0010
0100
0010
0100
0010
0100
0001
0010
0001
0010
0001
0010
0001
0010
,  // measure 107
1000
0100
0010
0001
1000
0100
0010
0001
0010
0100
0001
0010
0100
1000
0001
0010
0100
1000
0100
0010
1000
0100
0010
0001
,  // measure 108
0200
0000
0000
0000
0000
0000
0000
0000
0301
0001
0010
0001
0010
0010
1000
0010
,  // measure 109
1100
0010
0101
0010
1001
0100
1010
0100
0010
0010
0001
0001
0010
0010
0001
0001
,  // measure 110
0020
0000
0000
0000
0000
0000
0000
0000
1030
1000
0100
1000
0100
0100
0001
0100
,  // measure 111
0011
0100
1010
0100
1001
0010
0101
0010
0100
0100
1000
1000
0100
0100
1000
1000
,  // measure 112
0001
0010
0100
0000
0001
0010
0001
0000
0100
0010
0100
0000
0001
0010
0100
1000
,  // measure 113
0100
0100
0100
0100
0010
0010
0010
0010
,  // measure 114
2002
0000
0000
0000
,  // measure 115
0000
0000
0000
0000
,  // measure 116
0000
0000
0000
0000
,  // measure 117
0000
0000
0000
3003
,  // measure 118
0220
0000
0000
0000
,  // measure 119
0000
0000
0000
0330
,  // measure 120
1000
0001
1000
0001
1000
0001
1000
0001
1000
0001
1000
0001
1000
0001
1000
0001
,  // measure 121
1000
0001
1000
0001
1000
0001
1000
0001
1000
0001
1000
0001
1000
0001
1000
0001
,  // measure 122
1000
0001
1000
0001
1000
0001
1000
0001
1000
0001
1000
0001
1000
0001
1000
0001
,  // measure 123
1000
0000
0000
0000
0000
0000
0000
0000
0100
0000
0000
0000
0000
0000
0000
0000
0010
0000
0000
0000
0000
0000
0000
0000
0001
0000
0000
0000
0000
0000
0000
0000
1000
0000
0000
0000
0000
0000
0000
0000
0100
0000
0000
0000
0000
0000
0000
0000
0010
0000
0000
0000
0000
0000
0000
0000
0001
0000
0000
0000
0000
0000
0000
0000
1000
0000
0000
0000
0000
0000
0000
0000
0100
0000
0000
0000
0000
0000
0000
0000
0010
0000
0000
0000
0000
0000
0000
0000
0001
0000
0000
0000
0000
0000
0000
0000
1000
0000
0000
0000
0000
0000
0001
0000
0000
0000
0000
0000
1000
0000
0000
0000
0000
0000
0001
0000
0000
0000
0000
0000
1000
0000
0000
0000
0000
0000
0001
0000
0000
0000
0000
0000
1000
0000
0000
0000
0000
0000
0001
0000
0000
0000
0000
0000
1000
0000
0000
0000
0000
0000
0001
0000
0000
0000
0000
0000
1000
0000
0000
0000
0000
0000
0001
0000
0000
0000
0000
0000
1000
0000
0000
0000
0000
0000
0001
0000
0000
0000
0000
0000
1000
0000
0000
0000
0000
0000
0000
0000
0000
0000
0000
0000
,  // measure 124
1010
0001
0001
0101
,  // measure 125
1000
1000
0011
0100
,  // measure 126
0100
1100
0010
0010
,  // measure 127
1000
0100
0010
0100
0001
0010
0100
0001
1000
0010
0100
1000
0100
0010
0001
0100
,  // measure 128
0001
0010
0100
0010
1000
0100
0010
1000
0001
0100
0010
0001
0010
0100
1000
0010
,  // measure 129
0010
1000
0001
1000
0100
0001
1000
0100
0010
0001
1000
0010
1000
0001
0100
1000
,  // measure 130
0001
0010
0100
1000
0001
0010
0100
1000
0001
0010
0100
1000
0001
0010
0100
1000
0001
0010
0100
1000
0001
0010
0100
1000
,  // measure 131
0011
0000
0000
0100
0000
0000
0001
0000
0000
0100
0000
0000
0001
0000
0010
0000
0001
0000
0100
0000
0000
1000
0000
0000
,  // measure 132
0100
0000
0000
0010
0000
0000
0100
0000
0000
1000
0000
0000
0001
0000
0010
0000
0100
0000
1000
0000
0010
0000
0100
0000
,  // measure 133
1100
0000
0000
0010
0000
0000
1000
0000
0000
0010
0000
0000
1000
0000
0100
0000
1000
0000
0010
0000
0000
0001
0000
0000
,  // measure 134
0010
0000
0000
0100
0000
0000
0010
0000
0000
0001
0000
0000
1000
0000
0100
0000
0010
0000
0001
0000
0100
0000
0010
0000
,  // measure 135
0101
0000
0000
1000
0000
0000
0100
0000
0000
1000
0000
0000
0100
0000
0001
0000
0100
0000
1000
0000
0000
0010
0000
0000
,  // measure 136
1000
0000
0000
0001
0000
0000
1000
0000
0000
0010
0000
0000
0100
0000
0001
0000
1000
0000
0010
0000
0001
0000
1000
0000
,  // measure 137
1010
0000
0000
0001
0000
0000
0010
0000
0000
0001
0000
0000
0010
0000
1000
0000
0010
0000
0001
0000
0000
0100
0000
0000
,  // measure 138
0001
0000
0000
1000
0000
0000
0001
0000
0000
0100
0000
0000
0010
0000
1000
0000
0001
0000
0100
0000
1000
0000
0001
0000
,  // measure 139
0011
0000
0000
0100
0000
0000
0001
0000
0000
0100
0000
0000
0001
0000
0010
0000
0001
0000
0100
0000
0000
1000
0000
0000
,  // measure 140
0100
0000
0000
0010
0000
0000
0100
0000
0000
1000
0000
0000
0001
0000
0010
0000
0100
0000
1000
0000
0010
0000
0100
0000
,  // measure 141
1100
0000
0000
0010
0000
0000
1000
0000
0000
0010
0000
0000
1000
0000
0100
0000
1000
0000
0010
0000
0000
0001
0000
0000
,  // measure 142
0010
0000
0000
0100
0000
0000
0010
0000
0000
0001
0000
0000
1000
0000
0100
0000
0010
0000
0001
0000
0100
0000
0010
0000
,  // measure 143
0101
0000
0000
1000
0000
0000
0100
0000
0000
1000
0000
0000
0100
0000
0001
0000
0100
0000
1000
0000
0000
0010
0000
0000
,  // measure 144
1000
0000
0000
0001
0000
0000
1000
0000
0000
0010
0000
0000
0100
0000
0001
0000
1000
0000
0010
0000
0001
0000
1000
0000
,  // measure 145
1010
0000
0000
0001
0000
0000
0010
0000
0000
0001
0000
0000
0010
0000
1000
0000
0010
0000
0001
0000
0000
0100
0000
0000
,  // measure 146
0001
0000
0000
1000
0000
0000
0001
0000
0000
0100
0000
0000
0010
0000
1000
0000
0001
0000
0100
0000
1000
0000
0001
0000
,  // measure 147
0011
0000
0000
0100
0000
0000
0001
0000
0000
0100
0000
0000
0001
0000
0010
0000
0001
0000
0100
0000
0000
1000
0000
0000
,  // measure 148
0100
0000
0000
0010
0000
0000
0100
0000
0000
1000
0000
0000
0001
0000
0010
0000
0100
0000
1000
0000
0010
0000
0100
0000
,  // measure 149
1100
0000
0000
0010
0000
0000
1000
0000
0000
0010
0000
0000
1000
0000
0100
0000
1000
0000
0010
0000
0000
0001
0000
0000
,  // measure 150
0010
0000
0000
0100
0000
0000
0010
0000
0000
0001
0000
0000
1000
0000
0100
0000
0010
0000
0001
0000
0100
0000
0010
0000
,  // measure 151
0101
0000
0000
1000
0000
0000
0100
0000
0000
1000
0000
0000
0100
0000
0001
0000
0100
0000
1000
0000
0000
0010
0000
0000
,  // measure 152
1000
0000
0000
0001
0000
0000
1000
0000
0000
0010
0000
0000
0100
0000
0001
0000
1000
0000
0010
0000
0001
0000
1000
0000
,  // measure 153
1010
0000
0000
0001
0000
0000
0010
0000
0000
0001
0000
0000
0010
0000
1000
0000
0010
0000
0001
0000
0000
0100
0000
0000
,  // measure 154
0001
0000
0000
1000
0000
0000
0001
0000
0000
0100
0000
0000
0010
0000
1000
0000
0001
0000
0100
0000
1000
0000
0001
0000
,  // measure 155
0200
0000
0000
0000
0000
0000
0000
0000
0301
0001
0010
0001
0010
0010
1000
0010
,  // measure 156
1100
0010
0101
0010
1001
0100
1010
0100
0010
0010
0001
0001
0010
0010
0001
0001
,  // measure 157
0020
0000
0000
0000
0000
0000
0000
0000
1030
1000
0100
1000
0100
0100
0001
0100
,  // measure 158
0011
0100
1010
0100
1001
0010
0101
0010
0100
0100
1000
1000
0100
0100
1000
1000
,  // measure 159
0100
0100
0010
0010
0001
0100
0010
1000
,  // measure 160
0001
0010
0100
0001
0010
1000
0100
0100
,  // measure 161
0010
0010
0100
0100
1000
0010
0100
0001
,  // measure 162
1000
0100
0010
1000
0100
0001
0010
0010
,  // measure 163
1000
1000
0001
0001
0100
1000
0001
0010
,  // measure 164
0100
0001
1000
0100
0001
0010
1000
1000
,  // measure 165
0001
0001
1000
1000
0010
0001
1000
0100
,  // measure 166
0010
1000
0001
0010
1000
0100
0001
0001
,  // measure 167
0100
0100
0010
0010
0001
0100
0010
1000
,  // measure 168
0001
0010
0100
0001
0010
1000
0100
0100
,  // measure 169
0010
0010
0100
0100
1000
0010
0100
0001
,  // measure 170
1000
0100
0010
1000
0100
0001
0010
0010
,  // measure 171
1000
0100
0010
0000
0020
0030
0001
0010
,  // measure 172
0100
0000
0200
0300
0010
1000
0001
0000
,  // measure 173
0002
0003
0100
0001
1000
0000
2000
3000
,  // measure 174
0210
0001
0010
0000
1000
0010
1000
0000
,  // measure 175
0010
0001
0010
0000
0010
1000
0010
0300
,  // measure 176
0120
1000
0100
0000
0001
0100
0001
0000
,  // measure 177
0100
1000
0100
0000
0100
0001
0100
0030
,  // measure 178
2001
0100
0001
0000
0010
0001
0010
0000
,  // measure 179
0001
0100
0001
0000
0001
0010
0001
3000
,  // measure 180
1002
0010
1000
0000
0100
1000
0100
0000
,  // measure 181
1000
0010
1000
0000
1000
0100
1000
0003
,  // measure 182
2020
0000
3030
0220
0000
0330
0101
0000
,  // measure 183
0202
0000
0303
0220
0000
0330
1010
0000
,  // measure 184
0022
0000
0033
2002
0000
3003
1100
0000
,  // measure 185
2200
0000
3300
2002
0000
3003
0011
0000
,  // measure 186
1000
0001
1000
0001
1000
0001
1000
0001
,  // measure 187
1000
0001
1000
0001
1000
0001
1000
0001
,  // measure 188
1000
0001
1000
0001
1000
0001
1000
0001
,  // measure 189
1000
0001
1000
0001
1000
0001
1000
0001
,  // measure 190
0001
0100
0010
0001
,  // measure 191
1000
0010
0100
1000
,  // measure 192
0001
0100
0010
0001
,  // measure 193
1000
0010
0100
1000
,  // measure 194
0001
0100
0010
0001
,  // measure 195
1000
0010
0100
1000
,  // measure 196
0001
0100
0010
0001
,  // measure 197
1000
0010
0100
1000
,  // measure 198
0001
0100
0010
0001
,  // measure 199
1000
0010
0100
1000
,  // measure 200
0001
0100
0010
0001
,  // measure 201
1000
0010
0100
1000
,  // measure 202
0001
0100
0010
0001
,  // measure 203
1000
0010
0100
1000
,  // measure 204
0001
0100
0010
0001
,  // measure 205
1000
0010
0100
1000
,  // measure 206
0001
0100
0010
0001
,  // measure 207
1000
0010
0100
1000
,  // measure 208
0001
0100
0010
0001
,  // measure 209
1000
0010
0100
1000
,  // measure 210
0001
0100
0010
0001
,  // measure 211
1000
0010
0100
1000
,  // measure 212
0001
0100
0010
0001
,  // measure 213
2002
0000
0000
3003
,  // measure 214
0200
0000
0000
0000
0000
0000
0000
0000
0301
0001
0010
0001
0010
0010
1000
0010
,  // measure 215
1100
0010
0101
0010
1001
0100
1010
0100
0010
0010
0001
0001
0010
0010
0001
0001
,  // measure 216
0020
0000
0000
0000
0000
0000
0000
0000
1030
1000
0100
1000
0100
0100
0001
0100
,  // measure 217
0011
0100
1010
0100
1001
0010
0101
0010
0100
0100
1000
1000
0100
0100
1000
1000
,  // measure 218
2000
0000
0000
0000
0000
0000
0000
0000
3100
0100
0001
0100
0001
0001
0010
0001
,  // measure 219
1010
0001
1100
0001
0110
1000
0011
1000
0001
0001
0100
0100
0001
0001
0100
0100
,  // measure 220
0001
0010
0100
0000
0001
0010
0001
0000
0100
0010
0100
0000
0001
0010
0100
1000
,  // measure 221
1000
0100
0010
0000
1000
0100
1000
0000
0010
0100
0010
0000
1000
0100
0010
0001
,  // measure 222
0200
0000
0000
0000
0000
0000
0310
0100
0010
0100
0010
0100
0010
0100
0010
0100
0001
0010
0001
0010
0001
0010
0001
0010
,  // measure 223
1000
0100
0010
0001
1000
0100
0010
0001
0010
0100
0001
0010
0100
1000
0001
0010
0100
1000
0100
0010
1000
0100
0010
0001
,  // measure 224
0200
0000
0000
0000
0000
0000
0000
0000
0301
0001
0010
0001
0010
0010
1000
0010
,  // measure 225
1100
0010
0101
0010
1001
0100
1010
0100
0010
0010
0001
0001
0010
0010
0001
0001
,  // measure 226
0020
0000
0000
0000
0000
0000
0000
0000
1030
1000
0100
1000
0100
0100
0001
0100
,  // measure 227
0011
0100
1010
0100
1001
0010
0101
0010
0100
0100
1000
1000
0100
0100
1000
1000
,  // measure 228
0001
0010
0100
0000
0001
0010
0001
0000
0100
0010
0100
0000
0001
0010
0100
1000
,  // measure 229
0100
0100
0100
0100
0010
0010
0010
0010
,  // measure 230
0200
0000
0000
0000
0000
0000
0000
0000
0301
0001
0010
0001
0010
0010
1000
0010
,  // measure 231
1100
0010
0101
0010
1001
0100
1010
0100
0010
0010
0001
0001
0010
0010
0001
0001
,  // measure 232
0020
0000
0000
0000
0000
0000
0000
0000
1030
1000
0100
1000
0100
0100
0001
0100
,  // measure 233
0011
0100
1010
0100
1001
0010
0101
0010
0100
0100
1000
1000
0100
0100
1000
1000
,  // measure 234
2000
0000
0000
0000
0000
0000
0000
0000
3100
0100
0001
0100
0001
0001
0010
0001
,  // measure 235
1010
0001
1100
0001
0110
1000
0011
1000
0001
0001
0100
0100
0001
0001
0100
0100
,  // measure 236
0002
0000
0000
0000
0000
0000
0000
0000
0013
0010
1000
0010
1000
1000
0100
1000
,  // measure 237
0101
0000
1000
0000
0011
0000
1000
0000
0110
0000
0001
0000
1100
0000
0001
0000
1000
0100
0010
0001
0000
0000
0000
0000
0010
0000
0100
0010
0001
0010
0000
0000
,  // measure 238
1001
0000
0000
0000
;

//---------------dance-single - ----------------
#NOTEDATA:;
#CHARTNAME:;
#STEPSTYPE:dance-single;
#DESCRIPTION:;
#CHARTSTYLE:;
#DIFFICULTY:Medium;
#METER:25;
#RADARVALUES:1.341191,2.129787,0.832617,0.256788,1.398718,2413.000000,2199.000000,214.000000,66.000000,0.000000,0.000000,0.000000,0.000000,0.000000,1.341191,2.129787,0.832617,0.256788,1.398718,2413.000000,2199.000000,214.000000,66.000000,0.000000,0.000000,0.000000,0.000000,0.000000;
#CREDIT:;
#DISPLAYBPM:*;
#NOTES:
// measure 0
0000
0000
0000
0000
,  // measure 1
0000
0000
0000
0000
,  // measure 2
0000
0000
0000
0000
,  // measure 3
0000
0000
0000
0000
,  // measure 4
0000
0000
0000
0000
,  // measure 5
2000
0000
0000
0000
,  // measure 6
0000
0000
0000
3000
,  // measure 7
0002
0000
0000
0000
,  // measure 8
0000
0000
0000
0003
,  // measure 9
1000
0100
0010
0100
0001
0010
0100
0001
1000
0010
0100
1000
0100
0010
0001
0100
,  // measure 10
0001
0010
0100
0010
1000
0100
0010
1000
0001
0100
0010
0001
0010
0100
1000
0010
,  // measure 11
0010
1000
0001
1000
0100
0001
1000
0100
0010
0001
1000
0010
1000
0001
0100
1000
,  // measure 12
0001
0000
0000
0000
0000
0000
0000
0000
0010
0000
0000
0000
0000
0000
0000
0000
0100
0000
0000
0000
0000
0000
0000
0000
1000
0000
0000
0000
0000
0000
0000
0000
0001
0000
0000
0000
0000
0000
0000
0000
0010
0000
0000
0000
0000
0000
0000
0000
0100
0000
0000
0000
0000
0000
0000
0000
1000
0000
0000
0000
0000
0000
0000
0000
0001
0000
0000
0000
0000
0000
0000
0000
0010
0000
0000
0000
0000
0000
0000
0000
0100
0000
0000
0000
0000
0000
0000
0000
1000
0000
0000
0000
0000
0000
0000
0000
0001
0000
0000
0000
0000
0000
0010
0000
0000
0000
0000
0000
0100
0000
0000
0000
0000
0000
1000
0000
0000
0000
0000
0000
0001
0000
0000
0000
0000
0000
0010
0000
0000
0000
0000
0000
0100
0000
0000
0000
0000
0000
1000
0000
0000
0000
0000
0000
0001
0000
0000
0000
0000
0000
0010
0000
0000
0000
0000
0000
0100
0000
0000
0000
0000
0000
1000
0000
0000
0000
0000
0000
0001
0000
0000
0000
0000
0000
0010
0000
0000
0000
0000
0000
0100
0000
0000
0000
0000
0000
1000
0000
0000
0000
0000
0000
,  // measure 13
0002
0000
0000
0000
,  // measure 14
2000
0000
0000
3003
,  // measure 15
2000
0000
0000
0000
,  // measure 16
0002
0000
0000
3003
,  // measure 17
0200
0000
0000
0000
,  // measure 18
0020
0000
0000
0330
,  // measure 19
1001
0110
1001
0110
,  // measure 20
1000
0100
0010
0000
1000
0000
0001
0000
0100
0000
0001
0000
0010
0000
0001
0000
,  // measure 21
1000
0100
0010
0001
0110
0000
0010
0000
0101
0000
0010
0000
1100
0000
0010
0000
,  // measure 22
0001
0010
0100
0000
0001
0000
1000
0000
0010
0000
1000
0000
0100
0000
1000
0000
,  // measure 23
0001
0010
0100
1000
0110
0000
0100
0000
1010
0000
0100
0000
0011
0000
0100
0000
,  // measure 24
0010
1000
0001
0000
0010
0000
0100
0000
1000
0000
0100
0000
0001
0000
0100
0000
,  // measure 25
0010
1000
0001
0100
1001
0000
0001
0000
1100
0000
0001
0000
1010
0000
0001
0000
,  // measure 26
0100
0001
1000
0000
0100
0000
0010
0000
0001
0000
0010
0000
1000
0000
0010
0000
,  // measure 27
0100
0001
1000
0010
1001
0000
1000
0000
0011
0000
1000
0000
0101
0000
1000
0000
,  // measure 28
0010
0100
0010
0000
0100
0000
0100
0000
0001
1000
0001
0000
0010
0000
0010
0000
,  // measure 29
0100
0010
0100
0000
0010
0000
0010
0000
1000
0001
1000
0000
0100
0000
0100
0000
,  // measure 30
0001
1000
0001
0000
1000
0000
1000
0000
0100
0010
0100
0000
0001
0000
0001
0000
,  // measure 31
1000
0001
1000
0000
0001
0000
0001
0000
0010
0100
0010
0000
1000
0000
1000
0000
,  // measure 32
0001
0010
0100
0000
1000
0100
0010
0000
1000
0100
0010
0000
0001
0010
0100
0000
,  // measure 33
0100
0001
1000
0000
0010
1000
0001
0000
0010
1000
0001
0000
0100
0001
1000
0000
,  // measure 34
0110
0100
0100
0100
0110
0010
0010
0010
,  // measure 35
0200
0000
0000
0000
0000
0000
0000
0000
0301
0001
0010
0001
0010
0010
1000
0010
,  // measure 36
1100
0000
0010
0000
0101
0000
0010
0000
1001
0000
0100
0000
1010
0000
0100
0000
0010
0000
0010
0000
0001
0000
0001
0000
0010
0000
0010
0000
0001
0010
0001
0000
,  // measure 37
0020
0000
0000
0000
0000
0000
0000
0000
1030
1000
0100
1000
0100
0100
0001
0100
,  // measure 38
0011
0000
0100
0000
1010
0000
0100
0000
1001
0000
0010
0000
0101
0000
0010
0000
0100
0000
0100
0000
1000
0000
1000
0000
0100
0000
0100
0000
1000
0100
1000
0000
,  // measure 39
2000
0000
0000
0000
0000
0000
0000
0000
3100
0100
0001
0100
0001
0001
0010
0001
,  // measure 40
1010
0000
0001
0000
1100
0000
0001
0000
0110
0000
1000
0000
0011
0000
1000
0000
0001
0000
0001
0000
0100
0000
0100
0000
0001
0000
0001
0000
0100
0001
0100
0000
,  // measure 41
0001
0010
0100
0000
0001
0010
0001
0000
0100
0010
0100
0000
0001
0010
0100
1000
,  // measure 42
1000
0100
0010
0000
1000
0100
1000
0000
0010
0100
0010
0000
1000
0100
0010
0001
,  // measure 43
0200
0000
0000
0000
0000
0000
0310
0100
0010
0100
0010
0100
0010
0100
0010
0100
0001
0010
0001
0010
0001
0010
0001
0010
,  // measure 44
1000
0100
0010
0001
1000
0100
0010
0001
0010
0100
0001
0010
0100
1000
0001
0010
0100
1000
0100
0010
1000
0100
0010
0001
,  // measure 45
0200
0000
0000
0000
0000
0000
0000
0000
0301
0001
0010
0001
0010
0010
1000
0010
,  // measure 46
1100
0000
0010
0000
0101
0000
0010
0000
1001
0000
0100
0000
1010
0000
0100
0000
0010
0000
0010
0000
0001
0000
0001
0000
0010
0000
0010
0000
0001
0010
0001
0000
,  // measure 47
0020
0000
0000
0000
0000
0000
0000
0000
1030
1000
0100
1000
0100
0100
0001
0100
,  // measure 48
0011
0000
0100
0000
1010
0000
0100
0000
1001
0000
0010
0000
0101
0000
0010
0000
0100
0000
0100
0000
1000
0000
1000
0000
0100
0000
0100
0000
1000
0100
1000
0000
,  // measure 49
0001
0010
0100
0000
0001
0010
0001
0000
0100
0010
0100
0000
0001
0010
0100
1000
,  // measure 50
0110
0100
0100
0100
0110
0010
0010
0010
,  // measure 51
0100
0100
0010
0010
0001
0100
0010
1000
,  // measure 52
0001
0010
0100
0001
0010
1000
0100
0100
,  // measure 53
0010
0010
0100
0100
1000
0010
0100
0001
,  // measure 54
1000
0100
0010
1000
0100
0001
0010
0010
,  // measure 55
1000
1000
0001
0001
0100
1000
0001
0010
,  // measure 56
0100
0001
1000
0100
0001
0010
1000
1000
,  // measure 57
0001
0001
1000
1000
0010
0001
1000
0100
,  // measure 58
0010
1000
0001
0010
1000
0100
0001
0001
,  // measure 59
0100
0100
0010
0010
0001
0100
0010
1000
,  // measure 60
0001
0010
0100
0001
0010
1000
0100
0100
,  // measure 61
0010
0010
0100
0100
1000
0010
0100
0001
,  // measure 62
1000
0100
0010
1000
0100
0001
0010
0010
,  // measure 63
1000
1000
0001
0001
0100
1000
0001
0010
,  // measure 64
0100
0001
1000
0100
0001
0010
1000
1000
,  // measure 65
0001
0001
1000
1000
0010
0001
1000
0100
,  // measure 66
0010
1000
0001
0010
1000
0100
0001
0001
,  // measure 67
0200
0000
0000
0000
0000
0000
0000
0000
0301
0001
0010
0001
0010
0010
1000
0010
,  // measure 68
1100
0000
0010
0000
0101
0000
0010
0000
1001
0000
0100
0000
1010
0000
0100
0000
0010
0000
0010
0000
0001
0000
0001
0000
0010
0000
0010
0000
0001
0010
0001
0000
,  // measure 69
0020
0000
0000
0000
0000
0000
0000
0000
1030
1000
0100
1000
0100
0100
0001
0100
,  // measure 70
0011
0000
0100
0000
1010
0000
0100
0000
1001
0000
0010
0000
0101
0000
0010
0000
0100
0000
0100
0000
1000
0000
1000
0000
0100
0000
0100
0000
1000
0100
1000
0000
,  // measure 71
2000
0000
0000
0000
0000
0000
0000
0000
3100
0100
0001
0100
0001
0001
0010
0001
,  // measure 72
1010
0000
0001
0000
1100
0000
0001
0000
0110
0000
1000
0000
0011
0000
1000
0000
0001
0000
0001
0000
0100
0000
0100
0000
0001
0000
0001
0000
0100
0001
0100
0000
,  // measure 73
0002
0000
0000
0000
0000
0000
0000
0000
0013
0010
1000
0010
1000
1000
0100
1000
,  // measure 74
0101
0000
1000
0000
0011
0000
1000
0000
0110
0000
0001
0000
1100
0000
0001
0000
1000
0100
0010
0001
0000
0000
0010
0000
0010
0000
0100
0010
0001
0010
1000
0000
,  // measure 75
1000
0010
1000
0001
0100
0001
0010
0001
,  // measure 76
1000
0100
0010
0001
0110
0000
0010
0000
0101
0000
0010
0000
1100
0000
0010
0000
,  // measure 77
0001
0100
0001
1000
0010
1000
0100
1000
,  // measure 78
0001
0010
0100
1000
0110
0000
0100
0000
1010
0000
0100
0000
0011
0000
0100
0000
,  // measure 79
0010
0001
0010
0100
1000
0100
0001
0100
,  // measure 80
0010
1000
0001
0100
1001
0000
0001
0000
1100
0000
0001
0000
1010
0000
0001
0000
,  // measure 81
0100
1000
0100
0010
0001
0010
1000
0010
,  // measure 82
0100
0001
1000
0010
1001
0000
1000
0000
0011
0000
1000
0000
0101
0000
1000
0000
,  // measure 83
1000
0010
1000
0001
0100
0001
0010
0001
,  // measure 84
1000
0100
0010
0001
0110
0000
0010
0000
0101
0000
0010
0000
1100
0000
0010
0000
,  // measure 85
0001
0100
0001
1000
0010
1000
0100
1000
,  // measure 86
0001
0010
0100
1000
0110
0000
0100
0000
1010
0000
0100
0000
0011
0000
0100
0000
,  // measure 87
0010
0001
0010
0100
1000
0100
0001
0100
,  // measure 88
0010
1000
0001
0100
1001
0000
0001
0000
1100
0000
0001
0000
1010
0000
0001
0000
,  // measure 89
0100
1000
0100
0010
0001
0010
1000
0010
,  // measure 90
0100
0001
1000
0010
1001
0000
1000
0000
0011
0000
1000
0000
0101
0000
1000
0000
,  // measure 91
0010
0100
0010
0000
0100
0000
0100
0000
0001
0000
0001
0000
0010
0000
0010
0000
,  // measure 92
0100
0010
0100
0000
0010
0000
0010
0000
1000
0000
1000
0000
0100
0000
0100
0000
,  // measure 93
0001
1000
0001
0000
1000
0000
1000
0000
0100
0000
0100
0000
0001
0000
0001
0000
,  // measure 94
1000
0001
1000
0000
0001
0000
0001
0000
0010
0000
0010
0000
1000
0000
1000
0000
,  // measure 95
0001
0010
0100
0000
1000
0100
0010
0000
1000
0100
0010
0000
0001
0010
0100
0000
,  // measure 96
0100
0001
1000
0000
0010
1000
0001
0000
0010
1000
0001
0000
0100
0001
1000
0000
,  // measure 97
0110
0100
0100
0100
0110
0010
0010
0010
,  // measure 98
0200
0000
0000
0000
0000
0000
0000
0000
0301
0001
0010
0001
0010
0010
1000
0010
,  // measure 99
1100
0000
0010
0000
0101
0000
0010
0000
1001
0000
0100
0000
1010
0000
0100
0000
0010
0000
0010
0000
0001
0000
0001
0000
0010
0000
0010
0000
0001
0010
0001
0000
,  // measure 100
0020
0000
0000
0000
0000
0000
0000
0000
1030
1000
0100
1000
0100
0100
0001
0100
,  // measure 101
0011
0000
0100
0000
1010
0000
0100
0000
1001
0000
0010
0000
0101
0000
0010
0000
0100
0000
0100
0000
1000
0000
1000
0000
0100
0000
0100
0000
1000
0100
1000
0000
,  // measure 102
2000
0000
0000
0000
0000
0000
0000
0000
3100
0100
0001
0100
0001
0001
0010
0001
,  // measure 103
1010
0000
0001
0000
1100
0000
0001
0000
0110
0000
1000
0000
0011
0000
1000
0000
0001
0000
0001
0000
0100
0000
0100
0000
0001
0000
0001
0000
0100
0001
0100
0000
,  // measure 104
0001
0010
0100
0000
0001
0010
0001
0000
0100
0010
0100
0000
0001
0010
0100
1000
,  // measure 105
1000
0100
0010
0000
1000
0100
1000
0000
0010
0100
0010
0000
1000
0100
0010
0001
,  // measure 106
0200
0000
0000
0000
0000
0000
0310
0100
0010
0100
0010
0100
0010
0100
0010
0100
0001
0010
0001
0010
0001
0010
0001
0010
,  // measure 107
1000
0100
0010
0001
1000
0100
0010
0001
0010
0100
0001
0010
0100
1000
0001
0010
0100
1000
0100
0010
1000
0100
0010
0001
,  // measure 108
0200
0000
0000
0000
0000
0000
0000
0000
0301
0001
0010
0001
0010
0010
1000
0010
,  // measure 109
1100
0000
0010
0000
0101
0000
0010
0000
1001
0000
0100
0000
1010
0000
0100
0000
0010
0000
0010
0000
0001
0000
0001
0000
0010
0000
0010
0000
0001
0010
0001
0000
,  // measure 110
0020
0000
0000
0000
0000
0000
0000
0000
1030
1000
0100
1000
0100
0100
0001
0100
,  // measure 111
0011
0000
0100
0000
1010
0000
0100
0000
1001
0000
0010
0000
0101
0000
0010
0000
0100
0000
0100
0000
1000
0000
1000
0000
0100
0000
0100
0000
1000
0100
1000
0000
,  // measure 112
0001
0010
0100
0000
0001
0010
0001
0000
0100
0010
0100
0000
0001
0010
0100
1000
,  // measure 113
0110
0100
0100
0100
0110
0010
0010
0010
,  // measure 114
2002
0000
0000
0000
,  // measure 115
0000
0000
0000
0000
,  // measure 116
0000
0000
0000
0000
,  // measure 117
0000
0000
0000
3003
,  // measure 118
0220
0000
0000
0000
,  // measure 119
0000
0000
0000
0330
,  // measure 120
1000
0001
1000
0001
1000
0001
1000
0001
1000
0001
1000
0001
1000
0001
1000
0001
,  // measure 121
1000
0001
1000
0001
1000
0001
1000
0001
1000
0001
1000
0001
1000
0001
1000
0001
,  // measure 122
1000
0001
1000
0001
1000
0001
1000
0001
1000
0001
1000
0001
1000
0001
1000
0001
,  // measure 123
1000
0000
0000
0000
0000
0000
0000
0000
0100
0000
0000
0000
0000
0000
0000
0000
0010
0000
0000
0000
0000
0000
0000
0000
0001
0000
0000
0000
0000
0000
0000
0000
1000
0000
0000
0000
0000
0000
0000
0000
0100
0000
0000
0000
0000
0000
0000
0000
0010
0000
0000
0000
0000
0000
0000
0000
0001
0000
0000
0000
0000
0000
0000
0000
1000
0000
0000
0000
0000
0000
0000
0000
0100
0000
0000
0000
0000
0000
0000
0000
0010
0000
0000
0000
0000
0000
0000
0000
0001
0000
0000
0000
0000
0000
0000
0000
1000
0000
0000
0000
0000
0000
0001
0000
0000
0000
0000
0000
1000
0000
0000
0000
0000
0000
0001
0000
0000
0000
0000
0000
1000
0000
0000
0000
0000
0000
0001
0000
0000
0000
0000
0000
1000
0000
0000
0000
0000
0000
0001
0000
0000
0000
0000
0000
1000
0000
0000
0000
0000
0000
0001
0000
0000
0000
0000
0000
1000
0000
0000
0000
0000
0000
0001
0000
0000
0000
0000
0000
1000
0000
0000
0000
0000
0000
0001
0000
0000
0000
0000
0000
1000
0000
0000
0000
0000
0000
0000
0000
0000
0000
0000
0000
,  // measure 124
1010
0101
0001
0101
,  // measure 125
1010
1000
0011
1100
,  // measure 126
0100
1100
0011
0010
,  // measure 127
1000
0100
0010
0100
0001
0010
0100
0001
1000
0010
0100
1000
0100
0010
0001
0100
,  // measure 128
0001
0010
0100
0010
1000
0100
0010
1000
0001
0100
0010
0001
0010
0100
1000
0010
,  // measure 129
0010
1000
0001
1000
0100
0001
1000
0100
0010
0001
1000
0010
1000
0001
0100
1000
,  // measure 130
0001
0000
0000
0000
0000
0000
0000
0000
0010
0000
0000
0000
0000
0000
0000
0000
0100
0000
0000
0000
0000
0000
0000
0000
1000
0000
0000
0000
0000
0000
0000
0000
0001
0000
0000
0000
0000
0000
0000
0000
0010
0000
0000
0000
0000
0000
0000
0000
0100
0000
0000
0000
0000
0000
0000
0000
1000
0000
0000
0000
0000
0000
0000
0000
0001
0000
0000
0000
0000
0000
0000
0000
0010
0000
0000
0000
0000
0000
0000
0000
0100
0000
0000
0000
0000
0000
0000
0000
1000
0000
0000
0000
0000
0000
0000
0000
0001
0000
0000
0000
0000
0000
0010
0000
0000
0000
0000
0000
0100
0000
0000
0000
0000
0000
1000
0000
0000
0000
0000
0000
0001
0000
0000
0000
0000
0000
0010
0000
0000
0000
0000
0000
0100
0000
0000
0000
0000
0000
1000
0000
0000
0000
0000
0000
0001
0000
0000
0000
0000
0000
0010
0000
0000
0000
0000
0000
0100
0000
0000
0000
0000
0000
1000
0000
0000
0000
0000
0000
0001
0000
0000
0000
0000
0000
0010
0000
0000
0000
0000
0000
0100
0000
0000
0000
0000
0000
1000
0000
0000
0000
0000
0000
,  // measure 131
0011
0000
0000
1100
0000
0000
0011
0000
0000
0100
0000
0000
0001
0000
0010
0000
0001
0000
0100
0000
0000
1000
0000
0000
,  // measure 132
0100
0000
0000
0010
0000
0000
0100
0000
0000
1000
0000
0000
0001
0000
0010
0000
0100
0000
1000
0000
0010
0000
0100
0000
,  // measure 133
1100
0000
0000
0011
0000
0000
1100
0000
0000
0010
0000
0000
1000
0000
0100
0000
1000
0000
0010
0000
0000
0001
0000
0000
,  // measure 134
0010
0000
0000
0100
0000
0000
0010
0000
0000
0001
0000
0000
1000
0000
0100
0000
0010
0000
0001
0000
0100
0000
0010
0000
,  // measure 135
0101
0000
0000
1010
0000
0000
0101
0000
0000
1000
0000
0000
0100
0000
0001
0000
0100
0000
1000
0000
0000
0010
0000
0000
,  // measure 136
1000
0000
0000
0001
0000
0000
1000
0000
0000
0010
0000
0000
0100
0000
0001
0000
1000
0000
0010
0000
0001
0000
1000
0000
,  // measure 137
1010
0000
0000
0101
0000
0000
1010
0000
0000
0001
0000
0000
0010
0000
1000
0000
0010
0000
0001
0000
0000
0100
0000
0000
,  // measure 138
0001
0000
0000
1000
0000
0000
0001
0000
0000
0100
0000
0000
0010
0000
1000
0000
0001
0000
0100
0000
1000
0000
0001
0000
,  // measure 139
0011
0000
0000
1100
0000
0000
0011
0000
0000
0100
0000
0000
0001
0000
0010
0000
0001
0000
0100
0000
0000
1000
0000
0000
,  // measure 140
0100
0000
0000
0010
0000
0000
0100
0000
0000
1000
0000
0000
0001
0000
0010
0000
0100
0000
1000
0000
0010
0000
0100
0000
,  // measure 141
1100
0000
0000
0011
0000
0000
1100
0000
0000
0010
0000
0000
1000
0000
0100
0000
1000
0000
0010
0000
0000
0001
0000
0000
,  // measure 142
0010
0000
0000
0100
0000
0000
0010
0000
0000
0001
0000
0000
1000
0000
0100
0000
0010
0000
0001
0000
0100
0000
0010
0000
,  // measure 143
0101
0000
0000
1010
0000
0000
0101
0000
0000
1000
0000
0000
0100
0000
0001
0000
0100
0000
1000
0000
0000
0010
0000
0000
,  // measure 144
1000
0000
0000
0001
0000
0000
1000
0000
0000
0010
0000
0000
0100
0000
0001
0000
1000
0000
0010
0000
0001
0000
1000
0000
,  // measure 145
1010
0000
0000
0101
0000
0000
1010
0000
0000
0001
0000
0000
0010
0000
1000
0000
0010
0000
0001
0000
0000
0100
0000
0000
,  // measure 146
0001
0000
0000
1000
0000
0000
0001
0000
0000
0100
0000
0000
0010
0000
1000
0000
0001
0000
0100
0000
1000
0000
0001
0000
,  // measure 147
0011
0000
0000
1100
0000
0000
0011
0000
0000
0100
0000
0000
0001
0000
0010
0000
0001
0000
0100
0000
0000
1000
0000
0000
,  // measure 148
0100
0000
0000
0010
0000
0000
0100
0000
0000
1000
0000
0000
0001
0000
0010
0000
0100
0000
1000
0000
0010
0000
0100
0000
,  // measure 149
1100
0000
0000
0011
0000
0000
1100
0000
0000
0010
0000
0000
1000
0000
0100
0000
1000
0000
0010
0000
0000
0001
0000
0000
,  // measure 150
0010
0000
0000
0100
0000
0000
0010
0000
0000
0001
0000
0000
1000
0000
0100
0000
0010
0000
0001
0000
0100
0000
0010
0000
,  // measure 151
0101
0000
0000
1010
0000
0000
0101
0000
0000
1000
0000
0000
0100
0000
0001
0000
0100
0000
1000
0000
0000
0010
0000
0000
,  // measure 152
1000
0000
0000
0001
0000
0000
1000
0000
0000
0010
0000
0000
0100
0000
0001
0000
1000
0000
0010
0000
0001
0000
1000
0000
,  // measure 153
1010
0000
0000
0101
0000
0000
1010
0000
0000
0001
0000
0000
0010
0000
1000
0000
0010
0000
0001
0000
0000
0100
0000
0000
,  // measure 154
0001
0000
0000
1000
0000
0000
0001
0000
0000
0100
0000
0000
0010
0000
1000
0000
0001
0000
0100
0000
1000
0000
0001
0000
,  // measure 155
0200
0000
0000
0000
0000
0000
0000
0000
0301
0001
0010
0001
0010
0010
1000
0010
,  // measure 156
1100
0000
0010
0000
0101
0000
0010
0000
1001
0000
0100
0000
1010
0000
0100
0000
0010
0000
0010
0000
0001
0000
0001
0000
0010
0000
0010
0000
0001
0010
0001
0000
,  // measure 157
0020
0000
0000
0000
0000
0000
0000
0000
1030
1000
0100
1000
0100
0100
0001
0100
,  // measure 158
0011
0000
0100
0000
1010
0000
0100
0000
1001
0000
0010
0000
0101
0000
0010
0000
0100
0000
0100
0000
1000
0000
1000
0000
0100
0000
0100
0000
1000
0100
1000
0000
,  // measure 159
0100
0100
0010
0010
0001
0100
0010
1000
,  // measure 160
0001
0010
0100
0001
0010
1000
0100
0100
,  // measure 161
0010
0010
0100
0100
1000
0010
0100
0001
,  // measure 162
1000
0100
0010
1000
0100
0001
0010
0010
,  // measure 163
1000
1000
0001
0001
0100
1000
0001
0010
,  // measure 164
0100
0001
1000
0100
0001
0010
1000
1000
,  // measure 165
0001
0001
1000
1000
0010
0001
1000
0100
,  // measure 166
0010
1000
0001
0010
1000
0100
0001
0001
,  // measure 167
0100
0100
0010
0010
0001
0100
0010
1000
,  // measure 168
0001
0010
0100
0001
0010
1000
0100
0100
,  // measure 169
0010
0010
0100
0100
1000
0010
0100
0001
,  // measure 170
1000
0100
0010
1000
0100
0001
0010
0010
,  // measure 171
1000
0100
0010
0000
0020
0030
0001
0010
,  // measure 172
0100
0000
0200
0300
0010
1000
0001
0000
,  // measure 173
0002
0003
0100
0001
1000
0000
2000
3000
,  // measure 174
0210
0001
0010
0000
1000
0010
1000
0000
,  // measure 175
0010
0001
0010
0000
0010
1000
0010
0300
,  // measure 176
0120
1000
0100
0000
0001
0100
0001
0000
,  // measure 177
0100
1000
0100
0000
0100
0001
0100
0030
,  // measure 178
2001
0100
0001
0000
0010
0001
0010
0000
,  // measure 179
0001
0100
0001
0000
0001
0010
0001
3000
,  // measure 180
1002
0010
1000
0000
0100
1000
0100
0000
,  // measure 181
1000
0010
1000
0000
1000
0100
1000
0003
,  // measure 182
2020
0000
3030
0220
0000
0330
0101
0000
,  // measure 183
0202
0000
0303
0220
0000
0330
1010
0000
,  // measure 184
0022
0000
0033
2002
0000
3003
1100
0000
,  // measure 185
2200
0000
3300
2002
0000
3003
0011
0000
,  // measure 186
1000
0001
1000
0001
1000
0001
1000
0001
,  // measure 187
1000
0001
1000
0001
1000
0001
1000
0001
,  // measure 188
1000
0001
1000
0001
1000
0001
1000
0001
,  // measure 189
1000
0001
1000
0001
1000
0001
1000
0001
,  // measure 190
0001
0100
0010
0001
,  // measure 191
1000
0010
0100
1000
,  // measure 192
0001
0100
0010
0001
,  // measure 193
1000
0010
0100
1000
,  // measure 194
0001
0100
0010
0001
,  // measure 195
1000
0010
0100
1000
,  // measure 196
0001
0100
0010
0001
,  // measure 197
1000
0010
0100
1000
,  // measure 198
0001
0100
0010
0001
,  // measure 199
1000
0010
0100
1000
,  // measure 200
0001
0100
0010
0001
,  // measure 201
1000
0010
0100
1000
,  // measure 202
0001
0100
0010
0001
,  // measure 203
1000
0010
0100
1000
,  // measure 204
0001
0100
0010
0001
,  // measure 205
1000
0010
0100
1000
,  // measure 206
0001
0100
0010
0001
,  // measure 207
1000
0010
0100
1000
,  // measure 208
0001
0100
0010
0001
,  // measure 209
1000
0010
0100
1000
,  // measure 210
0001
0100
0010
0001
,  // measure 211
1000
0100
0001
0010
1000
0100
0010
0100
,  // measure 212
0001
0010
1000
0100
0001
0010
0100
0010
,  // measure 213
2002
0000
0000
3003
,  // measure 214
0200
0000
0000
0000
0000
0000
0000
0000
0301
0001
0010
0001
0010
0010
1000
0010
,  // measure 215
1100
0000
0010
0000
0101
0000
0010
0000
1001
0000
0100
0000
1010
0000
0100
0000
0010
0000
0010
0000
0001
0000
0001
0000
0010
0000
0010
0000
0001
0010
0001
0000
,  // measure 216
0020
0000
0000
0000
0000
0000
0000
0000
1030
1000
0100
1000
0100
0100
0001
0100
,  // measure 217
0011
0000
0100
0000
1010
0000
0100
0000
1001
0000
0010
0000
0101
0000
0010
0000
0100
0000
0100
0000
1000
0000
1000
0000
0100
0000
0100
0000
1000
0100
1000
0000
,  // measure 218
2000
0000
0000
0000
0000
0000
0000
0000
3100
0100
0001
0100
0001
0001
0010
0001
,  // measure 219
1010
0000
0001
0000
1100
0000
0001
0000
0110
0000
1000
0000
0011
0000
1000
0000
0001
0000
0001
0000
0100
0000
0100
0000
0001
0000
0001
0000
0100
0001
0100
0000
,  // measure 220
0001
0010
0100
0000
0001
0010
0001
0000
0100
0010
0100
0000
0001
0010
0100
1000
,  // measure 221
1000
0100
0010
0000
1000
0100
1000
0000
0010
0100
0010
0000
1000
0100
0010
0001
,  // measure 222
0200
0000
0000
0000
0000
0000
0310
0100
0010
0100
0010
0100
0010
0100
0010
0100
0001
0010
0001
0010
0001
0010
0001
0010
,  // measure 223
1000
0100
0010
0001
1000
0100
0010
0001
0010
0100
0001
0010
0100
1000
0001
0010
0100
1000
0100
0010
1000
0100
0010
0001
,  // measure 224
0200
0000
0000
0000
0000
0000
0000
0000
0301
0001
0010
0001
0010
0010
1000
0010
,  // measure 225
1100
0000
0010
0000
0101
0000
0010
0000
1001
0000
0100
0000
1010
0000
0100
0000
0010
0000
0010
0000
0001
0000
0001
0000
0010
0000
0010
0000
0001
0010
0001
0000
,  // measure 226
0020
0000
0000
0000
0000
0000
0000
0000
1030
1000
0100
1000
0100
0100
0001
0100
,  // measure 227
0011
0000
0100
0000
1010
0000
0100
0000
1001
0000
0010
0000
0101
0000
0010
0000
0100
0000
0100
0000
1000
0000
1000
0000
0100
0000
0100
0000
1000
0100
1000
0000
,  // measure 228
0001
0010
0100
0000
0001
0010
0001
0000
0100
0010
0100
0000
0001
0010
0100
1000
,  // measure 229
0110
0100
0100
0100
0110
0010
0010
0010
,  // measure 230
0200
0000
0000
0000
0000
0000
0000
0000
0301
0001
0010
0001
0010
0010
1000
0010
,  // measure 231
1100
0000
0010
0000
0101
0000
0010
0000
1001
0000
0100
0000
1010
0000
0100
0000
0010
0000
0010
0000
0001
0000
0001
0000
0010
0000
0010
0000
0001
0010
0001
0000
,  // measure 232
0020
0000
0000
0000
0000
0000
0000
0000
1030
1000
0100
1000
0100
0100
0001
0100
,  // measure 233
0011
0000
0100
0000
1010
0000
0100
0000
1001
0000
0010
0000
0101
0000
0010
0000
0100
0000
0100
0000
1000
0000
1000
0000
0100
0000
0100
0000
1000
0100
1000
0000
,  // measure 234
2000
0000
0000
0000
0000
0000
0000
0000
3100
0100
0001
0100
0001
0001
0010
0001
,  // measure 235
1010
0000
0001
0000
1100
0000
0001
0000
0110
0000
1000
0000
0011
0000
1000
0000
0001
0000
0001
0000
0100
0000
0100
0000
0001
0000
0001
0000
0100
0001
0100
0000
,  // measure 236
0002
0000
0000
0000
0000
0000
0000
0000
0013
0010
1000
0010
1000
1000
0100
1000
,  // measure 237
0101
0000
1000
0000
0011
0000
1000
0000
0110
0000
0001
0000
1100
0000
0001
0000
1000
0100
0010
0001
0000
0000
0010
0000
0010
0000
0100
0010
0001
0010
1000
0000
,  // measure 238
1001
0000
0000
0000
;

//---------------dance-single - ----------------
#NOTEDATA:;
#CHARTNAME:;
#STEPSTYPE:dance-single;
#DESCRIPTION:;
#CHARTSTYLE:;
#DIFFICULTY:Hard;
#METER:25;
#RADARVALUES:1.390103,2.176087,0.957120,0.280133,1.484315,2501.000000,2255.000000,246.000000,72.000000,0.000000,0.000000,0.000000,0.000000,0.000000,1.390103,2.176087,0.957120,0.280133,1.484315,2501.000000,2255.000000,246.000000,72.000000,0.000000,0.000000,0.000000,0.000000,0.000000;
#CREDIT:;
#DISPLAYBPM:*;
#NOTES:
// measure 0
0000
0000
0000
0000
,  // measure 1
0000
0000
0000
0000
,  // measure 2
0000
0000
0000
0000
,  // measure 3
0000
0000
0000
0000
,  // measure 4
0000
0000
0000
0000
,  // measure 5
2000
0000
0000
0000
,  // measure 6
0002
0000
0000
3003
,  // measure 7
0002
0000
0000
0000
,  // measure 8
2000
0000
0000
3003
,  // measure 9
1000
0001
0100
0000
0010
0000
0100
0000
0001
0000
0010
0000
0100
0000
0001
0000
1000
0000
0010
0000
0100
0000
1000
0000
0100
0000
0010
0000
0001
0000
0100
0000
,  // measure 10
0001
1000
0010
0000
0100
0000
0010
0000
1000
0000
0100
0000
0010
0000
1000
0000
0001
0000
0100
0000
0010
0000
0001
0000
0010
0000
0100
0000
1000
0000
0010
0000
,  // measure 11
0010
0100
1000
0000
0001
0000
1000
0000
0100
0000
0001
0000
1000
0000
0100
0000
0010
0000
0001
0000
1000
0000
0010
0000
1000
0000
0001
0000
0100
0000
1000
0000
,  // measure 12
0001
0000
0000
0000
0000
0000
0000
0000
0010
0000
0000
0000
0000
0000
0000
0000
0100
0000
0000
0000
0000
0000
0000
0000
1000
0000
0000
0000
0000
0000
0000
0000
0001
0000
0000
0000
0000
0000
0000
0000
0010
0000
0000
0000
0000
0000
0000
0000
0100
0000
0000
0000
0000
0000
0000
0000
1000
0000
0000
0000
0000
0000
0000
0000
0001
0000
0000
0000
0000
0000
0000
0000
0010
0000
0000
0000
0000
0000
0000
0000
0100
0000
0000
0000
0000
0000
0000
0000
1000
0000
0000
0000
0000
0000
0000
0000
0001
0000
0000
0000
0000
0000
0010
0000
0000
0000
0000
0000
0100
0000
0000
0000
0000
0000
1000
0000
0000
0000
0000
0000
0001
0000
0000
0000
0000
0000
0010
0000
0000
0000
0000
0000
0100
0000
0000
0000
0000
0000
1000
0000
0000
0000
0000
0000
0001
0000
0000
0000
0000
0000
0010
0000
0000
0000
0000
0000
0100
0000
0000
0000
0000
0000
1000
0000
0000
0000
0000
0000
0001
0000
0000
0000
0000
0000
0010
0000
0000
0000
0000
0000
0100
0000
0000
0000
0000
0000
1000
0000
0000
0000
0000
0000
,  // measure 13
0002
0000
1000
0000
,  // measure 14
2000
0000
0000
3003
,  // measure 15
2000
0000
0001
0000
,  // measure 16
0002
0000
0000
3003
,  // measure 17
0200
0000
0010
0000
,  // measure 18
0020
0000
0000
0330
,  // measure 19
1001
0110
1001
0110
,  // measure 20
1000
0100
0010
0000
1000
0000
0001
0000
0100
0000
0001
0000
0010
0000
0001
0000
,  // measure 21
1000
0100
0010
0001
0110
0000
0010
0000
0101
0000
0010
0000
1100
0000
0010
0000
,  // measure 22
0001
0010
0100
0000
0001
0000
1000
0000
0010
0000
1000
0000
0100
0000
1000
0000
,  // measure 23
0001
0010
0100
1000
0110
0000
0100
0000
1010
0000
0100
0000
0011
0000
0100
0000
,  // measure 24
0010
1000
0001
0000
0010
0000
0100
0000
1000
0000
0100
0000
0001
0000
0100
0000
,  // measure 25
0010
1000
0001
0100
1001
0000
0001
0000
1100
0000
0001
0000
1010
0000
0001
0000
,  // measure 26
0100
0001
1000
0000
0100
0000
0010
0000
0001
0000
0010
0000
1000
0000
0010
0000
,  // measure 27
0100
0001
1000
0010
1001
0000
1000
0000
0011
0000
1000
0000
0101
0000
1000
0000
,  // measure 28
0010
0100
0010
0000
0100
0000
0100
0000
0001
1000
0001
0000
0010
0000
0010
0000
,  // measure 29
0100
0010
0100
0000
0010
0000
0010
0000
1000
0001
1000
0000
0100
0000
0100
0000
,  // measure 30
0001
1000
0001
0000
1000
0000
1000
0000
0100
0010
0100
0000
0001
0000
0001
0000
,  // measure 31
1000
0001
1000
0000
0001
0000
0001
0000
0010
0100
0010
0000
1000
0000
1000
0000
,  // measure 32
0001
0010
0100
0000
1000
0100
0010
0000
1000
0100
0010
0000
0001
0010
0100
0000
,  // measure 33
0100
0001
1000
0000
0010
1000
0001
0000
0010
1000
0001
0000
0100
0001
1000
0000
,  // measure 34
0110
0100
1100
0100
0110
0010
0011
0010
,  // measure 35
0200
0000
0000
0000
0000
0000
0000
0000
0000
0000
0000
0000
0000
0000
0000
0000
0301
1000
0001
0000
0010
0000
0001
0000
0010
0000
0010
0000
1000
0000
0010
0000
,  // measure 36
1100
0000
0010
0000
0101
0000
0010
0000
1001
0000
0100
0000
1010
0000
0100
0000
0010
0000
0010
0000
0001
0000
0001
0000
0010
0000
0010
0000
0001
0010
0001
0000
,  // measure 37
0020
0000
0000
0000
0000
0000
0000
0000
0000
0000
0000
0000
0000
0000
0000
0000
1030
0001
1000
0000
0100
0000
1000
0000
0100
0000
0100
0000
0001
0000
0100
0000
,  // measure 38
0011
0000
0100
0000
1010
0000
0100
0000
1001
0000
0010
0000
0101
0000
0010
0000
0100
0000
0100
0000
1000
0000
1000
0000
0100
0000
0100
0000
1000
0100
1000
0000
,  // measure 39
2000
0000
0000
0000
0000
0000
0000
0000
0000
0000
0000
0000
0000
0000
0000
0000
3100
0010
0100
0000
0001
0000
0100
0000
0001
0000
0001
0000
0010
0000
0001
0000
,  // measure 40
1010
0000
0001
0000
1100
0000
0001
0000
0110
0000
1000
0000
0011
0000
1000
0000
0001
0000
0001
0000
0100
0000
0100
0000
0001
0000
0001
0000
0100
0001
0100
0000
,  // measure 41
0001
0010
0100
0000
0001
0010
0001
0000
0100
0010
0100
0000
0001
0010
0100
1000
,  // measure 42
1000
0100
0010
0000
1000
0100
1000
0000
0010
0100
0010
0000
1000
0100
0010
0001
,  // measure 43
0200
0000
0000
0010
0000
0000
0310
0100
0010
0100
0010
0100
0010
0100
0010
0100
0001
0010
0001
0010
0001
0010
0001
0010
,  // measure 44
1000
0100
0010
0001
1000
0100
0010
0001
0010
0100
0001
0010
0100
1000
0001
0010
0100
1000
0100
0010
1000
0100
0010
0001
,  // measure 45
0200
0000
0000
0000
0000
0000
0000
0000
0000
0000
0000
0000
0000
0000
0000
0000
0301
1000
0001
0000
0010
0000
0001
0000
0010
0000
0010
0000
1000
0000
0010
0000
,  // measure 46
1100
0000
0010
0000
0101
0000
0010
0000
1001
0000
0100
0000
1010
0000
0100
0000
0010
0000
0010
0000
0001
0000
0001
0000
0010
0000
0010
0000
0001
0010
0001
0000
,  // measure 47
0020
0000
0000
0000
0000
0000
0000
0000
0000
0000
0000
0000
0000
0000
0000
0000
1030
0001
1000
0000
0100
0000
1000
0000
0100
0000
0100
0000
0001
0000
0100
0000
,  // measure 48
0011
0000
0100
0000
1010
0000
0100
0000
1001
0000
0010
0000
0101
0000
0010
0000
0100
0000
0100
0000
1000
0000
1000
0000
0100
0000
0100
0000
1000
0100
1000
0000
,  // measure 49
0001
0010
0100
0000
0001
0010
0001
0000
0100
0010
0100
0000
0001
0010
0100
1000
,  // measure 50
0110
0100
1100
0100
0110
0010
0011
0010
,  // measure 51
0110
0100
0010
0010
0001
0100
0010
1000
,  // measure 52
0001
0010
0100
0001
0010
1000
0100
0100
,  // measure 53
0110
0010
0100
0100
1000
0010
0100
0001
,  // measure 54
1000
0100
0010
1000
0100
0001
0010
0010
,  // measure 55
1001
1000
0001
0001
0100
1000
0001
0010
,  // measure 56
0100
0001
1000
0100
0001
0010
1000
1000
,  // measure 57
1001
0001
1000
1000
0010
0001
1000
0100
,  // measure 58
0010
1000
0001
0010
1000
0100
0001
0001
,  // measure 59
0110
0100
0010
0010
0001
0100
0010
1000
,  // measure 60
0001
0010
0100
0001
0010
1000
0100
0100
,  // measure 61
0110
0010
0100
0100
1000
0010
0100
0001
,  // measure 62
1000
0100
0010
1000
0100
0001
0010
0010
,  // measure 63
1001
1000
0001
0001
0100
1000
0001
0010
,  // measure 64
0100
0001
1000
0100
0001
0010
1000
1000
,  // measure 65
1001
0001
1000
1000
0010
0001
1000
0100
,  // measure 66
0010
1000
0001
0010
1000
0100
0001
0001
,  // measure 67
0200
0000
0000
0000
0000
0000
0000
0000
0000
0000
0000
0000
0000
0000
0000
0000
0301
1000
0001
0000
0010
0000
0001
0000
0010
0000
0010
0000
1000
0000
0010
0000
,  // measure 68
1100
0000
0010
0000
0101
0000
0010
0000
1001
0000
0100
0000
1010
0000
0100
0000
0010
0000
0010
0000
0001
0000
0001
0000
0010
0000
0010
0000
0001
0010
0001
0000
,  // measure 69
0020
0000
0000
0000
0000
0000
0000
0000
0000
0000
0000
0000
0000
0000
0000
0000
1030
0001
1000
0000
0100
0000
1000
0000
0100
0000
0100
0000
0001
0000
0100
0000
,  // measure 70
0011
0000
0100
0000
1010
0000
0100
0000
1001
0000
0010
0000
0101
0000
0010
0000
0100
0000
0100
0000
1000
0000
1000
0000
0100
0000
0100
0000
1000
0100
1000
0000
,  // measure 71
2000
0000
0000
0000
0000
0000
0000
0000
0000
0000
0000
0000
0000
0000
0000
0000
3100
0010
0100
0000
0001
0000
0100
0000
0001
0000
0001
0000
0010
0000
0001
0000
,  // measure 72
1010
0000
0001
0000
1100
0000
0001
0000
0110
0000
1000
0000
0011
0000
1000
0000
0001
0000
0001
0000
0100
0000
0100
0000
0001
0000
0001
0000
0100
0001
0100
0000
,  // measure 73
0002
0000
0000
0000
0000
0000
0000
0000
0000
0000
0000
0000
0000
0000
0000
0000
0013
0100
0010
0000
1000
0000
0010
0000
1000
0000
1000
0000
0100
0000
1000
0000
,  // measure 74
0101
0000
1000
0000
0011
0000
1000
0000
0110
0000
0001
0000
1100
0000
0001
0000
1000
0100
0010
0001
0000
0000
0010
0000
0010
0000
0100
0010
0001
0010
1000
0000
,  // measure 75
1000
0100
0010
0000
1000
0000
0001
0000
0100
0000
0001
0000
0010
0000
0001
0000
,  // measure 76
1000
0100
0010
0001
0110
0000
0010
0000
0101
0000
0010
0000
1100
0000
0010
0000
,  // measure 77
0001
0010
0100
0000
0001
0000
1000
0000
0010
0000
1000
0000
0100
0000
1000
0000
,  // measure 78
0001
0010
0100
1000
0110
0000
0100
0000
1010
0000
0100
0000
0011
0000
0100
0000
,  // measure 79
0010
1000
0001
0000
0010
0000
0100
0000
1000
0000
0100
0000
0001
0000
0100
0000
,  // measure 80
0010
1000
0001
0100
1001
0000
0001
0000
1100
0000
0001
0000
1010
0000
0001
0000
,  // measure 81
0100
0001
1000
0000
0100
0000
0010
0000
0001
0000
0010
0000
1000
0000
0010
0000
,  // measure 82
0100
0001
1000
0010
1001
0000
1000
0000
0011
0000
1000
0000
0101
0000
1000
0000
,  // measure 83
1000
0100
0010
0000
1000
0000
0001
0000
0100
0000
0001
0000
0010
0000
0001
0000
,  // measure 84
1000
0100
0010
0001
0110
0000
0010
0000
0101
0000
0010
0000
1100
0000
0010
0000
,  // measure 85
0001
0010
0100
0000
0001
0000
1000
0000
0010
0000
1000
0000
0100
0000
1000
0000
,  // measure 86
0001
0010
0100
1000
0110
0000
0100
0000
1010
0000
0100
0000
0011
0000
0100
0000
,  // measure 87
0010
1000
0001
0000
0010
0000
0100
0000
1000
0000
0100
0000
0001
0000
0100
0000
,  // measure 88
0010
1000
0001
0100
1001
0000
0001
0000
1100
0000
0001
0000
1010
0000
0001
0000
,  // measure 89
0100
0001
1000
0000
0100
0000
0010
0000
0001
0000
0010
0000
1000
0000
0010
0000
,  // measure 90
0100
0001
1000
0010
1001
0000
1000
0000
0011
0000
1000
0000
0101
0000
1000
0000
,  // measure 91
0010
0100
0010
0000
0100
0000
0100
0000
0001
0000
0001
0000
0010
0000
0010
0000
,  // measure 92
0100
0010
0100
0000
0010
0000
0010
0000
1000
0000
1000
0000
0100
0000
0100
0000
,  // measure 93
0001
1000
0001
0000
1000
0000
1000
0000
0100
0000
0100
0000
0001
0000
0001
0000
,  // measure 94
1000
0001
1000
0000
0001
0000
0001
0000
0010
0000
0010
0000
1000
0000
1000
0000
,  // measure 95
0001
0010
0100
0000
1000
0100
0010
0000
1000
0100
0010
0000
0001
0010
0100
0000
,  // measure 96
0100
0001
1000
0000
0010
1000
0001
0000
0010
1000
0001
0000
0100
0001
1000
0000
,  // measure 97
0110
0100
1100
0100
0110
0010
0011
0010
,  // measure 98
0200
0000
0000
0000
0000
0000
0000
0000
0301
0001
0010
0001
0010
0010
1000
0010
,  // measure 99
1100
0000
0010
0000
0101
0000
0010
0000
1001
0000
0100
0000
1010
0000
0100
0000
0010
0000
0010
0000
0001
0000
0001
0000
0010
0000
0010
0000
0001
0010
0001
0000
,  // measure 100
0020
0000
0000
0000
0000
0000
0000
0000
1030
1000
0100
1000
0100
0100
0001
0100
,  // measure 101
0011
0000
0100
0000
1010
0000
0100
0000
1001
0000
0010
0000
0101
0000
0010
0000
0100
0000
0100
0000
1000
0000
1000
0000
0100
0000
0100
0000
1000
0100
1000
0000
,  // measure 102
2000
0000
0000
0000
0000
0000
0000
0000
3100
0100
0001
0100
0001
0001
0010
0001
,  // measure 103
1010
0000
0001
0000
1100
0000
0001
0000
0110
0000
1000
0000
0011
0000
1000
0000
0001
0000
0001
0000
0100
0000
0100
0000
0001
0000
0001
0000
0100
0001
0100
0000
,  // measure 104
0001
0010
0100
0000
0001
0010
0001
0000
0100
0010
0100
0000
0001
0010
0100
1000
,  // measure 105
1000
0100
0010
0000
1000
0100
1000
0000
0010
0100
0010
0000
1000
0100
0010
0001
,  // measure 106
0200
0000
0000
0010
0000
0000
0310
0100
0010
0100
0010
0100
0010
0100
0010
0100
0001
0010
0001
0010
0001
0010
0001
0010
,  // measure 107
1000
0100
0010
0001
1000
0100
0010
0001
0010
0100
0001
0010
0100
1000
0001
0010
0100
1000
0100
0010
1000
0100
0010
0001
,  // measure 108
0200
0000
0000
0000
0000
0000
0000
0000
0301
0001
0010
0001
0010
0010
1000
0010
,  // measure 109
1100
0000
0010
0000
0101
0000
0010
0000
1001
0000
0100
0000
1010
0000
0100
0000
0010
0000
0010
0000
0001
0000
0001
0000
0010
0000
0010
0000
0001
0010
0001
0000
,  // measure 110
0020
0000
0000
0000
0000
0000
0000
0000
1030
1000
0100
1000
0100
0100
0001
0100
,  // measure 111
0011
0000
0100
0000
1010
0000
0100
0000
1001
0000
0010
0000
0101
0000
0010
0000
0100
0000
0100
0000
1000
0000
1000
0000
0100
0000
0100
0000
1000
0100
1000
0000
,  // measure 112
0001
0010
0100
0000
0001
0010
0001
0000
0100
0010
0100
0000
0001
0010
0100
1000
,  // measure 113
0110
0100
1100
0100
0110
0010
0011
0010
,  // measure 114
2002
0000
0000
0000
,  // measure 115
0000
0000
0000
0000
,  // measure 116
0000
0000
0000
0000
,  // measure 117
0000
0000
0000
3003
,  // measure 118
0220
0000
0000
0000
,  // measure 119
0000
0000
0000
0330
,  // measure 120
1000
0001
1000
0001
1000
0001
1000
0001
1000
0001
1000
0001
1000
0001
1000
0001
,  // measure 121
1000
0001
1000
0001
1000
0001
1000
0001
1000
0001
1000
0001
1000
0001
1000
0001
,  // measure 122
1000
0001
1000
0001
1000
0001
1000
0001
1000
0001
1000
0001
1000
0001
1000
0001
,  // measure 123
1000
0000
0000
0000
0000
0000
0000
0000
0100
0000
0000
0000
0000
0000
0000
0000
0010
0000
0000
0000
0000
0000
0000
0000
0001
0000
0000
0000
0000
0000
0000
0000
1000
0000
0000
0000
0000
0000
0000
0000
0100
0000
0000
0000
0000
0000
0000
0000
0010
0000
0000
0000
0000
0000
0000
0000
0001
0000
0000
0000
0000
0000
0000
0000
1000
0000
0000
0000
0000
0000
0000
0000
0100
0000
0000
0000
0000
0000
0000
0000
0010
0000
0000
0000
0000
0000
0000
0000
0001
0000
0000
0000
0000
0000
0000
0000
1000
0000
0000
0000
0000
0000
0001
0000
0000
0000
0000
0000
1000
0000
0000
0000
0000
0000
0001
0000
0000
0000
0000
0000
1000
0000
0000
0000
0000
0000
0001
0000
0000
0000
0000
0000
1000
0000
0000
0000
0000
0000
0001
0000
0000
0000
0000
0000
1000
0000
0000
0000
0000
0000
0001
0000
0000
0000
0000
0000
1000
0000
0000
0000
0000
0000
0001
0000
0000
0000
0000
0000
1000
0000
0000
0000
0000
0000
0001
0000
0000
0000
0000
0000
1000
0000
0000
0000
0000
0000
0000
0000
0000
0000
0000
0000
,  // measure 124
1010
0101
0011
0101
,  // measure 125
1010
1100
0011
1100
,  // measure 126
0101
1100
0011
1010
,  // measure 127
1000
0001
0100
0000
0010
0000
0100
0000
0001
0000
0010
0000
0100
0000
0001
0000
1000
0000
0010
0000
0100
0000
1000
0000
0100
0000
0010
0000
0001
0000
0100
0000
,  // measure 128
0001
1000
0010
0000
0100
0000
0010
0000
1000
0000
0100
0000
0010
0000
1000
0000
0001
0000
0100
0000
0010
0000
0001
0000
0010
0000
0100
0000
1000
0000
0010
0000
,  // measure 129
0010
0100
1000
0000
0001
0000
1000
0000
0100
0000
0001
0000
1000
0000
0100
0000
0010
0000
0001
0000
1000
0000
0010
0000
1000
0000
0001
0000
0100
0000
1000
0000
,  // measure 130
0001
0000
0000
0000
0000
0000
0000
0000
0010
0000
0000
0000
0000
0000
0000
0000
0100
0000
0000
0000
0000
0000
0000
0000
1000
0000
0000
0000
0000
0000
0000
0000
0001
0000
0000
0000
0000
0000
0000
0000
0010
0000
0000
0000
0000
0000
0000
0000
0100
0000
0000
0000
0000
0000
0000
0000
1000
0000
0000
0000
0000
0000
0000
0000
0001
0000
0000
0000
0000
0000
0000
0000
0010
0000
0000
0000
0000
0000
0000
0000
0100
0000
0000
0000
0000
0000
0000
0000
1000
0000
0000
0000
0000
0000
0000
0000
0001
0000
0000
0000
0000
0000
0010
0000
0000
0000
0000
0000
0100
0000
0000
0000
0000
0000
1000
0000
0000
0000
0000
0000
0001
0000
0000
0000
0000
0000
0010
0000
0000
0000
0000
0000
0100
0000
0000
0000
0000
0000
1000
0000
0000
0000
0000
0000
0001
0000
0000
0000
0000
0000
0010
0000
0000
0000
0000
0000
0100
0000
0000
0000
0000
0000
1000
0000
0000
0000
0000
0000
0001
0000
0000
0000
0000
0000
0010
0000
0000
0000
0000
0000
0100
0000
0000
0000
0000
0000
1000
0000
0000
0000
0000
0000
,  // measure 131
0011
0000
0000
0000
0000
0000
1100
0000
0000
0000
0000
0000
0011
0000
0000
0000
0000
0000
0100
0000
0000
0010
0000
0000
0001
0000
0000
0000
0010
0000
0000
0000
0001
0000
0000
0000
0100
0000
0000
0000
0000
0000
1000
0000
0000
0000
0000
0000
,  // measure 132
0100
0000
0000
0010
0000
0000
0100
0000
0000
1000
0000
0000
0001
0000
0010
0000
0100
0000
1000
0000
0010
0000
0100
0000
,  // measure 133
1100
0000
0000
0000
0000
0000
0011
0000
0000
0000
0000
0000
1100
0000
0000
0000
0000
0000
0010
0000
0000
0100
0000
0000
1000
0000
0000
0000
0100
0000
0000
0000
1000
0000
0000
0000
0010
0000
0000
0000
0000
0000
0001
0000
0000
0000
0000
0000
,  // measure 134
0010
0000
0000
0100
0000
0000
0010
0000
0000
0001
0000
0000
1000
0000
0100
0000
0010
0000
0001
0000
0100
0000
0010
0000
,  // measure 135
0101
0000
0000
0000
0000
0000
1010
0000
0000
0000
0000
0000
0101
0000
0000
0000
0000
0000
1000
0000
0000
0001
0000
0000
0100
0000
0000
0000
0001
0000
0000
0000
0100
0000
0000
0000
1000
0000
0000
0000
0000
0000
0010
0000
0000
0000
0000
0000
,  // measure 136
1000
0000
0000
0001
0000
0000
1000
0000
0000
0010
0000
0000
0100
0000
0001
0000
1000
0000
0010
0000
0001
0000
1000
0000
,  // measure 137
1010
0000
0000
0000
0000
0000
0101
0000
0000
0000
0000
0000
1010
0000
0000
0000
0000
0000
0001
0000
0000
1000
0000
0000
0010
0000
0000
0000
1000
0000
0000
0000
0010
0000
0000
0000
0001
0000
0000
0000
0000
0000
0100
0000
0000
0000
0000
0000
,  // measure 138
0001
0000
0000
1000
0000
0000
0001
0000
0000
0100
0000
0000
0010
0000
1000
0000
0001
0000
0100
0000
1000
0000
0001
0000
,  // measure 139
0011
0000
0000
0000
0000
0000
1100
0000
0000
0000
0000
0000
0011
0000
0000
0000
0000
0000
0100
0000
0000
0010
0000
0000
0001
0000
0000
0000
0010
0000
0000
0000
0001
0000
0000
0000
0100
0000
0000
0000
0000
0000
1000
0000
0000
0000
0000
0000
,  // measure 140
0100
0000
0000
0010
0000
0000
0100
0000
0000
1000
0000
0000
0001
0000
0010
0000
0100
0000
1000
0000
0010
0000
0100
0000
,  // measure 141
1100
0000
0000
0000
0000
0000
0011
0000
0000
0000
0000
0000
1100
0000
0000
0000
0000
0000
0010
0000
0000
0100
0000
0000
1000
0000
0000
0000
0100
0000
0000
0000
1000
0000
0000
0000
0010
0000
0000
0000
0000
0000
0001
0000
0000
0000
0000
0000
,  // measure 142
0010
0000
0000
0100
0000
0000
0010
0000
0000
0001
0000
0000
1000
0000
0100
0000
0010
0000
0001
0000
0100
0000
0010
0000
,  // measure 143
0101
0000
0000
0000
0000
0000
1010
0000
0000
0000
0000
0000
0101
0000
0000
0000
0000
0000
1000
0000
0000
0001
0000
0000
0100
0000
0000
0000
0001
0000
0000
0000
0100
0000
0000
0000
1000
0000
0000
0000
0000
0000
0010
0000
0000
0000
0000
0000
,  // measure 144
1000
0000
0000
0001
0000
0000
1000
0000
0000
0010
0000
0000
0100
0000
0001
0000
1000
0000
0010
0000
0001
0000
1000
0000
,  // measure 145
1010
0000
0000
0000
0000
0000
0101
0000
0000
0000
0000
0000
1010
0000
0000
0000
0000
0000
0001
0000
0000
1000
0000
0000
0010
0000
0000
0000
1000
0000
0000
0000
0010
0000
0000
0000
0001
0000
0000
0000
0000
0000
0100
0000
0000
0000
0000
0000
,  // measure 146
0001
0000
0000
1000
0000
0000
0001
0000
0000
0100
0000
0000
0010
0000
1000
0000
0001
0000
0100
0000
1000
0000
0001
0000
,  // measure 147
0011
0000
0000
0000
0000
0000
1100
0000
0000
0000
0000
0000
0011
0000
0000
0000
0000
0000
0100
0000
0000
0010
0000
0000
0001
0000
0000
0000
0010
0000
0000
0000
0001
0000
0000
0000
0100
0000
0000
0000
0000
0000
1000
0000
0000
0000
0000
0000
,  // measure 148
0100
0000
0000
0010
0000
0000
0100
0000
0000
1000
0000
0000
0001
0000
0010
0000
0100
0000
1000
0000
0010
0000
0100
0000
,  // measure 149
1100
0000
0000
0000
0000
0000
0011
0000
0000
0000
0000
0000
1100
0000
0000
0000
0000
0000
0010
0000
0000
0100
0000
0000
1000
0000
0000
0000
0100
0000
0000
0000
1000
0000
0000
0000
0010
0000
0000
0000
0000
0000
0001
0000
0000
0000
0000
0000
,  // measure 150
0010
0000
0000
0100
0000
0000
0010
0000
0000
0001
0000
0000
1000
0000
0100
0000
0010
0000
0001
0000
0100
0000
0010
0000
,  // measure 151
0101
0000
0000
0000
0000
0000
1010
0000
0000
0000
0000
0000
0101
0000
0000
0000
0000
0000
1000
0000
0000
0001
0000
0000
0100
0000
0000
0000
0001
0000
0000
0000
0100
0000
0000
0000
1000
0000
0000
0000
0000
0000
0010
0000
0000
0000
0000
0000
,  // measure 152
1000
0000
0000
0001
0000
0000
1000
0000
0000
0010
0000
0000
0100
0000
0001
0000
1000
0000
0010
0000
0001
0000
1000
0000
,  // measure 153
1010
0000
0000
0000
0000
0000
0101
0000
0000
0000
0000
0000
1010
0000
0000
0000
0000
0000
0001
0000
0000
1000
0000
0000
0010
0000
0000
0000
1000
0000
0000
0000
0010
0000
0000
0000
0001
0000
0000
0000
0000
0000
0100
0000
0000
0000
0000
0000
,  // measure 154
0001
0000
0000
1000
0000
0000
0001
0000
0000
0100
0000
0000
0010
0000
1000
0000
0001
0000
0100
0000
1000
0000
0001
0000
,  // measure 155
0200
0000
0000
0000
0000
0000
0000
0000
0000
0000
0000
0000
0000
0000
0000
0000
0301
1000
0001
0000
0010
0000
0001
0000
0010
0000
0010
0000
1000
0000
0010
0000
,  // measure 156
1100
0000
0010
0000
0101
0000
0010
0000
1001
0000
0100
0000
1010
0000
0100
0000
0010
0000
0010
0000
0001
0000
0001
0000
0010
0000
0010
0000
0001
0010
0001
0000
,  // measure 157
0020
0000
0000
0000
0000
0000
0000
0000
0000
0000
0000
0000
0000
0000
0000
0000
1030
0001
1000
0000
0100
0000
1000
0000
0100
0000
0100
0000
0001
0000
0100
0000
,  // measure 158
0011
0000
0100
0000
1010
0000
0100
0000
1001
0000
0010
0000
0101
0000
0010
0000
0100
0000
0100
0000
1000
0000
1000
0000
0100
0000
0100
0000
1000
0100
1000
0000
,  // measure 159
0110
0100
0010
0010
0001
0100
0010
1000
,  // measure 160
0001
0010
0100
0001
0010
1000
0100
0100
,  // measure 161
0110
0010
0100
0100
1000
0010
0100
0001
,  // measure 162
1000
0100
0010
1000
0100
0001
0010
0010
,  // measure 163
1001
1000
0001
0001
0100
1000
0001
0010
,  // measure 164
0100
0001
1000
0100
0001
0010
1000
1000
,  // measure 165
1001
0001
1000
1000
0010
0001
1000
0100
,  // measure 166
0010
1000
0001
0010
1000
0100
0001
0001
,  // measure 167
0110
0100
0010
0010
0001
0100
0010
1000
,  // measure 168
0001
0010
0100
0001
0010
1000
0100
0100
,  // measure 169
0110
0010
0100
0100
1000
0010
0100
0001
,  // measure 170
1000
0100
0010
1000
0100
0001
0010
0010
,  // measure 171
1000
0100
0010
0000
2020
3030
0001
0010
,  // measure 172
0100
0000
0202
0303
0010
1000
0001
0000
,  // measure 173
0022
0033
0100
0001
1000
0000
2200
3300
,  // measure 174
0210
0001
0010
0000
1000
0010
1000
0000
,  // measure 175
0010
0001
0010
0000
0010
1000
0010
1300
,  // measure 176
0120
1000
0100
0000
0001
0100
0001
0000
,  // measure 177
0100
1000
0100
0000
0100
0001
0100
0031
,  // measure 178
2001
0100
0001
0000
0010
0001
0010
0000
,  // measure 179
0001
0100
0001
0000
0001
0010
0001
3010
,  // measure 180
1002
0010
1000
0000
0100
1000
0100
0000
,  // measure 181
1000
0010
1000
0000
1000
0100
1000
0103
,  // measure 182
2020
0000
3030
0220
0000
0330
0101
0000
,  // measure 183
0202
0000
0303
0220
0000
0330
1010
0000
,  // measure 184
0022
0000
0033
2002
0000
3003
1100
0000
,  // measure 185
2200
0000
3300
2002
0000
3003
0011
0000
,  // measure 186
1000
0001
1000
0001
1000
0001
1000
0001
,  // measure 187
1000
0001
1000
0001
1000
0001
1000
0001
,  // measure 188
1000
0001
1000
0001
1000
0001
1000
0001
,  // measure 189
1000
0001
1000
0001
1000
0001
1000
0001
,  // measure 190
0001
0100
0010
0001
,  // measure 191
1000
0010
0100
1000
,  // measure 192
0001
0100
0010
0001
,  // measure 193
1000
0010
0100
1000
,  // measure 194
0001
0100
0010
0001
,  // measure 195
1000
0010
0100
1000
,  // measure 196
0001
0100
0010
0001
,  // measure 197
1000
0010
0100
1000
,  // measure 198
0001
0100
0010
0001
,  // measure 199
1000
0010
0100
1000
,  // measure 200
0001
0100
0010
0001
,  // measure 201
1000
0010
0100
1000
,  // measure 202
0001
0100
0010
0001
,  // measure 203
1000
0010
0100
1000
,  // measure 204
0001
0100
0010
0001
,  // measure 205
1000
0010
0100
1000
,  // measure 206
0001
0100
0010
0001
,  // measure 207
1000
0010
0100
1000
,  // measure 208
0001
0100
0010
0001
,  // measure 209
1000
0010
0100
1000
,  // measure 210
0001
0100
0010
0001
,  // measure 211
1000
0100
0001
0010
1000
0100
0010
0100
,  // measure 212
0001
0010
1000
0100
0001
0010
0100
0010
,  // measure 213
2002
0000
0000
3003
,  // measure 214
0200
0000
0000
0000
0000
0000
0000
0000
0000
0000
0000
0000
0000
0000
0000
0000
0301
1000
0001
0000
0010
0000
0001
0000
0010
0000
0010
0000
1000
0000
0010
0000
,  // measure 215
1100
0000
0010
0000
0101
0000
0010
0000
1001
0000
0100
0000
1010
0000
0100
0000
0010
0000
0010
0000
0001
0000
0001
0000
0010
0000
0010
0000
0001
0010
0001
0000
,  // measure 216
0020
0000
0000
0000
0000
0000
0000
0000
0000
0000
0000
0000
0000
0000
0000
0000
1030
0001
1000
0000
0100
0000
1000
0000
0100
0000
0100
0000
0001
0000
0100
0000
,  // measure 217
0011
0000
0100
0000
1010
0000
0100
0000
1001
0000
0010
0000
0101
0000
0010
0000
0100
0000
0100
0000
1000
0000
1000
0000
0100
0000
0100
0000
1000
0100
1000
0000
,  // measure 218
2000
0000
0000
0000
0000
0000
0000
0000
0000
0000
0000
0000
0000
0000
0000
0000
3100
0010
0100
0000
0001
0000
0100
0000
0001
0000
0001
0000
0010
0000
0001
0000
,  // measure 219
1010
0000
0001
0000
1100
0000
0001
0000
0110
0000
1000
0000
0011
0000
1000
0000
0001
0000
0001
0000
0100
0000
0100
0000
0001
0000
0001
0000
0100
0001
0100
0000
,  // measure 220
0001
0010
0100
0000
0001
0010
0001
0000
0100
0010
0100
0000
0001
0010
0100
1000
,  // measure 221
1000
0100
0010
0000
1000
0100
1000
0000
0010
0100
0010
0000
1000
0100
0010
0001
,  // measure 222
0200
0000
0000
0010
0000
0000
0310
0100
0010
0100
0010
0100
0010
0100
0010
0100
0001
0010
0001
0010
0001
0010
0001
0010
,  // measure 223
1000
0100
0010
0001
1000
0100
0010
0001
0010
0100
0001
0010
0100
1000
0001
0010
0100
1000
0100
0010
1000
0100
0010
0001
,  // measure 224
0200
0000
0000
0000
0000
0000
0000
0000
0301
0001
0010
0001
0010
0010
1000
0010
,  // measure 225
1100
0000
0010
0000
0101
0000
0010
0000
1001
0000
0100
0000
1010
0000
0100
0000
0010
0000
0010
0000
0001
0000
0001
0000
0010
0000
0010
0000
0001
0010
0001
0000
,  // measure 226
0020
0000
0000
0000
0000
0000
0000
0000
1030
1000
0100
1000
0100
0100
0001
0100
,  // measure 227
0011
0000
0100
0000
1010
0000
0100
0000
1001
0000
0010
0000
0101
0000
0010
0000
0100
0000
0100
0000
1000
0000
1000
0000
0100
0000
0100
0000
1000
0100
1000
0000
,  // measure 228
0001
0010
0100
0000
0001
0010
0001
0000
0100
0010
0100
0000
0001
0010
0100
1000
,  // measure 229
0110
0100
1100
0100
0110
0010
0011
0010
,  // measure 230
0200
0000
0000
0000
0000
0000
0000
0000
0000
0000
0000
0000
0000
0000
0000
0000
0301
1000
0001
0000
0010
0000
0001
0000
0010
0000
0010
0000
1000
0000
0010
0000
,  // measure 231
1100
0000
0010
0000
0101
0000
0010
0000
1001
0000
0100
0000
1010
0000
0100
0000
0010
0000
0010
0000
0001
0000
0001
0000
0010
0000
0010
0000
0001
0010
0001
0000
,  // measure 232
0020
0000
0000
0000
0000
0000
0000
0000
0000
0000
0000
0000
0000
0000
0000
0000
1030
0001
1000
0000
0100
0000
1000
0000
0100
0000
0100
0000
0001
0000
0100
0000
,  // measure 233
0011
0000
0100
0000
1010
0000
0100
0000
1001
0000
0010
0000
0101
0000
0010
0000
0100
0000
0100
0000
1000
0000
1000
0000
0100
0000
0100
0000
1000
0100
1000
0000
,  // measure 234
2000
0000
0000
0000
0000
0000
0000
0000
0000
0000
0000
0000
0000
0000
0000
0000
3100
0010
0100
0000
0001
0000
0100
0000
0001
0000
0001
0000
0010
0000
0001
0000
,  // measure 235
1010
0000
0001
0000
1100
0000
0001
0000
0110
0000
1000
0000
0011
0000
1000
0000
0001
0000
0001
0000
0100
0000
0100
0000
0001
0000
0001
0000
0100
0001
0100
0000
,  // measure 236
0002
0000
0000
0000
0000
0000
0000
0000
0000
0000
0000
0000
0000
0000
0000
0000
0013
0100
0010
0000
1000
0000
0010
0000
1000
0000
1000
0000
0100
0000
1000
0000
,  // measure 237
0101
0000
1000
0000
0011
0000
1000
0000
0110
0000
0001
0000
1100
0000
0001
0000
1000
0100
0010
0001
0000
0000
0010
0000
0010
0000
0100
0010
0001
0010
1000
0000
,  // measure 238
1001
0000
0000
0000
;

//---------------dance-single - ----------------
#NOTEDATA:;
#CHARTNAME:;
#STEPSTYPE:dance-single;
#DESCRIPTION:;
#CHARTSTYLE:;
#DIFFICULTY:Challenge;
#METER:27;
#RADARVALUES:1.467362,2.176087,1.101077,0.280133,1.534894,2640.000000,2357.000000,283.000000,72.000000,0.000000,0.000000,0.000000,0.000000,0.000000,1.467362,2.176087,1.101077,0.280133,1.534894,2640.000000,2357.000000,283.000000,72.000000,0.000000,0.000000,0.000000,0.000000,0.000000;
#CREDIT:;
#DISPLAYBPM:*;
#NOTES:
// measure 0
0000
0000
0000
0000
,  // measure 1
0000
0000
0000
0000
,  // measure 2
0000
0000
0000
0000
,  // measure 3
0000
0000
0000
0000
,  // measure 4
0000
0000
0000
0000
,  // measure 5
2000
0000
0000
0000
,  // measure 6
0002
0000
0000
3003
,  // measure 7
0002
0000
0000
0000
,  // measure 8
2000
0000
0000
3003
,  // measure 9
1000
0001
0100
0000
0010
0000
0100
0000
0001
0000
0010
0000
0100
0000
0001
0000
1000
0000
0010
0000
0100
0000
1000
0000
0100
0000
0010
0000
0001
0000
0100
0000
,  // measure 10
0001
1000
0010
0000
0100
0000
0010
0000
1000
0000
0100
0000
0010
0000
1000
0000
0001
0000
0100
0000
0010
0000
0001
0000
0010
0000
0100
0000
1000
0000
0010
0000
,  // measure 11
0010
0100
1000
0000
0001
0000
1000
0000
0100
0000
0001
0000
1000
0000
0100
0000
0010
0000
0001
0000
1000
0000
0010
0000
1000
0000
0001
0000
0100
0000
1000
0000
,  // measure 12
0001
0000
0000
0000
0000
0000
0000
0000
0010
0000
0000
0000
0000
0000
0000
0000
0100
0000
0000
0000
0000
0000
0000
0000
1000
0000
0000
0000
0000
0000
0000
0000
0001
0000
0000
0000
0000
0000
0000
0000
0010
0000
0000
0000
0000
0000
0000
0000
0100
0000
0000
0000
0000
0000
0000
0000
1000
0000
0000
0000
0000
0000
0000
0000
0001
0000
0000
0000
0000
0000
0000
0000
0010
0000
0000
0000
0000
0000
0000
0000
0100
0000
0000
0000
0000
0000
0000
0000
1000
0000
0000
0000
0000
0000
0000
0000
0001
0000
0000
0000
0000
0000
0010
0000
0000
0000
0000
0000
0100
0000
0000
0000
0000
0000
1000
0000
0000
0000
0000
0000
0001
0000
0000
0000
0000
0000
0010
0000
0000
0000
0000
0000
0100
0000
0000
0000
0000
0000
1000
0000
0000
0000
0000
0000
0001
0000
0000
0000
0000
0000
0010
0000
0000
0000
0000
0000
0100
0000
0000
0000
0000
0000
1000
0000
0000
0000
0000
0000
0001
0000
0000
0000
0000
0000
0010
0000
0000
0000
0000
0000
0100
0000
0000
0000
0000
0000
1000
0000
0000
0000
0000
0000
,  // measure 13
0002
0000
1000
0000
,  // measure 14
2000
0000
0000
3003
,  // measure 15
2000
0000
0001
0000
,  // measure 16
0002
0000
0000
3003
,  // measure 17
0200
0000
0010
0000
,  // measure 18
0020
0000
0000
0330
,  // measure 19
1001
0110
1001
0110
,  // measure 20
1000
0100
0010
0000
1000
0000
0001
0000
0100
0000
0001
0000
0010
0000
0001
0000
,  // measure 21
1000
0100
0010
0001
0110
0000
0010
0000
0101
0000
0010
0000
1100
0000
0010
0000
,  // measure 22
0001
0010
0100
0000
0001
0000
1000
0000
0010
0000
1000
0000
0100
0000
1000
0000
,  // measure 23
0001
0010
0100
1000
0110
0000
0100
0000
1010
0000
0100
0000
0011
0000
0100
0000
,  // measure 24
0010
1000
0001
0000
0010
0000
0100
0000
1000
0000
0100
0000
0001
0000
0100
0000
,  // measure 25
0010
1000
0001
0100
1001
0000
0001
0000
1100
0000
0001
0000
1010
0000
0001
0000
,  // measure 26
0100
0001
1000
0000
0100
0000
0010
0000
0001
0000
0010
0000
1000
0000
0010
0000
,  // measure 27
0100
0001
1000
0010
1001
0000
1000
0000
0011
0000
1000
0000
0101
0000
1000
0000
,  // measure 28
0010
0100
0010
0000
0100
0000
0100
0000
0001
1000
0001
0000
0010
0100
0010
0000
,  // measure 29
0100
0010
0100
0000
0010
0000
0010
0000
1000
0001
1000
0000
0100
0010
0100
0000
,  // measure 30
0001
1000
0001
0000
1000
0000
1000
0000
0100
0010
0100
0000
0001
1000
0001
0000
,  // measure 31
1000
0001
1000
0000
0001
0000
0001
0000
0010
0100
0010
0000
1000
0001
1000
0000
,  // measure 32
0001
0010
0100
0000
1000
0100
0010
0000
1000
0100
0010
0000
0001
0010
0100
0000
,  // measure 33
0100
0001
1000
0000
0010
1000
0001
0000
0010
1000
0001
0000
0100
0001
1000
0000
,  // measure 34
0110
0100
1100
0100
0110
0010
0011
0010
,  // measure 35
0200
0000
0000
0000
0010
0000
0000
0000
0010
0000
0000
0000
0010
0000
0000
0000
0301
1000
0001
0000
0010
0000
0001
0000
0010
0000
0010
0000
1000
0000
0010
0000
,  // measure 36
1100
0000
0010
0000
0101
0000
0010
0000
1001
0000
0100
0000
1010
0000
0100
0000
0010
0000
0010
0000
0001
0000
0001
0000
0010
0001
0010
0000
0001
0010
0001
0000
,  // measure 37
0020
0000
0000
0000
0100
0000
0000
0000
0100
0000
0000
0000
0100
0000
0000
0000
1030
0001
1000
0000
0100
0000
1000
0000
0100
0000
0100
0000
0001
0000
0100
0000
,  // measure 38
0011
0000
0100
0000
1010
0000
0100
0000
1001
0000
0010
0000
0101
0000
0010
0000
0100
0000
0100
0000
1000
0000
1000
0000
0100
1000
0100
0000
1000
0100
1000
0000
,  // measure 39
2000
0000
0000
0000
0001
0000
0000
0000
0001
0000
0000
0000
0001
0000
0000
0000
3100
0010
0100
0000
0001
0000
0100
0000
0001
0000
0001
0000
0010
0000
0001
0000
,  // measure 40
1010
0000
0001
0000
1100
0000
0001
0000
0110
0000
1000
0000
0011
0000
1000
0000
0001
0000
0001
0000
0100
0000
0100
0000
0001
0100
0001
0000
0100
0001
0100
0000
,  // measure 41
1001
0010
0100
0000
1001
0010
0001
0000
0110
0010
0100
0000
1001
0010
0100
1000
,  // measure 42
1001
0100
0010
0000
1001
0100
1000
0000
0110
0100
0010
0000
1001
0100
0010
0001
,  // measure 43
0210
0000
0000
0010
0000
0000
0310
0100
0010
0100
0010
0100
0010
0100
0010
0100
0001
0010
0001
0010
0001
0010
0001
0010
,  // measure 44
1000
0100
0010
0001
1000
0100
0010
0001
0010
0100
0001
0010
0100
1000
0001
0010
0100
1000
0100
0010
1000
0100
0010
0001
,  // measure 45
0200
0000
0000
0000
0010
0000
0000
0000
0010
0000
0000
0000
0010
0000
0000
0000
0301
1000
0001
0000
0010
0000
0001
0000
0010
0000
0010
0000
1000
0000
0010
0000
,  // measure 46
1100
0000
0010
0000
0101
0000
0010
0000
1001
0000
0100
0000
1010
0000
0100
0000
0010
0000
0010
0000
0001
0000
0001
0000
0010
0001
0010
0000
0001
0010
0001
0000
,  // measure 47
0020
0000
0000
0000
0100
0000
0000
0000
0100
0000
0000
0000
0100
0000
0000
0000
1030
0001
1000
0000
0100
0000
1000
0000
0100
0000
0100
0000
0001
0000
0100
0000
,  // measure 48
0011
0000
0100
0000
1010
0000
0100
0000
1001
0000
0010
0000
0101
0000
0010
0000
0100
0000
0100
0000
1000
0000
1000
0000
0100
1000
0100
0000
1000
0100
1000
0000
,  // measure 49
1001
0010
0100
0000
1001
0010
0001
0000
0110
0010
0100
0000
1001
0010
0100
1000
,  // measure 50
0110
0100
1100
0100
0110
0010
0011
0010
,  // measure 51
0110
0100
0010
0010
0001
0100
0010
1000
,  // measure 52
0001
0010
0100
0001
0010
1000
0100
0100
,  // measure 53
0110
0010
0100
0100
1000
0010
0100
0001
,  // measure 54
1000
0100
0010
1000
0100
0001
0010
0010
,  // measure 55
1001
1000
0001
0001
0100
1000
0001
0010
,  // measure 56
0100
0001
1000
0100
0001
0010
1000
1000
,  // measure 57
1001
0001
1000
1000
0010
0001
1000
0100
,  // measure 58
0010
1000
0001
0010
1000
0100
0001
0001
,  // measure 59
0110
0100
0010
0010
0001
0100
0010
1000
,  // measure 60
0001
0010
0100
0001
0010
1000
0100
0100
,  // measure 61
0110
0010
0100
0100
1000
0010
0100
0001
,  // measure 62
1000
0100
0010
1000
0100
0001
0010
0010
,  // measure 63
1001
1000
0001
0001
0100
1000
0001
0010
,  // measure 64
0100
0001
1000
0100
0001
0010
1000
1000
,  // measure 65
1001
0001
1000
1000
0010
0001
1000
0100
,  // measure 66
0010
1000
0001
0010
1000
0100
0001
0001
,  // measure 67
0200
0000
0000
0000
0010
0000
0000
0000
0010
0000
0000
0000
0010
0000
0000
0000
0301
1000
0001
0000
0010
0000
0001
0000
0010
0000
0010
0000
1000
0000
0010
0000
,  // measure 68
1100
0000
0010
0000
0101
0000
0010
0000
1001
0000
0100
0000
1010
0000
0100
0000
0010
0000
0010
0000
0001
0000
0001
0000
0010
0001
0010
0000
0001
0010
0001
0000
,  // measure 69
0020
0000
0000
0000
0100
0000
0000
0000
0100
0000
0000
0000
0100
0000
0000
0000
1030
0001
1000
0000
0100
0000
1000
0000
0100
0000
0100
0000
0001
0000
0100
0000
,  // measure 70
0011
0000
0100
0000
1010
0000
0100
0000
1001
0000
0010
0000
0101
0000
0010
0000
0100
0000
0100
0000
1000
0000
1000
0000
0100
1000
0100
0000
1000
0100
1000
0000
,  // measure 71
2000
0000
0000
0000
0001
0000
0000
0000
0001
0000
0000
0000
0001
0000
0000
0000
3100
0010
0100
0000
0001
0000
0100
0000
0001
0000
0001
0000
0010
0000
0001
0000
,  // measure 72
1010
0000
0001
0000
1100
0000
0001
0000
0110
0000
1000
0000
0011
0000
1000
0000
0001
0000
0001
0000
0100
0000
0100
0000
0001
0100
0001
0000
0100
0001
0100
0000
,  // measure 73
0002
0000
0000
0000
1000
0000
0000
0000
1000
0000
0000
0000
1000
0000
0000
0000
0013
0100
0010
0000
1000
0000
0010
0000
1000
0000
1000
0000
0100
0000
1000
0000
,  // measure 74
0101
0000
1000
0000
0011
0000
1000
0000
0110
0000
0001
0000
1100
0000
0001
0000
1000
0100
0010
0001
0000
0000
0010
0000
0110
0000
0100
0010
0001
0010
1000
0000
,  // measure 75
1000
0100
0010
0000
1000
0000
0001
0000
0100
0000
0001
0000
0010
0000
0001
0000
,  // measure 76
1000
0100
0010
0001
0110
0000
0010
0000
0101
0000
0010
0000
1100
0000
0010
0000
,  // measure 77
0001
0010
0100
0000
0001
0000
1000
0000
0010
0000
1000
0000
0100
0000
1000
0000
,  // measure 78
0001
0010
0100
1000
0110
0000
0100
0000
1010
0000
0100
0000
0011
0000
0100
0000
,  // measure 79
0010
1000
0001
0000
0010
0000
0100
0000
1000
0000
0100
0000
0001
0000
0100
0000
,  // measure 80
0010
1000
0001
0100
1001
0000
0001
0000
1100
0000
0001
0000
1010
0000
0001
0000
,  // measure 81
0100
0001
1000
0000
0100
0000
0010
0000
0001
0000
0010
0000
1000
0000
0010
0000
,  // measure 82
0100
0001
1000
0010
1001
0000
1000
0000
0011
0000
1000
0000
0101
0000
1000
0000
,  // measure 83
1000
0100
0010
0000
1000
0000
0001
0000
0100
0000
0001
0000
0010
0000
0001
0000
,  // measure 84
1000
0100
0010
0001
0110
0000
0010
0000
0101
0000
0010
0000
1100
0000
0010
0000
,  // measure 85
0001
0010
0100
0000
0001
0000
1000
0000
0010
0000
1000
0000
0100
0000
1000
0000
,  // measure 86
0001
0010
0100
1000
0110
0000
0100
0000
1010
0000
0100
0000
0011
0000
0100
0000
,  // measure 87
0010
1000
0001
0000
0010
0000
0100
0000
1000
0000
0100
0000
0001
0000
0100
0000
,  // measure 88
0010
1000
0001
0100
1001
0000
0001
0000
1100
0000
0001
0000
1010
0000
0001
0000
,  // measure 89
0100
0001
1000
0000
0100
0000
0010
0000
0001
0000
0010
0000
1000
0000
0010
0000
,  // measure 90
0100
0001
1000
0010
1001
0000
1000
0000
0011
0000
1000
0000
0101
0000
1000
0000
,  // measure 91
0010
0100
0010
0000
0100
0000
0100
0000
0001
0000
0001
0000
0010
0000
0010
0000
,  // measure 92
0100
0010
0100
0000
0010
0000
0010
0000
1000
0000
1000
0000
0100
0000
0100
0000
,  // measure 93
0001
1000
0001
0000
1000
0000
1000
0000
0100
0000
0100
0000
0001
0000
0001
0000
,  // measure 94
1000
0001
1000
0000
0001
0000
0001
0000
0010
0000
0010
0000
1000
0000
1000
0000
,  // measure 95
0001
0010
0100
0000
1000
0100
0010
0000
1000
0100
0010
0000
0001
0010
0100
0000
,  // measure 96
0100
0001
1000
0000
0010
1000
0001
0000
0010
1000
0001
0000
0100
0001
1000
0000
,  // measure 97
0110
0100
1100
0100
0110
0010
0011
0010
,  // measure 98
0200
0000
0010
0000
0010
0000
0010
0000
0301
0001
0010
0001
0010
0010
1000
0010
,  // measure 99
1100
0000
0010
0000
0101
0000
0010
0000
1001
0000
0100
0000
1010
0000
0100
0000
0010
0000
0010
0000
0001
0000
0001
0000
0010
0001
0010
0000
0001
0010
0001
0000
,  // measure 100
0020
0000
0100
0000
0100
0000
0100
0000
1030
1000
0100
1000
0100
0100
0001
0100
,  // measure 101
0011
0000
0100
0000
1010
0000
0100
0000
1001
0000
0010
0000
0101
0000
0010
0000
0100
0000
0100
0000
1000
0000
1000
0000
0100
1000
0100
0000
1000
0100
1000
0000
,  // measure 102
2000
0000
0001
0000
0001
0000
0001
0000
3100
0100
0001
0100
0001
0001
0010
0001
,  // measure 103
1010
0000
0001
0000
1100
0000
0001
0000
0110
0000
1000
0000
0011
0000
1000
0000
0001
0000
0001
0000
0100
0000
0100
0000
0001
0100
0001
0000
0100
0001
0100
0000
,  // measure 104
1001
0010
0100
0000
1001
0010
0001
0000
0110
0010
0100
0000
1001
0010
0100
1000
,  // measure 105
1001
0100
0010
0000
1001
0100
1000
0000
0110
0100
0010
0000
1001
0100
0010
0001
,  // measure 106
0210
0000
0000
0010
0000
0000
0310
0100
0010
0100
0010
0100
0010
0100
0010
0100
0001
0010
0001
0010
0001
0010
0001
0010
,  // measure 107
1000
0100
0010
0001
1000
0100
0010
0001
0010
0100
0001
0010
0100
1000
0001
0010
0100
1000
0100
0010
1000
0100
0010
0001
,  // measure 108
0200
0000
0010
0000
0010
0000
0010
0000
0301
0001
0010
0001
0010
0010
1000
0010
,  // measure 109
1100
0000
0010
0000
0101
0000
0010
0000
1001
0000
0100
0000
1010
0000
0100
0000
0010
0000
0010
0000
0001
0000
0001
0000
0010
0001
0010
0000
0001
0010
0001
0000
,  // measure 110
0020
0000
0000
0000
0000
0000
0000
0000
1030
1000
0100
1000
0100
0100
0001
0100
,  // measure 111
0011
0000
0100
0000
1010
0000
0100
0000
1001
0000
0010
0000
0101
0000
0010
0000
0100
0000
0100
0000
1000
0000
1000
0000
0100
1000
0100
0000
1000
0100
1000
0000
,  // measure 112
0001
0010
0100
0000
0001
0010
0001
0000
0100
0010
0100
0000
0001
0010
0100
1000
,  // measure 113
0110
0100
1100
0100
0110
0010
0011
0010
,  // measure 114
2002
0000
0000
0000
,  // measure 115
0000
0000
0000
0000
,  // measure 116
0000
0000
0000
0000
,  // measure 117
0000
0000
0000
3003
,  // measure 118
0220
0000
0000
0000
,  // measure 119
0000
0000
0000
0330
,  // measure 120
1000
0001
1000
0001
1000
0001
1000
0001
1000
0001
1000
0001
1000
0001
1000
0001
,  // measure 121
1000
0001
1000
0001
1000
0001
1000
0001
1000
0001
1000
0001
1000
0001
1000
0001
,  // measure 122
1000
0001
1000
0001
1000
0001
1000
0001
1000
0001
1000
0001
1000
0001
1000
0001
,  // measure 123
1000
0000
0000
0000
0000
0000
0000
0000
0100
0000
0000
0000
0000
0000
0000
0000
0010
0000
0000
0000
0000
0000
0000
0000
0001
0000
0000
0000
0000
0000
0000
0000
1000
0000
0000
0000
0000
0000
0000
0000
0100
0000
0000
0000
0000
0000
0000
0000
0010
0000
0000
0000
0000
0000
0000
0000
0001
0000
0000
0000
0000
0000
0000
0000
1000
0000
0000
0000
0000
0000
0000
0000
0100
0000
0000
0000
0000
0000
0000
0000
0010
0000
0000
0000
0000
0000
0000
0000
0001
0000
0000
0000
0000
0000
0000
0000
1000
0000
0000
0000
0000
0000
0001
0000
0000
0000
0000
0000
1000
0000
0000
0000
0000
0000
0001
0000
0000
0000
0000
0000
1000
0000
0000
0000
0000
0000
0001
0000
0000
0000
0000
0000
1000
0000
0000
0000
0000
0000
0001
0000
0000
0000
0000
0000
1000
0000
0000
0000
0000
0000
0001
0000
0000
0000
0000
0000
1000
0000
0000
0000
0000
0000
0001
0000
0000
0000
0000
0000
1000
0000
0000
0000
0000
0000
0001
0000
0000
0000
0000
0000
1000
0000
0000
0000
0000
0000
0000
0000
0000
0000
0000
0000
,  // measure 124
1010
0101
0011
0101
,  // measure 125
1010
1100
0011
1100
,  // measure 126
0101
1100
0011
1010
,  // measure 127
1000
0001
0100
0000
0010
0000
0100
0000
0001
0000
0010
0000
0100
0000
0001
0000
1000
0000
0010
0000
0100
0000
1000
0000
0100
0000
0010
0000
0001
0000
0100
0000
,  // measure 128
0001
1000
0010
0000
0100
0000
0010
0000
1000
0000
0100
0000
0010
0000
1000
0000
0001
0000
0100
0000
0010
0000
0001
0000
0010
0000
0100
0000
1000
0000
0010
0000
,  // measure 129
0010
0100
1000
0000
0001
0000
1000
0000
0100
0000
0001
0000
1000
0000
0100
0000
0010
0000
0001
0000
1000
0000
0010
0000
1000
0000
0001
0000
0100
0000
1000
0000
,  // measure 130
0001
0000
0000
0000
0000
0000
0000
0000
0010
0000
0000
0000
0000
0000
0000
0000
0100
0000
0000
0000
0000
0000
0000
0000
1000
0000
0000
0000
0000
0000
0000
0000
0001
0000
0000
0000
0000
0000
0000
0000
0010
0000
0000
0000
0000
0000
0000
0000
0100
0000
0000
0000
0000
0000
0000
0000
1000
0000
0000
0000
0000
0000
0000
0000
0001
0000
0000
0000
0000
0000
0000
0000
0010
0000
0000
0000
0000
0000
0000
0000
0100
0000
0000
0000
0000
0000
0000
0000
1000
0000
0000
0000
0000
0000
0000
0000
0001
0000
0000
0000
0000
0000
0010
0000
0000
0000
0000
0000
0100
0000
0000
0000
0000
0000
1000
0000
0000
0000
0000
0000
0001
0000
0000
0000
0000
0000
0010
0000
0000
0000
0000
0000
0100
0000
0000
0000
0000
0000
1000
0000
0000
0000
0000
0000
0001
0000
0000
0000
0000
0000
0010
0000
0000
0000
0000
0000
0100
0000
0000
0000
0000
0000
1000
0000
0000
0000
0000
0000
0001
0000
0000
0000
0000
0000
0010
0000
0000
0000
0000
0000
0100
0000
0000
0000
0000
0000
1000
0000
0000
0000
0000
0000
,  // measure 131
0011
0000
0000
0000
0000
0000
1100
0000
0000
0000
0000
0000
0011
0000
0000
0000
0000
0000
0100
0000
0000
0010
0000
0000
0001
0000
0000
0000
0010
0000
0000
0000
0001
0000
0000
0000
0100
0000
0000
0000
0000
0000
1000
0000
0000
0000
0000
0000
,  // measure 132
0100
0000
0000
0010
0000
0000
0100
0000
0000
1000
0000
0000
0001
0000
0010
0000
0100
0000
1000
0000
0010
0000
0100
0000
,  // measure 133
1100
0000
0000
0000
0000
0000
0011
0000
0000
0000
0000
0000
1100
0000
0000
0000
0000
0000
0010
0000
0000
0100
0000
0000
1000
0000
0000
0000
0100
0000
0000
0000
1000
0000
0000
0000
0010
0000
0000
0000
0000
0000
0001
0000
0000
0000
0000
0000
,  // measure 134
0010
0000
0000
0100
0000
0000
0010
0000
0000
0001
0000
0000
1000
0000
0100
0000
0010
0000
0001
0000
0100
0000
0010
0000
,  // measure 135
0101
0000
0000
0000
0000
0000
1010
0000
0000
0000
0000
0000
0101
0000
0000
0000
0000
0000
1000
0000
0000
0001
0000
0000
0100
0000
0000
0000
0001
0000
0000
0000
0100
0000
0000
0000
1000
0000
0000
0000
0000
0000
0010
0000
0000
0000
0000
0000
,  // measure 136
1000
0000
0000
0001
0000
0000
1000
0000
0000
0010
0000
0000
0100
0000
0001
0000
1000
0000
0010
0000
0001
0000
1000
0000
,  // measure 137
1010
0000
0000
0000
0000
0000
0101
0000
0000
0000
0000
0000
1010
0000
0000
0000
0000
0000
0001
0000
0000
1000
0000
0000
0010
0000
0000
0000
1000
0000
0000
0000
0010
0000
0000
0000
0001
0000
0000
0000
0000
0000
0100
0000
0000
0000
0000
0000
,  // measure 138
0001
0000
0000
1000
0000
0000
0001
0000
0000
0100
0000
0000
0010
0000
1000
0000
0001
0000
0100
0000
1000
0000
0001
0000
,  // measure 139
0011
0000
0000
0000
0000
0000
1100
0000
0000
0000
0000
0000
0011
0000
0000
0000
0000
0000
0100
0000
0000
0010
0000
0000
0001
0000
0000
0000
0010
0000
0000
0000
0001
0000
0000
0000
0100
0000
0000
0000
0000
0000
1000
0000
0000
0000
0000
0000
,  // measure 140
0100
0000
0000
0010
0000
0000
0100
0000
0000
1000
0000
0000
0001
0000
0010
0000
0100
0000
1000
0000
0010
0000
0100
0000
,  // measure 141
1100
0000
0000
0000
0000
0000
0011
0000
0000
0000
0000
0000
1100
0000
0000
0000
0000
0000
0010
0000
0000
0100
0000
0000
1000
0000
0000
0000
0100
0000
0000
0000
1000
0000
0000
0000
0010
0000
0000
0000
0000
0000
0001
0000
0000
0000
0000
0000
,  // measure 142
0010
0000
0000
0100
0000
0000
0010
0000
0000
0001
0000
0000
1000
0000
0100
0000
0010
0000
0001
0000
0100
0000
0010
0000
,  // measure 143
0101
0000
0000
0000
0000
0000
1010
0000
0000
0000
0000
0000
0101
0000
0000
0000
0000
0000
1000
0000
0000
0001
0000
0000
0100
0000
0000
0000
0001
0000
0000
0000
0100
0000
0000
0000
1000
0000
0000
0000
0000
0000
0010
0000
0000
0000
0000
0000
,  // measure 144
1000
0000
0000
0001
0000
0000
1000
0000
0000
0010
0000
0000
0100
0000
0001
0000
1000
0000
0010
0000
0001
0000
1000
0000
,  // measure 145
1010
0000
0000
0000
0000
0000
0101
0000
0000
0000
0000
0000
1010
0000
0000
0000
0000
0000
0001
0000
0000
1000
0000
0000
0010
0000
0000
0000
1000
0000
0000
0000
0010
0000
0000
0000
0001
0000
0000
0000
0000
0000
0100
0000
0000
0000
0000
0000
,  // measure 146
0001
0000
0000
1000
0000
0000
0001
0000
0000
0100
0000
0000
0010
0000
1000
0000
0001
0000
0100
0000
1000
0000
0001
0000
,  // measure 147
0011
0000
0000
0000
0000
0000
1100
0000
0000
0000
0000
0000
0011
0000
0000
0000
0000
0000
0100
0000
0000
0010
0000
0000
0001
0000
0000
0000
0010
0000
0000
0000
0001
0000
0000
0000
0100
0000
0000
0000
0000
0000
1000
0000
0000
0000
0000
0000
,  // measure 148
0100
0000
0000
0010
0000
0000
0100
0000
0000
1000
0000
0000
0001
0000
0010
0000
0100
0000
1000
0000
0010
0000
0100
0000
,  // measure 149
1100
0000
0000
0000
0000
0000
0011
0000
0000
0000
0000
0000
1100
0000
0000
0000
0000
0000
0010
0000
0000
0100
0000
0000
1000
0000
0000
0000
0100
0000
0000
0000
1000
0000
0000
0000
0010
0000
0000
0000
0000
0000
0001
0000
0000
0000
0000
0000
,  // measure 150
0010
0000
0000
0100
0000
0000
0010
0000
0000
0001
0000
0000
1000
0000
0100
0000
0010
0000
0001
0000
0100
0000
0010
0000
,  // measure 151
0101
0000
0000
0000
0000
0000
1010
0000
0000
0000
0000
0000
0101
0000
0000
0000
0000
0000
1000
0000
0000
0001
0000
0000
0100
0000
0000
0000
0001
0000
0000
0000
0100
0000
0000
0000
1000
0000
0000
0000
0000
0000
0010
0000
0000
0000
0000
0000
,  // measure 152
1000
0000
0000
0001
0000
0000
1000
0000
0000
0010
0000
0000
0100
0000
0001
0000
1000
0000
0010
0000
0001
0000
1000
0000
,  // measure 153
1010
0000
0000
0000
0000
0000
0101
0000
0000
0000
0000
0000
1010
0000
0000
0000
0000
0000
0001
0000
0000
1000
0000
0000
0010
0000
0000
0000
1000
0000
0000
0000
0010
0000
0000
0000
0001
0000
0000
0000
0000
0000
0100
0000
0000
0000
0000
0000
,  // measure 154
0001
0000
0000
1000
0000
0000
0001
0000
0000
0100
0000
0000
0010
0000
1000
0000
0001
0000
0100
0000
1000
0000
0001
0000
,  // measure 155
0200
0000
0000
0000
0010
0000
0000
0000
0010
0000
0000
0000
0010
0000
0000
0000
0301
1000
0001
0000
0010
0000
0001
0000
0010
0000
0010
0000
1000
0000
0010
0000
,  // measure 156
1100
0000
0010
0000
0101
0000
0010
0000
1001
0000
0100
0000
1010
0000
0100
0000
0010
0000
0010
0000
0001
0000
0001
0000
0010
0001
0010
0000
0001
0010
0001
0000
,  // measure 157
0020
0000
0000
0000
0100
0000
0000
0000
0100
0000
0000
0000
0100
0000
0000
0000
1030
0001
1000
0000
0100
0000
1000
0000
0100
0000
0100
0000
0001
0000
0100
0000
,  // measure 158
0011
0000
0100
0000
1010
0000
0100
0000
1001
0000
0010
0000
0101
0000
0010
0000
0100
0000
0100
0000
1000
0000
1000
0000
0100
1000
0100
0000
1000
0100
1000
0000
,  // measure 159
0110
0100
0010
0010
0001
0100
0010
1000
,  // measure 160
0001
0010
0100
0001
0010
1000
0100
0100
,  // measure 161
0110
0010
0100
0100
1000
0010
0100
0001
,  // measure 162
1000
0100
0010
1000
0100
0001
0010
0010
,  // measure 163
1001
1000
0001
0001
0100
1000
0001
0010
,  // measure 164
0100
0001
1000
0100
0001
0010
1000
1000
,  // measure 165
1001
0001
1000
1000
0010
0001
1000
0100
,  // measure 166
0010
1000
0001
0010
1000
0100
0001
0001
,  // measure 167
0110
0100
0010
0010
0001
0100
0010
1000
,  // measure 168
0001
0010
0100
0001
0010
1000
0100
0100
,  // measure 169
0110
0010
0100
0100
1000
0010
0100
0001
,  // measure 170
1000
0100
0010
1000
0100
0001
0010
0010
,  // measure 171
1000
0100
0010
0001
2020
3030
0001
0010
,  // measure 172
0100
1000
0202
0303
0010
1000
0001
0100
,  // measure 173
0022
0033
0100
0001
1000
0010
2200
3300
,  // measure 174
0210
0001
0010
0000
1000
0010
1000
0000
,  // measure 175
0010
0001
0010
0000
0010
1000
0010
1300
,  // measure 176
0120
1000
0100
0000
0001
0100
0001
0000
,  // measure 177
0100
1000
0100
0000
0100
0001
0100
0031
,  // measure 178
2001
0100
0001
0000
0010
0001
0010
0000
,  // measure 179
0001
0100
0001
0000
0001
0010
0001
3010
,  // measure 180
1002
0010
1000
0000
0100
1000
0100
0000
,  // measure 181
1000
0010
1000
0000
1000
0100
1000
0103
,  // measure 182
2020
0000
3030
0220
0000
0330
0101
0000
,  // measure 183
0202
0000
0303
0220
0000
0330
1010
0000
,  // measure 184
0022
0000
0033
2002
0000
3003
1100
0000
,  // measure 185
2200
0000
3300
2002
0000
3003
0011
0000
,  // measure 186
1000
0001
1000
0001
1000
0001
1000
0001
,  // measure 187
1000
0001
1000
0001
1000
0001
1000
0001
,  // measure 188
1000
0001
1000
0001
1000
0001
1000
0001
,  // measure 189
1000
0001
1000
0001
1000
0001
1000
0001
,  // measure 190
0001
0100
0010
0001
,  // measure 191
1000
0010
0100
1000
,  // measure 192
0001
0100
0010
0001
,  // measure 193
1000
0010
0100
1000
,  // measure 194
0001
0100
0010
0001
,  // measure 195
1000
0010
0100
1000
,  // measure 196
0001
0100
0010
0001
,  // measure 197
1000
0010
0100
1000
,  // measure 198
0001
0100
0010
0001
,  // measure 199
1000
0010
0100
1000
,  // measure 200
0001
0100
0010
0001
,  // measure 201
1000
0010
0100
1000
,  // measure 202
0001
0100
0010
0001
,  // measure 203
1000
0010
0100
1000
,  // measure 204
0001
0100
0010
0001
,  // measure 205
1000
0010
0100
1000
,  // measure 206
0001
0100
0010
0001
,  // measure 207
1000
0010
0100
1000
,  // measure 208
0001
0100
0010
0001
,  // measure 209
1000
0010
0100
1000
,  // measure 210
0001
0100
0010
0001
,  // measure 211
1000
0100
0001
0010
1000
0100
0010
0100
,  // measure 212
0001
0010
1000
0100
0001
0010
0100
0010
,  // measure 213
2002
0000
0000
3003
,  // measure 214
0200
0000
0000
0000
0010
0000
0000
0000
0010
0000
0000
0000
0010
0000
0000
0000
0301
1000
0001
0000
0010
0000
0001
0000
0010
0000
0010
0000
1000
0000
0010
0000
,  // measure 215
1100
0000
0010
0000
0101
0000
0010
0000
1001
0000
0100
0000
1010
0000
0100
0000
0010
0000
0010
0000
0001
0000
0001
0000
0010
0001
0010
0000
0001
0010
0001
0000
,  // measure 216
0020
0000
0000
0000
0100
0000
0000
0000
0100
0000
0000
0000
0100
0000
0000
0000
1030
0001
1000
0000
0100
0000
1000
0000
0100
0000
0100
0000
0001
0000
0100
0000
,  // measure 217
0011
0000
0100
0000
1010
0000
0100
0000
1001
0000
0010
0000
0101
0000
0010
0000
0100
0000
0100
0000
1000
0000
1000
0000
0100
0000
0100
0000
1000
0100
1000
0000
,  // measure 218
2000
0000
0000
0000
0001
0000
0000
0000
0001
0000
0000
0000
0001
0000
0000
0000
3100
0010
0100
0000
0001
0000
0100
0000
0001
0000
0001
0000
0010
0000
0001
0000
,  // measure 219
1010
0000
0001
0000
1100
0000
0001
0000
0110
0000
1000
0000
0011
0000
1000
0000
0001
0000
0001
0000
0100
0000
0100
0000
0001
0100
0001
0000
0100
0001
0100
0000
,  // measure 220
1001
0010
0100
0000
1001
0010
0001
0000
0110
0010
0100
0000
1001
0010
0100
1000
,  // measure 221
1001
0100
0010
0000
1001
0100
1000
0000
0110
0100
0010
0000
1001
0100
0010
0001
,  // measure 222
0210
0000
0000
0010
0000
0000
0310
0100
0010
0100
0010
0100
0010
0100
0010
0100
0001
0010
0001
0010
0001
0010
0001
0010
,  // measure 223
1000
0100
0010
0001
1000
0100
0010
0001
0010
0100
0001
0010
0100
1000
0001
0010
0100
1000
0100
0010
1000
0100
0010
0001
,  // measure 224
0200
0000
0010
0000
0010
0000
0010
0000
0301
0001
0010
0001
0010
0010
1000
0010
,  // measure 225
1100
0000
0010
0000
0101
0000
0010
0000
1001
0000
0100
0000
1010
0000
0100
0000
0010
0000
0010
0000
0001
0000
0001
0000
0010
0001
0010
0000
0001
0010
0001
0000
,  // measure 226
0020
0000
0100
0000
0100
0000
0100
0000
1030
1000
0100
1000
0100
0100
0001
0100
,  // measure 227
0011
0000
0100
0000
1010
0000
0100
0000
1001
0000
0010
0000
0101
0000
0010
0000
0100
0000
0100
0000
1000
0000
1000
0000
0100
1000
0100
0000
1000
0100
1000
0000
,  // measure 228
1001
0010
0100
0000
1001
0010
0001
0000
0110
0010
0100
0000
1001
0010
0100
1000
,  // measure 229
0110
0100
1100
0100
0110
0010
0011
0010
,  // measure 230
0200
0000
0000
0000
0010
0000
0000
0000
0010
0000
0000
0000
0010
0000
0000
0000
0301
1000
0001
0000
0010
0000
0001
0000
0010
0000
0010
0000
1000
0000
0010
0000
,  // measure 231
1100
0000
0010
0000
0101
0000
0010
0000
1001
0000
0100
0000
1010
0000
0100
0000
0010
0000
0010
0000
0001
0000
0001
0000
0010
0001
0010
0000
0001
0010
0001
0000
,  // measure 232
0020
0000
0000
0000
0100
0000
0000
0000
0100
0000
0000
0000
0100
0000
0000
0000
1030
0001
1000
0000
0100
0000
1000
0000
0100
0000
0100
0000
0001
0000
0100
0000
,  // measure 233
0011
0000
0100
0000
1010
0000
0100
0000
1001
0000
0010
0000
0101
0000
0010
0000
0100
0000
0100
0000
1000
0000
1000
0000
0100
1000
0100
0000
1000
0100
1000
0000
,  // measure 234
2000
0000
0000
0000
0001
0000
0000
0000
0001
0000
0000
0000
0001
0000
0000
0000
3100
0010
0100
0000
0001
0000
0100
0000
0001
0000
0001
0000
0010
0000
0001
0000
,  // measure 235
1010
0000
0001
0000
1100
0000
0001
0000
0110
0000
1000
0000
0011
0000
1000
0000
0001
0000
0001
0000
0100
0000
0100
0000
0001
0100
0001
0000
0100
0001
0100
0000
,  // measure 236
0002
0000
0000
0000
1000
0000
0000
0000
1000
0000
0000
0000
1000
0000
0000
0000
0013
0100
0010
0000
1000
0000
0010
0000
1000
0000
1000
0000
0100
0000
1000
0000
,  // measure 237
0101
0000
1000
0000
0011
0000
1000
0000
0110
0000
0001
0000
1100
0000
0001
0000
1000
0100
0010
0001
0000
0000
0010
0000
0110
0000
0100
0010
0001
0010
1000
0000
,  // measure 238
1001
0000
0000
0000
;
