#VERSION:0.83;
#TITLE:After Burner;
#SUBTITLE:(form After Burner II);
#ARTIST:SEGA;
#TITLETRANSLIT:;
#SUBTITLETRANSLIT:;
#ARTISTTRANSLIT:;
#GENRE:;
#ORIGIN:;
#CREDIT:;
#BANNER:;
#BACKGROUND:;
#PREVIEWVID:;
#JACKET:;
#CDIMAGE:;
#DISCIMAGE:;
#LYRICSPATH:;
#CDTITLE:;
#MUSIC:After Burner.ogg;
#OFFSET:-0.353000;
#SAMPLESTART:11.329508;
#SAMPLELENGTH:15.000000;
#SELECTABLE:YES;
#BPMS:0.000=174.919;
#STOPS:;
#DELAYS:;
#WARPS:;
#TIMESIGNATURES:0.000=4=4;
#TICKCOUNTS:0.000=4;
#COMBOS:0.000=1;
#SPEEDS:0.000=1.000=0.000=0;
#SCROLLS:0.000=1.000;
#FAKES:;
#LABELS:0.000=Song Start;
#BGCHANGES:;
#KEYSOUNDS:;
#ATTACKS:
;

//---------------dance-single - ----------------
#NOTEDATA:;
#CHARTNAME:;
#STEPSTYPE:dance-single;
#DESCRIPTION:;
#CHARTSTYLE:;
#DIFFICULTY:Easy;
#METER:11;
#RADARVALUES:0.507564,0.633871,0.496783,0.188652,0.081749,565.000000,486.000000,79.000000,30.000000,0.000000,0.000000,0.000000,0.000000,0.000000,0.507564,0.633871,0.496783,0.188652,0.081749,565.000000,486.000000,79.000000,30.000000,0.000000,0.000000,0.000000,0.000000,0.000000;
#CREDIT:;
#NOTES:
// measure 0
0010
0000
0100
0000
0010
0001
1000
0001
,  // measure 1
0100
0000
0010
0000
0100
1000
0001
1000
,  // measure 2
0001
0000
1000
0000
0001
0100
0010
0100
,  // measure 3
1000
0000
0001
0000
1000
0010
0100
0010
,  // measure 4
0100
0000
0010
0000
0100
1000
0001
1000
,  // measure 5
0010
0000
0100
0000
0010
0001
1000
0001
,  // measure 6
1000
0000
0001
0000
1000
0010
0100
0010
,  // measure 7
0001
0000
1000
0000
0001
0100
0010
0100
,  // measure 8
0020
0000
0100
0000
0000
0100
0000
0000
,  // measure 9
0130
0000
0000
0000
0000
0000
0000
0000
0110
0000
0000
0010
0000
0000
1001
0000
,  // measure 10
0200
0000
0010
0000
0000
0010
0000
0000
,  // measure 11
0310
0000
0000
0000
0000
0000
0000
0000
0110
0000
0000
0100
0000
0000
1001
0000
,  // measure 12
0002
0000
1000
0000
0000
1000
0000
0000
,  // measure 13
1003
0000
0000
0000
0000
0000
0000
0000
1001
0000
0000
0001
0000
0000
0110
0000
,  // measure 14
2000
0000
0001
0000
0000
0001
0000
0000
,  // measure 15
3001
0000
0000
0000
0000
0000
0000
0000
1001
0000
0000
1000
0000
0000
0110
0000
,  // measure 16
0200
0000
0010
0000
0000
0010
0000
0000
,  // measure 17
0310
0000
0000
0000
0000
0000
0000
0000
0110
0000
0000
0100
0000
0000
1001
0000
,  // measure 18
0020
0000
0100
0000
0000
0100
0000
0000
,  // measure 19
0130
0000
0000
0000
0000
0000
0000
0000
0110
0000
0000
0010
0000
0000
1001
0000
,  // measure 20
2000
0000
0001
0000
0000
0001
0000
0000
,  // measure 21
3001
0000
0000
0000
0000
0000
0000
0000
1001
0000
0000
1000
0000
0000
0110
0000
,  // measure 22
0002
0000
1000
0000
0000
1000
0000
0000
,  // measure 23
1003
0000
0000
0000
0000
0000
0000
0000
1001
0000
0000
0001
0000
0000
0110
0000
,  // measure 24
0020
0000
0000
0000
0000
0000
0100
0100
,  // measure 25
0000
0000
0000
0000
0000
0000
0000
0030
,  // measure 26
0200
0010
0000
0000
1000
1000
0000
0000
,  // measure 27
0000
0000
0001
0001
0000
0000
0000
0300
,  // measure 28
0020
0000
0000
0030
,  // measure 29
0100
0000
0001
0000
0010
0001
1000
0001
,  // measure 30
0200
0000
0000
0300
,  // measure 31
0010
0000
1000
0000
0100
1000
0001
1000
,  // measure 32
0002
0000
0000
0003
,  // measure 33
1000
0000
0100
0000
0001
0100
0010
0100
,  // measure 34
2000
0000
0000
3000
,  // measure 35
0001
0000
0010
0000
1000
0010
0100
0010
,  // measure 36
0200
0000
0000
0300
,  // measure 37
0010
0000
1000
0000
0100
1000
0001
1000
,  // measure 38
0020
0000
0000
0030
,  // measure 39
0100
0000
0001
0000
0010
0001
1000
0001
,  // measure 40
2000
0000
0000
3000
,  // measure 41
0001
0000
0010
0000
1000
0010
0100
0010
,  // measure 42
0002
0000
0000
0003
,  // measure 43
1000
0000
0100
0000
0001
0100
0010
0100
,  // measure 44
0010
0000
0010
0000
0010
1000
0010
0001
,  // measure 45
0100
0000
0100
0000
0010
0001
0010
0100
,  // measure 46
0100
0000
0100
0000
0100
0001
0100
1000
,  // measure 47
0010
0000
0010
0000
0100
1000
0100
0010
,  // measure 48
0001
0000
0001
0000
0001
0010
0001
0100
,  // measure 49
1000
0000
1000
0000
0001
0100
0001
1000
,  // measure 50
1000
0000
1000
0000
1000
0100
1000
0010
,  // measure 51
0001
0000
0001
0000
1000
0010
1000
0001
,  // measure 52
0001
0010
0000
0000
0100
0010
0000
0000
0100
1000
0000
0000
0001
1000
0000
0000
,  // measure 53
1000
0100
0000
0000
0010
0100
0000
0000
0010
0001
0000
0000
1000
0001
0000
0000
,  // measure 54
0110
0010
1001
1000
,  // measure 55
0101
0001
0110
0100
,  // measure 56
0110
0100
1001
0001
,  // measure 57
1010
1000
0110
0010
,  // measure 58
1001
0001
0110
0010
,  // measure 59
1100
0100
1001
1000
,  // measure 60
1001
1000
0110
0100
,  // measure 61
0011
0010
1001
0001
,  // measure 62
0110
0100
1001
0001
,  // measure 63
1010
1000
0110
0010
,  // measure 64
0110
0010
1001
1000
,  // measure 65
0101
0001
0110
0100
,  // measure 66
1001
1000
0110
0100
,  // measure 67
0011
0010
1001
0001
,  // measure 68
1001
0001
0110
0010
,  // measure 69
2002
0000
0000
0000
0000
0000
3003
0000
1000
0001
1000
0000
0001
0000
1000
0000
,  // measure 70
0020
0000
0000
0030
,  // measure 71
0100
0000
0001
0000
0010
0001
1000
0001
,  // measure 72
0200
0000
0000
0300
,  // measure 73
0010
0000
1000
0000
0100
1000
0001
1000
,  // measure 74
0002
0000
0000
0003
,  // measure 75
1000
0000
0100
0000
0001
0100
0010
0100
,  // measure 76
2000
0000
0000
3000
,  // measure 77
0001
0000
0010
0000
1000
0010
0100
0010
,  // measure 78
0200
0000
0000
0300
,  // measure 79
0010
0000
1000
0000
0100
1000
0001
1000
,  // measure 80
0020
0000
0000
0030
,  // measure 81
0100
0000
0001
0000
0010
0001
1000
0001
,  // measure 82
2000
0000
0000
3000
,  // measure 83
0001
0000
0010
0000
1000
0010
0100
0010
,  // measure 84
0002
0000
0000
0003
,  // measure 85
1000
0000
0100
0000
0001
0100
0010
0100
,  // measure 86
0010
0000
0010
0000
0010
1000
0010
0001
,  // measure 87
0100
0000
0100
0000
0010
0001
0010
0100
,  // measure 88
0100
0000
0100
0000
0100
0001
0100
1000
,  // measure 89
0010
0000
0010
0000
0100
1000
0100
0010
,  // measure 90
0001
0000
0001
0000
0001
0010
0001
0100
,  // measure 91
1000
0000
1000
0000
0001
0100
0001
1000
,  // measure 92
1000
0000
1000
0000
1000
0100
1000
0010
,  // measure 93
0001
0000
0001
0000
1000
0010
1000
0001
,  // measure 94
0001
0010
0000
0000
0100
0010
0000
0000
0100
1000
0000
0000
0001
1000
0000
0000
,  // measure 95
1000
0100
0000
0000
0010
0100
0000
0000
0010
0001
0000
0000
1000
0001
0000
0000
,  // measure 96
0110
0010
1001
1000
,  // measure 97
0101
0001
0110
0100
,  // measure 98
0110
0100
1001
0001
,  // measure 99
1010
1000
0110
0010
,  // measure 100
1001
0001
0110
0010
,  // measure 101
1100
0100
1001
1000
,  // measure 102
1001
1000
0110
0100
,  // measure 103
0011
0010
1001
0001
,  // measure 104
0110
0100
1001
0001
,  // measure 105
1010
1000
0110
0010
,  // measure 106
0110
0010
1001
1000
,  // measure 107
0101
0001
0110
0100
,  // measure 108
1001
1000
0110
0100
,  // measure 109
0011
0010
1001
0001
,  // measure 110
1001
0001
0110
0010
,  // measure 111
2002
0000
0000
0000
0000
0000
3003
0000
1000
0001
1000
0000
0001
0000
1000
0000
,  // measure 112
1001
0000
0000
0000
;

//---------------dance-single - ----------------
#NOTEDATA:;
#CHARTNAME:;
#STEPSTYPE:dance-single;
#DESCRIPTION:;
#CHARTSTYLE:;
#DIFFICULTY:Beginner;
#METER:11;
#RADARVALUES:0.493190,0.633871,0.446476,0.188652,0.081749,549.000000,478.000000,71.000000,30.000000,0.000000,0.000000,0.000000,0.000000,0.000000,0.493190,0.633871,0.446476,0.188652,0.081749,549.000000,478.000000,71.000000,30.000000,0.000000,0.000000,0.000000,0.000000,0.000000;
#CREDIT:;
#NOTES:
// measure 0
0010
0000
0100
0000
0010
0001
1000
0001
,  // measure 1
0100
0000
0010
0000
0100
1000
0001
1000
,  // measure 2
0001
0000
1000
0000
0001
0100
0010
0100
,  // measure 3
1000
0000
0001
0000
1000
0010
0100
0010
,  // measure 4
0100
0000
0010
0000
0100
1000
0001
1000
,  // measure 5
0010
0000
0100
0000
0010
0001
1000
0001
,  // measure 6
1000
0000
0001
0000
1000
0010
0100
0010
,  // measure 7
0001
0000
1000
0000
0001
0100
0010
0100
,  // measure 8
0020
0000
0100
0000
0000
0100
0000
0000
,  // measure 9
0130
0000
0000
0000
0000
0000
0000
0000
0100
0000
0000
0010
0000
0000
1001
0000
,  // measure 10
0200
0000
0010
0000
0000
0010
0000
0000
,  // measure 11
0310
0000
0000
0000
0000
0000
0000
0000
0010
0000
0000
0100
0000
0000
1001
0000
,  // measure 12
0002
0000
1000
0000
0000
1000
0000
0000
,  // measure 13
1003
0000
0000
0000
0000
0000
0000
0000
1000
0000
0000
0001
0000
0000
0110
0000
,  // measure 14
2000
0000
0001
0000
0000
0001
0000
0000
,  // measure 15
3001
0000
0000
0000
0000
0000
0000
0000
0001
0000
0000
1000
0000
0000
0110
0000
,  // measure 16
0200
0000
0010
0000
0000
0010
0000
0000
,  // measure 17
0310
0000
0000
0000
0000
0000
0000
0000
0010
0000
0000
0100
0000
0000
1001
0000
,  // measure 18
0020
0000
0100
0000
0000
0100
0000
0000
,  // measure 19
0130
0000
0000
0000
0000
0000
0000
0000
0100
0000
0000
0010
0000
0000
1001
0000
,  // measure 20
2000
0000
0001
0000
0000
0001
0000
0000
,  // measure 21
3001
0000
0000
0000
0000
0000
0000
0000
0001
0000
0000
1000
0000
0000
0110
0000
,  // measure 22
0002
0000
1000
0000
0000
1000
0000
0000
,  // measure 23
1003
0000
0000
0000
0000
0000
0000
0000
1000
0000
0000
0001
0000
0000
0110
0000
,  // measure 24
0020
0000
0000
0000
0000
0000
0100
0100
,  // measure 25
0000
0000
0000
0000
0000
0000
0000
0030
,  // measure 26
0200
0010
0000
0000
1000
1000
0000
0000
,  // measure 27
0000
0000
0001
0001
0000
0000
0000
0300
,  // measure 28
0020
0000
0000
0030
,  // measure 29
0100
0000
0001
0000
0010
0001
1000
0001
,  // measure 30
0200
0000
0000
0300
,  // measure 31
0010
0000
1000
0000
0100
1000
0001
1000
,  // measure 32
0002
0000
0000
0003
,  // measure 33
1000
0000
0100
0000
0001
0100
0010
0100
,  // measure 34
2000
0000
0000
3000
,  // measure 35
0001
0000
0010
0000
1000
0010
0100
0010
,  // measure 36
0200
0000
0000
0300
,  // measure 37
0010
0000
1000
0000
0100
1000
0001
1000
,  // measure 38
0020
0000
0000
0030
,  // measure 39
0100
0000
0001
0000
0010
0001
1000
0001
,  // measure 40
2000
0000
0000
3000
,  // measure 41
0001
0000
0010
0000
1000
0010
0100
0010
,  // measure 42
0002
0000
0000
0003
,  // measure 43
1000
0000
0100
0000
0001
0100
0010
0100
,  // measure 44
0010
0000
0000
0000
0010
1000
0010
0001
,  // measure 45
0100
0000
0100
0000
0010
0001
0010
0100
,  // measure 46
0100
0000
0000
0000
0100
0001
0100
1000
,  // measure 47
0010
0000
0010
0000
0100
1000
0100
0010
,  // measure 48
0001
0000
0000
0000
0001
0010
0001
0100
,  // measure 49
1000
0000
1000
0000
0001
0100
0001
1000
,  // measure 50
1000
0000
0000
0000
1000
0100
1000
0010
,  // measure 51
0001
0000
0001
0000
1000
0010
1000
0001
,  // measure 52
0001
0010
0000
0000
0100
0010
0000
0000
0100
1000
0000
0000
0001
1000
0000
0000
,  // measure 53
1000
0100
0000
0000
0010
0100
0000
0000
0010
0001
0000
0000
1000
0001
0000
0000
,  // measure 54
0110
0010
1001
1000
,  // measure 55
0101
0001
0110
0100
,  // measure 56
0110
0100
1001
0001
,  // measure 57
1010
1000
0110
0010
,  // measure 58
1001
0001
0110
0010
,  // measure 59
1100
0100
1001
1000
,  // measure 60
1001
1000
0110
0100
,  // measure 61
0011
0010
1001
0001
,  // measure 62
0110
0100
1001
0001
,  // measure 63
1010
1000
0110
0010
,  // measure 64
0110
0010
1001
1000
,  // measure 65
0101
0001
0110
0100
,  // measure 66
1001
1000
0110
0100
,  // measure 67
0011
0010
1001
0001
,  // measure 68
1001
0001
0110
0010
,  // measure 69
2002
0000
0000
0000
0000
0000
3003
0000
1000
0001
1000
0000
0001
0000
1000
0000
,  // measure 70
0020
0000
0000
0030
,  // measure 71
0100
0000
0001
0000
0010
0001
1000
0001
,  // measure 72
0200
0000
0000
0300
,  // measure 73
0010
0000
1000
0000
0100
1000
0001
1000
,  // measure 74
0002
0000
0000
0003
,  // measure 75
1000
0000
0100
0000
0001
0100
0010
0100
,  // measure 76
2000
0000
0000
3000
,  // measure 77
0001
0000
0010
0000
1000
0010
0100
0010
,  // measure 78
0200
0000
0000
0300
,  // measure 79
0010
0000
1000
0000
0100
1000
0001
1000
,  // measure 80
0020
0000
0000
0030
,  // measure 81
0100
0000
0001
0000
0010
0001
1000
0001
,  // measure 82
2000
0000
0000
3000
,  // measure 83
0001
0000
0010
0000
1000
0010
0100
0010
,  // measure 84
0002
0000
0000
0003
,  // measure 85
1000
0000
0100
0000
0001
0100
0010
0100
,  // measure 86
0010
0000
0000
0000
0010
1000
0010
0001
,  // measure 87
0100
0000
0100
0000
0010
0001
0010
0100
,  // measure 88
0100
0000
0000
0000
0100
0001
0100
1000
,  // measure 89
0010
0000
0010
0000
0100
1000
0100
0010
,  // measure 90
0001
0000
0000
0000
0001
0010
0001
0100
,  // measure 91
1000
0000
1000
0000
0001
0100
0001
1000
,  // measure 92
1000
0000
0000
0000
1000
0100
1000
0010
,  // measure 93
0001
0000
0001
0000
1000
0010
1000
0001
,  // measure 94
0001
0010
0000
0000
0100
0010
0000
0000
0100
1000
0000
0000
0001
1000
0000
0000
,  // measure 95
1000
0100
0000
0000
0010
0100
0000
0000
0010
0001
0000
0000
1000
0001
0000
0000
,  // measure 96
0110
0010
1001
1000
,  // measure 97
0101
0001
0110
0100
,  // measure 98
0110
0100
1001
0001
,  // measure 99
1010
1000
0110
0010
,  // measure 100
1001
0001
0110
0010
,  // measure 101
1100
0100
1001
1000
,  // measure 102
1001
1000
0110
0100
,  // measure 103
0011
0010
1001
0001
,  // measure 104
0110
0100
1001
0001
,  // measure 105
1010
1000
0110
0010
,  // measure 106
0110
0010
1001
1000
,  // measure 107
0101
0001
0110
0100
,  // measure 108
1001
1000
0110
0100
,  // measure 109
0011
0010
1001
0001
,  // measure 110
1001
0001
0110
0010
,  // measure 111
2002
0000
0000
0000
0000
0000
3003
0000
1000
0001
1000
0000
0001
0000
1000
0000
,  // measure 112
1001
0000
0000
0000
;

//---------------dance-single - ----------------
#NOTEDATA:;
#CHARTNAME:;
#STEPSTYPE:dance-single;
#DESCRIPTION:;
#CHARTSTYLE:;
#DIFFICULTY:Medium;
#METER:12;
#RADARVALUES:0.529124,0.633871,0.496783,0.188652,0.081749,589.000000,510.000000,79.000000,30.000000,0.000000,0.000000,0.000000,0.000000,0.000000,0.529124,0.633871,0.496783,0.188652,0.081749,589.000000,510.000000,79.000000,30.000000,0.000000,0.000000,0.000000,0.000000,0.000000;
#CREDIT:;
#NOTES:
// measure 0
0010
0000
0100
0000
0010
0001
1000
0001
,  // measure 1
0100
0000
0010
0000
0100
1000
0001
1000
,  // measure 2
0001
0000
1000
0000
0001
0100
0010
0100
,  // measure 3
1000
0000
0001
0000
1000
0010
0100
0010
,  // measure 4
0100
0000
0010
0000
0100
1000
0001
1000
,  // measure 5
0010
0000
0100
0000
0010
0001
1000
0001
,  // measure 6
1000
0000
0001
0000
1000
0010
0100
0010
,  // measure 7
0001
0000
1000
0000
0001
0100
0010
0100
,  // measure 8
0020
0000
0100
0000
0000
0100
0000
0000
,  // measure 9
0130
0000
0000
0000
0010
0000
0000
0000
0110
0000
0000
0010
0000
0000
1001
0000
,  // measure 10
0200
0000
0010
0000
0000
0010
0000
0000
,  // measure 11
0310
0000
0000
0000
0100
0000
0000
0000
0110
0000
0000
0100
0000
0000
1001
0000
,  // measure 12
0002
0000
1000
0000
0000
1000
0000
0000
,  // measure 13
1003
0000
0000
0000
0001
0000
0000
0000
1001
0000
0000
0001
0000
0000
0110
0000
,  // measure 14
2000
0000
0001
0000
0000
0001
0000
0000
,  // measure 15
3001
0000
0000
0000
1000
0000
0000
0000
1001
0000
0000
1000
0000
0000
0110
0000
,  // measure 16
0200
0000
0010
0000
0000
0010
0000
0000
,  // measure 17
0310
0000
0000
0000
0100
0000
0000
0000
0110
0000
0000
0100
0000
0000
1001
0000
,  // measure 18
0020
0000
0100
0000
0000
0100
0000
0000
,  // measure 19
0130
0000
0000
0000
0010
0000
0000
0000
0110
0000
0000
0010
0000
0000
1001
0000
,  // measure 20
2000
0000
0001
0000
0000
0001
0000
0000
,  // measure 21
3001
0000
0000
0000
1000
0000
0000
0000
1001
0000
0000
1000
0000
0000
0110
0000
,  // measure 22
0002
0000
1000
0000
0000
1000
0000
0000
,  // measure 23
1003
0000
0000
0000
0001
0000
0000
0000
1001
0000
0000
0001
0000
0000
0110
0000
,  // measure 24
0020
0000
0000
0000
0000
0000
0100
0100
,  // measure 25
0000
0000
0000
0000
0000
0000
0000
0030
,  // measure 26
0200
0010
0000
0000
1000
1000
0000
0000
,  // measure 27
0000
0000
0001
0001
0000
0000
0000
0300
,  // measure 28
0020
0000
0000
0030
,  // measure 29
0100
0000
0001
0000
0010
0001
1000
0001
,  // measure 30
0200
0000
0000
0300
,  // measure 31
0010
0000
1000
0000
0100
1000
0001
1000
,  // measure 32
0002
0000
0000
0003
,  // measure 33
1000
0000
0100
0000
0001
0100
0010
0100
,  // measure 34
2000
0000
0000
3000
,  // measure 35
0001
0000
0010
0000
1000
0010
0100
0010
,  // measure 36
0200
0000
0000
0300
,  // measure 37
0010
0000
1000
0000
0100
1000
0001
1000
,  // measure 38
0020
0000
0000
0030
,  // measure 39
0100
0000
0001
0000
0010
0001
1000
0001
,  // measure 40
2000
0000
0000
3000
,  // measure 41
0001
0000
0010
0000
1000
0010
0100
0010
,  // measure 42
0002
0000
0000
0003
,  // measure 43
1000
0000
0100
0000
0001
0100
0010
0100
,  // measure 44
0010
0000
0010
0000
0010
1000
0010
0001
,  // measure 45
0100
0000
0100
0000
0010
0001
0010
0100
,  // measure 46
0100
0000
0100
0000
0100
0001
0100
1000
,  // measure 47
0010
0000
0010
0000
0100
1000
0100
0010
,  // measure 48
0001
0000
0001
0000
0001
0010
0001
0100
,  // measure 49
1000
0000
1000
0000
0001
0100
0001
1000
,  // measure 50
1000
0000
1000
0000
1000
0100
1000
0010
,  // measure 51
0001
0000
0001
0000
1000
0010
1000
0001
,  // measure 52
0001
0010
0000
0000
0100
0010
0000
0000
0100
1000
0000
0000
0001
1000
0000
0000
,  // measure 53
1000
0100
0000
0000
0010
0100
0000
0000
0010
0001
0000
0000
1000
0001
0000
0000
,  // measure 54
0110
0000
0010
0100
1001
0000
1000
0000
,  // measure 55
0101
0001
0110
0100
,  // measure 56
0110
0000
0100
0010
1001
0000
0001
0000
,  // measure 57
1010
1000
0110
0010
,  // measure 58
1001
0000
0001
1000
0110
0000
0010
0000
,  // measure 59
1100
0100
1001
1000
,  // measure 60
1001
0000
1000
0001
0110
0000
0100
0000
,  // measure 61
0011
0010
1001
0001
,  // measure 62
0110
0000
0100
0010
1001
0000
0001
0000
,  // measure 63
1010
1000
0110
0010
,  // measure 64
0110
0000
0010
0100
1001
0000
1000
0000
,  // measure 65
0101
0001
0110
0100
,  // measure 66
1001
0000
1000
0001
0110
0000
0100
0000
,  // measure 67
0011
0010
1001
0001
,  // measure 68
1001
0000
0001
1000
0110
0000
0010
0000
,  // measure 69
2002
0000
0000
0000
0000
0000
3003
0000
1000
0001
1000
0000
0001
0000
1000
0000
,  // measure 70
0020
0000
0000
0030
,  // measure 71
0100
0000
0001
0000
0010
0001
1000
0001
,  // measure 72
0200
0000
0000
0300
,  // measure 73
0010
0000
1000
0000
0100
1000
0001
1000
,  // measure 74
0002
0000
0000
0003
,  // measure 75
1000
0000
0100
0000
0001
0100
0010
0100
,  // measure 76
2000
0000
0000
3000
,  // measure 77
0001
0000
0010
0000
1000
0010
0100
0010
,  // measure 78
0200
0000
0000
0300
,  // measure 79
0010
0000
1000
0000
0100
1000
0001
1000
,  // measure 80
0020
0000
0000
0030
,  // measure 81
0100
0000
0001
0000
0010
0001
1000
0001
,  // measure 82
2000
0000
0000
3000
,  // measure 83
0001
0000
0010
0000
1000
0010
0100
0010
,  // measure 84
0002
0000
0000
0003
,  // measure 85
1000
0000
0100
0000
0001
0100
0010
0100
,  // measure 86
0010
0000
0010
0000
0010
1000
0010
0001
,  // measure 87
0100
0000
0100
0000
0010
0001
0010
0100
,  // measure 88
0100
0000
0100
0000
0100
0001
0100
1000
,  // measure 89
0010
0000
0010
0000
0100
1000
0100
0010
,  // measure 90
0001
0000
0001
0000
0001
0010
0001
0100
,  // measure 91
1000
0000
1000
0000
0001
0100
0001
1000
,  // measure 92
1000
0000
1000
0000
1000
0100
1000
0010
,  // measure 93
0001
0000
0001
0000
1000
0010
1000
0001
,  // measure 94
0001
0010
0000
0000
0100
0010
0000
0000
0100
1000
0000
0000
0001
1000
0000
0000
,  // measure 95
1000
0100
0000
0000
0010
0100
0000
0000
0010
0001
0000
0000
1000
0001
0000
0000
,  // measure 96
0110
0000
0010
0100
1001
0000
1000
0000
,  // measure 97
0101
0001
0110
0100
,  // measure 98
0110
0000
0100
0010
1001
0000
0001
0000
,  // measure 99
1010
1000
0110
0010
,  // measure 100
1001
0000
0001
1000
0110
0000
0010
0000
,  // measure 101
1100
0100
1001
1000
,  // measure 102
1001
0000
1000
0001
0110
0000
0100
0000
,  // measure 103
0011
0010
1001
0001
,  // measure 104
0110
0000
0100
0010
1001
0000
0001
0000
,  // measure 105
1010
1000
0110
0010
,  // measure 106
0110
0000
0010
0100
1001
0000
1000
0000
,  // measure 107
0101
0001
0110
0100
,  // measure 108
1001
0000
1000
0001
0110
0000
0100
0000
,  // measure 109
0011
0010
1001
0001
,  // measure 110
1001
0000
0001
1000
0110
0000
0010
0000
,  // measure 111
2002
0000
0000
0000
0000
0000
3003
0000
1000
0001
1000
0000
0001
0000
1000
0000
,  // measure 112
1001
0000
0000
0000
;

//---------------dance-single - ----------------
#NOTEDATA:;
#CHARTNAME:;
#STEPSTYPE:dance-single;
#DESCRIPTION:;
#CHARTSTYLE:;
#DIFFICULTY:Hard;
#METER:12;
#RADARVALUES:0.546192,0.633871,0.496783,0.188652,0.081749,608.000000,529.000000,79.000000,30.000000,0.000000,0.000000,0.000000,0.000000,0.000000,0.546192,0.633871,0.496783,0.188652,0.081749,608.000000,529.000000,79.000000,30.000000,0.000000,0.000000,0.000000,0.000000,0.000000;
#CREDIT:;
#NOTES:
// measure 0
0010
0000
0100
0000
0010
0001
1000
0001
,  // measure 1
0100
0000
0010
0000
0100
1000
0001
1000
,  // measure 2
0001
0000
1000
0000
0001
0100
0010
0100
,  // measure 3
1000
0000
0001
0000
1000
0010
0100
0010
,  // measure 4
0100
0000
0010
0000
0100
1000
0001
1000
,  // measure 5
0010
0000
0100
0000
0010
0001
1000
0001
,  // measure 6
1000
0000
0001
0000
1000
0010
0100
0010
,  // measure 7
0001
0000
1000
0000
0001
0100
0010
0100
,  // measure 8
0020
0000
0100
0000
0000
0100
0000
0000
,  // measure 9
0130
0000
0000
0000
0010
0000
0000
0000
0110
0000
0000
0010
0000
0000
1001
0000
,  // measure 10
0200
0000
0010
0000
0000
0010
0000
0000
,  // measure 11
0310
0000
0000
0000
0100
0000
0000
0000
0110
0000
0000
0100
0000
0000
1001
0000
,  // measure 12
0002
0000
1000
0000
0000
1000
0000
0000
,  // measure 13
1003
0000
0000
0000
0001
0000
0000
0000
1001
0000
0000
0001
0000
0000
0110
0000
,  // measure 14
2000
0000
0001
0000
0000
0001
0000
0000
,  // measure 15
3001
0000
0000
0000
1000
0000
0000
0000
1001
0000
0000
1000
0000
0000
0110
0000
,  // measure 16
0200
0000
0010
0000
0000
0010
0000
0000
,  // measure 17
0310
0000
0000
0000
0100
0000
0000
0000
0110
0000
0000
0100
0000
0000
1001
0000
,  // measure 18
0020
0000
0100
0000
0000
0100
0000
0000
,  // measure 19
0130
0000
0000
0000
0010
0000
0000
0000
0110
0000
0000
0010
0000
0000
1001
0000
,  // measure 20
2000
0000
0001
0000
0000
0001
0000
0000
,  // measure 21
3001
0000
0000
0000
1000
0000
0000
0000
1001
0000
0000
1000
0000
0000
0110
0000
,  // measure 22
0002
0000
1000
0000
0000
1000
0000
0000
,  // measure 23
1003
0000
0000
0000
0001
0000
0000
0000
1001
0000
0000
0001
0000
0000
0110
0000
,  // measure 24
0020
0000
0000
0000
0000
0000
0100
0100
,  // measure 25
0000
0000
0000
0000
0100
0000
0100
0030
,  // measure 26
0200
0010
0000
0000
1000
1000
0000
0000
,  // measure 27
0000
0000
0001
0001
0000
0000
0010
0300
,  // measure 28
0020
0000
0100
0030
,  // measure 29
0100
0000
0001
0000
0010
0001
1000
0001
,  // measure 30
0200
0000
0010
0300
,  // measure 31
0010
0000
1000
0000
0100
1000
0001
1000
,  // measure 32
0002
0000
1000
0003
,  // measure 33
1000
0000
0100
0000
0001
0100
0010
0100
,  // measure 34
2000
0000
0001
3000
,  // measure 35
0001
0000
0010
0000
1000
0010
0100
0010
,  // measure 36
0200
0000
0010
0300
,  // measure 37
0010
0000
1000
0000
0100
1000
0001
1000
,  // measure 38
0020
0000
0100
0030
,  // measure 39
0100
0000
0001
0000
0010
0001
1000
0001
,  // measure 40
2000
0000
0001
3000
,  // measure 41
0001
0000
0010
0000
1000
0010
0100
0010
,  // measure 42
0002
0000
1000
0003
,  // measure 43
1000
0000
0100
0000
0001
0100
0010
0100
,  // measure 44
0010
0000
0010
0000
0010
1000
0010
0001
,  // measure 45
0100
0000
0100
0000
0010
0001
0010
0100
,  // measure 46
0100
0000
0100
0000
0100
0001
0100
1000
,  // measure 47
0010
0000
0010
0000
0100
1000
0100
0010
,  // measure 48
0001
0000
0001
0000
0001
0010
0001
0100
,  // measure 49
1000
0000
1000
0000
0001
0100
0001
1000
,  // measure 50
1000
0000
1000
0000
1000
0100
1000
0010
,  // measure 51
0001
0000
0001
0000
1000
0010
1000
0001
,  // measure 52
0001
0010
0000
0000
0100
0010
0000
0000
0100
1000
0000
0000
0001
1000
0000
0000
,  // measure 53
1000
0100
0000
0000
0010
0100
0000
0000
0010
0001
0000
0000
1000
0001
0000
0000
,  // measure 54
0110
0000
0010
0100
1001
0000
1000
0000
,  // measure 55
0101
0001
0110
0100
,  // measure 56
0110
0000
0100
0010
1001
0000
0001
0000
,  // measure 57
1010
1000
0110
0010
,  // measure 58
1001
0000
0001
1000
0110
0000
0010
0000
,  // measure 59
1100
0100
1001
1000
,  // measure 60
1001
0000
1000
0001
0110
0000
0100
0000
,  // measure 61
0011
0010
1001
0001
,  // measure 62
0110
0000
0100
0010
1001
0000
0001
0000
,  // measure 63
1010
1000
0110
0010
,  // measure 64
0110
0000
0010
0100
1001
0000
1000
0000
,  // measure 65
0101
0001
0110
0100
,  // measure 66
1001
0000
1000
0001
0110
0000
0100
0000
,  // measure 67
0011
0010
1001
0001
,  // measure 68
1001
0000
0001
1000
0110
0000
0010
0000
,  // measure 69
2002
0000
0000
0000
0000
0000
3003
0000
1000
0001
1000
0000
0001
0000
1000
0000
,  // measure 70
0020
0000
0100
0030
,  // measure 71
0100
0000
0001
0000
0010
0001
1000
0001
,  // measure 72
0200
0000
0010
0300
,  // measure 73
0010
0000
1000
0000
0100
1000
0001
1000
,  // measure 74
0002
0000
1000
0003
,  // measure 75
1000
0000
0100
0000
0001
0100
0010
0100
,  // measure 76
2000
0000
0001
3000
,  // measure 77
0001
0000
0010
0000
1000
0010
0100
0010
,  // measure 78
0200
0000
0010
0300
,  // measure 79
0010
0000
1000
0000
0100
1000
0001
1000
,  // measure 80
0020
0000
0100
0030
,  // measure 81
0100
0000
0001
0000
0010
0001
1000
0001
,  // measure 82
2000
0000
0001
3000
,  // measure 83
0001
0000
0010
0000
1000
0010
0100
0010
,  // measure 84
0002
0000
1000
0003
,  // measure 85
1000
0000
0100
0000
0001
0100
0010
0100
,  // measure 86
0010
0000
0010
0000
0010
1000
0010
0001
,  // measure 87
0100
0000
0100
0000
0010
0001
0010
0100
,  // measure 88
0100
0000
0100
0000
0100
0001
0100
1000
,  // measure 89
0010
0000
0010
0000
0100
1000
0100
0010
,  // measure 90
0001
0000
0001
0000
0001
0010
0001
0100
,  // measure 91
1000
0000
1000
0000
0001
0100
0001
1000
,  // measure 92
1000
0000
1000
0000
1000
0100
1000
0010
,  // measure 93
0001
0000
0001
0000
1000
0010
1000
0001
,  // measure 94
0001
0010
0000
0000
0100
0010
0000
0000
0100
1000
0000
0000
0001
1000
0000
0000
,  // measure 95
1000
0100
0000
0000
0010
0100
0000
0000
0010
0001
0000
0000
1000
0001
0000
0000
,  // measure 96
0110
0000
0010
0100
1001
0000
1000
0000
,  // measure 97
0101
0001
0110
0100
,  // measure 98
0110
0000
0100
0010
1001
0000
0001
0000
,  // measure 99
1010
1000
0110
0010
,  // measure 100
1001
0000
0001
1000
0110
0000
0010
0000
,  // measure 101
1100
0100
1001
1000
,  // measure 102
1001
0000
1000
0001
0110
0000
0100
0000
,  // measure 103
0011
0010
1001
0001
,  // measure 104
0110
0000
0100
0010
1001
0000
0001
0000
,  // measure 105
1010
1000
0110
0010
,  // measure 106
0110
0000
0010
0100
1001
0000
1000
0000
,  // measure 107
0101
0001
0110
0100
,  // measure 108
1001
0000
1000
0001
0110
0000
0100
0000
,  // measure 109
0011
0010
1001
0001
,  // measure 110
1001
0000
0001
1000
0110
0000
0010
0000
,  // measure 111
2002
0000
0000
0000
0000
0000
3003
0000
1000
0001
1000
0000
0001
0000
1000
0000
,  // measure 112
1001
0000
0000
0000
;

//---------------dance-single - ----------------
#NOTEDATA:;
#CHARTNAME:;
#STEPSTYPE:dance-single;
#DESCRIPTION:;
#CHARTSTYLE:;
#DIFFICULTY:Challenge;
#METER:12;
#RADARVALUES:0.560566,0.633871,0.496783,0.188652,0.081749,624.000000,545.000000,79.000000,30.000000,0.000000,0.000000,0.000000,0.000000,0.000000,0.560566,0.633871,0.496783,0.188652,0.081749,624.000000,545.000000,79.000000,30.000000,0.000000,0.000000,0.000000,0.000000,0.000000;
#CREDIT:;
#NOTES:
// measure 0
0010
0000
0100
0000
0010
0001
1000
0001
,  // measure 1
0100
0000
0010
0000
0100
1000
0001
1000
,  // measure 2
0001
0000
1000
0000
0001
0100
0010
0100
,  // measure 3
1000
0000
0001
0000
1000
0010
0100
0010
,  // measure 4
0100
0000
0010
0000
0100
1000
0001
1000
,  // measure 5
0010
0000
0100
0000
0010
0001
1000
0001
,  // measure 6
1000
0000
0001
0000
1000
0010
0100
0010
,  // measure 7
0001
0000
1000
0000
0001
0100
0010
0100
,  // measure 8
0020
0000
0100
0000
0000
0100
0000
0000
,  // measure 9
0130
0000
0000
0000
0010
0000
0000
0000
0110
0000
0000
0010
0000
0000
1001
0000
,  // measure 10
0200
0000
0010
0000
0000
0010
0000
0000
,  // measure 11
0310
0000
0000
0000
0100
0000
0000
0000
0110
0000
0000
0100
0000
0000
1001
0000
,  // measure 12
0002
0000
1000
0000
0000
1000
0000
0000
,  // measure 13
1003
0000
0000
0000
0001
0000
0000
0000
1001
0000
0000
0001
0000
0000
0110
0000
,  // measure 14
2000
0000
0001
0000
0000
0001
0000
0000
,  // measure 15
3001
0000
0000
0000
1000
0000
0000
0000
1001
0000
0000
1000
0000
0000
0110
0000
,  // measure 16
0200
0000
0010
0000
0000
0010
0000
0000
,  // measure 17
0310
0000
0000
0000
0100
0000
0000
0000
0110
0000
0000
0100
0000
0000
1001
0000
,  // measure 18
0020
0000
0100
0000
0000
0100
0000
0000
,  // measure 19
0130
0000
0000
0000
0010
0000
0000
0000
0110
0000
0000
0010
0000
0000
1001
0000
,  // measure 20
2000
0000
0001
0000
0000
0001
0000
0000
,  // measure 21
3001
0000
0000
0000
1000
0000
0000
0000
1001
0000
0000
1000
0000
0000
0110
0000
,  // measure 22
0002
0000
1000
0000
0000
1000
0000
0000
,  // measure 23
1003
0000
0000
0000
0001
0000
0000
0000
1001
0000
0000
0001
0000
0000
0110
0000
,  // measure 24
0020
0000
0000
0000
0000
0000
0100
0100
,  // measure 25
0000
0000
0000
0000
0100
0000
0100
0030
,  // measure 26
0200
0010
0000
0000
1000
1000
0000
0000
,  // measure 27
0000
0000
0001
0001
0000
0000
0010
0300
,  // measure 28
0020
0000
0100
0030
,  // measure 29
0100
0010
0001
0000
0010
0001
1000
0001
,  // measure 30
0200
0000
0010
0300
,  // measure 31
0010
0100
1000
0000
0100
1000
0001
1000
,  // measure 32
0002
0000
1000
0003
,  // measure 33
1000
0001
0100
0000
0001
0100
0010
0100
,  // measure 34
2000
0000
0001
3000
,  // measure 35
0001
1000
0010
0000
1000
0010
0100
0010
,  // measure 36
0200
0000
0010
0300
,  // measure 37
0010
0100
1000
0000
0100
1000
0001
1000
,  // measure 38
0020
0000
0100
0030
,  // measure 39
0100
0010
0001
0000
0010
0001
1000
0001
,  // measure 40
2000
0000
0001
3000
,  // measure 41
0001
1000
0010
0000
1000
0010
0100
0010
,  // measure 42
0002
0000
1000
0003
,  // measure 43
1000
0001
0100
0000
0001
0100
0010
0100
,  // measure 44
0010
0000
0010
0000
0010
1000
0010
0001
,  // measure 45
0100
0000
0100
0000
0010
0001
0010
0100
,  // measure 46
0100
0000
0100
0000
0100
0001
0100
1000
,  // measure 47
0010
0000
0010
0000
0100
1000
0100
0010
,  // measure 48
0001
0000
0001
0000
0001
0010
0001
0100
,  // measure 49
1000
0000
1000
0000
0001
0100
0001
1000
,  // measure 50
1000
0000
1000
0000
1000
0100
1000
0010
,  // measure 51
0001
0000
0001
0000
1000
0010
1000
0001
,  // measure 52
0001
0010
0000
0000
0100
0010
0000
0000
0100
1000
0000
0000
0001
1000
0000
0000
,  // measure 53
1000
0100
0000
0000
0010
0100
0000
0000
0010
0001
0000
0000
1000
0001
0000
0000
,  // measure 54
0110
0000
0010
0100
1001
0000
1000
0000
,  // measure 55
0101
0001
0110
0100
,  // measure 56
0110
0000
0100
0010
1001
0000
0001
0000
,  // measure 57
1010
1000
0110
0010
,  // measure 58
1001
0000
0001
1000
0110
0000
0010
0000
,  // measure 59
1100
0100
1001
1000
,  // measure 60
1001
0000
1000
0001
0110
0000
0100
0000
,  // measure 61
0011
0010
1001
0001
,  // measure 62
0110
0000
0100
0010
1001
0000
0001
0000
,  // measure 63
1010
1000
0110
0010
,  // measure 64
0110
0000
0010
0100
1001
0000
1000
0000
,  // measure 65
0101
0001
0110
0100
,  // measure 66
1001
0000
1000
0001
0110
0000
0100
0000
,  // measure 67
0011
0010
1001
0001
,  // measure 68
1001
0000
0001
1000
0110
0000
0010
0000
,  // measure 69
2002
0000
0000
0000
0000
0000
3003
0000
1000
0001
1000
0000
0001
0000
1000
0000
,  // measure 70
0020
0000
0100
0030
,  // measure 71
0100
0010
0001
0000
0010
0001
1000
0001
,  // measure 72
0200
0000
0010
0300
,  // measure 73
0010
0100
1000
0000
0100
1000
0001
1000
,  // measure 74
0002
0000
1000
0003
,  // measure 75
1000
0001
0100
0000
0001
0100
0010
0100
,  // measure 76
2000
0000
0001
3000
,  // measure 77
0001
1000
0010
0000
1000
0010
0100
0010
,  // measure 78
0200
0000
0010
0300
,  // measure 79
0010
0100
1000
0000
0100
1000
0001
1000
,  // measure 80
0020
0000
0100
0030
,  // measure 81
0100
0010
0001
0000
0010
0001
1000
0001
,  // measure 82
2000
0000
0001
3000
,  // measure 83
0001
1000
0010
0000
1000
0010
0100
0010
,  // measure 84
0002
0000
1000
0003
,  // measure 85
1000
0001
0100
0000
0001
0100
0010
0100
,  // measure 86
0010
0000
0010
0000
0010
1000
0010
0001
,  // measure 87
0100
0000
0100
0000
0010
0001
0010
0100
,  // measure 88
0100
0000
0100
0000
0100
0001
0100
1000
,  // measure 89
0010
0000
0010
0000
0100
1000
0100
0010
,  // measure 90
0001
0000
0001
0000
0001
0010
0001
0100
,  // measure 91
1000
0000
1000
0000
0001
0100
0001
1000
,  // measure 92
1000
0000
1000
0000
1000
0100
1000
0010
,  // measure 93
0001
0000
0001
0000
1000
0010
1000
0001
,  // measure 94
0001
0010
0000
0000
0100
0010
0000
0000
0100
1000
0000
0000
0001
1000
0000
0000
,  // measure 95
1000
0100
0000
0000
0010
0100
0000
0000
0010
0001
0000
0000
1000
0001
0000
0000
,  // measure 96
0110
0000
0010
0100
1001
0000
1000
0000
,  // measure 97
0101
0001
0110
0100
,  // measure 98
0110
0000
0100
0010
1001
0000
0001
0000
,  // measure 99
1010
1000
0110
0010
,  // measure 100
1001
0000
0001
1000
0110
0000
0010
0000
,  // measure 101
1100
0100
1001
1000
,  // measure 102
1001
0000
1000
0001
0110
0000
0100
0000
,  // measure 103
0011
0010
1001
0001
,  // measure 104
0110
0000
0100
0010
1001
0000
0001
0000
,  // measure 105
1010
1000
0110
0010
,  // measure 106
0110
0000
0010
0100
1001
0000
1000
0000
,  // measure 107
0101
0001
0110
0100
,  // measure 108
1001
0000
1000
0001
0110
0000
0100
0000
,  // measure 109
0011
0010
1001
0001
,  // measure 110
1001
0000
0001
1000
0110
0000
0010
0000
,  // measure 111
2002
0000
0000
0000
0000
0000
3003
0000
1000
0001
1000
0000
0001
0000
1000
0000
,  // measure 112
1001
0000
0000
0000
;

//---------------dance-single - Deluxe----------------
#NOTEDATA:;
#CHARTNAME:Deluxe;
#STEPSTYPE:dance-single;
#DESCRIPTION:Deluxe;
#CHARTSTYLE:;
#DIFFICULTY:Edit;
#METER:13;
#RADARVALUES:0.576736,0.633871,0.496783,0.188652,0.088038,642.000000,563.000000,79.000000,30.000000,0.000000,0.000000,0.000000,0.000000,0.000000,0.576736,0.633871,0.496783,0.188652,0.088038,642.000000,563.000000,79.000000,30.000000,0.000000,0.000000,0.000000,0.000000,0.000000;
#CREDIT:;
#NOTES:
// measure 0
0010
0001
0100
0000
0010
0001
1000
0001
,  // measure 1
0100
1000
0010
0000
0100
1000
0001
1000
,  // measure 2
0001
0100
1000
0000
0001
0100
0010
0100
,  // measure 3
1000
0010
0001
0000
1000
0010
0100
0010
,  // measure 4
0100
1000
0010
0000
0100
1000
0001
1000
,  // measure 5
0010
0001
0100
0000
0010
0001
1000
0001
,  // measure 6
1000
0010
0001
0000
1000
0010
0100
0010
,  // measure 7
0001
0100
1000
0000
0001
0100
0010
0100
,  // measure 8
0020
0000
0100
0000
0000
0100
0000
0000
,  // measure 9
0130
0000
0000
0000
0010
0000
0000
0000
0110
0000
0000
0010
0000
0000
1001
0000
,  // measure 10
0200
0000
0010
0000
0000
0010
0000
0000
,  // measure 11
0310
0000
0000
0000
0100
0000
0000
0000
0110
0000
0000
0100
0000
0000
1001
0000
,  // measure 12
0002
0000
1000
0000
0000
1000
0000
0000
,  // measure 13
1003
0000
0000
0000
0001
0000
0000
0000
1001
0000
0000
0001
0000
0000
0110
0000
,  // measure 14
2000
0000
0001
0000
0000
0001
0000
0000
,  // measure 15
3001
0000
0000
0000
1000
0000
0000
0000
1001
0000
0000
1000
0000
0000
0110
0000
,  // measure 16
0200
0000
0010
0000
0000
0010
0000
0000
,  // measure 17
0310
0000
0000
0000
0100
0000
0000
0000
0110
0000
0000
0100
0000
0000
1001
0000
,  // measure 18
0020
0000
0100
0000
0000
0100
0000
0000
,  // measure 19
0130
0000
0000
0000
0010
0000
0000
0000
0110
0000
0000
0010
0000
0000
1001
0000
,  // measure 20
2000
0000
0001
0000
0000
0001
0000
0000
,  // measure 21
3001
0000
0000
0000
1000
0000
0000
0000
1001
0000
0000
1000
0000
0000
0110
0000
,  // measure 22
0002
0000
1000
0000
0000
1000
0000
0000
,  // measure 23
1003
0000
0000
0000
0001
0000
0000
0000
1001
0000
0000
0001
0000
0000
0110
0000
,  // measure 24
0020
0000
0000
0000
0000
0000
0100
0100
,  // measure 25
0000
0000
0000
0000
0100
0000
0100
0030
,  // measure 26
0200
0010
0000
0000
1000
1000
0000
0000
,  // measure 27
0000
0000
0001
0001
0000
0000
0010
0300
,  // measure 28
0020
0000
0100
0030
,  // measure 29
0100
0010
0001
0000
0010
0001
1000
0001
,  // measure 30
0200
0000
0010
0300
,  // measure 31
0010
0100
1000
0000
0100
1000
0001
1000
,  // measure 32
0002
0000
1000
0003
,  // measure 33
1000
0001
0100
0000
0001
0100
0010
0100
,  // measure 34
2000
0000
0001
3000
,  // measure 35
0001
1000
0010
0000
1000
0010
0100
0010
,  // measure 36
0200
0000
0010
0300
,  // measure 37
0010
0100
1000
0000
0100
1000
0001
1000
,  // measure 38
0020
0000
0100
0030
,  // measure 39
0100
0010
0001
0000
0010
0001
1000
0001
,  // measure 40
2000
0000
0001
3000
,  // measure 41
0001
1000
0010
0000
1000
0010
0100
0010
,  // measure 42
0002
0000
1000
0003
,  // measure 43
1000
0001
0100
0000
0001
0100
0010
0100
,  // measure 44
0010
0100
0010
0000
0010
1000
0010
0001
,  // measure 45
0100
0000
0100
0000
0010
0001
0010
0100
,  // measure 46
0100
0010
0100
0000
0100
0001
0100
1000
,  // measure 47
0010
0000
0010
0000
0100
1000
0100
0010
,  // measure 48
0001
1000
0001
0000
0001
0010
0001
0100
,  // measure 49
1000
0000
1000
0000
0001
0100
0001
1000
,  // measure 50
1000
0001
1000
0000
1000
0100
1000
0010
,  // measure 51
0001
0000
0001
0000
1000
0010
1000
0001
,  // measure 52
0001
0010
0000
0000
0100
0010
0000
0000
0100
1000
0000
0000
0001
1000
0000
0000
,  // measure 53
1000
0100
0000
0000
0010
0100
0000
0000
0010
0001
0000
0000
1000
0001
0000
0000
,  // measure 54
0110
0000
0010
0100
1001
0000
1000
0000
,  // measure 55
0101
0001
0110
0100
,  // measure 56
0110
0000
0100
0010
1001
0000
0001
0000
,  // measure 57
1010
1000
0110
0010
,  // measure 58
1001
0000
0001
1000
0110
0000
0010
0000
,  // measure 59
1100
0100
1001
1000
,  // measure 60
1001
0000
1000
0001
0110
0000
0100
0000
,  // measure 61
0011
0010
1001
0001
,  // measure 62
0110
0000
0100
0010
1001
0000
0001
0000
,  // measure 63
1010
1000
0110
0010
,  // measure 64
0110
0000
0010
0100
1001
0000
1000
0000
,  // measure 65
0101
0001
0110
0100
,  // measure 66
1001
0000
1000
0001
0110
0000
0100
0000
,  // measure 67
0011
0010
1001
0001
,  // measure 68
1001
0000
0001
1000
0110
0000
0010
0000
,  // measure 69
2002
0000
0000
0000
0000
0000
3003
0000
1000
0001
1000
0000
0001
1000
0001
0000
,  // measure 70
0020
0000
0100
0030
,  // measure 71
0100
0010
0001
0000
0010
0001
1000
0001
,  // measure 72
0200
0000
0010
0300
,  // measure 73
0010
0100
1000
0000
0100
1000
0001
1000
,  // measure 74
0002
0000
1000
0003
,  // measure 75
1000
0001
0100
0000
0001
0100
0010
0100
,  // measure 76
2000
0000
0001
3000
,  // measure 77
0001
1000
0010
0000
1000
0010
0100
0010
,  // measure 78
0200
0000
0010
0300
,  // measure 79
0010
0100
1000
0000
0100
1000
0001
1000
,  // measure 80
0020
0000
0100
0030
,  // measure 81
0100
0010
0001
0000
0010
0001
1000
0001
,  // measure 82
2000
0000
0001
3000
,  // measure 83
0001
1000
0010
0000
1000
0010
0100
0010
,  // measure 84
0002
0000
1000
0003
,  // measure 85
1000
0001
0100
0000
0001
0100
0010
0100
,  // measure 86
0010
0100
0010
0000
0010
1000
0010
0001
,  // measure 87
0100
0000
0100
0000
0010
0001
0010
0100
,  // measure 88
0100
0010
0100
0000
0100
0001
0100
1000
,  // measure 89
0010
0000
0010
0000
0100
1000
0100
0010
,  // measure 90
0001
1000
0001
0000
0001
0010
0001
0100
,  // measure 91
1000
0000
1000
0000
0001
0100
0001
1000
,  // measure 92
1000
0001
1000
0000
1000
0100
1000
0010
,  // measure 93
0001
0000
0001
0000
1000
0010
1000
0001
,  // measure 94
0001
0010
0000
0000
0100
0010
0000
0000
0100
1000
0000
0000
0001
1000
0000
0000
,  // measure 95
1000
0100
0000
0000
0010
0100
0000
0000
0010
0001
0000
0000
1000
0001
0000
0000
,  // measure 96
0110
0000
0010
0100
1001
0000
1000
0000
,  // measure 97
0101
0001
0110
0100
,  // measure 98
0110
0000
0100
0010
1001
0000
0001
0000
,  // measure 99
1010
1000
0110
0010
,  // measure 100
1001
0000
0001
1000
0110
0000
0010
0000
,  // measure 101
1100
0100
1001
1000
,  // measure 102
1001
0000
1000
0001
0110
0000
0100
0000
,  // measure 103
0011
0010
1001
0001
,  // measure 104
0110
0000
0100
0010
1001
0000
0001
0000
,  // measure 105
1010
1000
0110
0010
,  // measure 106
0110
0000
0010
0100
1001
0000
1000
0000
,  // measure 107
0101
0001
0110
0100
,  // measure 108
1001
0000
1000
0001
0110
0000
0100
0000
,  // measure 109
0011
0010
1001
0001
,  // measure 110
1001
0000
0001
1000
0110
0000
0010
0000
,  // measure 111
2002
0000
0000
0000
0000
0000
3003
0000
1000
0001
1000
0000
0001
1000
0001
0000
,  // measure 112
1001
0000
0000
0000
;

//---------------dance-single - Casual----------------
#NOTEDATA:;
#CHARTNAME:Casual;
#STEPSTYPE:dance-single;
#DESCRIPTION:Casual;
#CHARTSTYLE:;
#DIFFICULTY:Edit;
#METER:11;
#RADARVALUES:0.455460,0.493010,0.446476,0.188652,0.050307,507.000000,436.000000,71.000000,30.000000,0.000000,0.000000,0.000000,0.000000,0.000000,0.455460,0.493010,0.446476,0.188652,0.050307,507.000000,436.000000,71.000000,30.000000,0.000000,0.000000,0.000000,0.000000,0.000000;
#CREDIT:;
#NOTES:
// measure 0
0010
0000
0100
0000
0010
0001
1000
0000
,  // measure 1
0100
0000
0010
0000
0100
1000
0001
0000
,  // measure 2
0001
0000
1000
0000
0001
0100
0010
0000
,  // measure 3
1000
0000
0001
0000
1000
0010
0100
0000
,  // measure 4
0100
0000
0010
0000
0100
1000
0001
0000
,  // measure 5
0010
0000
0100
0000
0010
0001
1000
0000
,  // measure 6
1000
0000
0001
0000
1000
0010
0100
0000
,  // measure 7
0001
0000
1000
0000
0001
0100
0010
0000
,  // measure 8
0020
0000
0100
0000
0000
0100
0000
0000
,  // measure 9
0130
0000
0000
0000
0000
0000
0000
0000
0100
0000
0000
0010
0000
0000
1001
0000
,  // measure 10
0200
0000
0010
0000
0000
0010
0000
0000
,  // measure 11
0310
0000
0000
0000
0000
0000
0000
0000
0010
0000
0000
0100
0000
0000
1001
0000
,  // measure 12
0002
0000
1000
0000
0000
1000
0000
0000
,  // measure 13
1003
0000
0000
0000
0000
0000
0000
0000
1000
0000
0000
0001
0000
0000
0110
0000
,  // measure 14
2000
0000
0001
0000
0000
0001
0000
0000
,  // measure 15
3001
0000
0000
0000
0000
0000
0000
0000
0001
0000
0000
1000
0000
0000
0110
0000
,  // measure 16
0200
0000
0010
0000
0000
0010
0000
0000
,  // measure 17
0310
0000
0000
0000
0000
0000
0000
0000
0010
0000
0000
0100
0000
0000
1001
0000
,  // measure 18
0020
0000
0100
0000
0000
0100
0000
0000
,  // measure 19
0130
0000
0000
0000
0000
0000
0000
0000
0100
0000
0000
0010
0000
0000
1001
0000
,  // measure 20
2000
0000
0001
0000
0000
0001
0000
0000
,  // measure 21
3001
0000
0000
0000
0000
0000
0000
0000
0001
0000
0000
1000
0000
0000
0110
0000
,  // measure 22
0002
0000
1000
0000
0000
1000
0000
0000
,  // measure 23
1003
0000
0000
0000
0000
0000
0000
0000
1000
0000
0000
0001
0000
0000
0110
0000
,  // measure 24
0020
0000
0000
0000
0000
0000
0100
0100
,  // measure 25
0000
0000
0000
0000
0000
0000
0000
0030
,  // measure 26
0200
0010
0000
0000
1000
1000
0000
0000
,  // measure 27
0000
0000
0001
0001
0000
0000
0000
0300
,  // measure 28
0020
0000
0000
0030
,  // measure 29
0100
0000
0001
0000
0010
0001
1000
0000
,  // measure 30
0200
0000
0000
0300
,  // measure 31
0010
0000
1000
0000
0100
1000
0001
0000
,  // measure 32
0002
0000
0000
0003
,  // measure 33
1000
0000
0100
0000
0001
0100
0010
0000
,  // measure 34
2000
0000
0000
3000
,  // measure 35
0001
0000
0010
0000
1000
0010
0100
0000
,  // measure 36
0200
0000
0000
0300
,  // measure 37
0010
0000
1000
0000
0100
1000
0001
0000
,  // measure 38
0020
0000
0000
0030
,  // measure 39
0100
0000
0001
0000
0010
0001
1000
0000
,  // measure 40
2000
0000
0000
3000
,  // measure 41
0001
0000
0010
0000
1000
0010
0100
0000
,  // measure 42
0002
0000
0000
0003
,  // measure 43
1000
0000
0100
0000
0001
0100
0010
0000
,  // measure 44
0010
0000
0000
0000
0010
1000
0010
0001
,  // measure 45
0100
0000
0000
0000
0010
0001
0010
0100
,  // measure 46
0100
0000
0000
0000
0100
0001
0100
1000
,  // measure 47
0010
0000
0000
0000
0100
1000
0100
0010
,  // measure 48
0001
0000
0000
0000
0001
0010
0001
0100
,  // measure 49
1000
0000
0000
0000
0001
0100
0001
1000
,  // measure 50
1000
0000
0000
0000
1000
0100
1000
0010
,  // measure 51
0001
0000
0000
0000
1000
0010
1000
0001
,  // measure 52
0001
0000
0000
0000
0100
0010
0000
0000
0100
0000
0000
0000
0001
1000
0000
0000
,  // measure 53
1000
0000
0000
0000
0010
0100
0000
0000
0010
0000
0000
0000
1000
0001
0000
0000
,  // measure 54
0110
0010
1001
1000
,  // measure 55
0101
0001
0110
0100
,  // measure 56
0110
0100
1001
0001
,  // measure 57
1010
1000
0110
0010
,  // measure 58
1001
0001
0110
0010
,  // measure 59
1100
0100
1001
1000
,  // measure 60
1001
1000
0110
0100
,  // measure 61
0011
0010
1001
0001
,  // measure 62
0110
0100
1001
0001
,  // measure 63
1010
1000
0110
0010
,  // measure 64
0110
0010
1001
1000
,  // measure 65
0101
0001
0110
0100
,  // measure 66
1001
1000
0110
0100
,  // measure 67
0011
0010
1001
0001
,  // measure 68
1001
0001
0110
0010
,  // measure 69
2002
0000
0000
3003
1000
0001
0001
1000
,  // measure 70
0020
0000
0000
0030
,  // measure 71
0100
0000
0001
0000
0010
0001
1000
0000
,  // measure 72
0200
0000
0000
0300
,  // measure 73
0010
0000
1000
0000
0100
1000
0001
0000
,  // measure 74
0002
0000
0000
0003
,  // measure 75
1000
0000
0100
0000
0001
0100
0010
0000
,  // measure 76
2000
0000
0000
3000
,  // measure 77
0001
0000
0010
0000
1000
0010
0100
0000
,  // measure 78
0200
0000
0000
0300
,  // measure 79
0010
0000
1000
0000
0100
1000
0001
0000
,  // measure 80
0020
0000
0000
0030
,  // measure 81
0100
0000
0001
0000
0010
0001
1000
0000
,  // measure 82
2000
0000
0000
3000
,  // measure 83
0001
0000
0010
0000
1000
0010
0100
0000
,  // measure 84
0002
0000
0000
0003
,  // measure 85
1000
0000
0100
0000
0001
0100
0010
0000
,  // measure 86
0010
0000
0000
0000
0010
1000
0010
0001
,  // measure 87
0100
0000
0000
0000
0010
0001
0010
0100
,  // measure 88
0100
0000
0000
0000
0100
0001
0100
1000
,  // measure 89
0010
0000
0000
0000
0100
1000
0100
0010
,  // measure 90
0001
0000
0000
0000
0001
0010
0001
0100
,  // measure 91
1000
0000
0000
0000
0001
0100
0001
1000
,  // measure 92
1000
0000
0000
0000
1000
0100
1000
0010
,  // measure 93
0001
0000
0000
0000
1000
0010
1000
0001
,  // measure 94
0001
0000
0000
0000
0100
0010
0000
0000
0100
0000
0000
0000
0001
1000
0000
0000
,  // measure 95
1000
0000
0000
0000
0010
0100
0000
0000
0010
0000
0000
0000
1000
0001
0000
0000
,  // measure 96
0110
0010
1001
1000
,  // measure 97
0101
0001
0110
0100
,  // measure 98
0110
0100
1001
0001
,  // measure 99
1010
1000
0110
0010
,  // measure 100
1001
0001
0110
0010
,  // measure 101
1100
0100
1001
1000
,  // measure 102
1001
1000
0110
0100
,  // measure 103
0011
0010
1001
0001
,  // measure 104
0110
0100
1001
0001
,  // measure 105
1010
1000
0110
0010
,  // measure 106
0110
0010
1001
1000
,  // measure 107
0101
0001
0110
0100
,  // measure 108
1001
1000
0110
0100
,  // measure 109
0011
0010
1001
0001
,  // measure 110
1001
0001
0110
0010
,  // measure 111
2002
0000
0000
3003
1000
0001
0001
1000
,  // measure 112
1001
0000
0000
0000
;
