#TITLE:TOGETHER & FOREVER;
#SUBTITLE:;
#ARTIST:CAPTAIN JACK;
#TITLETRANSLIT:;
#SUBTITLETRANSLIT:;
#ARTISTTRANSLIT:;
#CREDIT:;
#BANNER:TOGETHER & FOREVER.png;
#BACKGROUND:TOGETHER & FOREVER-bg.png;
#LYRICSPATH:;
#CDTITLE:CDTITLES/Dancemania.png;
#MUSIC:TOGETHER & FOREVER.mp3;
#OFFSET:-1.372;
#SAMPLESTART:33.320;
#SAMPLELENGTH:12.000;
#SELECTABLE:YES;
#BPMS:0.000=150.000;
#STOPS:;
#BGCHANGES:;

//---------------dance-single - ----------------
#NOTES:
     dance-single:
     :
     Easy:
     3:
     0.277,0.362,0.107,0.000,0.000:
0000
0000
0000
0000
,
0000
0000
0000
0000
,
0000
0000
0000
0000
,
0000
0000
0000
0000
,
0010
0000
0100
0000
,
0001
0000
1000
0000
,
0010
0000
0100
0000
,
0001
0000
1000
0000
,
0001
1000
0001
1000
,
0001
1000
0001
1000
,
0010
0100
0010
0100
,
1001
1001
0110
0001
,
1000
0001
1000
0001
,
1000
0001
1000
0001
,
1000
0100
0010
0100
,
1001
1001
0110
1000
,
0001
0000
0100
0000
,
0010
0000
1000
0000
,
0001
1000
0001
1000
,
0100
0100
0100
0100
,
1000
0000
0001
0000
,
0010
0100
0010
0010
,
0001
0000
1000
0000
,
0100
0010
0100
0100
,
0010
0000
0100
0000
,
1000
0001
1000
0001
,
0100
0000
0010
0000
,
1000
0001
1000
0001
,
0010
0100
1000
0010
,
0100
0001
1000
0100
,
0010
0100
1000
0001
,
1000
0100
1000
0100
,
1000
0001
1000
0010
,
0100
0001
0100
0001
,
0100
0001
1000
0001
,
0010
0100
1000
0001
,
1000
0000
0100
0000
,
1000
0000
0001
0000
,
0100
0000
0001
0000
,
1000
0000
0001
0000
,
1000
1000
0001
0001
,
0010
0010
0100
0100
,
1000
0001
1000
0001
,
0100
0001
1000
0001
,
0110
0000
0110
0000
,
1000
0010
1000
1000
,
0110
0000
0110
0000
,
1000
0010
0100
0100
,
0001
0000
1000
0000
,
0001
1000
0001
1000
,
0010
0000
0100
0000
,
0001
1000
0001
1000
,
0100
1000
0001
0100
,
0010
1000
0001
0100
,
0010
0100
0001
1000
,
0010
0000
0010
0000
,
0010
0000
0010
0000
;

//---------------dance-single - ----------------
#NOTES:
     dance-single:
     :
     Medium:
     5:
     0.320,0.392,0.192,0.000,0.000:
0000
0000
0000
0000
,
0000
0000
0000
0000
,
0000
0000
0000
0000
,
0000
0000
0000
0000
,
0110
0000
0000
1000
1000
0000
0000
0000
,
0110
0000
0000
0001
0001
0000
0000
0000
,
0110
0000
0000
1000
0001
0000
0000
0000
,
0110
0000
1001
0000
,
1000
0001
0100
0010
,
1000
0000
0010
0100
0010
0000
0000
0000
,
0100
0001
0100
0000
0001
0100
0001
0000
,
0110
0110
1001
0000
,
0001
1000
0100
0010
,
0001
0000
0010
0100
0010
0000
0000
0000
,
0100
0010
0100
0000
1000
0100
1000
0000
,
0110
0110
1001
0000
,
0010
1000
0010
0000
,
1000
0100
0010
0000
,
0001
1000
0100
0000
1000
0001
0100
0000
,
0110
0010
0010
0010
,
1000
0000
0001
0100
,
0010
0000
1000
0000
,
0001
0000
1000
0000
,
0100
0000
1000
0001
,
1000
0000
0001
1000
,
0001
0000
0010
0000
,
0100
0000
1000
0000
,
0110
0000
1010
0000
0101
0000
0010
0100
,
0010
0100
0010
0100
,
0010
1000
0100
0010
,
0100
0000
0010
0100
,
0010
0001
0100
0010
,
1000
0000
0001
0001
,
1000
1000
0001
1000
,
0001
0000
0010
0100
,
0010
0000
0010
0000
,
0010
0000
0100
0010
0000
0100
0010
0000
,
0100
0000
0010
0100
0000
0010
0100
0000
,
1000
0000
0001
1000
0000
0001
1000
0000
,
0001
0000
1000
0001
0000
1000
0001
1000
,
0100
0000
1000
0100
0000
0010
0100
0000
,
0010
0000
0001
1000
0000
0001
1000
0000
,
0010
0000
1000
0001
0000
1000
0001
0010
,
0100
0000
1000
0001
0000
1000
0001
1000
,
0001
0000
1000
0100
,
0010
0000
0001
0000
,
1000
0000
0001
0000
,
0100
0000
0001
1000
,
0001
0000
1000
0001
,
1000
0000
0010
0000
,
0100
0000
0001
0000
,
0110
0000
0011
0000
1100
0000
0001
1000
,
0001
1000
0001
1000
,
0010
0000
0010
0000
,
1000
0000
0001
0000
0010
0000
0100
0010
,
0100
1000
0001
1000
,
0001
0000
0010
0000
;

//---------------dance-single - ----------------
#NOTES:
     dance-single:
     :
     Hard:
     8:
     0.454,0.512,0.032,0.000,0.229:
0000
0000
0000
0000
,
0000
0000
0000
0000
,
0000
0000
0000
0000
,
0000
0000
0000
0000
,
1000
0001
1000
0001
1000
0001
1000
0001
,
0010
0100
0010
0100
1000
0001
1000
0001
,
0010
0100
0010
0100
0010
0100
0010
0100
,
1000
0001
1000
0001
1000
0001
1000
0000
,
0001
0000
0000
0001
1000
0000
0000
1000
0001
0000
0000
0001
1000
0000
0000
1000
,
0010
0000
0000
0010
0100
0000
0000
0100
0010
0000
0000
0000
0000
0000
0000
0000
,
1000
0000
0000
1000
0001
0000
0000
0001
1000
0000
0000
1000
0001
0000
0000
0001
,
1000
0000
0000
1000
0100
0000
0000
0100
1000
0000
0000
0000
0000
0000
0000
0000
,
0001
0000
0000
0001
1000
0000
0000
1000
0001
0000
0000
0001
1000
0000
0000
1000
,
0010
0000
0000
0010
0100
0000
0000
0100
0010
0000
0000
0000
0000
0000
0000
0000
,
1000
0000
0000
1000
0001
0000
0000
0001
0100
0000
0000
0100
0001
0000
0000
0001
,
1000
0000
0000
1000
0010
0000
0000
0010
0100
0000
0000
0000
0000
0000
0000
0000
,
0001
0000
0001
0000
,
1000
0000
1000
0000
,
0010
0000
0000
0010
1000
0000
0000
1000
0001
0000
0000
0001
0010
0000
0000
0010
,
0001
0000
0000
0001
1000
0000
0000
1000
0010
0000
0000
0010
0100
0000
0000
0000
,
0010
0000
0100
0000
,
0001
1000
0001
1000
,
0110
0000
1000
0001
0000
1000
0001
0000
,
0100
0010
1000
0001
,
0110
0000
0100
0001
0000
0100
0010
0000
,
1000
1000
0001
0001
,
0110
0000
0010
0010
0000
0100
0100
0000
,
0001
0000
1000
0000
0010
0000
1000
0001
,
1000
0001
0010
0010
,
0001
0010
0001
0000
1000
0000
0001
0000
,
1000
0001
1000
0010
,
1000
0010
1000
0000
0001
0000
1000
0000
,
0001
1000
0001
0010
,
0001
0010
0001
0000
1000
0010
1000
0000
,
0001
0010
0001
0000
1000
0010
1000
0000
,
0100
0000
0100
0000
,
1000
0010
1000
0001
0000
1000
0001
1000
,
0001
0010
0001
1000
0000
0001
1000
0001
,
1000
0010
1000
0001
0000
1000
0001
1000
,
0001
0010
0001
1000
0000
0001
1000
0001
,
1000
0010
1000
0010
0000
1000
0001
1000
,
0001
0010
0001
0010
0000
0001
1000
0001
,
1000
0010
1000
0010
0000
1000
0001
1000
,
0001
0010
0001
0010
0000
0100
0010
0100
,
0000
1000
0000
0001
,
0000
0010
0000
0100
,
0010
0100
1000
0001
,
1000
0001
0100
0010
,
1000
0100
1000
0000
0001
0010
0001
0000
,
1000
0010
1000
0000
0001
0100
0001
0000
,
0001
0010
0001
0100
0001
0010
0001
1000
,
0010
1000
0100
1000
0010
1000
0100
0000
,
1000
0000
0000
1000
0001
0000
0000
0001
1000
0000
0000
1000
0001
0000
0000
0001
,
0010
0000
0000
0010
0001
0000
0000
0001
1000
0000
0000
1000
0010
0000
0000
0010
,
1000
0000
0000
1000
0010
0000
0000
0010
0100
0000
0000
0100
0001
0000
0000
0001
,
1000
0000
0001
0000
,
1000
0000
0100
0000
;

//---------------dance-solo - ----------------
#NOTES:
     dance-solo:
     :
     Beginner:
     3:
     0.268,0.331,0.043,0.000,0.000:
000000
000000
000000
000000
,
000000
000000
000000
000000
,
000000
000000
000000
000000
,
000000
000000
000000
000000
,
001000
000000
001000
000000
,
000010
000000
010000
000000
,
001000
000000
001000
000000
,
010000
000000
000010
000000
,
010000
000010
010000
000010
,
010000
000010
010000
000010
,
001000
000010
001000
000010
,
010010
010010
001000
000010
,
010000
000010
010000
000010
,
010000
000010
010000
000010
,
010000
001000
001000
001000
,
010010
010010
001000
000010
,
010000
000000
001000
000000
,
001000
000000
010000
000000
,
000010
010000
000010
010000
,
001000
001000
001000
001000
,
010000
000000
000010
000000
,
001000
001000
001000
001000
,
000010
000000
010000
000000
,
001000
001000
001000
001000
,
001000
000000
001000
000000
,
010000
000010
010000
000010
,
001000
000000
001000
000000
,
000010
010000
000010
010000
,
001000
001000
010000
001000
,
010000
000010
010000
000010
,
001000
001000
000010
010000
,
000010
001000
000010
010000
,
001000
010000
000010
001000
,
001000
000010
001000
000010
,
001000
000010
010000
000010
,
001000
001000
000010
000010
,
010000
000000
001000
000000
,
010000
000000
000010
000000
,
001000
000000
000010
000000
,
010000
000000
000010
000000
,
010000
000010
001000
000010
,
010000
001000
010000
000010
,
010000
000010
010000
000010
,
001000
000010
010000
000010
,
001000
000000
001000
000000
,
000010
001000
000010
000010
,
010000
000000
001000
000000
,
010000
001000
010000
010000
,
000010
000000
010000
000000
,
000010
010000
000010
010000
,
001000
000000
001000
000000
,
010000
000010
010000
000010
,
001000
000010
010000
001000
,
001000
010000
000010
001000
,
001000
001000
000010
010000
,
001000
000000
001000
000000
,
001000
000000
001000
000000
;

//---------------dance-solo - ----------------
#NOTES:
     dance-solo:
     :
     Easy:
     3:
     0.277,0.362,0.107,0.000,0.000:
000000
000000
000000
000000
,
000000
000000
000000
000000
,
000000
000000
000000
000000
,
000000
000000
000000
000000
,
000100
000000
001000
000000
,
000001
000000
100000
000000
,
000010
000000
100000
000000
,
000001
000000
010000
000000
,
000001
100000
000001
100000
,
000001
100000
000001
100000
,
000100
001000
000100
001000
,
100001
100001
001100
000010
,
100000
000001
100000
000001
,
100000
000001
100000
000001
,
100000
001000
000100
001000
,
100001
100001
001100
010000
,
000001
000000
001000
000000
,
000100
000000
100000
000000
,
000001
100000
000010
010000
,
001000
001000
001000
001000
,
100000
000000
000001
000000
,
000100
001000
000100
000100
,
000001
000000
100000
000000
,
001000
000100
001000
001000
,
000100
000000
001000
000000
,
100000
000001
100000
000001
,
001000
000000
000100
000000
,
100000
000001
100000
000001
,
000100
001000
100000
000100
,
001000
000001
010000
001000
,
000100
001000
100000
000010
,
100000
001000
100000
001000
,
010000
000001
100000
000100
,
001000
000001
001000
000001
,
001000
000010
100000
000001
,
100000
000001
100000
000001
,
010000
000000
001000
000000
,
100000
000000
000001
000000
,
001000
000000
000010
000000
,
100000
000000
000001
000000
,
100000
100000
000001
000001
,
000100
000100
001000
001000
,
010000
000001
100000
000001
,
001000
000010
100000
000001
,
001100
000000
001100
000000
,
010000
010000
000001
000001
,
001100
000000
001100
000000
,
000010
000010
001000
001000
,
000001
000000
100000
000000
,
000010
100000
000010
100000
,
000100
000000
001000
000000
,
000001
010000
000001
010000
,
001000
100000
000001
001000
,
000100
100000
000001
001000
,
000100
001000
000001
100000
,
000100
000000
000100
000000
,
000100
000000
000100
000000
;

//---------------dance-solo - ----------------
#NOTES:
     dance-solo:
     :
     Medium:
     5:
     0.318,0.392,0.181,0.000,0.000:
000000
000000
000000
000000
,
000000
000000
000000
000000
,
000000
000000
000000
000000
,
000000
000000
000000
000000
,
001000
000000
000000
010000
010000
000000
000000
000000
,
001100
000000
000000
000010
000010
000000
000000
000000
,
001100
000000
000000
010000
000010
000000
000000
000000
,
001100
000000
100001
000000
,
100000
000010
001000
000100
,
100000
000000
000100
001000
000100
000000
000000
000000
,
001000
010000
001000
000000
000010
001000
000010
000000
,
001100
001100
100001
000000
,
000001
010000
001000
000100
,
000001
000000
000100
001000
000100
000000
000000
000000
,
001000
000010
001000
000000
000010
001000
000010
000000
,
001100
001100
100001
000000
,
010000
010000
010000
000000
,
000010
000010
000010
000000
,
010000
000001
001000
000000
000010
100000
001000
000000
,
001100
000100
000100
000100
,
000001
000000
010000
001000
,
000100
000000
000001
000000
,
100000
000000
000001
000000
,
001000
000000
000010
100000
,
000001
000000
010000
000001
,
100000
000000
000100
000000
,
001000
000000
000001
000000
,
001100
000000
000101
000000
101000
000000
000100
001000
,
000100
001000
000100
001000
,
000100
100000
000100
100000
,
010000
000000
000100
001000
,
000100
000001
000100
000001
,
000010
000000
100000
100000
,
000001
000001
100000
000001
,
100000
000000
000100
001000
,
000100
000000
000100
000000
,
000100
000000
001000
000100
000000
001000
000100
000000
,
001000
000000
000100
001000
000000
000100
001000
000000
,
000001
000000
100000
000001
000000
100000
000001
000000
,
100000
000000
000001
100000
000000
000001
100000
000010
,
001000
000000
000010
001000
000000
010000
001000
000000
,
000100
000000
010000
000010
000000
100000
000001
000000
,
000100
000000
000010
100000
000000
000001
100000
000100
,
001000
000000
000001
100000
000000
001000
000100
001000
,
000001
000000
010000
001000
,
000100
000000
000001
000000
,
100000
000000
000001
000000
,
001000
000000
000010
100000
,
000001
000000
010000
000001
,
100000
000000
000100
000000
,
001000
000000
000001
000000
,
001100
000000
000101
000000
101000
000000
000001
100000
,
000001
100000
000001
100000
,
000100
000000
000100
000000
,
100000
000000
000001
000000
000100
000000
001000
000100
,
001000
100000
000001
100000
,
000001
000000
000100
000000
;

//---------------dance-solo - ----------------
#NOTES:
     dance-solo:
     :
     Hard:
     8:
     0.454,0.512,0.032,0.000,0.229:
000000
000000
000000
000000
,
000000
000000
000000
000000
,
000000
000000
000000
000000
,
000000
000000
000000
000000
,
100000
000001
100000
000001
100000
000001
100000
000001
,
000100
001000
000100
001000
100000
000001
100000
000001
,
000100
001000
000100
001000
000100
001000
000100
001000
,
100000
000001
100000
000001
100000
000001
100000
000000
,
000001
000000
000000
000001
100000
000000
000000
100000
000001
000000
000000
000001
100000
000000
000000
100000
,
000100
000000
000000
000100
001000
000000
000000
001000
000100
000000
000000
000000
000000
000000
000000
000000
,
100000
000000
000000
100000
000001
000000
000000
000001
100000
000000
000000
100000
000001
000000
000000
000001
,
010000
000000
000000
010000
001000
000000
000000
001000
010000
000000
000000
000000
000000
000000
000000
000000
,
000001
000000
000000
000001
100000
000000
000000
100000
000001
000000
000000
000001
100000
000000
000000
100000
,
000100
000000
000000
000100
001000
000000
000000
001000
000100
000000
000000
000000
000000
000000
000000
000000
,
100000
000000
000000
100000
000010
000000
000000
000010
001000
000000
000000
001000
000001
000000
000000
000001
,
100000
000000
000000
100000
000010
000000
000000
000010
001000
000000
000000
000000
000000
000000
000000
000000
,
000001
000000
000001
000000
,
100000
000000
100000
000000
,
000010
000000
000000
000010
100000
000000
000000
100000
000001
000000
000000
000001
010000
000000
000000
010000
,
000001
000000
000000
000001
100000
000000
000000
100000
000100
000000
000000
000100
001000
000000
000000
000000
,
000100
000000
001000
000000
,
000001
100000
000001
100000
,
001100
000000
100000
000001
000000
100000
000001
000000
,
001000
000100
100000
000001
,
001100
000000
001000
000010
000000
001000
010000
000000
,
100000
100000
000001
000001
,
001100
000000
000100
000100
000000
001000
001000
000000
,
000001
000000
100000
000000
000100
000000
100000
000001
,
100000
000001
000100
000100
,
000001
000010
000001
000000
010000
000000
000001
000000
,
010000
000001
100000
000100
,
100000
010000
100000
000000
000010
000000
100000
000000
,
000010
100000
000001
000100
,
000001
000010
000001
000000
100000
010000
100000
000000
,
000001
000010
000001
000000
100000
010000
100000
000000
,
001000
000000
001000
000000
,
100000
010000
100000
000010
000000
100000
000001
100000
,
000001
000010
000001
010000
000000
000001
100000
000001
,
100000
010000
100000
000010
000000
100000
000001
100000
,
000001
000010
000001
010000
000000
000001
100000
000001
,
100000
010000
100000
010000
000000
100000
000001
100000
,
000001
000010
000001
000010
000000
000001
100000
000001
,
100000
010000
100000
010000
000000
100000
000001
100000
,
000001
000010
000001
000010
000000
001000
000100
001000
,
000000
100000
000000
000001
,
000000
000100
000000
001000
,
000100
001000
100000
000001
,
010000
000010
001000
000100
,
100000
001000
100000
000000
000001
000010
000001
000000
,
100000
010000
100000
000000
000001
001000
000001
000000
,
000001
000010
000001
001000
000001
000010
000001
100000
,
010000
100000
001000
100000
010000
100000
001000
000000
,
100000
000000
000000
100000
000001
000000
000000
000001
100000
000000
000000
100000
000001
000000
000000
000001
,
010000
000000
000000
010000
000001
000000
000000
000001
100000
000000
000000
100000
000010
000000
000000
000010
,
100000
000000
000000
100000
000100
000000
000000
000100
001000
000000
000000
001000
000001
000000
000000
000001
,
100000
000000
000001
000000
,
010000
000000
001000
000000
;

//---------------dance-solo - [3P-TRICK]----------------
#NOTES:
     dance-solo:
     [3P-TRICK]:
     Edit:
     5:
     0.300,0.362,0.075,0.000,0.000:
000000
000000
000000
000000
,
000000
000000
000000
000000
,
000000
000000
000000
000000
,
000000
000000
000000
000000
,
001000
000000
000000
010000
010000
000000
000000
000000
,
001000
000000
000000
000010
000010
000000
000000
000000
,
001000
000000
000000
010000
000010
000000
000000
000000
,
001000
000000
010010
000000
,
001000
000010
001000
001000
,
010000
000000
001000
001000
001000
000000
000000
000000
,
001000
000010
001000
000000
000010
001000
000010
000000
,
001000
001000
010010
000000
,
001000
010000
001000
001000
,
000010
000000
001000
001000
001000
000000
000000
000000
,
001000
001000
001000
000000
010000
001000
010000
000000
,
001000
001000
010010
000000
,
001000
010000
001000
000000
,
010000
001000
001000
000000
,
000010
010000
001000
000000
010000
000010
001000
000000
,
001000
001000
001000
001000
,
010000
000000
000010
001000
,
001000
000000
010000
000000
,
000010
000000
010000
000000
,
001000
000000
010000
000010
,
010000
000000
000010
010000
,
000010
000000
001000
000000
,
001000
000000
010000
000000
,
001000
000000
011000
000000
001010
000000
001000
001000
,
001000
001000
001000
001000
,
001000
010000
001000
001000
,
001000
000000
001000
001000
,
001000
000010
001000
001000
,
010000
000000
000010
001000
,
010000
001000
000010
010000
,
000010
000000
001000
001000
,
001000
000000
001000
000000
,
001000
000000
001000
001000
000000
001000
001000
000000
,
001000
000000
001000
001000
000000
001000
001000
000000
,
010000
000000
000010
010000
000000
000010
010000
000000
,
000010
000000
010000
000010
000000
010000
000010
010000
,
001000
000000
010000
001000
000000
001000
001000
000000
,
001000
000000
000010
010000
000000
000010
010000
000000
,
001000
000000
010000
000010
000000
010000
000010
001000
,
001000
010000
000010
010000
,
000010
000000
010000
001000
,
001000
000000
000010
000000
,
010000
000000
000010
000000
,
001000
000000
000010
010000
,
000010
000000
010000
000010
,
010000
000000
001000
000000
,
001000
000000
000010
000000
,
001000
000000
001010
000000
011000
000000
000010
010000
,
000010
010000
000010
010000
,
001000
000000
001000
000000
,
010000
000000
000010
000000
001000
000000
001000
001000
,
001000
010000
000010
010000
,
000010
000000
001000
000000
;

//---------------dance-solo - ----------------
#NOTES:
     dance-solo:
     :
     Challenge:
     8:
     0.450,0.512,0.000,0.000,0.229:
000000
000000
000000
000000
,
000000
000000
000000
000000
,
000000
000000
000000
000000
,
000000
000000
000000
000000
,
010000
000010
010000
000010
010000
000010
010000
000010
,
001000
001000
001000
001000
010000
000010
010000
000010
,
001000
001000
001000
001000
001000
001000
001000
001000
,
010000
000010
010000
000010
010000
000010
010000
000000
,
000010
000000
000000
001000
010000
000000
000000
001000
000010
000000
000000
001000
010000
000000
000000
001000
,
001000
000000
000000
001000
001000
000000
000000
001000
001000
000000
000000
000000
000000
000000
000000
000000
,
010000
000000
000000
001000
000010
000000
000000
001000
010000
000000
000000
001000
000010
000000
000000
001000
,
010000
000000
000000
010000
001000
000000
000000
001000
010000
000000
000000
000000
000000
000000
000000
000000
,
000010
000000
000000
001000
010000
000000
000000
001000
000010
000000
000000
001000
010000
000000
000000
001000
,
001000
000000
000000
001000
001000
000000
000000
001000
001000
000000
000000
000000
000000
000000
000000
000000
,
010000
000000
000000
001000
000010
000000
000000
000010
001000
000000
000000
001000
000010
000000
000000
001000
,
010000
000000
000000
001000
001000
000000
000000
001000
001000
000000
000000
000000
000000
000000
000000
000000
,
000010
000000
001000
000000
,
010000
000000
001000
000000
,
001000
000000
000000
001000
010000
000000
000000
001000
000010
000000
000000
001000
001000
000000
000000
001000
,
000010
000000
000000
001000
010000
000000
000000
001000
001000
000000
000000
001000
001000
000000
000000
000000
,
001000
000000
001000
000000
,
000010
010000
000010
010000
,
001000
000000
010000
000010
000000
010000
000010
000000
,
001000
001000
010000
000010
,
001000
000000
001000
000010
000000
001000
001000
000000
,
010000
001000
000010
000010
,
001000
000000
001000
001000
000000
001000
001000
000000
,
000010
000000
010000
000000
001000
000000
010000
000010
,
010000
000010
001000
001000
,
000010
001000
000010
000000
010000
000000
000010
000000
,
010000
000010
010000
001000
,
010000
001000
010000
000000
000010
000000
010000
000000
,
000010
010000
000010
001000
,
000010
001000
000010
000000
010000
001000
010000
000000
,
000010
001000
000010
000000
010000
001000
010000
000000
,
001000
000000
001000
000000
,
010000
001000
010000
000010
000000
010000
000010
010000
,
000010
001000
000010
010000
000000
000010
010000
000010
,
010000
001000
010000
000010
000000
010000
000010
010000
,
000010
001000
000010
010000
000000
000010
010000
000010
,
010000
001000
010000
001000
000000
010000
000010
010000
,
000010
001000
000010
001000
000000
000010
010000
000010
,
010000
001000
010000
001000
000000
010000
000010
010000
,
000010
001000
000010
001000
000000
001000
001000
001000
,
000000
010000
000000
000010
,
000000
001000
000000
001000
,
001000
001000
010000
000010
,
010000
000010
001000
001000
,
010000
001000
010000
000000
000010
001000
000010
000000
,
010000
001000
010000
000000
000010
001000
000010
000000
,
001000
001000
000010
001000
000010
001000
000010
010000
,
001000
010000
001000
010000
001000
010000
001000
000000
,
010000
000000
000000
001000
000010
000000
000000
001000
010000
000000
000000
001000
000010
000000
000000
001000
,
001000
000000
000000
001000
000010
000000
000000
001000
010000
000000
000000
001000
001000
000000
000000
001000
,
010000
000000
000000
001000
001000
000000
000000
001000
001000
000000
000000
001000
000010
000000
000000
001000
,
010000
000000
000010
000000
,
010000
000000
001000
000000
;

//---------------dance-single - ----------------
#NOTES:
     dance-single:
     :
     Beginner:
     1:
     0.117,0.149,0.011,0.085,0.000:
0000
0000
0000
0000
,
0000
0000
0000
0000
,
0000
0000
0000
0000
,
0000
0000
0000
0000
,
0001
0000
0000
0000
,
1000
0000
0000
0000
,
0001
0000
0000
0000
,
1000
0000
0000
0000
,
0100
0000
0100
0000
,
0100
0000
0000
0000
,
0001
0000
0000
0000
,
1000
0000
0000
0000
,
0100
0000
0100
0000
,
0100
0000
0000
0000
,
1000
0000
0000
0000
,
0001
0000
0000
0000
,
0100
0000
0000
0000
,
1000
0000
0000
0000
,
0010
0000
0000
0000
,
0100
0000
0100
0000
,
0200
0000
0300
0000
,
0100
0000
0000
0000
,
2000
0000
3000
0000
,
1000
0000
0000
0000
,
0002
0000
0003
0000
,
0001
0000
0000
0000
,
0200
0000
0300
0000
,
0100
0000
0000
0000
,
0010
0000
0010
0000
,
0010
0000
0010
0000
,
0020
0000
0030
0000
,
0010
0000
0000
0000
,
0100
0000
0100
0000
,
0100
0000
0100
0000
,
0200
0000
0300
0000
,
0100
0000
0000
0000
,
0010
0000
0000
0000
,
0001
0000
0000
0000
,
0100
0000
0000
0000
,
1000
0000
0000
0000
,
0001
0001
0000
0000
,
0100
0100
0000
0000
,
1000
1000
0000
0000
,
0010
0010
0000
0000
,
1000
0000
0001
0000
,
1000
0000
0000
0000
,
0100
0000
0001
0000
,
0100
0000
0000
0000
,
0001
0000
1000
0000
,
0001
0000
0000
0000
,
1000
0000
0100
0000
,
1000
0000
0000
0000
,
0002
0000
0003
0000
,
0001
0000
0000
0000
,
2000
0000
3000
0000
,
1000
0000
0000
0000
,
1001
0000
0000
0000
;

//---------------dance-double - ----------------
#NOTES:
     dance-double:
     :
     Beginner:
     1:
     0.117,0.149,0.011,0.085,0.000: // measure 1
00000000
00000000
00000000
00000000
,  // measure 2
00000000
00000000
00000000
00000000
,  // measure 3
00000000
00000000
00000000
00000000
,  // measure 4
00000000
00000000
00000000
00000000
,  // measure 5
00000001
00000000
00000000
00000000
,  // measure 6
00001000
00000000
00000000
00000000
,  // measure 7
00000001
00000000
00000000
00000000
,  // measure 8
00001000
00000000
00000000
00000000
,  // measure 9
00000100
00000000
00000100
00000000
,  // measure 10
00000100
00000000
00000000
00000000
,  // measure 11
00010000
00000000
00000000
00000000
,  // measure 12
00001000
00000000
00000000
00000000
,  // measure 13
01000000
00000000
01000000
00000000
,  // measure 14
01000000
00000000
00000000
00000000
,  // measure 15
00001000
00000000
00000000
00000000
,  // measure 16
00010000
00000000
00000000
00000000
,  // measure 17
01000000
00000000
00000000
00000000
,  // measure 18
10000000
00000000
00000000
00000000
,  // measure 19
00100000
00000000
00000000
00000000
,  // measure 20
01000000
00000000
01000000
00000000
,  // measure 21
02000000
00000000
03000000
00000000
,  // measure 22
01000000
00000000
00000000
00000000
,  // measure 23
00002000
00000000
00003000
00000000
,  // measure 24
00001000
00000000
00000000
00000000
,  // measure 25
00020000
00000000
00030000
00000000
,  // measure 26
00010000
00000000
00000000
00000000
,  // measure 27
00000200
00000000
00000300
00000000
,  // measure 28
00000100
00000000
00000000
00000000
,  // measure 29
00000010
00000000
00000010
00000000
,  // measure 30
00000010
00000000
00000010
00000000
,  // measure 31
00000020
00000000
00000030
00000000
,  // measure 32
00000010
00000000
00000000
00000000
,  // measure 33
00000100
00000000
00000100
00000000
,  // measure 34
00000100
00000000
00000100
00000000
,  // measure 35
00000200
00000000
00000300
00000000
,  // measure 36
00000100
00000000
00000000
00000000
,  // measure 37
00000010
00000000
00000000
00000000
,  // measure 38
00000001
00000000
00000000
00000000
,  // measure 39
00000100
00000000
00000000
00000000
,  // measure 40
00001000
00000000
00000000
00000000
,  // measure 41
00010000
00010000
00000000
00000000
,  // measure 42
01000000
01000000
00000000
00000000
,  // measure 43
10000000
10000000
00000000
00000000
,  // measure 44
00100000
00100000
00000000
00000000
,  // measure 45
10000000
00000000
00010000
00000000
,  // measure 46
10000000
00000000
00000000
00000000
,  // measure 47
01000000
00000000
00010000
00000000
,  // measure 48
01000000
00000000
00000000
00000000
,  // measure 49
00010000
00000000
00001000
00000000
,  // measure 50
00010000
00000000
00000000
00000000
,  // measure 51
00001000
00000000
00000100
00000000
,  // measure 52
00001000
00000000
00000000
00000000
,  // measure 53
00000002
00000000
00000003
00000000
,  // measure 54
00000001
00000000
00000000
00000000
,  // measure 55
00002000
00000000
00003000
00000000
,  // measure 56
00001000
00000000
00000000
00000000
,  // measure 57
00001001
00000000
00000000
00000000
;

//---------------dance-double - ----------------
#NOTES:
     dance-double:
     :
     Easy:
     3:
     0.213,0.241,0.000,0.213,0.000: // measure 1
00000000
00000000
00000000
00000000
,  // measure 2
00000000
00000000
00000000
00000000
,  // measure 3
00000000
00000000
00000000
00000000
,  // measure 4
00000000
00000000
00000000
00000000
,  // measure 5
00010000
00000000
00100000
00000000
,  // measure 6
01000000
00000000
10000000
00000000
,  // measure 7
00010000
00000000
00100000
00000000
,  // measure 8
01000000
00000000
10000000
00000000
,  // measure 9
00100000
00000000
10000000
00000000
,  // measure 10
01000000
00000000
00010000
00000000
,  // measure 11
00001000
00000000
00000100
00000000
,  // measure 12
00000002
00000000
00000003
00000000
,  // measure 13
00000010
00000000
00000001
00000000
,  // measure 14
00000100
00000000
00001000
00000000
,  // measure 15
00010000
00000000
00100000
00000000
,  // measure 16
20000000
00000000
30000000
00000000
,  // measure 17
00200000
00000000
00300000
00000000
,  // measure 18
00020000
00000000
00030000
00000000
,  // measure 19
00002000
00000000
00003000
00000000
,  // measure 20
00000020
00000000
00000030
00000000
,  // measure 21
00000001
00001000
00000001
00001000
,  // measure 22
00000002
00000000
00000013
00000000
,  // measure 23
00000100
00001000
00000100
00001000
,  // measure 24
00000200
00000000
00010300
00000000
,  // measure 25
00001000
00010000
00001000
00010000
,  // measure 26
00002000
00000000
01003000
00000000
,  // measure 27
00010000
10000000
00010000
10000000
,  // measure 28
00020000
00000000
00130000
00000000
,  // measure 29
01000000
00000000
10000000
00000000
,  // measure 30
00100000
00000000
00010000
00000000
,  // measure 31
00001000
00000000
00000010
00000000
,  // measure 32
00000002
00000000
00000003
00000000
,  // measure 33
00000100
00000000
00000001
00000000
,  // measure 34
00000010
00000000
00001000
00000000
,  // measure 35
00010000
00000000
00100000
00000000
,  // measure 36
20000000
00000000
30000000
00000000
,  // measure 37
01000000
00100000
00010000
00000000
,  // measure 38
01000000
00100000
00010000
00000000
,  // measure 39
00001000
00000100
00000010
00000000
,  // measure 40
00001000
00000100
00000010
00000000
,  // measure 41
00000010
00000100
00001000
00000000
,  // measure 42
00000010
00000100
00001000
00000000
,  // measure 43
00010000
00100000
01000000
00000000
,  // measure 44
00010000
00100000
01000000
00000000
,  // measure 45
10000000
00010000
10000000
00010000
,  // measure 46
20000000
00000000
30100000
00000000
,  // measure 47
01000000
00010000
01000000
00010000
,  // measure 48
02000000
00000000
03001000
00000000
,  // measure 49
00010000
00001000
00010000
00001000
,  // measure 50
00020000
00000000
00030100
00000000
,  // measure 51
00001000
00000001
00001000
00000001
,  // measure 52
00002000
00000000
00003010
00000000
,  // measure 53
00000200
00000000
00000000
00000300
,  // measure 54
00000001
00001000
00000001
00001000
,  // measure 55
00000200
00000000
00000300
00000000
,  // measure 56
00002000
00000000
00003000
00000000
,  // measure 57
00000002
00000000
00000003
00000000
;

//---------------dance-double - ----------------
#NOTES:
     dance-double:
     :
     Medium:
     5:
     0.396,0.390,0.000,0.224,0.000: // measure 1
00000000
00000000
00000000
00000000
,  // measure 2
00000000
00000000
00000000
00000000
,  // measure 3
00000000
00000000
00000000
00000000
,  // measure 4
00000000
00000000
00000000
00000000
,  // measure 5
00000001
00000100
00001000
00000100
,  // measure 6
00000001
00000000
00000100
00000000
00001000
00000000
00010000
00001000
,  // measure 7
00010000
01000000
10000000
01000000
,  // measure 8
00010000
01000000
10000000
01000000
,  // measure 9
00010000
00001000
00010000
00000000
00001000
00010000
00001000
00000000
,  // measure 10
00010000
00000100
00001000
00000001
00000200
00000000
00000300
00000000
,  // measure 11
00000001
00000010
00000100
00000000
00001000
00000100
00000010
00000000
,  // measure 12
00000001
00000010
00000100
00001000
00000002
00000000
00000003
00000000
,  // measure 13
00000100
00000001
00000100
00000000
00000010
00001000
00000010
00000000
,  // measure 14
00010000
00001000
00010000
00001000
02000000
00000000
03000000
00000000
,  // measure 15
00010000
00100000
01000000
00000000
10000000
01000000
00100000
00000000
,  // measure 16
00010000
00100000
01000000
10000000
00020000
00000000
00030000
00000000
,  // measure 17
20000000
31000000
00020000
01030000
,  // measure 18
20000000
30100000
00020000
00130000
,  // measure 19
01000000
00010000
00001000
00000100
,  // measure 20
00000002
00000023
00000230
00002300
,  // measure 21
00003000
00000001
00000100
00000001
00000000
00000100
00000001
00000100
,  // measure 22
00000000
00000000
00000001
00000000
00001000
00000000
00000001
00001000
,  // measure 23
00000000
00000010
00001000
00000010
00000000
00001000
00000010
00001000
,  // measure 24
00000001
00000000
00000100
00000000
00001000
00000000
00010000
00001000
,  // measure 25
00000000
01000000
00010000
01000000
00000000
00010000
01000000
00010000
,  // measure 26
00000000
00000000
10000000
00000000
00010000
00000000
10000000
00010000
,  // measure 27
00000000
10000000
00100000
10000000
00000000
00100000
10000000
00100000
,  // measure 28
01000000
00000000
00001000
00000000
00010000
00000000
00001000
00020000
,  // measure 29
00000000
00000000
00000000
00030000
,  // measure 30
00000100
00001000
00000000
00000002
00000000
00000000
00000100
00000203
,  // measure 31
00000000
00000000
00000000
00000000
00000300
00000000
00000001
00000100
,  // measure 32
00000001
00000010
00000000
00000200
00000000
00000000
00001000
00001300
,  // measure 33
00000000
00000000
00000000
00000000
00000000
00000100
00000000
00000000
,  // measure 34
00010000
00001000
00000000
01000000
00000000
00000000
00010000
20000000
,  // measure 35
00000000
00000000
00000000
00000000
30000000
00000000
00010000
00100000
,  // measure 36
00010000
00000000
10000000
00000000
00100000
00000000
10000000
01000000
,  // measure 37
10000000
00000000
00100000
00000000
00010000
00000000
00001000
00010000
,  // measure 38
00001000
00000000
00000010
00000000
00000001
00000000
00000100
00000001
,  // measure 39
00000100
00000000
00001000
00000000
00010000
00000000
01000000
00010000
,  // measure 40
01000000
00000000
10000000
00000000
00100000
00000000
00010000
00100000
,  // measure 41
00010000
00000000
00001000
00000000
00000010
00000000
00000001
00000010
,  // measure 42
00000001
00000000
00000100
00000000
00001000
00000000
00010000
00001000
,  // measure 43
00010000
00000000
01000000
00000000
10000000
00000000
00100000
10000000
,  // measure 44
00100000
00000000
00010000
00000000
00001000
00000000
00010000
00001000
,  // measure 45
00010000
00000000
00000100
00001000
00000100
00000000
00000010
00000001
,  // measure 46
00000010
00000000
00000100
00000000
00001000
00000000
00000001
00000100
,  // measure 47
00000000
00000010
00001000
00000010
00000000
00010000
00001000
00010000
,  // measure 48
00001000
00000000
01000000
00000000
00100000
00000000
10000000
01000000
,  // measure 49
00000000
00100000
00010000
00100000
00000000
01000000
10000000
01000000
,  // measure 50
00000000
00000000
00100000
00000000
00001000
00000000
00010000
00001000
,  // measure 51
00000000
00000100
00000001
00000100
00000000
00000010
00001000
00000010
,  // measure 52
00000100
00000000
00000001
00000000
00001000
00000000
00000001
00002000
,  // measure 53
00000000
00000000
00000000
00003000
,  // measure 54
00000001
00000100
00000000
00000002
00000000
00000000
00001000
00002003
,  // measure 55
00000000
00000000
00000000
00000000
00003000
00000000
00000001
00000010
,  // measure 56
00000001
00000000
00000100
00000000
00001000
00000000
00010000
00002000
,  // measure 57
00000000
00003000
00000000
00000000
;

//---------------dance-double - ----------------
#NOTES:
     dance-double:
     :
     Hard:
     8:
     0.532,0.512,0.075,0.107,0.021: // measure 1
00000000
00000000
00000000
00000000
,  // measure 2
00000000
00000000
00000000
00000000
,  // measure 3
00000000
00000000
00000000
00000000
,  // measure 4
00000000
00000000
00000000
00000000
,  // measure 5
00010000
00001000
00010000
00001000
00010000
00001000
00010000
00000100
,  // measure 6
00001000
00000001
00001000
00000001
00001000
00000001
00001000
00000100
,  // measure 7
00010000
00001000
00010000
00001000
00010000
00001000
00010000
00001000
,  // measure 8
01000000
00010000
10000000
00010000
10000000
00010000
10000000
00000000
,  // measure 9
00100000
00000000
10000000
00000000
00100000
00000000
00000000
00000000
01000000
00000000
00010000
00000000
01000000
00000000
00000000
00010000
,  // measure 10
00100000
00010000
00100000
00001000
00020000
00000000
00030000
00000000
,  // measure 11
00000010
00001000
00000100
00000000
00000010
00000001
00000100
00000000
,  // measure 12
00000001
00000100
00001000
00010000
00011000
00000000
00000000
00000000
,  // measure 13
00001000
00000000
01000000
00000000
00001000
00000000
01000000
00000000
00010000
00000000
00100000
00000000
00010000
00000000
00000000
10000000
,  // measure 14
00010000
10000000
00010000
00100000
02000000
00000000
03000000
00000000
,  // measure 15
00100000
00010000
01000000
00000000
00100000
10000000
01000000
00000000
,  // measure 16
10000000
00000000
01000000
00000000
00010000
00000000
00001000
00000000
00011000
00000000
00000000
00000000
00010000
00000000
00000000
00001000
,  // measure 17
00010000
00000000
00000000
00000000
00001000
00000000
00000000
00010000
00001000
00000000
00000000
00000000
00000100
00000000
00000001
00000000
,  // measure 18
00000100
00000000
00000001
00000010
00000002
00000000
00000003
00001000
,  // measure 19
00000100
00000010
00000001
00001000
00000100
00000010
00000001
00001000
,  // measure 20
00001010
00000101
00000011
00001100
,  // measure 21
00000000
00001000
00000001
00001000
00000000
00000001
00001000
00000001
,  // measure 22
00000000
00000000
00000100
00000000
00000010
00000000
00000100
00000001
,  // measure 23
00000000
00001000
00000001
00001000
00000000
00000001
00001000
00000001
,  // measure 24
00001000
00001000
00000100
00000100
00010000
00010000
00001000
01000000
,  // measure 25
00000000
00010000
10000000
00010000
00000000
10000000
00010000
10000000
,  // measure 26
00000000
00000000
01000000
00000000
00100000
00000000
01000000
10000000
,  // measure 27
00000000
00010000
10000000
00010000
00000000
10000000
00010000
10000000
,  // measure 28
00100000
01000000
00010000
00100000
00001000
00010000
00000100
00001000
,  // measure 29
00000010
00000100
00000001
00000000
00000010
00000100
00001000
00000000
,  // measure 30
00000001
00000100
00001000
00010000
01000000
10000000
00010000
00000000
,  // measure 31
00100000
01000000
10000000
00000000
00100000
01000000
00010000
00000000
,  // measure 32
10000000
01000000
00010000
00001000
00000100
00000001
00001000
00000000
,  // measure 33
00000100
00000010
00000001
00000000
00000100
00000010
00001000
00000000
,  // measure 34
00000001
00000100
00000010
00001000
00000100
00000010
00000001
00000000
,  // measure 35
00000100
00000010
00001000
00000100
00010000
00000100
00001000
00000010
,  // measure 36
00010000
00001000
00100000
00010000
00100000
01000000
10000000
00000000
,  // measure 37
00010000
01000000
00010000
10000000
00000000
00100000
01000000
00010000
,  // measure 38
01000000
00001000
00010000
00001000
00000000
00010000
00001000
00010000
,  // measure 39
00000100
00001000
00000010
00001000
00000000
00000001
00000010
00000001
,  // measure 40
00001000
00000100
00000010
00000100
00000000
00001000
00000001
00000100
,  // measure 41
00000001
00001000
00000010
00001000
00000000
00000100
00010000
00001000
,  // measure 42
00010000
00001000
01000000
00010000
00000000
00100000
01000000
10000000
,  // measure 43
01000000
00100000
00010000
00100000
00000000
01000000
10000000
01000000
,  // measure 44
00100000
00010000
01000000
00010000
00000000
10000000
01000000
00100000
,  // measure 45
00010000
10000000
00010000
10000000
00000000
00010000
10000000
00010000
,  // measure 46
00000000
00000000
01000000
00000000
00001000
00000000
00010000
00001000
,  // measure 47
00000000
00010000
00001000
00010000
00000000
00001000
00010000
00001000
,  // measure 48
00010000
00010000
00000100
00000100
00000010
00000010
00000001
00001000
,  // measure 49
00000000
00000001
00001000
00000001
00000000
00001000
00000001
00001000
,  // measure 50
00000000
00000000
00000100
00000000
00010000
00000000
00001000
00010000
,  // measure 51
00000000
00001000
00010000
01000000
00000000
00010000
00001000
00000100
,  // measure 52
00000001
00000010
00000100
00001000
00000001
00000010
00000100
00001000
,  // measure 53
00002002
00000000
00000000
00003003
,  // measure 54
00000010
00010000
00001000
00100000
00001000
00010000
00000100
00010000
,  // measure 55
00001000
01000000
00001000
00010000
00000010
00010000
00001000
01000000
,  // measure 56
00020000
00000000
00230000
00000000
02300000
00000000
23000000
00020000
,  // measure 57
00000000
00000000
30030000
00000000
;
