#TITLE:Macho Gang;
#SUBTITLE:;
#ARTIST:ANAL SPYDER;
#TITLETRANSLIT:;
#SUBTITLETRANSLIT:;
#ARTISTTRANSLIT:;
#CREDIT:;
#BANNER:Macho Gang.png;
#BACKGROUND:Macho Gang-bg.png;
#LYRICSPATH:;
#CDTITLE:CDTITLES/Konami original.png;
#MUSIC:Macho Gang.mp3;
#OFFSET:-0.059;
#SAMPLESTART:61.390;
#SAMPLELENGTH:12.000;
#SELECTABLE:YES;
#BPMS:0.000=125.090;
#STOPS:;
#BGCHANGES:;

//---------------dance-single - ----------------
#NOTES:
     dance-single:
     :
     Easy:
     5:
     0.351,0.336,0.688,0.000,0.000: // measure 1
0000
0000
0000
0000
,  // measure 2
0000
0000
0000
0000
,  // measure 3
0000
0000
0000
0000
,  // measure 4
0000
0000
0000
0000
,  // measure 5
1000
0001
1000
0001
,  // measure 6
0010
0100
0010
0100
,  // measure 7
1000
0001
1000
0001
,  // measure 8
0010
0100
0010
0100
,  // measure 9
1000
0001
0100
0010
,  // measure 10
1000
0100
0010
0001
,  // measure 11
1000
0001
0100
0010
,  // measure 12
1000
0100
0010
0001
,  // measure 13
1000
0000
0001
0000
,  // measure 14
1000
0000
0001
0000
,  // measure 15
1000
0000
0001
0000
,  // measure 16
1001
0000
0000
0000
,  // measure 17
1000
0001
1001
1001
,  // measure 18
0001
1000
0110
0110
,  // measure 19
1000
0001
1001
1001
,  // measure 20
0001
1000
0110
0110
,  // measure 21
1000
0001
1001
1001
,  // measure 22
0001
1000
0110
0110
,  // measure 23
1000
0001
1001
1001
,  // measure 24
0001
1000
0110
0110
,  // measure 25
1000
0001
0110
1001
,  // measure 26
0010
0100
1001
0110
,  // measure 27
1000
0001
0110
1001
,  // measure 28
0010
0100
1001
0110
,  // measure 29
0001
1000
0110
1001
,  // measure 30
0100
0010
1001
0110
,  // measure 31
0001
1000
0110
1001
,  // measure 32
0100
0010
1001
0110
,  // measure 33
0001
0100
1010
1010
,  // measure 34
0100
0001
1010
1010
,  // measure 35
0001
0100
1010
1010
,  // measure 36
0100
0001
1010
0101
,  // measure 37
1000
0010
0101
0101
,  // measure 38
0010
1000
0101
0101
,  // measure 39
1000
0010
0101
0101
,  // measure 40
0010
1000
0101
1010
,  // measure 41
0000
0000
0000
0000
,  // measure 42
0001
0100
1010
0110
,  // measure 43
1000
0010
0101
1001
,  // measure 44
0010
0100
0011
1100
,  // measure 45
0001
0100
0110
1001
,  // measure 46
0100
0010
1100
0101
,  // measure 47
0010
1000
0011
1010
,  // measure 48
0001
1000
0101
0011
,  // measure 49
0100
1000
0101
1001
;

//---------------dance-single - ----------------
#NOTES:
     dance-single:
     :
     Medium:
     7:
     0.409,0.439,0.350,0.000,0.000: // measure 1
0000
0000
0000
0000
,  // measure 2
0000
0000
0000
0000
,  // measure 3
0000
0000
0000
0000
,  // measure 4
0000
0000
0000
0000
,  // measure 5
1000
0100
1000
0010
1000
0100
1000
0010
,  // measure 6
1000
0100
1000
0010
1000
0100
1000
0010
,  // measure 7
0100
0001
0010
0001
0100
0001
0010
0001
,  // measure 8
0100
0001
0010
0001
0100
0001
0010
0001
,  // measure 9
0100
0010
1000
0100
0010
0001
0100
0010
,  // measure 10
1000
0100
0010
0001
0100
0010
1000
0100
,  // measure 11
0010
0001
0100
0010
1000
0100
0010
0001
,  // measure 12
0100
0010
1000
0100
0010
0001
0100
0010
,  // measure 13
1000
0001
1000
0001
,  // measure 14
1000
0001
1000
0001
,  // measure 15
1000
0001
1000
0001
,  // measure 16
1000
0000
0000
0000
,  // measure 17
1000
0000
0001
0000
1000
0001
1000
0000
,  // measure 18
0001
0000
1000
0000
0001
1000
0001
0000
,  // measure 19
1000
0000
0001
0000
1000
0001
1000
0000
,  // measure 20
0001
0000
1000
0000
0001
1000
0001
0000
,  // measure 21
1000
0000
0001
0000
1000
0001
1000
0000
,  // measure 22
0001
0000
1000
0000
0001
1000
0001
0000
,  // measure 23
1000
0000
0001
0000
1000
0001
1000
0000
,  // measure 24
0001
0000
1000
0000
0001
1000
0001
0000
,  // measure 25
1000
0000
0001
0000
0010
0100
0010
0000
,  // measure 26
0001
0000
1000
0000
0010
0100
0010
0000
,  // measure 27
1000
0000
0001
0000
0100
0010
0100
0000
,  // measure 28
0001
0000
1000
0000
0100
0010
0100
0000
,  // measure 29
1000
0000
0001
0000
0010
0100
0010
0000
,  // measure 30
0001
0000
1000
0000
0010
0100
0010
0000
,  // measure 31
1000
0000
0001
0000
0100
0010
0100
0000
,  // measure 32
0001
0000
1000
0000
0100
0010
0100
0000
,  // measure 33
1001
0000
1001
0000
0010
0100
0010
0000
,  // measure 34
1001
0000
1001
0000
0100
0010
0100
0000
,  // measure 35
1001
0000
1001
0000
0010
0100
0010
0000
,  // measure 36
1001
0000
1001
0000
0100
0010
0100
0000
,  // measure 37
1100
0000
0011
0000
0010
0100
0010
0000
,  // measure 38
1100
0000
0011
0000
0100
0010
0100
0000
,  // measure 39
1001
0000
0101
0000
0010
0100
0010
0000
,  // measure 40
1001
0000
1010
0000
0100
0010
0100
0000
,  // measure 41
0000
0000
0000
0000
,  // measure 42
1001
0000
0110
0000
0001
1000
0001
0000
,  // measure 43
0110
0000
1001
0000
0100
0010
0100
0000
,  // measure 44
1001
0000
0110
0000
0001
1000
0001
0000
,  // measure 45
0110
0000
1001
0000
0100
0010
0100
0000
,  // measure 46
0011
0000
1100
0000
0001
0010
0001
0000
,  // measure 47
1100
0000
0011
0000
1000
0100
1000
0000
,  // measure 48
0011
0000
0011
0000
0001
0010
0001
0000
,  // measure 49
1100
0000
1100
0000
0010
0100
1001
0000
;

//---------------dance-single - ----------------
#NOTES:
     dance-single:
     :
     Hard:
     8:
     0.516,0.544,0.847,0.000,0.085:
0000
0000
0000
0000
,
0000
0000
0000
0000
,
0000
0000
0000
0000
,
0000
0000
0000
0000
,
1000
0000
0001
0000
1000
0001
0000
0000
1000
0000
0000
1000
0000
0000
1000
0000
,
0001
0000
1000
0000
0001
1000
0000
0000
0001
0000
0000
0001
0000
0000
0001
0000
,
1000
0000
0001
0000
1000
0001
0000
0000
1000
0000
0000
1000
0000
0000
1000
0000
,
0001
0000
1000
0000
0001
1000
0000
0000
0001
0000
0000
0001
0000
0000
0001
0000
,
1000
0000
0100
0000
1000
0010
0000
0000
1000
0000
0000
1000
0000
0000
1000
0000
,
0001
0000
0100
0000
0001
0010
0000
0000
0001
0000
0000
0001
0000
0000
0001
0000
,
1000
0000
0010
0000
0100
0001
0000
0000
1000
0000
0000
1000
0000
0000
1000
0000
,
0010
0000
0100
0000
0001
1000
0000
0000
0001
0000
0000
0001
0000
0000
0001
0000
,
1000
0100
1000
0001
,
0100
0001
1000
0100
,
1000
0001
0100
0001
,
1000
0000
0000
0000
,
1000
0000
0001
0000
1000
0001
1000
0110
,
0001
0000
1000
0000
0001
1000
0110
0110
,
1000
0000
0001
0000
1000
0001
1000
0110
,
0001
0000
1000
0000
0001
1000
0110
0110
,
1000
0000
0001
0000
1000
0001
1000
0110
,
0001
0000
1000
0000
0001
1000
0110
0110
,
1000
0000
0001
0000
1000
0001
1000
0110
,
0001
0000
1000
0000
0001
1000
0110
0110
,
1000
0000
0001
0000
0010
0100
0010
1001
,
0010
0000
0100
0000
0001
1000
0110
0110
,
0001
0000
1000
0000
0010
0100
0010
1001
,
0010
0000
0100
0000
1000
0001
0110
0110
,
1000
0000
0001
0000
0010
0100
0010
1001
,
0010
0000
0100
0000
0001
1000
0110
0110
,
0001
0000
1000
0000
0010
0100
0010
1001
,
0010
0000
0100
0000
1000
0001
0110
0110
,
1001
0000
1001
0000
0010
0100
0010
1010
,
1010
0000
1010
0000
0001
0010
0101
0101
,
0101
0000
0101
0000
0010
1000
0010
0110
,
0110
0000
0110
0000
1000
0001
0101
0101
,
1001
0000
1001
0000
0010
0100
0001
0011
,
0101
0000
0101
0000
0010
1000
0110
0110
,
1010
0000
1010
0000
0100
0001
0010
0110
,
0011
0000
0011
0000
0100
0010
1001
1001
,
0000
0000
0000
0000
,
1001
0000
0110
0000
0001
1000
0001
1100
,
0011
0000
0101
0000
1000
0010
0110
0110
,
1001
0000
0101
0000
0010
0100
0010
0101
,
1010
0000
1100
0000
0001
0100
0110
0110
,
1001
0000
0101
0000
0010
0100
1000
0101
,
1010
0000
0011
0000
0001
0100
0011
0011
,
0101
0000
1100
0000
0001
0100
1000
0011
,
1100
0000
1010
0000
0100
0001
0011
0011
;

//---------------dance-double - ----------------
#NOTES:
     dance-double:
     :
     Medium:
     7:
     0.409,0.439,0.350,0.000,0.000:
00000000
00000000
00000000
00000000
,
00000000
00000000
00000000
00000000
,
00000000
00000000
00000000
00000000
,
00000000
00000000
00000000
00000000
,
00001000
00000100
00001000
00000010
00001000
00000100
00001000
00000010
,
00001000
00000100
00001000
00000010
00001000
00000100
00001000
00000010
,
00010000
00000100
00010000
00001000
00010000
00000010
00010000
00001000
,
00010000
00000100
00010000
00001000
00010000
00000010
00010000
00001000
,
01000000
00100000
10000000
01000000
00100000
00010000
01000000
00100000
,
10000000
01000000
00100000
00010000
01000000
00001000
00010000
00000100
,
00000010
00000001
00000100
00000010
00001000
00000100
00000010
00000001
,
00000100
00000010
00001000
00000100
00010000
00001000
00100000
01000000
,
00010000
10000000
00001000
00010000
,
00000001
00001000
00000100
00010000
,
00001000
10000000
00010000
01000000
,
00100000
00000000
00000000
00000000
,
10000000
00000000
00010000
00000000
10000000
00010000
10000000
00000000
,
00001000
00000000
00010000
00000000
00001000
00010000
00001000
00000000
,
00000001
00000000
00001000
00000000
00000001
00001000
00000001
00000000
,
00001000
00000000
00000001
00000000
00001000
00000001
00001000
00000000
,
00000100
00000000
00010000
00000000
00001000
00010000
00001000
00000000
,
10000000
00000000
00010000
00000000
10000000
00010000
10000000
00000000
,
00001000
00000000
00010000
00000000
00001000
00010000
00001000
00000000
,
00000001
00000000
00001000
00000000
00000001
00001000
00000001
00000000
,
00001000
00000000
00000100
00000000
00010000
00001000
01000000
00000000
,
00010000
00000000
10000000
00000000
01000000
00100000
00010000
00000000
,
01000000
00000000
00001000
00000000
00010000
00000001
00001000
00000000
,
00000001
00000000
00001000
00000000
00000010
00001000
00000100
00000000
,
00010000
00000000
00001000
00000000
10000000
00010000
01000000
00000000
,
00001000
00000000
00010000
00000000
00000001
00001000
00000100
00000000
,
00010000
00000000
00001000
00000000
10000000
00010000
01000000
00000000
,
00001000
00000000
00010000
00000000
00000001
00001000
00000100
00000000
,
00001001
00000000
00001001
00000000
00000010
00001000
00000100
00000000
,
00011000
00000000
00011000
00000000
00100000
00010000
01000000
00000000
,
10010000
00000000
10010000
00000000
00100000
00010000
01000000
00000000
,
00011000
00000000
00011000
00000000
00000010
00001000
00000100
00000000
,
00001001
00000000
00001001
00000000
00000010
00001000
00000100
00000000
,
00011000
00000000
00011000
00000000
00100000
00010000
01000000
00000000
,
10010000
00000000
10010000
00000000
00100000
00010000
01000000
00000000
,
00011000
00000000
00011000
00000000
00001000
00010000
00001000
00000000
,
00000000
00000000
00000000
00000000
,
01100000
00000000
00011000
00000000
00000001
00001000
00000001
00000000
,
00000110
00000000
00011000
00000000
10000000
00010000
10000000
00000000
,
01100000
00000000
00011000
00000000
00000100
00000010
00000100
00000000
,
00001001
00000000
00011000
00000000
00100000
01000000
00100000
00000000
,
11000000
00000000
00110000
00000000
00001000
00010000
00001000
00000000
,
00001010
00000000
00000101
00000000
00001000
00000100
00010000
00000000
,
00110000
00000000
11000000
00000000
00010000
00100000
00001000
00000000
,
00001010
00000000
00000101
00000000
00001000
00000010
00011000
00000000
;

//---------------dance-double - ----------------
#NOTES:
     dance-double:
     :
     Hard:
     8:
     0.513,0.544,0.826,0.000,0.085:
00000000
00000000
00000000
00000000
,
00000000
00000000
00000000
00000000
,
00000000
00000000
00000000
00000000
,
00000000
00000000
00000000
00000000
,
00010000
00000000
10000000
00000000
00010000
10000000
00000000
00000000
00001000
00000000
00000000
00001000
00000000
00000000
00001000
00000000
,
00010000
00000000
00001000
00000000
00010000
00001000
00000000
00000000
00000001
00000000
00000000
00000001
00000000
00000000
00000001
00000000
,
00001000
00000000
00000001
00000000
00001000
00000001
00000000
00000000
00010000
00000000
00000000
00010000
00000000
00000000
00010000
00000000
,
00001000
00000000
00010000
00000000
00001000
00010000
00000000
00000000
10000000
00000000
00000000
10000000
00000000
00000000
10000000
00000000
,
00010000
00000000
10000000
00000000
00010000
10000000
00000000
00000000
00001000
00000000
00000000
00001000
00000000
00000000
00001000
00000000
,
00010000
00000000
00001000
00000000
00010000
00001000
00000000
00000000
00000001
00000000
00000000
00000001
00000000
00000000
00000001
00000000
,
00001000
00000000
00000001
00000000
00001000
00000001
00000000
00000000
00010000
00000000
00000000
00010000
00000000
00000000
00010000
00000000
,
00001000
00000000
00010000
00000000
00001000
00010000
00000000
00000000
10000000
00000000
00000000
10000000
00000000
00000000
10000000
00000000
,
00010000
01000000
00010000
10000000
,
01000000
10000000
00001000
01000000
,
00001000
00010000
00000100
00010000
,
00000001
00000000
00000000
00000000
,
00000010
00000000
00000001
00000000
00000100
00000010
00010000
00011000
,
00100000
00000000
00010000
00000000
10000000
00100000
01100000
01100000
,
00010000
00000000
00100000
00000000
00001000
00010000
00000100
00001100
,
00000010
00000000
00000001
00000000
00001000
00000100
00010100
00010100
,
00001000
00000000
00100000
00000000
00010000
10000000
01000000
01100000
,
00010000
00000000
01000000
00000000
00001000
00100000
00011000
00011000
,
00000010
00000000
00001000
00000000
00000001
00000100
00000010
00001010
,
00000100
00000000
00010000
00000000
00001000
01000000
01010000
01010000
,
10000000
00000000
01000000
00000000
00100000
00010000
01000000
01001000
,
00010000
00000000
00100000
00000000
00001000
00010000
00010100
00010100
,
00001000
00000000
00000010
00000000
00000100
00000001
00000010
00000110
,
00001000
00000000
00000010
00000000
00010000
00001000
00101000
00101000
,
01000000
00000000
00100000
00000000
10000000
01000000
00100000
00110000
,
01000000
00000000
00001000
00000000
00010000
00000100
00001100
00001100
,
00000010
00000000
00000001
00000000
00001000
00000100
00010000
00011000
,
01000000
00000000
00100000
00000000
10000000
01000000
01010000
01010000
,
11000000
00000000
11000000
00000000
00010000
00100000
00001000
00011000
,
00010100
00000000
00010100
00000000
00001000
00000010
00000110
00000110
,
00000101
00000000
00000101
00000000
00000010
00000100
00001000
00001001
,
00000100
00000000
00000010
00000000
00001000
00000100
00010100
00010100
,
00011000
00000000
00011000
00000000
00100000
00010000
01000000
01100000
,
10100000
00000000
10100000
00000000
01000000
00010000
00110000
00110000
,
01010000
00000000
01010000
00000000
00001000
00010000
00000100
00001100
,
00001001
00000000
00001001
00000000
00000100
00000010
00001010
00001010
,
00000000
00000000
00000000
00000000
,
10010000
00000000
10010000
00000000
00100000
01000000
00010000
00110000
,
00101000
00000000
00101000
00000000
00010000
00000010
00001010
00001010
,
00001001
00000000
00001001
00000000
00000010
00000100
00001000
00001010
,
00010010
00000000
00010010
00000000
00001000
00100000
00110000
00110000
,
00101000
00000000
00110000
00000000
01000000
00100000
10000000
10010000
,
01100000
00000000
10010000
00000000
01000000
00100000
00110000
00110000
,
00101000
00000000
00011000
00000000
00000010
00001000
00000100
00000110
,
00000101
00000000
00001100
00000000
00010000
00001000
00101000
00101000
;

//---------------dance-double - ----------------
#NOTES:
     dance-double:
     :
     Beginner:
     1:
     0.141,0.205,0.244,0.000,0.000:
00000000
00000000
00000000
00000000
,
00000000
00000000
00000000
00000000
,
00000000
00000000
00000000
00000000
,
00000000
00000000
00000000
00000000
,
00000000
00000000
00000000
00000000
,
00000000
00000000
00000000
00000000
,
00000000
00000000
00000000
00000000
,
00000000
00000000
00000000
00000000
,
00000000
00000000
00000000
00000000
,
00000000
00000000
00000000
00000000
,
00000000
00000000
00000000
00000000
,
00000000
00000000
00000000
00000000
,
00001001
00000000
00000110
00000000
,
00001001
00000000
00000110
00000000
,
00000000
00011000
00000000
10010000
,
00000000
00000000
00000000
00000000
,
10010000
00000000
10000000
00000000
,
00010000
00000000
00010000
00000000
,
00000010
00000000
00000001
00000000
,
00001000
00000000
00001000
00000000
,
00000100
00000000
00001000
00000000
,
01000000
00000000
10000000
00000000
,
00001000
00000000
00001000
00000000
,
00000010
00000000
00001000
00000000
,
00000001
00000000
00000010
00000000
,
00001000
00000000
01000000
00000000
,
10000000
00000000
00100000
00000000
,
00010000
00000000
00100000
00000000
,
00010000
00000000
00001000
00000000
,
00010000
00000000
00001000
00000000
,
00000010
00000000
00000001
00000000
,
00001000
00000000
00000010
00000000
,
00001001
00000000
00000010
00000000
,
00011000
00000000
00100000
00000000
,
10010000
00000000
00100000
00000000
,
00011000
00000000
00000001
00000000
,
00000110
00000000
00000100
00000000
,
00011000
00000000
00100000
00000000
,
01100000
00000000
10000000
00000000
,
00011000
00000000
00001000
00000000
,
00000000
00000000
00000000
00000000
,
01100000
00000000
00010000
00000000
,
00000110
00000000
00001000
00000000
,
00001001
00000000
00000010
00000000
,
00000110
00000000
00010000
00000000
,
10010000
00000000
01000000
00000000
,
00011000
00000000
00001000
00000000
,
00001001
00000000
00000010
00000000
,
00001001
00000000
00010000
00000000
;

//---------------dance-double - ----------------
#NOTES:
     dance-double:
     :
     Easy:
     5:
     0.319,0.361,0.350,0.000,0.000:
00000000
00000000
00000000
00000000
,
00000000
00000000
00000000
00000000
,
00000000
00000000
00000000
00000000
,
00000000
00000000
00000000
00000000
00000000
00000000
00000000
10000000
,
00000000
10000000
00000000
00000000
00000000
00000000
00000000
00010000
,
00000000
00010000
00000000
00000000
00000000
00000000
00000000
00001000
,
00000000
00001000
00000000
00000000
00000000
00000000
00000000
00000001
,
00000000
00000001
00000000
00000000
00000000
00000000
00000000
00000010
,
00000000
00000010
00000000
00001000
00000000
00001000
00000000
00010000
,
00000000
00010000
00000000
00100000
00000000
00100000
00000000
10000000
,
00000000
10000000
00000000
01000000
00000000
01000000
00000000
00010000
,
00000000
00010000
00000000
00001000
00000000
00001000
00000000
00000000
,
00000011
00000000
00000101
00000000
,
00001010
00000000
00001100
00000000
,
00000000
00011000
00000000
00110000
,
10000000
10000000
00000000
00010000
00000000
10000000
00000000
00000000
,
10010000
00000000
00010000
00000000
10000000
01000000
10000000
00000000
,
00010000
00000000
00001000
00000000
00010000
00001000
00010000
00000000
,
00000010
00000000
00001000
00000000
00000001
00001000
00000001
00000000
,
00001000
00000100
00000000
00000000
00001000
00000100
00001000
00000000
,
00000100
00000000
00010000
00000000
00001000
00010000
00001000
00000000
,
01000000
00000000
00010000
00000000
10000000
00100000
10000000
00000000
,
00001000
00000000
00010000
00000000
00001000
00010000
00001000
00000000
,
00000010
00000000
00000100
00000000
00001000
00000100
00001000
00000000
,
00000001
00000000
00001000
00000000
00000010
00000100
00000010
00000000
,
00001000
00000000
00010000
00000000
01000000
00100000
01000000
00000000
,
10000000
00000000
01000000
00000000
00100000
00010000
00100000
00000000
,
00010000
00000000
01000000
00000000
00100000
10000000
00100000
00000000
,
00010000
00000000
01000000
00000000
00001000
00010000
00001000
00000000
,
00010000
00000000
00000100
00000000
00001000
00000010
00001000
00000000
,
00000010
00000000
00001000
00000000
00000001
00000010
00000001
00000000
,
00001000
00000000
00000100
00000000
00000010
00000100
00000010
00000000
,
00001001
00001001
00000010
00000100
,
00011000
00011000
00100000
01000000
,
10010000
10010000
00100000
01000000
,
00011000
00011000
00000001
00001000
,
00000101
00001100
00000100
00010000
,
00011000
00011000
00100000
10000000
,
11000000
01010000
10000000
00010000
,
00011000
00011000
00001000
00010000
,
00000000
00000000
00000000
00000000
,
01100000
10000000
00010000
00001000
,
00000110
00000001
00001000
00001000
,
00001001
00000010
00000010
00000100
,
00000101
00001000
00010000
10000000
,
10010000
00100000
01000000
00100000
,
00011000
00010000
00001000
00010000
,
00001010
00000100
00001010
00001000
,
00001010
00001000
00010000
00011000
;

//---------------dance-single - ----------------
#NOTES:
     dance-single:
     :
     Beginner:
     1:
     0.182,0.180,0.350,0.000,0.000: // measure 1
0000
0000
0000
0000
,  // measure 2
0000
0000
0000
0000
,  // measure 3
0000
0000
0000
0000
,  // measure 4
0000
0000
0000
0000
,  // measure 5
1000
0000
1000
0000
,  // measure 6
0010
0000
0010
0000
,  // measure 7
1000
0000
1000
0000
,  // measure 8
0010
0000
0010
0000
,  // measure 9
1000
0000
0100
0000
,  // measure 10
1000
0000
0010
0000
,  // measure 11
1000
0000
0100
0000
,  // measure 12
1000
0000
0010
0000
,  // measure 13
1000
0000
0001
0000
,  // measure 14
1000
0000
0001
0000
,  // measure 15
1000
0000
0001
0000
,  // measure 16
1001
0000
0000
0000
,  // measure 17
1000
0000
1001
0000
,  // measure 18
0001
0000
0110
0000
,  // measure 19
1000
0000
1001
0000
,  // measure 20
0001
0000
0110
0000
,  // measure 21
1000
0000
1001
0000
,  // measure 22
0001
0000
0110
0000
,  // measure 23
1000
0000
1001
0000
,  // measure 24
0001
0000
0110
0000
,  // measure 25
1000
0000
0110
0000
,  // measure 26
0010
0000
1001
0000
,  // measure 27
0001
0000
0110
0000
,  // measure 28
0100
0000
1001
0000
,  // measure 29
0001
0000
0110
0000
,  // measure 30
0100
0000
1001
0000
,  // measure 31
0001
0000
0110
0000
,  // measure 32
0100
0000
1001
0000
,  // measure 33
0001
0000
1001
0000
,  // measure 34
0001
0000
1001
0000
,  // measure 35
0100
0000
1001
0000
,  // measure 36
0100
0000
1001
0000
,  // measure 37
1000
0000
0110
0000
,  // measure 38
0010
0000
0110
0000
,  // measure 39
1000
0000
0110
0000
,  // measure 40
0010
0000
0110
0000
,  // measure 41
0000
0000
0000
0000
,  // measure 42
0001
0000
1001
0000
,  // measure 43
1000
0000
0110
0000
,  // measure 44
0010
0000
1001
0000
,  // measure 45
0001
0000
0110
0000
,  // measure 46
0100
0000
0110
0000
,  // measure 47
0010
0000
1001
0000
,  // measure 48
0001
0000
0110
0000
,  // measure 49
0100
0000
0110
0000
;
