#TITLE:FLASHDANCE;
#SUBTITLE:(WHAT A FEELING) [Dougal Mix];
#ARTIST:MAGIKA featuring STIXMAN;
#TITLETRANSLIT:;
#SUBTITLETRANSLIT:;
#ARTISTTRANSLIT:;
#CREDIT:;
#BANNER:FLASHDANCE (WHAT A FEELING) [Dougal Mix].png;
#BACKGROUND:FLASHDANCE (WHAT A FEELING) [Dougal Mix]-bg.png;
#LYRICSPATH:;
#CDTITLE:CDTITLES/Dancemania.png;
#MUSIC:FLASHDANCE (WHAT A FEELING) [Dougal Mix].mp3;
#OFFSET:-0.060;
#SAMPLESTART:16.720;
#SAMPLELENGTH:12.000;
#SELECTABLE:YES;
#BPMS:0.000=167.200;
#STOPS:;
#BGCHANGES:4.000=FLASHDANCE (WHAT A FEELING) [Dougal Mix]-SPEED3.png=1.000=0=0=1,
8.000=FLASHDANCE (WHAT A FEELING) [Dougal Mix]-bg.png=1.000=0=0=1,
12.000=FLASHDANCE (WHAT A FEELING) [Dougal Mix]-SPEED3.png=1.000=0=0=1,
16.000=FLASHDANCE (WHAT A FEELING) [Dougal Mix]-bg.png=1.000=0=0=1,
20.000=FLASHDANCE (WHAT A FEELING) [Dougal Mix]-SPEED3.png=1.000=0=0=1,
24.000=Heart9.avi=1.000=1=0=1,
40.000=Heart4.avi=1.000=0=0=1,
41.000=FLASHDANCE (WHAT A FEELING) [Dougal Mix]-bg.png=1.000=0=0=1,
42.000=Heart4.avi=1.000=0=0=1,
43.000=FLASHDANCE (WHAT A FEELING) [Dougal Mix]-bg.png=1.000=0=0=1,
44.000=Heart4.avi=1.000=0=0=1,
45.000=FLASHDANCE (WHAT A FEELING) [Dougal Mix]-bg.png=1.000=0=0=1,
46.000=Heart4.avi=1.000=0=0=1,
47.000=FLASHDANCE (WHAT A FEELING) [Dougal Mix]-bg.png=1.000=0=0=1,
47.125=Heart4.avi=1.000=0=0=1,
47.250=FLASHDANCE (WHAT A FEELING) [Dougal Mix]-bg.png=1.000=0=0=1,
47.375=Heart4.avi=1.000=0=0=1,
47.500=FLASHDANCE (WHAT A FEELING) [Dougal Mix]-bg.png=1.000=0=0=1,
47.625=Heart4.avi=1.000=0=0=1,
47.750=FLASHDANCE (WHAT A FEELING) [Dougal Mix]-bg.png=1.000=0=0=1,
47.875=Heart4.avi=1.000=0=0=1,
48.000=Dance1.avi=1.000=0=0=1,
56.000=Heart1.avi=1.000=0=0=1,
64.000=Dance1.avi=1.000=0=0=1,
72.000=Heart1.avi=1.000=0=0=1,
80.000=Heart4.avi=1.000=0=0=1,
88.000=Dance1.avi=1.000=0=0=1,
96.000=Heart4.avi=1.000=0=0=1,
112.000=Heart9.avi=1.000=0=0=1,
118.000=Heart1.avi=1.000=0=0=1,
119.000=Heart4.avi=1.000=0=0=1,
120.000=Heart9.avi=1.000=0=0=1,
126.000=Heart1.avi=1.000=0=0=1,
127.000=Heart4.avi=1.000=0=0=1,
128.000=Dance1.avi=1.000=0=1=1,
143.000=FLASHDANCE (WHAT A FEELING) [Dougal Mix]-bg.png=1.000=0=0=1,
143.125=Dance1.avi=1.000=0=0=1,
143.250=FLASHDANCE (WHAT A FEELING) [Dougal Mix]-bg.png=1.000=0=0=1,
143.375=Dance1.avi=1.000=0=0=1,
143.500=FLASHDANCE (WHAT A FEELING) [Dougal Mix]-bg.png=1.000=0=0=1,
143.625=Dance1.avi=1.000=0=0=1,
143.750=FLASHDANCE (WHAT A FEELING) [Dougal Mix]-bg.png=1.000=0=0=1,
143.875=Heart1.avi=1.000=0=0=1,
152.000=Heart4.avi=1.000=0=0=1,
160.000=Heart9.avi=1.000=0=0=1,
168.000=Heart1.avi=1.000=0=0=1,
176.000=Dance1.avi=1.000=0=0=1,
192.000=Heart4.avi=1.000=0=0=1,
200.000=Heart1.avi=1.000=0=0=1,
208.000=Heart9.avi=1.000=0=0=1,
220.000=FLASHDANCE (WHAT A FEELING) [Dougal Mix]-SPEED3.png=1.000=0=0=1,
224.000=FLASHDANCE (WHAT A FEELING) [Dougal Mix]-bg.png=1.000=0=0=1,
99999=-nosongbg-=1.000=0=0=0 // don't automatically add -songbackground-
;

//---------------dance-single - ----------------
#NOTES:
     dance-single:
     :
     Beginner:
     1:
     0.190,0.274,0.110,0.000,0.000: // measure 1
0000
0000
0000
0000
,  // measure 2
0000
0000
0000
0000
,  // measure 3
0000
0000
0000
0000
,  // measure 4
0000
0000
0000
0000
,  // measure 5
0000
0000
0000
0000
,  // measure 6
0000
0000
0000
0000
,  // measure 7
0010
0000
0001
0000
,  // measure 8
0010
0000
1000
0000
,  // measure 9
1000
0000
0100
0000
,  // measure 10
0001
0000
0100
0000
,  // measure 11
0000
0100
0000
0100
,  // measure 12
0000
0100
0000
0100
,  // measure 13
0000
0100
0000
0100
,  // measure 14
0000
0100
0000
1000
,  // measure 15
0000
0100
0000
0100
,  // measure 16
0000
0100
0000
0001
,  // measure 17
0000
0100
0000
0100
,  // measure 18
0000
0100
0000
0100
,  // measure 19
0000
1000
0000
0001
,  // measure 20
0000
1000
0000
0001
,  // measure 21
0000
1001
0000
0100
,  // measure 22
0000
0100
0000
0010
,  // measure 23
0000
1001
0000
0100
,  // measure 24
0000
0100
0000
1000
,  // measure 25
0000
0100
0000
0100
,  // measure 26
0000
0010
0000
0010
,  // measure 27
0000
0010
0000
0010
,  // measure 28
0000
1000
0000
0100
,  // measure 29
0000
0000
0001
0000
,  // measure 30
0100
0000
1001
0000
,  // measure 31
0100
0000
0010
0000
,  // measure 32
0100
0000
1001
0000
,  // measure 33
0010
0000
0001
0000
,  // measure 34
0001
0000
0100
0000
,  // measure 35
0001
0000
0001
0000
,  // measure 36
1000
0000
0010
0000
,  // measure 37
1001
0000
0001
0000
,  // measure 38
1001
0000
1000
0000
,  // measure 39
1001
0000
1000
0000
,  // measure 40
1001
0000
0001
0000
,  // measure 41
1000
0000
0001
0000
,  // measure 42
1000
0000
0001
0000
,  // measure 43
0010
0000
0100
0000
,  // measure 44
0010
0000
0100
0000
,  // measure 45
1001
0000
0010
0000
,  // measure 46
0001
0000
1000
0000
,  // measure 47
1000
0000
1000
0000
,  // measure 48
1000
0000
1000
0000
,  // measure 49
1000
0000
0001
0000
,  // measure 50
1000
0000
0001
0000
,  // measure 51
1000
0000
0001
0000
,  // measure 52
0010
0000
0100
0000
,  // measure 53
1000
0000
0001
0000
,  // measure 54
1000
0000
0001
0000
,  // measure 55
0001
0000
1000
0000
,  // measure 56
0001
0000
1000
0000
,  // measure 57
0001
0000
0000
0000
;

//---------------dance-double - ----------------
#NOTES:
     dance-double:
     :
     Beginner:
     1:
     0.189,0.240,0.086,0.000,0.000:
00000000
00000000
00000000
00000000
,
00000000
00000000
00000000
00000000
,
00000000
00000000
00000000
00000000
,
00000000
00000000
00000000
00000000
,
00000000
00000000
00000000
00000000
,
00000000
00000000
00000000
00000000
,
00001001
00000000
00001000
00000000
,
01000000
00000000
00010000
00000000
,
10010000
00000000
00010000
00000000
,
00000100
00000000
00001000
00000000
,
00001001
00000000
00001000
00000000
,
01000000
00000000
00010000
00000000
,
01100000
00000000
01000000
00000000
,
00001000
00000000
00001000
00000000
,
10000000
00000000
00010000
00000000
,
00100000
00000000
00100000
00000000
,
00001000
00000000
00000100
00000000
,
00000100
00000000
00000100
00000000
,
00000001
00000000
00001000
00000000
,
00000100
00000000
00000100
00000000
,
00000100
00000000
00001000
00000000
,
00000001
00000000
00001000
00000000
,
00000010
00000000
00000100
00000000
,
00000001
00000000
00000001
00000000
,
00000110
00000000
00000100
00000000
,
00000100
00000000
00000001
00000000
,
00000010
00000000
00001000
00000000
,
01000000
00000000
00001000
00000000
,
00001000
00000000
00001000
00000000
,
00010000
00000000
01000000
00000000
,
00010000
00000000
00010000
00000000
,
00001000
00000000
00000100
00000000
,
00001000
00000000
00010000
00000000
,
00000010
00000000
00000100
00000000
,
00001000
00000000
00000100
00000000
,
00010000
00000000
00001000
00000000
,
01000000
00000000
00010000
00000000
,
01000000
00000000
00001000
00000000
,
00000100
00000000
00001000
00000000
,
00100000
00000000
10000000
00000000
,
00001000
00000000
00001000
00000000
,
00000100
00000000
00000010
00000000
,
00000001
00000000
00001000
00000000
,
00000001
00000000
00000100
00000000
,
01000000
00000000
10000000
00000000
,
00010000
00000000
01000000
00000000
,
00001000
00000000
00000001
00000000
,
00000001
00000000
00000100
00000000
,
00001001
00000000
00000001
00000000
,
00001000
00000000
00001001
00000000
,
00010000
00000000
10000000
00000000
,
00010000
00000000
01000000
00000000
,
00010000
00000000
00001000
00000000
,
01000000
00000000
10000000
00000000
,
00010000
00000000
01000000
00000000
,
00010000
00000000
10000000
00000000
,
01000000
00000000
00000000
00000000
;

//---------------dance-single - ----------------
#NOTES:
     dance-single:
     :
     Easy:
     4:
     0.370,0.413,0.220,0.000,0.000: // measure 1
0000
0000
0000
0000
,  // measure 2
0000
0000
0000
0000
,  // measure 3
0000
0000
0000
0000
,  // measure 4
0000
0000
0000
0000
,  // measure 5
0000
0000
0000
0000
,  // measure 6
0000
0000
0000
0000
,  // measure 7
0010
1000
0001
0100
,  // measure 8
0010
0001
1000
0100
,  // measure 9
1000
0001
0100
0100
,  // measure 10
0001
1000
0100
0100
,  // measure 11
0000
0100
0000
0100
,  // measure 12
0000
0100
0000
0100
,  // measure 13
1001
0100
0001
0100
,  // measure 14
1001
0100
1000
1000
,  // measure 15
1001
0100
1000
0100
,  // measure 16
1001
0100
0001
0001
,  // measure 17
1000
0100
0001
0100
,  // measure 18
1000
0100
0001
0100
,  // measure 19
0010
1000
0100
0001
,  // measure 20
0010
1000
0100
0001
,  // measure 21
1001
1001
0001
0100
,  // measure 22
1000
0100
0010
0010
,  // measure 23
1001
1001
1000
0100
,  // measure 24
0001
0100
1000
1000
,  // measure 25
0001
0100
1000
0100
,  // measure 26
0001
0010
1000
0010
,  // measure 27
1000
0010
0001
0010
,  // measure 28
0100
1000
0001
0100
,  // measure 29
1000
0000
0001
0000
,  // measure 30
0100
0010
1001
1001
,  // measure 31
0100
0000
0010
0000
,  // measure 32
0100
0010
1001
1001
,  // measure 33
0010
1000
0001
0100
,  // measure 34
0001
1000
0100
0100
,  // measure 35
0001
0010
0001
0100
,  // measure 36
1000
0100
0010
0010
,  // measure 37
1001
0100
0001
0100
,  // measure 38
1001
0100
1000
1000
,  // measure 39
1001
0100
1000
0100
,  // measure 40
1001
0100
0001
0001
,  // measure 41
1000
0100
0001
0100
,  // measure 42
1000
0100
0001
0100
,  // measure 43
0010
1000
0100
0001
,  // measure 44
0010
1000
0100
0001
,  // measure 45
1001
1001
0010
0100
,  // measure 46
0001
0100
1000
0100
,  // measure 47
1000
0001
1000
0100
,  // measure 48
1000
0001
1000
0001
,  // measure 49
1000
0100
0001
0100
,  // measure 50
1000
0100
0001
0100
,  // measure 51
1000
1000
0001
0001
,  // measure 52
0010
1000
0100
0001
,  // measure 53
1000
1000
0001
0001
,  // measure 54
1000
1000
0001
0100
,  // measure 55
0001
0001
1000
1000
,  // measure 56
0001
0001
1000
0100
,  // measure 57
0001
1000
0000
0000
;

//---------------dance-single - ----------------
#NOTES:
     dance-single:
     :
     Medium:
     7:
     0.496,0.586,0.306,0.000,0.000: // measure 1
0000
0000
0000
0000
,  // measure 2
0000
0000
0000
0000
,  // measure 3
0000
0000
0000
0000
,  // measure 4
0000
0000
0000
0000
,  // measure 5
0000
0000
0000
0000
,  // measure 6
0000
0000
0000
0000
,  // measure 7
0001
0000
1000
0000
0001
0000
1000
0001
,  // measure 8
1000
0000
0001
0000
1000
0000
0001
1000
,  // measure 9
0001
0000
1000
0000
0001
0000
1000
0001
,  // measure 10
1000
0000
0001
0000
1000
0000
0001
1000
,  // measure 11
0001
1000
0001
1000
,  // measure 12
0001
1000
0100
0100
,  // measure 13
1001
0000
1100
0000
0001
0100
0001
0000
,  // measure 14
1000
0000
0100
0000
0001
0010
0100
0000
,  // measure 15
0101
0000
0010
0000
0001
1000
0100
0000
,  // measure 16
0001
0000
1000
0000
0001
0100
0010
0000
,  // measure 17
1000
0100
1000
0100
,  // measure 18
0001
0100
0001
0100
,  // measure 19
1000
0100
1000
0000
0001
0100
0001
0000
,  // measure 20
1000
0100
1000
0100
1000
0001
0100
0000
,  // measure 21
1001
0000
1100
0000
0001
0100
1000
0000
,  // measure 22
0001
0100
1000
0000
0001
0100
1000
0000
,  // measure 23
0010
0000
0101
0000
1000
0100
0001
0000
,  // measure 24
1000
0100
0001
0000
1000
0100
0001
0000
,  // measure 25
1000
0100
1000
0100
,  // measure 26
0001
0100
0001
0100
,  // measure 27
1000
0010
1000
0000
0001
0010
0001
0000
,  // measure 28
1000
0100
1000
0100
1000
0001
0100
0000
,  // measure 29
1001
0000
1001
0000
,  // measure 30
0010
0100
0001
0000
1001
0000
1100
0000
,  // measure 31
0110
0000
0110
0000
,  // measure 32
0001
1000
0010
0000
1001
0000
1100
0000
,  // measure 33
0001
0000
0001
0000
1000
0100
1000
0000
,  // measure 34
0010
0000
0010
0000
0100
0001
0100
0000
,  // measure 35
1000
0000
1000
0000
0001
0010
0001
0000
,  // measure 36
0100
0000
0100
0000
0010
1000
0010
0000
,  // measure 37
1001
0000
0101
0000
1000
0100
1000
0000
,  // measure 38
0001
0000
0100
0000
1000
0001
0100
0000
,  // measure 39
1000
0000
0101
0000
1000
0100
1000
0000
,  // measure 40
0001
0000
0100
0000
1000
0100
1000
0000
,  // measure 41
0001
0100
0001
0100
,  // measure 42
1000
0100
1000
0100
,  // measure 43
0001
0100
0001
0000
1000
0100
1000
0000
,  // measure 44
0001
0100
0001
0100
0001
1000
0100
0000
,  // measure 45
0010
0000
0101
0000
1000
0100
0001
0100
,  // measure 46
1000
0100
1000
0000
0001
0000
0100
0000
,  // measure 47
0010
0000
1100
0000
0001
0100
1000
0100
,  // measure 48
0001
0100
0001
0000
1000
0000
0100
0000
,  // measure 49
0001
0100
0001
0000
1000
0100
1000
0000
,  // measure 50
0001
0100
0001
0000
1000
0100
1000
0000
,  // measure 51
0001
1000
0001
1000
0001
1000
0001
1000
,  // measure 52
0100
0010
0001
1000
0001
0100
1001
0000
,  // measure 53
0010
0101
0010
1100
,  // measure 54
0010
0101
0010
1100
,  // measure 55
0010
0001
1000
0000
0010
1000
0001
0000
,  // measure 56
0001
1000
0100
0000
1000
0001
0100
0000
,  // measure 57
1001
0000
0100
0010
0000
0000
0000
0000
;

//---------------dance-single - ----------------
#NOTES:
     dance-single:
     :
     Hard:
     8:
     0.582,0.689,0.587,0.000,0.000: // measure 1
0000
0000
0000
0000
,  // measure 2
0000
0000
0000
0000
,  // measure 3
0000
0000
0000
0000
,  // measure 4
0000
0000
0000
0000
,  // measure 5
0000
0000
0000
0000
,  // measure 6
0000
0000
0000
0000
,  // measure 7
1001
0000
0010
0000
1000
0100
1000
0100
,  // measure 8
1001
0000
0010
0000
0001
0100
0001
0100
,  // measure 9
1001
0000
0100
0000
1000
0010
1000
0010
,  // measure 10
1001
0000
0100
0000
0001
0010
0001
0010
,  // measure 11
1001
0100
1000
1000
,  // measure 12
0001
0100
0001
0001
,  // measure 13
1001
0000
0110
0000
1000
0100
0000
0001
,  // measure 14
0000
0100
1000
0000
0001
0000
1000
0100
,  // measure 15
0000
0001
0010
0000
0001
0100
0000
1000
,  // measure 16
0000
0100
0001
0000
1000
0001
0100
0001
,  // measure 17
0000
1000
0100
1000
0000
0001
0100
0001
,  // measure 18
0000
1000
0100
1000
0000
0001
1000
0100
,  // measure 19
1000
1000
0001
0001
,  // measure 20
0100
1000
0010
0100
0001
1000
1001
0100
,  // measure 21
0010
0001
1001
0000
0001
0100
0000
1000
,  // measure 22
0000
0100
0001
0000
1000
0000
0001
0100
,  // measure 23
0000
1000
0010
0000
1000
0100
0000
0001
,  // measure 24
0000
0100
1000
0000
0001
1000
0100
1000
,  // measure 25
0000
0001
0100
0001
0000
1000
0100
1000
,  // measure 26
0000
0001
0100
0001
0000
1000
0001
0100
,  // measure 27
0001
0001
1000
1000
,  // measure 28
0100
0001
0010
0100
1000
0001
1001
0100
,  // measure 29
1000
0001
1100
0000
0001
1000
0101
0000
,  // measure 30
0010
1000
0100
0010
1001
0000
0101
0000
,  // measure 31
1001
1001
0100
0000
1001
1001
0100
0000
,  // measure 32
0010
0001
0100
0010
1001
0000
1100
0000
,  // measure 33
1001
0000
1001
0000
0010
1000
0100
1000
,  // measure 34
1001
0000
1001
0000
0010
0001
0100
0001
,  // measure 35
1001
0000
1001
0000
0010
1000
0100
1000
,  // measure 36
1001
0000
1001
0000
0010
0001
0100
0001
,  // measure 37
1001
0000
0110
0000
1000
0100
0000
0001
,  // measure 38
0000
0100
1000
0000
0001
0000
1000
0100
,  // measure 39
0000
0001
0010
0000
0001
0100
0000
1000
,  // measure 40
0000
0100
0001
0000
1000
0001
0100
0001
,  // measure 41
0000
1000
0100
1000
0000
0001
0100
0001
,  // measure 42
0000
1000
0100
1000
0000
0001
1000
0100
,  // measure 43
1000
1000
0001
0001
,  // measure 44
0100
1000
0010
0100
0001
1000
1001
0100
,  // measure 45
0010
0001
1001
0000
0001
0100
0000
1000
,  // measure 46
0000
0100
0001
0000
1000
0000
0001
0100
,  // measure 47
0000
1000
0010
0000
1000
0100
0000
0001
,  // measure 48
0000
0100
1000
0000
0001
1000
0100
1000
,  // measure 49
0000
0001
0100
0001
0000
1000
0100
1000
,  // measure 50
0000
0001
0100
0001
0000
1000
0001
0100
,  // measure 51
0001
0001
1000
1000
,  // measure 52
0100
0001
0010
0100
1000
0001
1001
0100
,  // measure 53
0001
1000
0101
0000
1000
0001
1100
0000
,  // measure 54
1001
1001
0100
0000
1001
1001
0100
0000
,  // measure 55
1001
0101
1001
1100
,  // measure 56
1001
0101
1001
1100
,  // measure 57
1001
0000
0001
1000
0000
0000
0000
0000
;

//---------------dance-double - ----------------
#NOTES:
     dance-double:
     :
     Easy:
     5:
     0.375,0.413,0.098,0.000,0.000:
00000000
00000000
00000000
00000000
,
00000000
00000000
00000000
00000000
,
00000000
00000000
00000000
00000000
,
00000000
00000000
00000000
00000000
,
00000000
00000000
00000000
00000000
,
00000000
00000000
00000000
00000000
,
00001001
00000100
00001000
00010000
,
01000000
00100000
00010000
01000000
,
10010000
01000000
00010000
00001000
,
00000100
00000010
00001000
00000100
,
00001001
00000100
00001000
00010000
,
01000000
00100000
00010000
01000000
,
11000000
00010000
01000000
00010000
,
00001000
01000000
00001000
01000000
,
10000000
00100000
00010000
00001000
,
00100000
10000000
00100000
00010000
,
00001000
00001000
00000100
00010000
,
00000100
00010000
00000100
00000001
,
00000001
00000001
00001000
00001000
,
00000100
00000100
00000100
00000100
,
00000100
00000001
00001000
00000100
,
00000001
00000010
00001000
00010000
,
00000010
00000001
00000100
00001000
,
00000001
00001000
00000001
00000010
,
00001100
00001001
00000100
00001000
,
00000100
00000001
00000001
00000001
,
00000010
00000010
00001000
00010000
,
01000000
00010000
00001000
00000100
,
00001000
00001000
00001000
00001000
,
00010000
00010000
01000000
10000000
,
00010000
00010000
00010000
00010000
,
00001000
00001000
00000100
00000001
,
00001000
00001000
00010000
00000100
,
00000010
00000000
00001000
00000000
00000100
00000000
00000001
00000100
,
00001000
00000001
00000100
00001000
,
00010000
00000100
00001000
00010000
,
01000000
10000000
00010000
10000000
,
01000000
00000000
00010000
00000000
00001000
00000000
00000100
00000001
,
00000100
00001000
00001000
00010000
,
00100000
01000000
10000000
00010000
,
00001000
00010000
00001000
00000010
,
00000100
00000000
00000001
00000000
00000010
00000000
00000100
00001000
,
00000001
00000100
00001000
00000100
,
00000001
00000010
00000100
00001000
,
01000000
10000000
10000000
10000000
,
00010000
00000000
01000000
00000000
01000000
00000000
00100000
00010000
,
00001000
00000100
00000001
00000100
,
00000001
00000010
00000100
00001000
,
00001001
00000100
00000001
00000100
,
00001000
00000000
00000100
00000000
00001001
00000000
00000100
00001000
,
00010000
01000000
10000000
10000000
,
00010000
00010000
01000000
01000000
,
00010000
00010000
00001000
00001000
,
01000000
01000000
10000000
10000000
,
00010000
00001000
01000000
10000000
,
00010000
01000000
10000000
00010000
,
01000000
01000000
00000000
00000000
;

//---------------dance-double - ----------------
#NOTES:
     dance-double:
     :
     Medium:
     6:
     0.433,0.481,0.293,0.000,0.000:
00000000
00000000
00000000
00000000
,
00000000
00000000
00000000
00000000
,
00000000
00000000
00000000
00000000
,
00000000
00000000
00000000
00000000
,
00000000
00000000
00000000
00000000
,
00000000
00000000
00000000
00000000
,
00000001
00000010
00001100
00000001
,
00000001
00000000
00000100
00000000
00001000
00000000
00010000
01000000
,
10000000
00100000
01010000
10000000
,
10000000
00000000
01000000
00000000
00010000
00000000
00001000
00000100
,
00000001
00000010
00001100
00000001
,
00000001
00000000
00000100
00000000
00001000
00000000
00010000
01000000
,
10000000
10010000
01010000
10000000
,
00100000
00000000
00100000
00000000
10000000
00000000
01000000
00010000
,
00001000
01000000
01000000
00001000
,
00000100
00000000
00000100
00000000
00001000
00000000
00010000
00001000
,
00000100
00000001
00000001
00000001
,
00001000
00000000
00001000
00000000
00000010
00000000
00000010
00000100
,
00000001
00000101
00001000
00000101
,
00000010
00000000
00000001
00000000
00000100
00000000
00000010
00000001
,
00000100
00000001
00000100
00001000
,
00010000
00000000
01000000
00000000
00010000
00000000
00001000
00000100
,
00001000
00001000
00000001
00000001
,
00000100
00000000
00001000
00000000
00010000
00000000
00100000
10000000
,
01000000
10010000
01010000
00100000
,
00100000
00000000
00010000
00000000
10000000
00000000
01000000
00010000
,
00001000
01000000
01000000
10000000
,
01000000
00000000
01000000
00000000
00010000
00000000
00001000
00000100
,
00001000
00001000
00000100
00000100
,
00001000
00010000
01000000
01000000
,
00010000
00010000
01000000
01000000
,
00010000
00001000
00000100
00000100
,
00001000
00001000
00000001
00000100
,
00001000
00000000
00010000
00000000
01000000
00000000
00001000
00010000
,
01000000
10000000
00100000
01000000
,
00010000
00001000
01000000
10000000
,
10010000
01000000
00010000
01000000
,
10100000
00000000
00010000
00000000
00001000
00000000
00100000
00010000
,
00000100
00001001
00000100
00001001
,
00000100
00000000
00001000
00000000
00000100
00000000
00000001
00000100
,
00001000
00000001
00000010
00001000
,
00010000
00000000
00000010
00000000
00010000
00000000
01000000
00010000
,
00001000
00000100
00000100
00001000
,
00010000
00000000
01000000
00000000
01000000
00000000
10000000
00010000
,
01000000
10000000
00010000
00100000
,
10000000
00000000
00010000
00000000
01000000
00000000
00100000
00010000
,
00001000
00000100
00000001
00001000
,
00000101
00000000
00001000
00000000
00001100
00000000
00000010
00000100
,
00000001
00001000
00010000
01000000
,
00010000
00000000
00001000
00000000
00000100
00000000
00001000
00010000
,
01000000
01100000
10000000
01100000
,
00010000
00000000
00001000
00000000
00000100
00000000
00001000
00010000
,
01000000
00110000
10000000
00110000
,
01000000
00000000
01100000
00000000
10000000
00000000
00100000
00010000
,
00001000
00000110
00001001
00001100
,
00000001
00000000
00000010
00000000
00001100
00000000
00000001
00001000
,
00000100
00000100
00000000
00000000
;

//---------------dance-double - ----------------
#NOTES:
     dance-double:
     :
     Hard:
     7:
     0.498,0.516,0.660,0.000,0.000:
00000000
00000000
00000000
00000000
,
00000000
00000000
00000000
00000000
,
00000000
00000000
00000000
00000000
,
00000000
00000000
00000000
00000000
,
00000000
00000000
00000000
00000000
,
00000000
00000000
00000000
00000000
,
00010000
00000000
00010100
00000000
00010010
00000000
00001000
00010000
,
01000000
00000000
00010000
00000000
00011000
00000000
00100000
00010000
,
00001000
00000000
00000100
00000000
00001000
00000000
00000100
00001000
,
00010000
00000000
00000010
00000000
00000010
00000000
00010000
00001000
,
00010000
00000000
01001000
00000000
00010000
00000000
00000100
00001000
,
00000100
00000000
00000110
00000000
00001000
00000000
00010000
01000000
,
00100000
00000000
00100000
00000000
00100000
00000000
00010000
00100000
,
01000000
00000000
01100000
00000000
00010000
00000000
00001000
00010000
,
01000000
00000000
00010000
00000000
00010100
00000000
00001000
00000100
,
00001000
00000000
00000010
00000000
00001000
00000000
00010000
01000000
,
00010000
00000000
01000000
00000000
00010000
00000000
01100000
00010000
,
00100000
00000000
01000000
00000000
00010000
00000000
00011000
00001000
,
00000100
00000000
00001010
00000000
00000100
00000000
00000010
00001000
,
00010000
00000000
01000000
00000000
00010000
00000000
00001000
00010000
,
01000000
00000000
00110000
00000000
00101000
00000000
00100000
00010000
,
01000000
00000000
01001000
00000000
00010000
00000000
00000100
00010000
,
00001000
00000000
01000000
00000000
01100000
00000000
00110000
01000000
,
00100000
00000000
00010000
00000000
00001000
00000000
00000100
00000010
,
00001000
00000000
00000110
00000000
00010010
00000000
00010100
00000100
,
00001000
00000000
00001010
00000000
00000100
00000000
00001000
00010000
,
00100000
00000000
00001000
00000000
00100000
00000000
00001000
00010000
,
01000000
01100000
00010000
00001000
,
00010100
00001000
00010100
00001000
,
01001000
00010000
00010010
00011000
,
01001000
00010000
01001000
00010000
,
00010010
00001000
00101000
00011000
,
00000100
00000100
00000010
00001000
,
00000100
00000010
00001000
00010000
,
01000000
01000000
00100000
00010000
,
01000000
00100000
00010000
00001000
,
00001001
00000101
00001000
00000010
,
00001000
00000000
01100000
00000000
00010000
00000000
10000000
01000000
,
00010000
11000000
00110000
00101000
,
00010000
00000000
00000110
00000000
00001000
00000000
00000110
00000001
,
00001000
00000100
00000001
00000100
,
00001000
00000000
00010000
00000000
00000100
00000000
00010000
01000000
,
10000000
10010000
01000000
11000000
,
01010000
00000000
00100000
00000000
00010000
00000000
01000000
00100000
,
00010000
00001000
00000110
00001000
,
00010000
00000000
01100000
00000000
00010000
00000000
00001000
00000100
,
00000001
00001000
00000110
00010010
,
00011000
00000000
01001000
00000000
01100000
00000000
10000000
00010000
,
01000000
01001000
00010000
01001000
,
00010000
00000000
10100000
00000000
00010000
00000000
10000000
00100000
,
00010000
01100000
00010000
00001000
,
00000110
00000000
00000001
00000000
00000110
00000000
00001000
00000010
,
00000100
00000100
00000001
00000001
,
00000010
00000010
00001000
00001000
,
00010000
01000000
10000000
00100000
,
00001000
00100000
00001000
00100000
,
10000000
01000000
00000000
00000000
;

//---------------dance-double - ----------------
#NOTES:
     dance-double:
     :
     Challenge:
     8:
     0.536,0.481,0.379,0.000,0.000:
00000000
00000000
00000000
00000000
,
00000000
00000000
00000000
00000000
,
00000000
00000000
00000000
00000000
,
00000000
00000000
00000000
00000000
,
00000000
00000000
00000000
00000000
,
00000000
00000000
00000000
00000000
,
00100000
00000000
10000000
00010000
10000000
01000000
00000000
00010000
,
00001000
00000100
00001000
00000000
00001000
00000000
00000100
00000001
,
00000010
00000000
00000001
00001000
00000001
00000100
00000000
00001000
,
00010000
01000000
00010000
00000000
00010000
00000000
01000000
10000000
,
00100000
00000000
10000000
00010000
10000000
01000000
00000000
00010000
,
00001000
00000100
00001000
00000000
00001000
00000000
00000100
00000001
,
00000010
00000000
00000100
00000000
00000010
00001000
00010000
00000000
,
00000010
00001000
00010000
00000000
00010010
00000000
00001000
00000100
,
00000001
00000000
00001000
00000000
00000100
00001000
00010000
00000000
,
01000000
00010000
00001000
00000000
00010100
00000000
00001000
00010000
,
01000000
00000000
10010000
00000000
10000000
01000000
00010000
00000000
,
01000000
00100000
10000000
00000000
01100000
00000000
00010000
10000000
,
00100000
01010000
00100000
11000000
,
00100000
00000000
01010000
00000000
00100000
00000000
10000000
01000000
,
00010000
00000000
00001000
00000000
00000100
00001000
00000100
00000000
,
00000001
00000100
00000001
00000000
00001001
00000000
00000100
00001000
,
00000010
00000000
00000100
00000000
00001000
00010000
01000000
00000000
,
00010000
01000000
10000000
00000000
01100000
00000000
00010000
01000000
,
00100000
00000000
00010000
00000000
10000000
00100000
00010000
00000000
,
00001000
00010000
00100000
00000000
01100000
00000000
00010000
00100000
,
00010000
01010000
10000000
11000000
,
00010000
01010000
10000000
11000000
,
00100000
01000000
00010000
00000000
00100000
01000000
10000000
00000000
,
10000000
01000000
00010000
00001000
00000100
00000000
00000110
00000000
,
00000001
00000100
00001000
00000000
00001000
00000100
00000001
00000000
,
00000001
00000100
00001000
00010000
01000000
00000000
01100000
00000000
,
00010000
00000000
10000000
01000000
00010000
00001000
00000000
00000100
,
00001000
00010000
00001000
00000000
00000110
00000000
00000001
00000100
,
00001000
00000000
00000001
00000100
00001000
00010000
00000000
01000000
,
00010000
00001000
00010000
00000000
01100000
00000000
10000000
01000000
,
00010000
00000000
01100000
00000000
10000000
00010000
01000000
00000000
,
00100000
00001000
00010000
00000000
01000000
00000000
00001000
00010000
,
01000000
00000000
11000000
00000000
00010000
00001000
00000100
00000000
,
00000010
00001000
00000100
00000000
00000001
00000000
00001000
00000001
,
00000100
00000000
00001010
00000000
00000001
00001000
00000100
00000000
,
00010000
00001000
00000100
00000000
00000001
00000000
00000010
00001000
,
00010000
00010100
00001000
00000100
,
00000001
00000001
00000100
00001000
,
00010000
00000000
01100000
00000000
10000000
01000000
00100000
00000000
,
00100000
01000000
00010000
00000000
00001000
00010000
01000000
00000000
,
00100000
00000000
00110000
00000000
10000000
00100000
00010000
00000000
,
00100000
00010000
00001000
00000000
01000000
00000000
00100000
00010000
,
01000000
00000000
01001000
00000000
00010000
00100000
10000000
00000000
,
00010000
01000000
10000000
00000000
00100000
00000000
00010000
10000000
,
01000000
10010000
01000000
10010000
,
01000000
10010000
01000000
10010000
,
00100000
10000000
00010000
00000000
01000000
00010000
10000000
00000000
,
10000000
01000000
00010000
00001000
00000100
00000000
00000110
00000000
,
00001000
00000010
00000100
00000000
00000001
00000100
00000010
00000000
,
00000001
00000100
00001000
00010000
01000000
00000000
01100000
00000000
,
00010000
00001000
00000100
00000000
00000000
00000000
00000000
00000000
;

//---------------dance-couple - ----------------
#NOTES:
     dance-couple:
     :
     Challenge:
     7:
     0.615,0.963,1.000,0.000,0.000:
00000000
00000000
00000000
00000000
,
00000000
00000000
00000000
00000000
,
00000000
00000000
00000000
00000000
,
00000000
00000000
00000000
00000000
,
00000000
00000000
00000000
00000000
,
00000000
00000000
00000000
00000000
,
00000010
00001000
00000001
00000100
,
00100000
00010000
10000000
01000000
,
00001000
00000001
00000100
00000100
,
00010000
10000000
01000000
01000000
,
00000000
00000100
00000000
00000100
,
00000000
01000000
00000000
01000000
,
10010000
00000000
11000001
00000000
00010000
01000000
00010001
00000000
,
10000000
00000000
01000001
00000000
00010000
00100000
01000001
00000000
,
00001001
00000000
10001100
00000000
00000001
00000100
10000001
00000000
,
00001000
00000000
10000100
00000000
00000001
00000010
10000100
00000000
,
10000000
01000000
10000000
01000000
,
00000001
00000100
00000001
00000100
,
10001000
01000100
10001000
00000000
00010001
01000100
00010001
00000000
,
10001000
01000100
10001000
01000100
10001000
00010001
01000100
00000000
,
00001001
00000000
00001100
00000000
00000001
00000100
00001000
00000000
,
00000001
00000100
00001000
00000000
00000001
00000100
00001000
00000000
,
10010000
00000000
01010000
00000000
10000000
01000000
00010000
00000000
,
10000000
01000000
00010000
00000000
10000000
01000000
00010000
00000000
,
10000000
10000000
00010000
00010000
,
00001000
00001000
00000001
00000001
,
10001000
00100010
10001000
00000000
00010001
00100010
00010001
00000000
,
10001000
01000100
10001000
01000100
10001000
00010001
01000100
00000000
,
00001001
00000000
10010000
00000000
,
00001001
10010000
11000101
01011100
,
10010000
00000000
00001001
00000000
,
10010000
00001001
11000101
01011100
,
00100000
00000000
00100001
00000000
01000000
00010000
01000001
00000000
,
00100000
00000000
00100001
00000000
01000000
10000000
01000001
00000000
,
00000010
00000000
10000010
00000000
00000100
00001000
10000100
00000000
,
00000010
00000000
10000010
00000000
00000100
00000001
10000100
00000000
,
10000000
00000000
01010000
00000000
10000000
01000000
10000000
00000000
,
00010000
00000000
01000000
00000000
10000000
00010000
01000000
00000000
,
00001000
00000000
00000101
00000000
00001000
00000100
00001000
00000000
,
00000001
00000000
00000100
00000000
00001000
00000001
00000100
00000000
,
10000000
10000000
00001000
00001000
,
00010000
00010000
00000001
00000001
,
00000010
00000001
00000100
00000000
00100000
10000000
01000000
00000000
,
00010001
01000100
00010001
01000100
00010001
10001000
01000100
00000000
,
10011001
00000000
10011001
00000000
00000010
00001000
00000100
00000000
,
00000010
00001000
00000100
00000000
00000010
00001000
00000100
00000000
,
10011001
00000000
10011001
00000000
00100000
10000000
01000000
00000000
,
00100000
10000000
01000000
00000000
00100000
10000000
01000000
00000000
,
10001000
01000100
00010001
01000100
,
10001000
01000100
00010001
01000100
,
10000000
00010000
01000000
00000000
00000001
00001000
00000100
00000000
,
00100010
10001000
00100010
10001000
00010001
10001000
01000100
00000000
,
00100000
01010000
00000010
00000101
,
00100000
11000000
00000010
00001100
,
00010000
00010000
00001000
00001000
,
10000000
00000001
00010000
00001000
,
10011001
00100100
00000000
00000000
;

//---------------dance-solo - ----------------
#NOTES:
     dance-solo:
     :
     Easy:
     4:
     0.365,0.413,0.208,0.000,0.000:
000000
000000
000000
000000
,
000000
000000
000000
000000
,
000000
000000
000000
000000
,
000000
000000
000000
000000
,
000000
000000
000000
000000
,
000000
000000
000000
000000
,
001000
000010
100000
000010
,
001000
000001
100000
000100
,
010000
000000
000100
000100
,
000010
000000
001000
001000
,
000000
010000
000000
010000
,
000000
010000
000000
010000
,
100001
001000
000100
001000
,
100001
001000
000010
000010
,
100001
001000
000100
001000
,
100001
001000
010000
010000
,
000001
001000
000100
100000
,
000010
100000
000001
010000
,
001000
000100
100000
000001
,
001000
000010
001000
010000
,
000001
100001
000100
001000
,
100000
000100
001000
001000
,
100001
100001
000100
001000
,
000001
100000
000100
000100
,
010000
001000
000010
001000
,
000001
000100
100000
000100
,
000010
000100
010000
000100
,
001000
000001
000100
100000
,
000010
000000
010000
000000
,
000100
001000
100001
100001
,
001000
000000
000100
000000
,
001000
000100
100001
100001
,
000100
100000
000001
001000
,
000010
000010
001000
001000
,
100000
000100
010000
001000
,
010000
010000
001000
001000
,
100001
000100
010000
000100
,
100001
001000
000010
000010
,
100001
001000
010000
001000
,
100001
000100
000010
000010
,
100000
001000
000001
001000
,
100000
001000
000001
001000
,
000100
010000
000100
000010
,
000100
010000
000100
000010
,
100001
100001
000100
001000
,
000001
001000
100000
001000
,
000001
100000
000001
001000
,
000010
100000
000010
100000
,
000001
001000
100000
001000
,
000001
001000
100000
001000
,
100000
100000
000001
000001
,
000100
100000
000001
001000
,
000010
000010
100000
100000
,
000010
000010
100000
000100
,
010000
010000
000001
000001
,
010000
010000
000001
001000
,
000001
100000
000000
000000
;

//---------------dance-solo - ----------------
#NOTES:
     dance-solo:
     :
     Medium:
     6:
     0.492,0.586,0.293,0.000,0.000:
000000
000000
000000
000000
,
000000
000000
000000
000000
,
000000
000000
000000
000000
,
000000
000000
000000
000000
,
000000
000000
000000
000000
,
000000
000000
000000
000000
,
000010
000000
100000
000000
000010
000000
100000
000001
,
100000
000000
000001
000000
100000
000000
000010
100000
,
000010
000000
100000
000000
000010
000000
100000
000001
,
100000
000000
000001
000000
100000
000000
000001
010000
,
000001
010000
000001
010000
,
000001
100000
001000
001000
,
100001
000000
010001
000000
010000
000010
010000
000000
,
100000
000000
001000
000000
000010
000001
000010
000000
,
001010
000000
000100
000000
100000
010000
100000
000000
,
000001
000000
100000
000000
000010
000100
000010
000000
,
001000
000100
100000
000100
,
001000
000001
001000
000001
,
010000
000100
010000
000000
000010
000100
000010
000000
,
100000
001000
100000
001000
100000
000001
001000
000000
,
001010
000000
011000
000000
100000
001000
000001
000000
,
100000
001000
000001
000000
100000
001000
000001
000000
,
000100
000000
001010
000000
000001
001000
100000
000000
,
000001
001000
100000
000000
000001
001000
100000
000000
,
000100
001000
000100
001000
,
000001
100000
000001
100000
,
000010
001000
000010
000000
000001
000010
000001
000000
,
000100
010000
000100
000000
010000
100000
010000
000000
,
100001
000000
100001
000000
,
000100
001000
000010
000000
100010
000000
010001
000000
,
001100
000000
001100
000000
,
000001
100000
000100
000000
000110
000000
010100
000000
,
000001
000000
000001
000000
100000
010000
100000
000000
,
000100
000000
000100
000000
001000
000001
001000
000000
,
100000
000000
100000
000000
000010
000100
000010
000000
,
001000
000000
001000
000000
000100
010000
000100
000000
,
100010
000000
010001
000000
000010
001000
000010
000000
,
100000
000000
010000
000000
100000
001000
000001
000000
,
000001
000000
000010
000000
000001
001000
100000
000000
,
000001
000000
001000
000000
010000
100000
010000
000000
,
000010
100000
000010
100000
,
000001
000010
000001
000010
,
000001
001000
100000
000000
100000
010000
100000
000000
,
000010
001000
000010
001000
000010
100000
001000
000000
,
000100
000000
100100
000000
000001
001000
100000
001000
,
000010
001000
000010
000000
100000
000000
000001
000000
,
010000
000000
010001
000000
000001
001000
100000
001000
,
000010
001000
000010
000000
100000
000000
000001
000000
,
100000
001000
100000
000000
000001
001000
000001
000000
,
100000
001000
100000
000000
000001
001000
000001
000000
,
010000
000001
010000
000001
010000
000001
010000
000001
,
100000
000100
001000
000010
001000
000100
001100
000000
,
000001
010001
100000
100010
,
000100
010100
000100
000110
,
001000
000010
001000
000000
000100
010000
000100
000000
,
100000
000010
001000
000000
000010
100000
001000
000000
,
100001
000000
001000
000100
000000
000000
000000
000000
;

//---------------dance-solo - ----------------
#NOTES:
     dance-solo:
     :
     Hard:
     8:
     0.548,0.619,0.391,0.000,0.000:
000000
000000
000000
000000
,
000000
000000
000000
000000
,
000000
000000
000000
000000
,
000000
000000
000000
000000
,
000000
000000
000000
000000
,
000000
000000
000000
000000
,
100001
000000
000100
000000
010000
001000
010000
001000
,
010010
000000
000001
000000
100000
010000
100000
010000
,
100001
000000
001000
000000
000001
000010
000001
000010
,
000001
000000
100000
000000
000100
001000
000100
001000
,
100001
000100
100000
100000
,
000010
001000
000001
000001
,
001100
000000
100001
000000
100000
001000
000000
010000
,
000000
000010
100000
000000
000001
000000
100000
000010
,
000000
100000
001000
000000
100000
000100
000000
100000
,
000000
001000
010000
000000
001000
000010
000001
100000
,
000000
000010
001000
010000
000000
100000
001000
000001
,
000000
100000
001000
100000
000000
000001
010000
001000
,
010000
000000
000001
100000
,
001000
100000
000100
001000
000001
100000
000010
001000
,
000100
010000
000001
000000
000001
100000
000000
000100
,
000000
001000
000010
000000
100000
000000
000010
001000
,
000000
000001
100000
000000
000010
001000
000000
000001
,
000000
010000
000001
000000
010000
001000
010000
000100
,
000000
100000
001000
100000
000000
000010
001000
000010
,
000000
010000
000010
100000
000000
000001
000100
001000
,
000100
000100
000010
010000
,
000001
000100
000010
100000
001000
010000
000010
001000
,
000001
000000
000101
000000
100000
000100
010100
000000
,
000001
100000
000010
001000
000001
000000
100100
000000
,
000001
100000
001000
000000
100000
000010
001000
000000
,
000100
100000
001000
000100
010001
000000
101000
000000
,
100001
000000
100001
000000
000100
001000
000100
100000
,
100001
000000
100001
000000
000100
000010
001000
000001
,
100001
000000
100001
000000
000100
010000
001000
100000
,
100001
000000
100001
000000
000100
000010
001000
000001
,
100001
000000
001100
000000
000010
001000
000000
010000
,
000000
001000
000001
000000
100000
000000
100000
000010
,
000000
001000
000001
000000
000100
000010
000000
100000
,
000000
001000
010000
000000
010000
000001
001000
000001
,
000000
010000
001000
010000
000000
000010
001000
000010
,
000000
100000
000100
100000
000000
000001
100000
010000
,
100000
100000
000010
000010
,
001000
000100
100000
000001
010000
001000
100000
000010
,
000100
000001
100000
000000
000001
001000
000000
000010
,
000000
010000
000001
000000
000100
000000
001000
010000
,
000000
000001
000100
000000
000010
010000
000000
000001
,
000000
100000
001000
000000
100000
000010
001000
000001
,
000000
010000
001000
100000
000000
000010
001000
000001
,
000000
100000
001000
010000
000000
001000
000100
001000
,
000100
000100
000001
100000
,
001000
000100
000001
010000
000010
001000
000100
100000
,
000010
001000
000001
000000
000001
100000
000100
000000
,
010001
000001
001000
000000
100010
100000
001000
000000
,
100001
001001
100001
101000
,
010001
100001
100010
100001
,
001100
100000
000000
000000
;

//---------------dance-single - ----------------
#NOTES:
     dance-single:
     :
     Challenge:
     8:
     0.582,0.689,0.587,0.000,0.000: // measure 1
0000
0000
0000
0000
,  // measure 2
0000
0000
0000
0000
,  // measure 3
0000
0000
0000
0000
,  // measure 4
0000
0000
0000
0000
,  // measure 5
0000
0000
0000
0000
,  // measure 6
0000
0000
0000
0000
,  // measure 7
1001
0000
0010
0000
1000
0100
1000
0100
,  // measure 8
1001
0000
0010
0000
0001
0100
0001
0100
,  // measure 9
1001
0000
0100
0000
1000
0010
1000
0010
,  // measure 10
1001
0000
0100
0000
0001
0010
0001
0010
,  // measure 11
1001
0100
1000
1000
,  // measure 12
0001
0100
0001
0001
,  // measure 13
1001
0000
0110
0000
1000
0100
0000
0001
,  // measure 14
0000
0100
1000
0000
0001
0000
1000
0100
,  // measure 15
0000
0001
0010
0000
0001
0100
0000
1000
,  // measure 16
0000
0100
0001
0000
1000
0001
0100
0001
,  // measure 17
0000
1000
0100
1000
0000
0001
0100
0001
,  // measure 18
0000
1000
0100
1000
0000
0001
1000
0100
,  // measure 19
1000
1000
0001
0001
,  // measure 20
0100
1000
0010
0100
0001
1000
1001
0100
,  // measure 21
0010
0001
1001
0000
0001
0100
0000
1000
,  // measure 22
0000
0100
0001
0000
1000
0000
0001
0100
,  // measure 23
0000
1000
0010
0000
1000
0100
0000
0001
,  // measure 24
0000
0100
1000
0000
0001
1000
0100
1000
,  // measure 25
0000
0001
0100
0001
0000
1000
0100
1000
,  // measure 26
0000
0001
0100
0001
0000
1000
0001
0100
,  // measure 27
0001
0001
1000
1000
,  // measure 28
0100
0001
0010
0100
1000
0001
1001
0100
,  // measure 29
1000
0001
1100
0000
0001
1000
0101
0000
,  // measure 30
0010
1000
0100
0010
1001
0000
0101
0000
,  // measure 31
1001
1001
0100
0000
1001
1001
0100
0000
,  // measure 32
0010
0001
0100
0010
1001
0000
1100
0000
,  // measure 33
1001
0000
1001
0000
0010
1000
0100
1000
,  // measure 34
1001
0000
1001
0000
0010
0001
0100
0001
,  // measure 35
1001
0000
1001
0000
0010
1000
0100
1000
,  // measure 36
1001
0000
1001
0000
0010
0001
0100
0001
,  // measure 37
1001
0000
0110
0000
1000
0100
0000
0001
,  // measure 38
0000
0100
1000
0000
0001
0000
1000
0100
,  // measure 39
0000
0001
0010
0000
0001
0100
0000
1000
,  // measure 40
0000
0100
0001
0000
1000
0001
0100
0001
,  // measure 41
0000
1000
0100
1000
0000
0001
0100
0001
,  // measure 42
0000
1000
0100
1000
0000
0001
1000
0100
,  // measure 43
1000
1000
0001
0001
,  // measure 44
0100
1000
0010
0100
0001
1000
1001
0100
,  // measure 45
0010
0001
1001
0000
0001
0100
0000
1000
,  // measure 46
0000
0100
0001
0000
1000
0000
0001
0100
,  // measure 47
0000
1000
0010
0000
1000
0100
0000
0001
,  // measure 48
0000
0100
1000
0000
0001
1000
0100
1000
,  // measure 49
0000
0001
0100
0001
0000
1000
0100
1000
,  // measure 50
0000
0001
0100
0001
0000
1000
0001
0100
,  // measure 51
0001
0001
1000
1000
,  // measure 52
0100
0001
0010
0100
1000
0001
1001
0100
,  // measure 53
0001
1000
0101
0000
1000
0001
1100
0000
,  // measure 54
1001
1001
0100
0000
1001
1001
0100
0000
,  // measure 55
1001
0101
1001
1100
,  // measure 56
1001
0101
1001
1100
,  // measure 57
1001
0000
0001
1000
0000
0000
0000
0000
;
