#TITLE:PARANOiA MAX;
#SUBTITLE:[CLUB ANOTHER VERSION];
#ARTIST:190;
#TITLETRANSLIT:;
#SUBTITLETRANSLIT:;
#ARTISTTRANSLIT:;
#CREDIT:;
#BANNER:PARANOiA MAX [CLUB ANOTHER VERSION].png;
#BACKGROUND:PARANOiA MAX [CLUB ANOTHER VERSION]-bg.png;
#LYRICSPATH:;
#CDTITLE:CDTITLES/Konami original.png;
#MUSIC:PARANOiA MAX [CLUB ANOTHER VERSION].mp3;
#OFFSET:-0.071;
#SAMPLESTART:73.250;
#SAMPLELENGTH:12.000;
#SELECTABLE:YES;
#BPMS:0.000=190.090;
#STOPS:;
#BGCHANGES:24.000=PARANOiA MAX [DIRTY MIX].avi=1.000=0=0=1,
294.000=PARANOiA MAX [CLUB ANOTHER VERSION]-bg.png=1.000=0=0=1,
99999=-nosongbg-=1.000=0=0=0 // don't automatically add -songbackground-
;
#LASTBEAT:298;

//---------------dance-single - ----------------
#NOTES:
     dance-single:
     :
     Beginner:
     1:
     0.152,0.228,0.031,0.000,0.000:
0000
0000
0000
0000
,
0000
0000
0000
0000
,
0000
0000
0000
0000
,
0000
0000
0000
0000
,
0000
0000
0000
0000
,
0000
0000
0000
0000
,
0000
0000
0000
0000
,
0000
0000
0000
0000
,
0000
0010
0000
0100
,
0000
0100
0000
0100
,
0000
0000
0000
0010
,
0000
0010
0000
0010
,
0010
0010
0000
0000
,
0000
1000
0000
1000
,
0000
0001
0000
0001
,
0000
0010
0010
0000
,
0000
0000
0000
0010
,
0000
0000
0000
1000
,
0000
0000
0000
0001
,
0000
0000
0000
1000
,
1000
1000
0000
0000
,
0000
0001
0000
1000
,
0000
0000
0000
0000
,
0010
0010
0010
0000
,
0000
0000
0000
0010
,
0000
0000
0000
1000
,
0000
0000
0000
0001
,
0000
0000
0000
0100
,
0000
1000
0000
1000
,
0000
0010
0000
0010
,
0000
0000
0000
0000
,
0001
0001
0001
0000
,
0000
0010
0000
0010
,
0000
0000
0100
0100
,
0000
0001
0000
0001
,
0000
0000
1000
1000
,
0000
1000
0000
1000
,
0000
0000
0001
0001
,
0000
0000
0000
0000
,
0000
0000
0000
1000
,
1000
0000
1000
1000
,
0000
0010
0010
0010
,
0000
0000
0000
0000
,
0000
0000
0001
0001
,
0000
1000
0000
0000
,
0000
0000
0100
0100
,
0000
0010
0000
0000
,
0000
0000
1000
1000
,
0000
0001
0000
0000
,
0000
0000
0100
0000
,
1001
0000
0000
0000
,
0000
0000
1000
1000
,
0000
0001
0000
0000
,
0000
0000
0001
0001
,
0000
1000
0000
0000
,
0000
0000
0000
0000
,
0100
0000
0100
0000
,
1001
0000
0000
0000
,
0000
0010
0000
0010
,
0000
0000
0000
1000
,
0000
0001
0000
0001
,
0000
0000
0000
0000
,
0000
0010
0000
0010
,
0000
0000
0000
0001
,
0000
1000
0000
1000
,
0000
0000
0000
0000
,
0000
0001
0000
0001
,
0000
1000
0000
1000
,
0000
0010
0010
0010
,
0000
0010
0000
0010
,
0000
0000
0000
0000
,
0000
0000
1000
1000
,
0000
1000
0000
0001
,
0000
0000
1001
0000
;

//---------------dance-single - ----------------
#NOTES:
     dance-single:
     :
     Easy:
     6:
     0.429,0.531,0.434,0.000,0.000: // measure 1
0000
0000
0000
0000
,  // measure 2
0000
0000
0000
0000
,  // measure 3
0000
0000
0000
0000
,  // measure 4
0000
0000
0000
0000
,  // measure 5
0000
0000
0000
0000
,  // measure 6
0000
0000
0000
0000
,  // measure 7
0000
0010
0000
0010
,  // measure 8
0000
1000
0010
0010
,  // measure 9
1001
0010
1000
0010
,  // measure 10
1000
0100
1000
0010
,  // measure 11
1000
0001
1000
1000
,  // measure 12
0100
0010
0100
0100
,  // measure 13
0001
0010
0100
1000
,  // measure 14
1000
0010
0100
0001
,  // measure 15
1000
0100
0001
0100
,  // measure 16
0100
0000
0100
0000
,  // measure 17
0001
0001
1000
1000
,  // measure 18
0010
0100
0010
1001
,  // measure 19
0001
0100
1000
1000
,  // measure 20
1010
0000
1001
0000
,  // measure 21
0001
0001
1000
1000
,  // measure 22
0100
0100
1001
1001
,  // measure 23
1000
0001
1000
0000
0001
1000
0001
0000
,  // measure 24
0010
1000
0010
0000
1001
0000
0000
0000
,  // measure 25
0010
0001
0100
1000
,  // measure 26
0001
0100
0010
1000
,  // measure 27
0010
1000
0010
0001
,  // measure 28
0010
0001
0100
1000
,  // measure 29
0010
0001
0010
1000
,  // measure 30
0001
0100
0010
1000
,  // measure 31
0010
1000
0010
0001
,  // measure 32
0010
0001
1001
0000
,  // measure 33
1001
0000
0000
0010
0000
0000
1000
0000
,  // measure 34
0000
0010
0000
0001
0100
0001
0001
0000
,  // measure 35
0010
0000
0000
0100
0000
0000
1001
0000
,  // measure 36
0010
0000
0000
1000
0100
1000
1000
0000
,  // measure 37
0010
0000
0000
0100
0000
0000
1001
0000
,  // measure 38
0000
0010
0000
0001
0100
0001
0001
0000
,  // measure 39
0010
0000
0000
0100
0000
0000
1001
0000
,  // measure 40
0000
0010
0000
1000
0100
1000
1000
0000
,  // measure 41
0000
0000
0100
0100
,  // measure 42
0000
0001
0001
0001
,  // measure 43
0010
1001
0010
0001
,  // measure 44
0100
0100
0101
1100
,  // measure 45
0010
1001
0010
1000
,  // measure 46
0001
0001
0101
1100
,  // measure 47
0010
1001
0010
1000
,  // measure 48
0100
0100
1100
0101
,  // measure 49
0010
1001
0010
0001
,  // measure 50
1000
1000
1100
0101
,  // measure 51
0100
0100
0000
0000
0001
0000
0100
0000
,  // measure 52
1001
0010
1000
0100
,  // measure 53
0000
1001
0000
0000
0010
0000
0100
0000
,  // measure 54
1001
0010
0001
0100
,  // measure 55
0001
0001
0000
0000
0010
0000
0100
0000
,  // measure 56
1001
0100
0010
0100
,  // measure 57
0000
0110
0000
0000
0001
0000
0100
0000
,  // measure 58
1001
0000
1001
0000
,  // measure 59
0000
0000
0100
0000
0000
1010
0000
0000
,  // measure 60
0010
0000
0000
1001
0000
0000
0000
0000
,  // measure 61
0000
0000
1100
0000
0000
0001
0000
1000
,  // measure 62
0100
0000
0000
0000
,  // measure 63
0000
0000
0100
0000
0000
1010
0000
0000
,  // measure 64
0010
0000
0000
1001
0000
0000
0000
0000
,  // measure 65
0000
0000
0100
0000
0000
0011
0000
0000
,  // measure 66
1010
0000
0000
0000
,  // measure 67
1000
1000
0100
0000
0001
0001
0000
0100
,  // measure 68
1001
0000
1001
0000
1000
0100
0010
0000
,  // measure 69
1000
1000
0100
0000
0001
0001
0100
0000
,  // measure 70
1001
0000
0001
0000
0001
0100
0010
0000
,  // measure 71
0010
0010
0000
1000
0100
0000
0001
0100
,  // measure 72
0000
0010
0100
0000
0010
0000
0001
0000
,  // measure 73
0010
0100
0001
1000
,  // measure 74
0001
0100
1001
0000
;

//---------------dance-single - ----------------
#NOTES:
     dance-single:
     :
     Medium:
     7:
     0.483,0.569,0.609,0.000,0.015:
0000
0000
0000
0000
,
0000
0000
0000
0000
,
0000
0000
0000
0000
,
0000
0000
0000
0000
,
0000
0000
0000
0000
,
0000
0000
0000
0000
,
0000
0010
0010
0010
,
0000
0001
0010
0010
,
1001
0100
1000
0010
,
0001
0100
1000
0010
,
0001
0100
1000
0001
,
0010
0010
0000
0100
1000
0000
0000
0000
,
0000
0010
0000
0000
1001
0000
0000
0000
0100
0000
0000
0000
0001
0000
0000
0000
,
1000
0000
0010
0000
0100
0000
0001
0010
,
0100
1000
0000
0000
0100
1000
0000
0000
,
1000
1000
0000
0001
1000
0000
0000
0000
,
0000
0001
0000
0000
1100
0000
0000
0000
0001
0000
0000
0000
0100
0000
0000
0000
,
0010
0100
0010
1001
,
1000
0100
0001
0100
,
0010
0000
0010
0000
0000
0000
0001
0000
1000
0000
0000
0100
0000
0000
0100
0000
,
0100
1001
0010
0100
,
0010
0100
1001
1001
,
0010
0001
1000
0000
0010
0100
0010
0000
,
0001
0100
0000
1000
0001
0000
0000
0000
,
0010
1000
0100
0001
,
0001
0100
0010
1000
,
0010
0001
0010
0001
,
0010
1000
0100
0001
,
0010
1001
0010
1000
,
0001
0100
0010
1000
,
0010
1001
0010
0001
,
0010
0001
1001
0000
,
1001
0000
0000
0010
0000
0000
1001
0000
,
0000
0010
0000
1000
0001
1000
0001
0000
,
0010
0000
0000
0101
0000
0000
1001
0000
,
0010
0000
0000
0001
0100
0001
1000
0000
,
0010
0000
0000
1100
0000
0000
1001
0000
,
0000
0010
0000
1000
0100
1000
0100
0000
,
0010
0000
0000
0101
0000
0000
1001
0000
,
0010
0000
0000
0001
0010
0001
1000
0000
,
0000
0000
0101
1100
,
0000
0110
1001
1100
,
0010
1001
0010
1001
,
0100
0100
0101
1100
,
1000
0101
1000
0101
,
0001
0001
0100
1000
,
1000
0110
1000
0110
,
0010
0010
1010
0011
,
0001
1100
0001
1100
,
1010
1001
1010
1100
,
0100
0100
0000
0000
0001
1000
0000
0000
,
1000
0001
0010
0000
1000
0001
0100
0000
,
0000
1001
0000
0000
0010
0001
0100
0000
,
1001
0000
1010
0000
,
0001
0001
0000
0000
0010
1000
0100
0000
,
1000
1000
0100
0000
0010
0001
0100
0000
,
0000
0110
0000
0000
0001
1000
0100
0000
,
1001
0000
1001
0000
,
0000
0000
0100
0000
0000
1000
0000
0000
,
0010
0000
0000
1001
0000
0000
0000
0000
,
0000
0000
1100
0000
0000
1001
0000
1000
,
0100
0000
0000
0000
0000
0100
0100
0000
,
0000
0000
0100
0000
0000
0010
0000
0000
,
0011
0000
0000
1001
0000
0000
0000
0000
,
0000
0000
0100
0000
0000
1010
0000
0000
,
0101
0000
0000
0000
0000
0010
0010
0000
,
1000
1000
0100
0000
0001
0001
0100
0000
,
1001
0000
0010
0010
1000
0100
0010
0000
,
1000
1000
0100
0000
0001
0001
0100
0000
,
1001
0000
1000
1000
0001
0100
0010
0000
,
1000
1000
0000
0001
0100
0000
1000
0100
,
0000
0010
0100
0000
0010
0000
0001
0000
,
0110
0100
1001
1000
,
0101
0110
1001
0000
;

//---------------dance-single - ----------------
#NOTES:
     dance-single:
     :
     Hard:
     8:
     0.542,0.569,0.444,0.000,0.000:
0000
0000
0000
0000
,
0000
0000
0000
0000
,
0000
0000
0000
0000
,
0000
0000
0000
0000
,
0000
0000
0000
0000
,
0000
0000
0000
0000
,
0010
0000
0010
0000
0010
1000
0100
0000
,
0000
0010
0000
0001
0000
0100
0000
1000
,
1001
0000
0100
0000
0001
1000
0010
1000
,
0010
0100
0001
0000
0010
0000
1000
0000
,
0010
0001
0100
0000
0001
0000
0010
0000
,
1000
0000
0010
0000
0001
1000
0010
0000
,
1000
0001
0010
0100
,
0010
0100
0010
1000
0001
0000
1001
0000
,
0010
1001
0100
1001
,
0010
0001
0100
1000
,
0010
0100
0001
1000
0000
0001
1000
0000
,
1000
0001
1000
0001
0100
0010
0100
0000
,
0010
0000
0001
1000
0100
0010
0001
0000
,
0010
0000
0001
1000
0100
0010
0001
0000
,
1001
0000
0010
0000
1000
0001
0100
0000
,
0001
1000
0001
0000
1000
0001
1000
0000
,
0110
0011
1100
0001
,
1001
1100
0101
0000
,
0000
0001
1000
0000
0010
0000
0100
0000
,
0001
1000
0010
0010
,
0000
0010
1000
0000
0001
0000
0100
0000
,
0001
1000
0001
1000
,
0000
0010
1000
0000
0010
0000
0001
0000
,
1001
0101
1000
0100
,
0000
0010
0010
0000
1000
0000
1000
0000
,
0100
0000
0100
0000
0001
0010
0001
1000
,
0100
0000
0000
0001
0000
0000
1001
0000
,
0000
0010
0000
0010
1000
0010
0100
0000
,
0100
0000
0000
0010
0000
0000
1001
0000
,
0010
0000
0000
0010
0001
0010
0100
0000
,
0100
0000
0000
0001
0000
0000
1001
0000
,
0000
0010
0000
0010
1000
0010
0100
0000
,
0100
0000
0000
0001
0000
0000
1001
0000
,
0000
0010
0000
0010
0001
0010
0100
0000
,
0010
0000
0001
0001
,
0000
0000
1000
0010
1000
0001
1000
0100
,
1001
0010
1001
0100
,
0100
0000
1000
0000
0010
0001
0010
0000
,
0110
1001
0110
1000
,
0100
0110
0010
1001
,
0010
0001
0100
1000
,
0010
0000
0100
0000
0001
1000
0100
0000
,
1100
1001
0001
0100
,
0001
0100
1000
1010
,
0010
1000
0010
0000
0001
0100
0010
0000
,
1000
0100
0010
0100
0001
0100
0010
0000
,
0000
0001
1000
0000
1000
0000
0100
0000
,
0001
0001
0001
0010
,
0010
0100
0010
0100
0010
0100
0010
0000
,
0100
1000
0000
0001
0100
1000
0100
0000
,
0000
0010
0001
0000
1000
0000
0100
0000
,
1000
0001
0100
0001
,
0010
0000
0001
1000
0001
0000
1001
0000
,
0000
0110
0000
0010
0100
0010
0100
0000
,
0010
0000
0001
1000
0001
0000
1001
0000
,
0000
0110
0000
0010
0100
0010
0100
0000
,
0001
0000
0001
1000
0001
0000
1001
0000
,
0000
0110
0000
0100
0010
0100
0010
0000
,
0010
0000
0001
1000
0001
0000
1001
0000
,
0000
0110
0000
0100
0010
0100
0010
0000
,
0100
0001
0100
0001
0100
0001
0010
0000
,
0010
0100
0010
0100
0010
0100
1000
0000
,
0010
0100
0001
1000
0010
0100
0001
0000
,
0010
0000
0000
1001
0000
0010
0001
0000
,
1001
0100
0000
0010
1000
0000
0100
0010
,
0000
0001
0100
0000
1000
0000
1001
0000
,
0010
1001
0100
1001
,
1010
1001
0110
0000
;

//---------------dance-double - ----------------
#NOTES:
     dance-double:
     :
     Easy:
     7:
     0.465,0.493,0.392,0.000,0.000:
00000000
00000000
00000000
00000000
,
00000000
00000000
00000000
00000000
,
00000000
00000000
00000000
00000000
,
00000000
00000000
00000000
00000000
,
00000000
00000000
00000000
00000000
,
00000000
00000000
00000000
00000000
,
00110000
00010000
00001000
00001010
,
00010000
00001000
00010000
01000000
,
00010000
00000000
01000000
00000000
00010000
01000000
01000000
00000000
,
00010000
00000000
10000000
00000000
00010000
00100000
00100000
00000000
,
00010000
00000000
00001000
00000000
00010000
00001000
00001000
00000000
,
00110000
00000000
00000000
10000000
00010000
00000000
00000000
00000000
,
00110000
00001000
00010000
00001100
,
00001000
00000010
00000001
00000100
,
00010000
00001000
00010000
00000000
00000000
00000000
00011000
00000000
,
10010000
01000000
00100000
10010000
,
00011000
00001001
00000010
00000100
,
00000010
00000000
00000100
00000000
00000010
00000100
00000001
00000000
,
00000100
00000001
00000010
00001000
,
00000100
00000010
00000100
00000000
00000010
00000100
00001000
00000000
,
00001001
00001000
00011000
01000000
,
00010000
00100000
10000000
01000000
,
10000000
00010000
10000000
00000000
00010000
00000000
00001000
00000000
,
00001010
00000000
00000000
00000001
00001000
00000000
00000000
00000000
,
00001001
00001000
00000001
00000011
,
00000001
00000000
00000100
00000000
00001000
00000000
00010000
01000000
,
00010000
00000000
10000000
00100000
10000000
00000000
00010000
00100000
,
00010000
00001000
00001001
00000000
,
00000011
00000000
00000100
00000100
,
00001000
00000000
00010000
00000000
00001000
00000000
00010000
00001000
,
00010000
00010000
00001000
00010000
,
00000000
00000000
00010000
00000000
00001000
00010000
00001000
00000000
,
00001100
00000000
00000000
00011000
00000000
00000000
00110000
00000000
,
00000000
01000000
00000000
00001000
00010000
00001000
00010000
00000000
,
00000100
00000000
00000000
00001000
00000000
00000000
00000010
00000000
,
00000000
00000100
00000000
00010000
00001000
00010000
00001000
00000000
,
01000000
00000000
00000000
00010000
00000000
00000000
00100000
00000000
,
00000000
01000000
00000000
00001000
00010000
00001000
00010000
00000000
,
00000100
00000000
00000000
00001000
00000000
00000000
00000010
00000000
,
00000000
00000100
00000000
00010000
00001000
00010000
00001000
00000000
,
00010000
00000000
00011000
01000000
,
00000000
00000000
01010000
00100000
,
01000000
00010000
00100000
10000000
,
00100000
00010000
00001000
00000100
,
00001000
00000010
00000001
00000100
,
00000010
00001000
00010000
01000000
,
10010000
01000000
10010000
01000000
,
00100000
00010000
00001000
00000100
,
00001001
00000100
00001001
00000100
,
00000010
00001000
00010000
01000000
,
10000000
00000000
00010000
00000000
10000000
01000000
10000000
00000000
,
01000000
00000000
00000000
00010000
00000000
00000000
00001000
00000000
,
00000001
00000000
00001000
00000000
00000001
00000100
00000001
00000000
,
00000010
00000000
00010000
00001000
00010000
00000000
01000000
00000000
,
01000000
00100000
11000000
01010000
,
01000000
00000000
00000000
00010000
00000000
00000000
00001000
00000000
,
00000100
00000010
00000101
00001100
,
00000010
00000000
00010000
00001000
01000000
00000000
00000000
00000000
,
00000000
00000000
00000000
00010000
00000000
00000000
00001000
00000000
,
00000000
00010000
00000000
00001000
01000000
00001000
00010000
00000000
,
00010010
00000000
00000000
00001000
00000000
00000000
00010000
00000000
,
00000000
00001000
00000000
00010000
00000100
00010000
00001000
00000000
,
01001000
00000000
00000000
00010000
00000000
00000000
00001000
00000000
,
00000000
00010000
00000000
00001000
01000000
00001000
00010000
00000000
,
00010100
00000000
00000000
00001000
00000000
00000000
00010000
00000000
,
00000000
00001000
00000000
00010000
00000100
00010000
00001000
00000000
,
01001000
00010000
01001000
00010000
,
00100000
10000000
01000000
00010000
,
00001000
00010100
00001000
00010100
,
00001000
00000100
00000001
00000010
,
00000010
00000001
00000000
00000100
00001000
00000000
00010000
00100000
,
00000000
10000000
01000000
00000000
00100000
00000000
00010000
00000000
,
00001000
00000100
00001000
00010000
,
00100000
00001000
00011000
00000000
;

//---------------dance-double - ----------------
#NOTES:
     dance-double:
     :
     Medium:
     9:
     0.469,0.493,0.413,0.000,0.000:
00000000
00000000
00000000
00000000
,
00000000
00000000
00000000
00000000
,
00000000
00000000
00000000
00000000
,
00000000
00000000
00000000
00000000
,
00000000
00000000
00000000
00000000
,
00000000
00000010
00000000
00100000
00000000
00000000
00000000
00000000
,
00110000
00001010
00000000
00010000
,
00001000
00000000
00000000
00010000
00000000
00010000
00000000
00010000
,
00000000
00000000
01000000
00000000
00010000
01000000
01000000
00000000
,
00100000
00000000
10000000
00000000
00010000
00100000
00100000
00000000
,
00010000
00000000
00001000
00000000
00010000
00001000
00001000
00000000
,
00000010
00001000
00000000
00000000
00000100
00000010
00000000
00000000
,
00000010
00000001
00000100
00001000
,
00000010
00000000
00000001
00000000
00000100
00001000
00000100
00000000
,
00001000
00010000
00000000
00010100
,
00000010
00001000
00000000
00000000
00000100
00000010
00000000
00000100
,
00000000
00011000
00000000
00000000
00001000
00000000
01010000
00000000
,
10000000
00000000
00100000
00000000
01000000
00010000
01000000
00000000
,
01000000
00000000
00010000
00000000
00100000
00010000
01000000
00000000
,
00001000
00010000
00000000
00000000
00010000
00001000
00000000
00000000
,
00010000
01000000
10000000
01100000
,
00010000
00100000
10000000
01000000
,
10000000
00010000
10000000
00000000
00010000
00000000
00001000
00000000
,
00000010
00001000
00000000
00000000
00000100
00000010
00000000
00000000
,
00001010
00000001
00001000
00000011
,
00000001
00000000
00000100
00000000
00001000
00000000
00010000
00100000
,
10000000
00000000
10000000
00100000
10000000
00000000
00010000
01000000
,
00001000
00000001
00001001
00000000
,
00000011
00000000
00000100
00000100
,
00001000
00000000
00000100
00000000
00010000
00000000
01000000
00001000
,
00010000
00000000
00000000
00000000
00001000
00000000
00000100
00010000
,
00001000
00000000
00010000
00000000
00001000
00010000
00001000
00000000
,
00001100
00000000
00000000
00011000
00000000
00000000
00110000
00000000
,
00000000
10000000
00000000
00000000
00010000
00001000
00000001
00000000
,
00000100
00000000
00000000
00001000
00000000
00000000
00000010
00000000
,
00000000
00000001
00000000
00000000
00001000
00010000
10000000
00000000
,
01000000
00000000
00000000
00010000
00000000
00000000
00100000
00000000
,
00000000
10000000
00000000
00000000
00010000
00001000
00000001
00000000
,
00000100
00000000
00000000
00001000
00000000
00000000
00000010
00000000
,
00000000
00000001
00000000
00000000
00000001
00001000
00010000
00000000
,
01000000
00000000
00110000
11000000
,
00000000
10000000
10000000
00010000
,
01000000
00010000
00100000
10000000
,
10100000
00000000
00000000
01001000
00000000
00000000
00010010
00000000
,
00001000
00000010
00000001
00000100
,
00001010
00000000
00000000
00010100
00000000
00000000
01001000
00000000
,
01000000
10010000
01100000
10000000
,
00110000
00000000
00000000
01001000
00000000
00000000
00010100
00000000
,
00000100
00001001
00000110
00000001
,
00001010
00000000
00000000
00010100
00000000
00000000
01001000
00000000
,
00010000
00000000
10000000
00000000
00010000
01000000
00010000
00000000
,
01000000
00000000
00000000
00010000
00000000
00000000
00001000
00000000
,
00001000
00000000
00000001
00000000
00001000
00000100
00001000
00000000
,
00000010
00000000
00010000
00001000
00010000
00000000
01000000
00000000
,
01000000
10100000
10000000
01010000
,
01000000
00000000
00000000
00010000
00000000
00000000
00001000
00000000
,
00000100
00001010
00000001
00001100
,
00000100
00000000
00010000
00001000
01000000
00000000
00000000
00000000
,
00010000
00001000
00000000
00001000
00000000
00000000
00010000
00000000
,
00000000
00001000
00000000
00010000
01000000
00001000
00010000
00000000
,
00000010
00001000
00000000
00001000
00000000
00000000
00010000
00000000
,
00000000
00010000
00000000
00001000
00000100
00010000
00001000
00000000
,
00001000
01000000
00000000
00010000
00000000
00000000
00001000
00000000
,
00000000
00001000
00000000
00010000
01000000
00001000
00010000
00000000
,
00010000
00000100
00000000
00001000
00000000
00000000
00010000
00000000
,
00000000
00010000
00000000
00001000
00000100
00010000
00001000
00000000
,
01001000
00010000
01001000
00010000
,
00100000
10000000
01000000
00010000
,
00001000
00010100
00001000
00010100
,
00001000
00000100
00000001
00000010
,
00000100
00000001
00000000
00000010
00001000
00000000
00010000
00100000
,
00000000
10000000
01000000
00000000
00100000
00000000
00010000
00000000
,
00001000
00000100
00010000
00001000
,
00010000
00001000
00010000
00000000
00011000
00000000
00000000
00000000
;

//---------------dance-double - ----------------
#NOTES:
     dance-double:
     :
     Challenge:
     9:
     0.632,0.607,0.372,0.124,0.000:
00000000
00000000
00000000
00000000
,
00000000
00000000
00000000
00000000
,
00000000
00000000
00000000
00000000
,
00000000
00000000
00000000
00000000
,
00000000
00000000
00000000
00000000
,
00000000
00000000
00000000
00000000
,
00010000
00010000
00010000
00010000
,
00001000
00001000
00001000
00001000
,
00010000
00001000
00000100
00000000
00010000
00001000
00000100
00000000
,
00010000
00001000
00000100
00000010
00000001
00000010
00001000
00000000
,
00000110
00000001
00001100
00000010
,
00011000
00000000
01000000
00000000
00100000
01000000
10000000
00000000
,
10000000
00010000
01000000
00000000
00010000
00100000
01000000
00000000
,
10000000
00010000
01000000
00000000
00010000
00100000
01000000
00000000
,
10000000
00010000
00100000
01000000
10000000
00000000
00100000
00010000
,
00001000
00000000
00001000
00000100
00000001
00000000
00001001
00000000
,
01000000
00110000
11000000
01010000
,
00100000
00010000
00001000
00000000
00010000
00001000
00000100
00000000
,
00000100
00001000
00010000
00100000
01000000
10000000
00010000
00000000
,
10000000
01000000
00010000
00000000
00010000
00001000
00000100
00000000
,
00011000
10010000
01000000
01100000
,
10010000
11000000
00110000
00011000
,
00001000
00000100
00000010
00000001
00000000
00000001
00000100
00001000
,
00010000
01000000
10000000
10000000
20000000
00000000
30000000
00000000
,
10000000
00110000
01000000
00011000
,
00000100
00000011
00000100
00011000
,
00010000
00100000
01000000
00000000
10000000
00010000
01000000
00000000
,
00100000
00010000
00001000
00000000
00010000
00001000
00000100
00000000
,
00000001
00000010
00000100
00001000
00010000
00001000
00000100
00000010
,
00000001
00000000
00001000
00000100
00001000
00000000
00011000
00000000
,
01000000
00011000
00000010
00011000
,
00100000
00011000
00000100
00011000
,
20000000
00000000
00000000
30020000
00000000
00000000
00032000
00000000
,
00000000
00000001
00003000
00002000
00000001
00000001
00003001
00000000
,
00000002
00000000
00000000
00002003
00000000
00000000
00023000
00000000
,
00000000
10000000
00030000
00020000
10000000
10000000
10030000
00000000
,
11000000
00000000
01000000
00200000
00000000
00310000
00002000
00000000
,
00003100
00000010
00000000
00000002
00001000
00001000
00001003
00000000
,
00000000
00000001
00000010
00001000
00010000
01000000
10000000
00100000
,
00010000
00001000
00000010
00000001
00001000
00001000
00001000
00000000
,
00001001
00000000
10010000
11000000
,
00000000
00001001
00000011
00001100
,
00000010
00000001
00000100
00000000
00000010
00001000
00000100
00000000
,
00000010
00000001
00000100
00001000
00010000
01000000
10000000
00000000
,
00100000
10000000
01000000
00000000
00100000
00010000
01000000
00000000
,
00100000
10000000
01000000
00010000
00001000
00000100
00000001
00000000
,
00000100
00000001
00000010
00000000
00000100
00001000
00000010
00000000
,
00000100
00000001
00000010
00001000
00010000
00100000
10000000
00000000
,
01000000
10000000
00100000
00000000
01000000
00010000
00100000
00000000
,
01000000
10000000
00100000
00010000
00001000
00000010
00000001
00000000
,
00001000
00000100
00000001
00000000
00010000
00000000
01000000
00000000
,
10000000
01000000
00010000
00000000
00000001
00000000
00001000
00000000
,
10000000
01000000
00010000
00000000
00000001
00000000
00000100
00000000
,
00000001
00000100
00001000
00000000
10000000
00000000
00010000
00000000
,
00000001
00000100
00001000
00000000
10000000
00000000
01000000
00000000
,
00010000
01000000
10000000
00000000
00001000
00000000
00000100
00000000
,
00001000
00000100
00000001
00000000
00010000
00000000
01000000
00000000
,
10000000
01000000
00010000
00000000
00001000
00000100
00000010
00000000
,
00001000
00010000
00000010
00000100
00010000
00001000
00000010
00000100
,
00010000
00001000
00000010
00000100
00010000
00001000
00000010
00000000
,
00000001
00000010
00001000
00010000
01000000
10000000
10000000
00000000
,
00010000
01000000
01000000
00000000
00001000
00010000
00010000
00000000
,
00010000
00001000
00100000
01000000
00010000
00000010
00000100
00001000
,
00100000
01000000
00010000
00000010
00000100
00001000
00100000
00000000
,
00100000
01000000
00010000
00000000
00010000
01000000
10000000
00000000
,
10000000
01000000
00010000
00001000
00000001
00000100
00001000
00000000
,
00000001
00000001
00000001
00000000
00000001
00000100
00001000
00000000
,
00010000
00010000
00010000
00000000
00010000
01000000
10000000
00000000
,
00010000
00001000
00000100
00000001
00000010
00001000
00010000
01000000
,
10000000
00100000
00010000
00001000
00000100
00000001
00000010
00000000
,
00000001
00000010
00000100
00000010
00000001
00000000
00001100
00000000
,
00010000
01000000
00100000
01000000
00010000
00000000
11000000
00000000
,
10010000
00010000
00011000
00001000
,
00001001
00010000
00011000
00000000
;

//---------------dance-single - [ROULET-B]----------------
#NOTES:
     dance-single:
     [ROULET-B]:
     Edit:
     6:
     0.456,0.569,0.351,0.000,0.000:
0000
0000
0000
0000
,
0000
0000
0000
0000
,
0000
0000
0000
0000
,
0000
0000
0000
0000
,
0000
0000
0000
0000
,
0000
0000
0000
0000
,
0000
0001
0000
0010
,
0000
1000
0000
0010
,
1000
0010
1000
0010
,
1000
0100
1000
0010
,
0001
0001
1000
1000
,
0010
0010
0100
0100
,
0001
0010
0100
1000
,
1000
0010
0100
0001
,
1000
0100
0001
0100
,
0100
0000
0100
0000
,
0010
0010
0100
0100
,
0010
0100
0010
1001
,
0010
0001
0010
1000
,
0010
0000
0100
0000
0010
0001
1000
0000
,
0001
0001
1000
1000
,
0100
0100
1001
1001
,
1000
0001
1000
0000
0001
1000
0001
0000
,
0010
1000
0010
0000
0101
0000
0000
0000
,
0010
0001
0100
0001
,
0010
0001
0100
0001
,
0010
0001
0010
0001
,
0010
0001
0100
1000
,
0100
0001
0100
1000
,
0100
1000
0100
0001
,
0010
0001
0100
0001
,
0010
0001
0100
0110
,
0010
0000
0000
1001
0000
0000
0100
0000
,
0000
1000
0000
0001
0100
0001
1000
0000
,
0010
0000
0000
1001
0000
0000
0100
0000
,
0000
0001
0000
1000
0100
1000
0001
0000
,
0010
0000
0000
1001
0000
0000
0100
0000
,
0000
1000
0000
0001
0100
0001
1000
0000
,
0010
0000
0000
1001
0000
0000
0100
0000
,
0000
0001
0000
1000
0100
1000
0001
0000
,
0010
0000
0001
0001
,
0000
1000
1000
1000
,
0010
1001
1010
0001
,
0100
0100
1100
0101
,
0010
0100
0110
1000
,
0011
1000
0101
1100
,
0001
0001
0100
1001
,
0110
0001
1100
0101
,
0100
1010
0001
0010
,
1001
0010
0101
1100
,
1001
0100
0001
0100
,
1001
0100
1000
0100
,
1001
0001
0001
0100
,
1001
1000
1000
0100
,
0001
0001
1000
1000
,
0010
0010
0010
0010
,
1001
0100
0100
0100
,
1001
1000
0100
0001
,
0001
0000
0000
0010
0000
0000
1000
0000
,
0000
0001
0000
0001
1000
0100
0100
0000
,
1000
0000
0000
0010
0000
0000
0001
0000
,
0000
1000
0000
1000
0001
0100
0100
0000
,
0001
0000
0000
0010
0000
0000
1000
0000
,
0000
0001
0000
0001
1000
0100
0100
0000
,
1000
0000
0000
0010
0000
0000
0001
0000
,
0000
1000
0000
1000
0001
0100
0100
0000
,
1000
1000
0001
0000
0001
0001
1000
0000
,
1000
1000
0001
0000
0001
0001
1000
0000
,
0001
0001
0001
0000
1000
1000
0001
0001
,
1000
1000
1000
0000
0001
0001
0100
0000
,
1001
0001
0100
1000
,
0010
0001
1000
1000
,
0010
0100
0011
1100
,
0001
0100
0010
0000
;

//---------------dance-single - [ROULET-T]----------------
#NOTES:
     dance-single:
     [ROULET-T]:
     Edit:
     7:
     0.506,0.645,0.537,0.000,0.000:
0000
0000
0000
0000
,
0000
0000
0000
0000
,
0000
0000
0000
0000
,
0000
0000
0000
0000
,
0000
0000
0000
0000
,
0000
0000
0000
0000
,
0010
0010
0010
0100
,
0010
0000
0010
0000
0010
1000
0100
0000
,
0010
0000
0100
0000
0010
0100
0001
0000
,
0110
0100
1001
0100
,
0010
0000
1000
0001
0100
0000
1000
0000
,
0010
0000
0001
1000
0010
0000
0100
0000
,
1001
0110
1001
0000
,
0100
0100
0100
0100
,
1001
0010
0010
0010
,
0011
1000
1000
1000
,
0010
0100
1100
0100
,
0010
0000
1001
0000
0010
0010
1001
0000
,
0100
0010
0010
1000
,
0001
0000
0010
0000
1000
0100
0001
0000
,
0001
1000
0010
0100
,
0001
0100
1000
0100
,
0010
1010
0100
0101
,
1100
1010
1001
0000
,
0100
0100
0010
0010
,
1000
0010
1000
0100
,
0010
0001
0010
0001
,
0100
1000
0100
1000
,
1000
1000
0001
0001
,
0001
1000
1000
1000
,
0100
0010
1000
0001
,
0001
1000
0010
0100
,
1000
0000
0000
0011
0000
0000
0011
0000
,
0000
1000
0000
0100
0001
0100
0100
0000
,
1000
0000
0000
0011
0000
0000
0011
0000
,
0000
1000
0000
0100
0001
0100
0100
0000
,
1000
0000
0000
0011
0000
0000
0011
0000
,
0000
1000
0000
0100
0001
0100
0100
0000
,
1000
0000
0000
0011
0000
0000
0011
0000
,
0000
1000
0000
0100
0001
0100
0100
0000
,
0010
0000
0001
0001
,
0000
1000
1000
1000
,
0010
0010
0010
0010
,
1001
0100
1000
0100
,
0001
1000
0010
0100
,
0101
1100
0011
1010
,
1000
1000
0001
0001
,
1000
0100
0010
0010
,
0010
1000
0100
1001
,
0100
1000
0010
1001
,
0010
0010
1100
1100
,
0001
0000
0001
0000
0001
0100
1000
0000
,
1001
0000
0100
0000
0001
0010
0100
0000
,
1001
0000
0100
0000
0010
1000
0100
0000
,
1000
0100
0001
0100
,
0001
1000
0001
0000
0001
1000
0100
0000
,
1001
0000
1001
0000
0010
0100
0010
0000
,
0010
0000
0100
0000
0001
1000
0100
0000
,
1001
0000
0000
0110
0000
0000
1001
0000
,
0000
0010
0000
0001
0100
1000
1000
0000
,
1001
0000
0000
0110
0000
0000
1001
0000
,
0000
0010
0000
0001
0100
1000
1000
0000
,
1001
0000
0000
0110
0000
0000
1001
0000
,
0000
0010
0000
0001
0100
1000
1000
0000
,
1001
0000
0000
0110
0000
0000
1001
0000
,
0000
0010
0000
0001
0100
1000
1000
0000
,
1000
0100
1000
0000
0100
0001
0100
0000
,
1000
0001
1000
0001
1000
0001
0001
0000
,
0010
0100
0010
0100
0010
0100
0010
0000
,
1000
0001
1000
0001
1000
0001
1001
0000
,
1001
0100
0001
0110
,
1000
0100
0001
1000
,
0110
1000
0001
0010
,
1000
1000
0001
0000
;

//---------------dance-single - ----------------
#NOTES:
     dance-single:
     [ROULET-M]:
     Challenge:
     8:
     0.561,0.645,0.620,0.000,0.000:
0000
0000
0000
0000
,
0000
0000
0000
0000
,
0000
0000
0000
0000
,
0000
0000
0000
0000
,
0000
0000
0000
0000
,
0000
0000
0000
0000
,
0010
0000
0010
0000
0010
1000
0100
0000
,
0001
0001
0001
0001
,
0010
0000
0100
0000
1000
0100
0001
0100
,
0001
0100
1000
0000
0010
0000
0101
0000
,
1010
1000
0100
0000
0001
0000
0100
0000
,
0001
0000
0100
0000
1000
1000
0010
0000
,
0001
1000
0010
0100
,
1000
0100
0010
0001
0110
0000
1001
0000
,
0110
1001
0110
1001
,
1001
0110
1001
0110
,
1000
0100
0001
0000
0001
0100
1000
0000
,
1000
0001
1000
0001
0010
0100
0010
0000
,
0010
0000
0001
1000
0100
0010
0001
0000
,
0010
0000
0001
1000
0100
0010
0001
0000
,
0001
0000
1100
0000
1000
0001
1000
0000
,
0001
1000
0001
0000
1000
0001
1000
0000
,
0110
0011
1100
0001
,
1001
1010
0101
0000
,
0001
0101
0001
0001
,
1000
1100
1000
1000
,
0010
1000
0001
0100
,
0001
1000
0001
1000
,
0010
0010
0010
0010
,
1001
0101
1000
0100
,
0010
0010
0001
0001
,
0100
0100
1000
1000
,
0100
0000
0000
0001
0000
0000
1001
0000
,
0000
0001
0000
0001
0100
0001
0001
0000
,
0100
0000
0000
0001
0000
0000
1001
0000
,
0000
0001
0000
0001
0100
0001
0001
0000
,
0100
0000
0000
0001
0000
0000
1001
0000
,
0000
0001
0000
0001
0100
0001
0001
0000
,
0100
0000
0000
0001
0000
0000
1001
0000
,
0000
0001
0000
0001
0100
0001
0001
0000
,
0010
0000
0001
0001
,
0000
1000
1000
1000
,
1001
0010
1001
0100
,
0100
0000
1000
0000
0010
0001
0010
0000
,
0110
1001
0110
1000
,
0100
0110
0010
1001
,
0010
0001
0010
1000
,
0010
0000
0100
0000
0001
1000
0100
0000
,
1010
1100
0001
0100
,
0001
0100
1000
1010
,
1000
0100
0010
0000
0001
0100
0010
0000
,
1000
0100
0010
0100
0001
0100
0010
0000
,
1000
1000
1000
0100
,
0001
0001
0001
0010
,
1000
0001
1000
0001
1000
0001
1000
0001
,
1000
0010
1000
0010
1000
0100
1000
0000
,
0100
0001
1000
0100
,
1000
0001
0100
0001
,
1100
0000
0000
0101
0000
0000
1001
0000
,
0000
1001
0000
0100
0010
0100
0010
0000
,
1100
0000
0000
0101
0000
0000
1001
0000
,
0000
1001
0000
0100
0010
0100
0010
0000
,
1100
0000
0000
0101
0000
0000
1001
0000
,
0000
1001
0000
0100
0010
0100
0010
0000
,
1100
0000
0000
0101
0000
0000
1001
0000
,
0000
1001
0000
0100
0010
0100
0010
0000
,
0010
0001
0010
0001
0010
0001
0010
0000
,
1000
0001
1000
0001
1000
0001
1000
0000
,
1000
0010
1000
0001
1000
0010
1000
0000
,
0010
1000
0001
0100
0001
0010
0001
0000
,
1000
0001
1000
0010
1000
0100
1000
0000
,
0010
1000
0100
0010
0001
0100
1000
0000
,
1100
1001
1010
1001
,
0011
1001
0101
0000
;

//---------------dance-double - [ROULET-B]----------------
#NOTES:
     dance-double:
     [ROULET-B]:
     Beginner:
     7:
     0.518,0.645,0.682,0.000,0.000:
00000000
00000000
00000000
00000000
,
00000000
00000000
00000000
00000000
,
00000000
00000000
00000000
00000000
,
00000000
00000000
00000000
00000000
,
00000000
00000000
00000000
00000000
,
00000000
00000000
00000000
00000000
,
01100000
10010000
11000000
10010000
,
00010000
00010000
00010000
00010000
,
00010000
01000000
00010000
01000000
,
00010000
10000000
00010000
10000000
,
00001000
01000000
00001000
01000000
,
00001000
00100000
00001000
00100000
,
00001000
00000010
00001000
00010000
,
00001000
00000010
00001000
00010000
,
01001000
00010000
01001000
00010000
,
00010100
00001000
00010100
00001000
,
00001000
00000100
00001000
00010000
,
00001000
00000100
00001000
00010000
,
00000100
00000001
00000100
00001000
,
00000100
00000001
00000100
00001000
,
00001001
00001000
00001001
00001000
,
00001001
00001000
00001001
00001000
,
00010010
00001000
00010010
00001000
,
00010010
00001000
00010010
00001000
,
00010000
00010000
00010000
00010000
,
00001000
00001000
00001000
00001000
,
01001000
00011000
01001000
00011000
,
00101000
00011000
00010100
00011000
,
00010000
00010000
00010000
00010000
,
00010010
00011000
00010100
00011000
,
00010000
00010000
00010000
00010000
,
00001000
00001000
00001000
00001000
,
01100000
00000000
00000000
00011000
00000000
00000000
00000110
00000000
,
00000000
00001000
00000000
00000001
00001000
00000010
00000100
00000000
,
00000110
00000000
00000000
00011000
00000000
00000000
01100000
00000000
,
00000000
00010000
00000000
10000000
00010000
00100000
01000000
00000000
,
01100000
00000000
00000000
00011000
00000000
00000000
00000110
00000000
,
00000000
00001000
00000000
00000001
00001000
00000010
00000100
00000000
,
00000110
00000000
00000000
00011000
00000000
00000000
01100000
00000000
,
00000000
00010000
00000000
10000000
00010000
00100000
01000000
00000000
,
00010000
00000000
00010000
10000000
,
00000000
00100000
00010000
10000000
,
10010000
01000000
10010000
01000000
,
10010000
01000000
10010000
01000000
,
01001000
00010000
01001000
00010000
,
01001000
00010000
01001000
00010000
,
00010100
00001000
00010100
00001000
,
00010100
00001000
00010100
00001000
,
00001001
00000100
00001001
00000100
,
00001001
00000100
00001001
00000100
,
00000001
00000100
00001000
00000000
00000001
00000100
00001000
00000000
,
00000001
00000010
00001000
00000000
00000001
00000010
00001000
00000000
,
00010000
01000000
10000000
00000000
00010000
01000000
10000000
00000000
,
00010000
00100000
10000000
00000000
00010000
00100000
10000000
00000000
,
00100000
00010000
01000000
00000000
00100000
00010000
01000000
00000000
,
00100000
10000000
01000000
00000000
00100000
10000000
01000000
00000000
,
01000000
00010000
00001000
00000000
01000000
00010000
00001000
00000000
,
00000010
00010000
00001000
00000000
00000010
00010000
00001000
00000000
,
01001000
00000000
00000000
00010000
00000000
00000000
00000100
00000000
,
00000000
00001000
00000000
00010000
01000000
00010000
00001000
00000000
,
00010100
00000000
00000000
00001000
00000000
00000000
01000000
00000000
,
00000000
00010000
00000000
00001000
00000100
00001000
00010000
00000000
,
01001000
00000000
00000000
00010000
00000000
00000000
00000100
00000000
,
00000000
00001000
00000000
00010000
01000000
00010000
00001000
00000000
,
00010100
00000000
00000000
00001000
00000000
00000000
01000000
00000000
,
00000000
00010000
00000000
00001000
00000100
00001000
00010000
00000000
,
01001000
00010000
01001000
00010000
,
00000100
00000001
00001000
00010000
,
00010100
00001000
00010100
00001000
,
01000000
10000000
00010000
00001000
,
00000100
00000010
00001001
00000110
,
00000001
00000001
00000001
00000001
,
00001000
00001000
00010000
01000000
,
10000000
00100000
00100000
00000000
;

//---------------dance-double - ----------------
#NOTES:
     dance-double:
     [ROULET-T]:
     Hard:
     9:
     0.543,0.645,0.857,0.000,0.000:
00000000
00000000
00000000
00000000
,
00000000
00000000
00000000
00000000
,
00000000
00000000
00000000
00000000
,
00000000
00000000
00000000
00000000
,
00000000
00000000
00000000
00000000
,
00000000
00000000
00000000
00000000
,
00100000
00100000
01000000
01000000
,
01100000
00010000
10010000
01000000
,
00100000
00010000
00000100
00001000
,
00001100
00000100
00000100
01001000
,
00010000
00000100
00000001
00000110
,
00000011
00000001
00000110
00010100
,
00001000
00010010
01001000
00100000
,
00010000
11000000
01010000
00100000
,
01100000
00010000
01000000
11000000
,
00101000
00010000
00001000
00011000
,
01000000
00100000
00100000
01000000
,
00010000
00001100
00000100
00000100
,
00000010
00000110
00001000
00010000
,
00011000
00001100
00001100
00000010
,
00000001
00000010
00000100
00010000
,
10010000
00100000
01000000
00100000
,
00010000
00010000
00001000
00001100
,
00000100
00000010
00010010
00100000
,
00010000
00010000
00010000
00010000
,
00001000
00001000
00001000
00001000
,
00010010
00011000
00001010
00011000
,
00101000
00011000
00110000
00011000
,
00010000
00010000
00010000
00010000
,
00010100
00011000
00001100
00011000
,
00001000
00001000
00001000
00011000
,
01100000
10010000
11000000
11000000
,
10100000
00000000
00000000
10010000
00000000
00000000
11000000
00000000
,
00000000
00010000
00000000
00001000
00000100
00000010
00000001
00000000
,
00000011
00000000
00000000
00001001
00000000
00000000
00000101
00000000
,
00000000
00001000
00000000
00010000
01000000
00100000
10000000
00000000
,
10100000
00000000
00000000
10010000
00000000
00000000
11000000
00000000
,
00000000
00010000
00000000
00001000
00000100
00000010
00000001
00000000
,
00000011
00000000
00000000
00001001
00000000
00000000
00000101
00000000
,
00000000
00001000
00000000
00010000
01000000
00100000
10000000
00000000
,
00100000
00000000
10000000
00010000
,
00000000
10000000
01000000
00010000
,
01000000
10010000
01000000
00011000
,
00001000
00110000
10000000
10000000
,
01000000
00100000
00010000
00000100
,
00000001
00001100
00001000
00000010
,
00010000
00001000
00001000
00101000
,
00010000
01000000
01000000
01000000
,
00100000
00010000
00001000
00010000
,
00001000
00001000
00000100
00000110
,
00000001
00000010
00000100
00000000
00001000
00000010
00000100
00000000
,
00001000
00010000
01000000
00000000
01000000
00010000
00001000
00000000
,
00100000
00001000
00010000
00000000
00000010
00010000
00001000
00000000
,
00010000
01000000
10000000
00000000
00010000
00100000
01000000
00000000
,
10000000
01000000
00100000
00000000
00010000
01000000
00100000
00000000
,
00010000
00001000
00000010
00000000
00000010
00001000
00010000
00000000
,
00000100
00010000
00001000
00000000
01000000
00001000
00010000
00000000
,
00001000
00000010
00000001
00000000
00001000
00000100
00000010
00000000
,
00001001
00000000
00000000
00000110
00000000
00000000
00000101
00000000
,
00000000
00000110
00000000
00001000
00010000
01000000
10000000
00000000
,
10010000
00000000
00000000
01100000
00000000
00000000
11000000
00000000
,
00000000
01100000
00000000
00010000
00001000
00000100
00000001
00000000
,
00001001
00000000
00000000
00000110
00000000
00000000
00000101
00000000
,
00000000
00000110
00000000
00001000
00010000
01000000
10000000
00000000
,
10010000
00000000
00000000
01100000
00000000
00000000
11000000
00000000
,
00000000
01100000
00000000
00010000
00001000
00000100
00000001
00000000
,
00000100
00000100
00011000
00100000
,
00010000
00110000
10000000
01000000
,
00010000
11000000
00100000
00010000
,
00010000
01000000
00100000
00011000
,
00010000
00100000
00001000
00000100
,
00001000
00010000
00011000
00010010
,
00001010
00001000
00011000
00100000
,
00001000
00000100
00000100
00000000
;

//---------------dance-single - [FUMIHIRO]----------------
#NOTES:
     dance-single:
     [FUMIHIRO]:
     Edit:
     9:
     0.773,0.797,0.083,0.000,0.021:
0000
0000
0000
0000
,
0000
0000
0000
0000
,
0000
0000
0000
0000
,
0000
0000
0000
0000
,
0000
0000
0000
0000
,
0000
0000
0000
0000
,
0000
1001
0110
1100
,
0000
0000
0001
1000
0100
0010
0001
1000
,
0010
0100
0001
0100
0001
1000
0100
0010
,
0001
1000
0010
0100
0001
1000
0100
0010
,
0001
1000
0010
0100
0001
1000
0100
0010
,
0001
1000
0010
0100
0001
1000
0100
1000
,
0001
0010
0100
1000
0001
0100
0010
1000
,
0001
1000
0100
0010
0001
1000
0010
0100
,
0001
1000
0100
1000
0001
0010
0100
1000
,
0001
0100
0010
1000
0001
1000
0100
0010
,
0001
1000
0010
0100
0001
1000
0100
1000
,
0001
0010
0100
1000
0001
0100
0010
1000
,
0001
1000
0100
0010
0001
1000
0010
0100
,
0001
1000
0100
1000
0010
0100
0001
1000
,
0100
0010
0001
1000
0010
0100
0001
1000
,
0100
0010
0001
1000
0100
1000
0001
0100
,
0010
1000
0001
1000
0100
0010
0001
1000
,
0010
0100
0001
1000
0100
0000
0000
0000
,
1000
0001
0010
0100
1000
0001
0100
0010
,
0100
0001
1000
0100
0010
0001
1000
0010
,
1000
0001
0010
0001
1000
0100
1000
0001
,
0010
0100
1000
0001
1000
0010
0100
0001
,
1000
0100
1000
0001
0010
0100
1000
0001
,
0100
0010
1000
0001
1000
0100
0010
0001
,
1000
0010
0100
0001
1000
0100
1000
0001
,
0010
0000
0100
0000
1000
0000
0001
0000
1000
0001
1000
0001
1000
0001
1000
0001
,
1000
0100
1000
0001
0010
0001
1000
0010
,
1000
0001
0100
0001
1000
0010
1000
0001
,
0100
0001
1000
0100
0010
0001
1000
0010
,
0100
0001
1000
0100
1000
0001
0010
0100
,
1000
0001
0100
0010
1000
0001
1000
0100
,
0010
0001
1000
0010
0100
0001
1000
0100
,
1000
0001
0010
0100
1000
0001
0100
0010
,
1000
0001
1000
0100
0010
0001
1000
0100
,
0000
0000
1001
1100
,
0000
0011
1010
0101
,
1000
0100
1000
0001
0010
0100
1000
0001
,
0100
0010
0100
0001
1000
0001
1000
0100
,
0010
0001
1000
0010
0100
0001
1000
0100
,
1000
0001
0010
0001
1000
0100
1000
0010
,
0100
0001
1000
0100
1000
0001
0010
0100
,
1000
0001
0100
0010
1000
0001
1000
0010
,
0100
0001
1000
0100
1000
0001
0010
0100
,
1000
0001
0100
0010
1000
0000
0000
0000
,
0001
1000
0100
0010
0001
1000
0010
1000
,
0001
0010
0100
1000
0001
0100
0010
1000
,
0001
1000
0100
0010
0001
0100
0001
0100
,
0001
0100
0010
1000
0001
1000
0100
0010
,
0001
1000
0010
1000
0001
0100
0001
1000
,
0100
1000
0001
0010
0100
1000
0001
1000
,
0010
0100
0001
1000
0100
1000
0010
0100
,
0001
1000
0100
1000
0001
0000
0000
1000
,
0010
0000
0100
0001
1000
0100
1000
0001
,
0010
0100
1000
0001
0100
0010
1000
0001
,
1000
0100
0010
0001
1000
0010
0100
0001
,
1000
0100
1000
0001
0010
0100
1000
0001
,
1000
0010
1000
0001
0100
0001
1000
0010
,
1000
0010
0100
0001
0100
0001
1000
0100
,
0010
0001
1000
0010
0100
0001
1000
0100
,
1000
0010
0100
0001
1000
0100
0010
0000
,
0001
1000
0010
1000
0001
1000
0001
0010
,
0100
1000
0001
0100
0010
0100
0010
0100
,
0001
1000
0100
1000
0010
0100
0001
1000
,
0100
0010
0001
1000
0010
0100
0001
0000
,
1000
0100
0010
0001
1000
0010
1000
0010
,
0100
0001
0100
0001
1000
0100
1000
0100
,
0010
0001
1000
0010
0100
0001
1000
0100
,
0010
0001
1000
0100
1000
0000
0000
0000
;

//---------------dance-solo - ----------------
#NOTES:
     dance-solo:
     :
     Easy:
     6:
     0.447,0.645,0.382,0.000,0.000:
000000
000000
000000
000000
,
000000
000000
000000
000000
,
000000
000000
000000
000000
,
000000
000000
000000
000000
,
000000
000000
000000
000000
,
000000
000000
000000
000000
,
000000
000001
000000
000010
,
000000
001000
000000
001000
,
000000
000100
001000
010000
,
001000
000001
000100
000010
,
001000
100000
001000
001000
,
000001
010000
001000
100000
,
000100
010000
001000
000000
000000
000000
001000
000000
,
000100
000001
001000
100000
,
001010
001010
011000
011000
,
000101
001010
100001
011000
,
000100
000001
010000
100000
,
000100
000000
001000
000000
000001
100000
001000
000000
,
000001
000001
010000
010000
,
000100
000000
001000
000000
000100
000010
100000
000000
,
000001
010000
001000
000001
,
100000
000000
000010
000000
100000
001000
101000
000000
,
010000
000101
001000
100010
,
001001
000110
101000
000000
,
000001
010000
000010
100000
,
000001
000001
000001
000001
,
010000
010000
000010
000010
,
100000
000001
100000
000001
,
010000
001000
000001
000100
,
100000
001000
100000
001000
,
010000
000001
100000
000100
,
000001
001000
100000
001000
,
010000
000000
000000
001000
000000
000000
000001
000000
,
000000
100000
000000
000100
000001
000001
000001
000000
,
000010
000000
000000
001000
000000
000000
010000
000000
,
000000
000001
000000
000100
100000
100000
100000
000000
,
010000
000000
000000
001000
000000
000000
000001
000000
,
000000
100000
000000
000100
000010
000000
000000
000000
,
000001
000000
000000
100000
000000
000000
010000
000000
,
000000
000001
000000
000100
100000
100000
100000
000000
,
000100
000000
000001
000001
,
000000
010000
010000
010000
,
000100
100000
001000
001000
,
010000
000001
000001
000001
,
000100
000001
001000
001000
,
000001
010000
010000
010000
,
000010
000100
100000
100000
,
000100
001000
001000
001000
,
000010
100000
000001
000001
,
001000
100000
100000
100000
,
000100
000001
000100
100000
,
001010
000000
000100
100000
,
000010
000001
000100
100000
,
100001
000000
001000
000100
,
001000
100000
001000
000001
,
100001
000000
001000
000100
,
001000
010000
001000
000000
,
100001
000000
001100
000000
,
100000
000010
001000
000000
000001
000000
000001
000000
,
100010
001100
100001
011000
,
100000
000100
001000
000000
000010
000000
000010
000000
,
100001
011000
001010
000000
,
100000
000100
001000
000000
000010
000000
000010
000000
,
100100
001001
100000
001000
,
001000
000010
000001
000000
010000
000000
010000
000000
,
100100
001010
100001
000000
,
010000
000000
001100
000000
000001
001000
010000
000000
,
001000
000000
100001
000000
010000
001000
000001
000000
,
001000
010000
000001
100000
000010
001000
000000
000000
,
001000
000100
100000
000001
000100
001000
000000
000000
,
010000
100000
001000
001100
,
000100
000001
001000
001100
,
100000
001000
000010
000100
,
010100
001000
000110
000000
;

//---------------dance-solo - ----------------
#NOTES:
     dance-solo:
     :
     Medium:
     8:
     0.490,0.569,0.506,0.000,0.000:
000000
000000
000000
000000
,
000000
000000
000000
000000
,
000000
000000
000000
000000
,
000000
000000
000000
000000
,
000000
000000
000000
000000
,
000000
000000
000000
000000
,
000000
000001
000000
000001
,
000000
001000
000000
001000
,
000010
010000
100000
001000
,
000100
000001
010000
001000
,
000010
001000
000100
100000
,
001010
100001
011000
100001
,
000100
000100
000001
001000
,
010000
010000
001000
000001
,
000100
000000
000100
000000
,
010010
000000
001100
000000
000001
100000
001000
000000
,
000001
001000
000010
010000
,
000001
001000
000100
100000
,
000001
001000
010000
000000
000010
001000
100000
000000
,
000001
010000
000001
100000
000001
001000
100000
000000
,
001010
001000
001000
000000
100001
000000
000000
000000
,
010100
000100
000100
000000
100001
000000
000000
000000
,
000110
000000
011000
000000
,
100001
001010
011000
000000
,
100000
010001
000010
001001
,
000100
001000
010000
100001
,
000010
001001
000100
101000
,
000100
000001
000010
100100
,
010000
000001
100000
001100
,
000001
100000
000010
010001
,
000100
101000
000001
001010
,
001000
000100
100001
001000
,
000001
000000
000000
010000
000000
000000
001000
000000
,
000000
100000
000000
000001
000100
000100
000100
000000
,
010000
000000
000000
000010
000000
000000
001000
000000
,
000000
000001
000000
100000
000100
000100
000100
000000
,
000010
000000
000000
010000
000000
000000
001000
000000
,
000000
100000
000000
000001
000100
000100
000100
000000
,
010000
000000
000000
000010
000000
000000
001000
000000
,
000000
000001
000000
100000
000100
000100
000100
000000
,
010000
000000
000001
100000
,
000000
010000
001000
000001
,
000010
000100
100000
001000
,
000100
001000
000100
100000
,
010000
000001
001000
000100
,
000001
000100
000010
001000
,
001000
100000
000100
000010
,
010000
000001
100000
000100
,
000100
001000
000001
100000
,
001000
010000
000001
000100
,
000010
000001
001010
100000
,
011000
000000
000000
000000
000100
000100
001000
000000
,
000010
000001
000110
100000
,
011000
000000
000000
000000
000100
000100
001000
000000
,
000010
100000
011000
000001
,
001010
000000
000000
000000
001000
001000
000100
000000
,
001000
100000
001000
000000
,
010000
001000
000101
000000
,
100000
001000
010000
000000
000001
001000
000010
000000
,
100001
010100
101000
010000
,
000100
001000
000100
000000
000010
001000
000010
000000
,
100001
011000
001010
000000
,
100000
001000
010000
000000
000001
001000
000010
000000
,
100001
010100
101000
010000
,
000001
001000
000010
000000
100000
001000
010000
000000
,
100001
011000
001010
000000
,
100000
000001
010000
000000
000100
100000
000010
000000
,
001000
000001
100000
000000
000010
010000
000100
000000
,
100000
000010
100000
000010
100000
001000
100000
001000
,
100000
000001
001000
000001
001000
000010
000000
000000
,
000100
000100
011000
001010
,
001000
010000
001000
000010
001000
000000
001000
000000
,
000100
100001
001100
000001
,
100000
000000
001000
001000
001000
000000
000000
000000
;

//---------------dance-solo - ----------------
#NOTES:
     dance-solo:
     :
     Hard:
     9:
     0.570,0.645,0.578,0.000,0.000:
000000
000000
000000
000000
,
000000
000000
000000
000000
,
000000
000000
000000
000000
,
000000
000000
000000
000000
,
000000
000000
000000
000000
,
000000
000000
000000
000000
,
000000
000001
000000
000001
,
000000
001000
000000
001000
,
000010
000000
000010
000000
000001
010000
000001
000000
,
100000
000000
100000
000000
001000
010000
000001
000000
,
000100
001000
010000
000000
,
000101
000000
011000
000000
000001
100000
001000
000000
,
010000
000000
000000
000000
100000
000100
000010
000000
,
010000
000000
100000
001000
,
000001
100000
000010
000000
010000
000001
000100
000000
,
100000
000100
000010
000000
000001
000100
010000
000000
,
100000
000010
010100
100001
,
000100
000000
010010
000000
001000
001000
001000
000000
,
000100
000001
001000
100000
,
001000
000001
001000
010000
001000
000010
001000
000000
,
000100
001000
010000
000000
000001
001000
100000
000000
,
000010
000000
010000
000000
000001
100000
001000
000000
,
000001
000100
010000
000000
000010
000000
001000
000000
,
000001
100000
001000
010000
001000
100000
000001
000000
,
010000
010000
000010
000010
,
100000
100000
000001
000001
,
001000
001100
001100
001100
,
100010
000001
011000
100001
,
000010
010000
001001
001001
,
100100
010001
100010
000000
,
010000
000001
101000
101000
,
000101
011000
001010
000000
,
100000
000000
000000
000001
000000
000000
001100
000000
,
000000
100001
000000
000100
001000
001000
001000
000000
,
000010
000000
000000
100000
000000
000000
001100
000000
,
000000
100001
000000
000100
001000
001000
001000
000000
,
010000
000000
000000
000001
000000
000000
001100
000000
,
000000
100001
000000
000100
001000
001000
001000
000000
,
000010
000000
000000
100000
000000
000000
001100
000000
,
000000
100001
000000
000100
001000
001000
001000
000000
,
010000
000000
100001
000110
,
000000
000000
100000
001000
000100
001000
010000
000000
,
000001
000100
011000
100001
,
000100
000000
001000
000010
000001
000100
001000
000000
,
100000
000001
001100
110000
,
000001
000000
000100
000010
010000
000001
000100
000000
,
001000
100000
000101
011000
,
100000
000000
000001
010000
001000
100000
000001
000000
,
000100
001000
100001
000110
,
001000
000000
100000
001000
010000
001000
100000
000000
,
000100
010000
001010
000001
,
100010
001000
010001
000100
,
000001
100000
000100
000000
010000
001000
000001
000000
,
100000
000001
000010
000000
000001
010000
001000
000000
,
100000
100000
000001
000001
,
010010
001100
100001
001000
,
010000
001000
000001
000000
001000
100000
000010
000000
,
000001
000001
010010
010010
,
100000
001000
100000
001000
000001
001000
000001
001000
,
010000
000001
010000
000001
010000
001000
010000
001000
,
000100
000001
100000
001000
010000
000001
000100
000010
,
010000
000001
100000
000010
001000
000100
100000
001000
,
010000
000001
100000
000010
001000
000100
100000
000001
,
001000
000010
100000
000010
001000
000100
100000
000100
,
001000
000010
100000
000001
000100
001000
010000
000001
,
001000
000010
100000
100000
000100
000000
010001
000000
,
000010
000000
000000
000000
000001
001000
100000
000000
,
010000
000000
000000
000000
100000
001000
000010
000000
,
000001
000001
000001
000000
000010
001000
100000
000000
,
000100
001000
000001
100000
001000
000100
001000
000000
,
010000
001001
000010
101000
,
000100
000001
011000
001001
,
000110
001000
100001
001010
,
000001
100000
011000
000000
;
